  0
SECTION
  2
HEADER
  9
$ACADVER
  1
AC1015
  9
$ACADMAINTVER
 70
    20
  9
$DWGCODEPAGE
  3
ANSI_932
  9
$INSBASE
 10
0.0
 20
0.0
 30
0.0
  9
$EXTMIN
 10
9.99263961693606
 20
7.494051771413751
 30
-0.000000000000013
  9
$EXTMAX
 10
107.505152236911
 20
145.0038888555033
 30
0.0000000000000023
  9
$LIMMIN
 10
19.99999999999997
 20
15.0
  9
$LIMMAX
 10
117.5
 20
152.5
  9
$ORTHOMODE
 70
     0
  9
$REGENMODE
 70
     1
  9
$FILLMODE
 70
     1
  9
$QTEXTMODE
 70
     0
  9
$MIRRTEXT
 70
     1
  9
$LTSCALE
 40
0.5
  9
$ATTMODE
 70
     1
  9
$TEXTSIZE
 40
73.98571745357912
  9
$TRACEWID
 40
1.0
  9
$TEXTSTYLE
  7
STANDARD
  9
$CLAYER
  8
0
  9
$CELTYPE
  6
ByLayer
  9
$CECOLOR
 62
   256
  9
$CELTSCALE
 40
1.0
  9
$DISPSILH
 70
     0
  9
$DIMSCALE
 40
0.5
  9
$DIMASZ
 40
2.5
  9
$DIMEXO
 40
1.0
  9
$DIMDLI
 40
10.0
  9
$DIMRND
 40
0.0
  9
$DIMDLE
 40
0.0
  9
$DIMEXE
 40
1.0
  9
$DIMTP
 40
0.1
  9
$DIMTM
 40
0.1
  9
$DIMTXT
 40
3.5
  9
$DIMCEN
 40
0.0
  9
$DIMTSZ
 40
0.0
  9
$DIMTOL
 70
     0
  9
$DIMLIM
 70
     0
  9
$DIMTIH
 70
     0
  9
$DIMTOH
 70
     0
  9
$DIMSE1
 70
     0
  9
$DIMSE2
 70
     0
  9
$DIMTAD
 70
     1
  9
$DIMZIN
 70
     8
  9
$DIMBLK
  1
Open30
  9
$DIMASO
 70
     1
  9
$DIMSHO
 70
     1
  9
$DIMPOST
  1

  9
$DIMAPOST
  1
"
  9
$DIMALT
 70
     0
  9
$DIMALTD
 70
     2
  9
$DIMALTF
 40
0.0393701
  9
$DIMLFAC
 40
1.0
  9
$DIMTOFL
 70
     1
  9
$DIMTVP
 40
0.0
  9
$DIMTIX
 70
     0
  9
$DIMSOXD
 70
     0
  9
$DIMSAH
 70
     0
  9
$DIMBLK1
  1

  9
$DIMBLK2
  1

  9
$DIMSTYLE
  2
AM_ISO
  9
$DIMCLRD
 70
   256
  9
$DIMCLRE
 70
   256
  9
$DIMCLRT
 70
     2
  9
$DIMTFAC
 40
0.71
  9
$DIMGAP
 40
1.5
  9
$DIMJUST
 70
     0
  9
$DIMSD1
 70
     0
  9
$DIMSD2
 70
     0
  9
$DIMTOLJ
 70
     0
  9
$DIMTZIN
 70
     8
  9
$DIMALTZ
 70
     0
  9
$DIMALTTZ
 70
     0
  9
$DIMUPT
 70
     0
  9
$DIMDEC
 70
     2
  9
$DIMTDEC
 70
     2
  9
$DIMALTU
 70
     2
  9
$DIMALTTD
 70
     2
  9
$DIMTXSTY
  7
STANDARD
  9
$DIMAUNIT
 70
     0
  9
$DIMADEC
 70
     0
  9
$DIMALTRND
 40
0.0
  9
$DIMAZIN
 70
     2
  9
$DIMDSEP
 70
    46
  9
$DIMATFIT
 70
     3
  9
$DIMFRAC
 70
     0
  9
$DIMLDRBLK
  1
Open30
  9
$DIMLUNIT
 70
     2
  9
$DIMLWD
 70
    -1
  9
$DIMLWE
 70
    -1
  9
$DIMTMOVE
 70
     1
  9
$LUNITS
 70
     2
  9
$LUPREC
 70
     2
  9
$SKETCHINC
 40
1.0
  9
$FILLETRAD
 40
1.25
  9
$AUNITS
 70
     0
  9
$AUPREC
 70
     0
  9
$MENU
  1
.
  9
$ELEVATION
 40
0.0
  9
$PELEVATION
 40
0.0
  9
$THICKNESS
 40
0.0
  9
$LIMCHECK
 70
     0
  9
$CHAMFERA
 40
1.25
  9
$CHAMFERB
 40
1.25
  9
$CHAMFERC
 40
20.0
  9
$CHAMFERD
 40
0.0
  9
$SKPOLY
 70
     0
  9
$TDCREATE
 40
2453795.581804826
  9
$TDUCREATE
 40
2453795.206804826
  9
$TDUPDATE
 40
2457008.414640579
  9
$TDUUPDATE
 40
2457008.039640579
  9
$TDINDWG
 40
0.0493775000
  9
$TDUSRTIMER
 40
0.0493773148
  9
$USRTIMER
 70
     1
  9
$ANGBASE
 50
0.0
  9
$ANGDIR
 70
     0
  9
$PDMODE
 70
     0
  9
$PDSIZE
 40
0.0
  9
$PLINEWID
 40
0.0
  9
$SPLFRAME
 70
     0
  9
$SPLINETYPE
 70
     6
  9
$SPLINESEGS
 70
     8
  9
$HANDSEED
  5
3895
  9
$SURFTAB1
 70
     6
  9
$SURFTAB2
 70
     6
  9
$SURFTYPE
 70
     6
  9
$SURFU
 70
     6
  9
$SURFV
 70
     6
  9
$UCSBASE
  2

  9
$UCSNAME
  2

  9
$UCSORG
 10
0.0
 20
0.0
 30
0.0
  9
$UCSXDIR
 10
1.0
 20
0.0
 30
0.0
  9
$UCSYDIR
 10
0.0
 20
1.0
 30
0.0
  9
$UCSORTHOREF
  2

  9
$UCSORTHOVIEW
 70
     0
  9
$UCSORGTOP
 10
0.0
 20
0.0
 30
0.0
  9
$UCSORGBOTTOM
 10
0.0
 20
0.0
 30
0.0
  9
$UCSORGLEFT
 10
0.0
 20
0.0
 30
0.0
  9
$UCSORGRIGHT
 10
0.0
 20
0.0
 30
0.0
  9
$UCSORGFRONT
 10
0.0
 20
0.0
 30
0.0
  9
$UCSORGBACK
 10
0.0
 20
0.0
 30
0.0
  9
$PUCSBASE
  2

  9
$PUCSNAME
  2

  9
$PUCSORG
 10
0.0
 20
0.0
 30
0.0
  9
$PUCSXDIR
 10
1.0
 20
0.0
 30
0.0
  9
$PUCSYDIR
 10
0.0
 20
1.0
 30
0.0
  9
$PUCSORTHOREF
  2

  9
$PUCSORTHOVIEW
 70
     0
  9
$PUCSORGTOP
 10
0.0
 20
0.0
 30
0.0
  9
$PUCSORGBOTTOM
 10
0.0
 20
0.0
 30
0.0
  9
$PUCSORGLEFT
 10
0.0
 20
0.0
 30
0.0
  9
$PUCSORGRIGHT
 10
0.0
 20
0.0
 30
0.0
  9
$PUCSORGFRONT
 10
0.0
 20
0.0
 30
0.0
  9
$PUCSORGBACK
 10
0.0
 20
0.0
 30
0.0
  9
$USERI1
 70
     0
  9
$USERI2
 70
     0
  9
$USERI3
 70
     0
  9
$USERI4
 70
     0
  9
$USERI5
 70
     0
  9
$USERR1
 40
0.0
  9
$USERR2
 40
0.0
  9
$USERR3
 40
0.0
  9
$USERR4
 40
0.0
  9
$USERR5
 40
0.0
  9
$WORLDVIEW
 70
     1
  9
$SHADEDGE
 70
     3
  9
$SHADEDIF
 70
    70
  9
$TILEMODE
 70
     1
  9
$MAXACTVP
 70
    64
  9
$PINSBASE
 10
0.0
 20
0.0
 30
0.0
  9
$PLIMCHECK
 70
     0
  9
$PEXTMIN
 10
1.000000000000000E+20
 20
1.000000000000000E+20
 30
1.000000000000000E+20
  9
$PEXTMAX
 10
-1.000000000000000E+20
 20
-1.000000000000000E+20
 30
-1.000000000000000E+20
  9
$PLIMMIN
 10
-6.350006103515625
 20
-6.349999904632568
  9
$PLIMMAX
 10
273.0499877929688
 20
209.5499939918518
  9
$UNITMODE
 70
     0
  9
$VISRETAIN
 70
     1
  9
$PLINEGEN
 70
     0
  9
$PSLTSCALE
 70
     1
  9
$TREEDEPTH
 70
  3020
  9
$CMLSTYLE
  2
Standard
  9
$CMLJUST
 70
     0
  9
$CMLSCALE
 40
20.0
  9
$PROXYGRAPHICS
 70
     1
  9
$MEASUREMENT
 70
     1
  9
$CELWEIGHT
370
    -1
  9
$ENDCAPS
280
     0
  9
$JOINSTYLE
280
     0
  9
$LWDISPLAY
290
     0
  9
$INSUNITS
 70
     4
  9
$HYPERLINKBASE
  1

  9
$STYLESHEET
  1
takachi-1.ctb
  9
$XEDIT
290
     1
  9
$CEPSNTYPE
380
     0
  9
$PSTYLEMODE
290
     1
  9
$FINGERPRINTGUID
  2
{AA9C3603-BD81-4C6F-989B-38ED18725190}
  9
$VERSIONGUID
  2
{02B4DAF5-79D7-4DAF-A907-7C71C7554DE8}
  9
$EXTNAMES
290
     1
  9
$PSVPSCALE
 40
0.0
  9
$OLESTARTUP
290
     0
  0
ENDSEC
  0
SECTION
  2
CLASSES
  0
CLASS
  1
ACDBDICTIONARYWDFLT
  2
AcDbDictionaryWithDefault
  3
ObjectDBX Classes
 90
        0
280
     0
281
     0
  0
CLASS
  1
ACDBPLACEHOLDER
  2
AcDbPlaceHolder
  3
ObjectDBX Classes
 90
        0
280
     0
281
     0
  0
CLASS
  1
LAYOUT
  2
AcDbLayout
  3
ObjectDBX Classes
 90
        0
280
     0
281
     0
  0
CLASS
  1
ACME_DOCUMENT
  2
AcMeDbDoc
  3
AcMeServices
 90
     1024
280
     0
281
     0
  0
CLASS
  1
AMGSETTINGSOBJ
  2
AmgSettingsObj
  3
"AcadM|Product Description: AutoCAD Mechanical|Company: Autodesk, Inc."
 90
     1024
280
     0
281
     0
  0
CLASS
  1
ACMESCOPE
  2
AcMeScope
  3
AcMeServices
 90
     1024
280
     0
281
     0
  0
CLASS
  1
ACMECOMMANDHISTORY
  2
AcMeCommandHistory
  3
AcMeServices
 90
     1024
280
     0
281
     0
  0
CLASS
  1
ACIMSYSVARMAN
  2
AcImSysVarManager
  3
AcMeServices
 90
     1024
280
     0
281
     0
  0
CLASS
  1
ACIMREALSYSVAR
  2
AcImRealSysVar
  3
AcMeServices
 90
     1024
280
     0
281
     0
  0
CLASS
  1
ACIMINTSYSVAR
  2
AcImIntSysVar
  3
AcMeServices
 90
     1024
280
     0
281
     0
  0
CLASS
  1
ACMEDRAWINGMAN
  2
AcMeDrawingMan
  3
AcMeServices
 90
     1024
280
     0
281
     0
  0
CLASS
  1
ACMEVIEW
  2
AcMeView
  3
AcMeServices
 90
     1024
280
     0
281
     0
  0
CLASS
  1
ACDBENTITYCACHE
  2
AcMeEntityCache
  3
AcMeServices
 90
     1024
280
     0
281
     0
  0
CLASS
  1
GSMANAGER
  2
AcMeGSManager
  3
AcMeServices
 90
    32768
280
     0
281
     0
  0
CLASS
  1
AMDTINTERNALREACTOR
  2
AmdtInternalReactor
  3
AcMeServices
 90
     1024
280
     0
281
     0
  0
CLASS
  1
ACMESTATEMGR
  2
AcMeStateMgr
  3
AcMeServices
 90
     1024
280
     0
281
     0
  0
CLASS
  1
ACGREFMASTER
  2
AcGrefMaster
  3
AcAttribServices
 90
     1024
280
     0
281
     0
  0
CLASS
  1
ACME_DATABASE
  2
AcMeDbDatabase
  3
AcMeServices
 90
     1024
280
     0
281
     0
  0
CLASS
  1
ACRFINSADJUSTERMGR
  2
AcRfInsAdjusterMgr
  3
AcMeServices
 90
     1024
280
     0
281
     0
  0
CLASS
  1
ACGREFACADMASTER
  2
AcGrefacadMaster
  3
AcGrefServices
 90
     1024
280
     0
281
     0
  0
CLASS
  1
AMIMASTER
  2
AmiMaster
  3
AmiServices
 90
     1024
280
     0
281
     0
  0
CLASS
  1
ACMDATADICTIONARY
  2
AcmDataDictionary
  3
"AcmSymBB|Product Description: AutoCAD Mechanical|Company: Autodesk, Inc."
 90
     1024
280
     0
281
     0
  0
CLASS
  1
ACMDATAENTRYBLOCK
  2
AcmDataEntryBlock
  3
AcmSymBB|Product Description: AutoCAD Mechanical|Company: Autodesk, Inc.
 90
     1024
280
     0
281
     0
  0
CLASS
  1
ACIMSTRSYSVAR
  2
AcImStrSysVar
  3
AcMeServices
 90
     1024
280
     0
281
     0
  0
CLASS
  1
ACMSTANDARDISO
  2
AcmStandardISO
  3
"Amdt_StdImp|Product Description: AutoCAD Mechanical|Company: Autodesk, Inc."
 90
     1024
280
     0
281
     0
  0
CLASS
  1
AMGOBJPROPCFG
  2
AmgObjPropCfg
  3
"AmgLay|Product Description: AutoCAD Mechanical|Company: Autodesk, Inc."
 90
     1024
280
     0
281
     0
  0
CLASS
  1
AMDTEDGESTANDARDISO
  2
AmdtEdgeStdISO
  3
"Amdt_StdImp|Product Description: AutoCAD Mechanical|Company: Autodesk, Inc."
 90
     1024
280
     0
281
     0
  0
CLASS
  1
ACMSURFSTANDARDISO
  2
AcmSurfTextStdISO
  3
"Amdt_StdImp|Product Description: AutoCAD Mechanical|Company: Autodesk, Inc."
 90
     1024
280
     0
281
     0
  0
CLASS
  1
ACMFCFSTANDARDISO
  2
AcmFCFStdISO
  3
"Amdt_StdImp|Product Description: AutoCAD Mechanical|Company: Autodesk, Inc."
 90
     1024
280
     0
281
     0
  0
CLASS
  1
ACMWELDSTANDARDISO
  2
AcmWeldingStdISO
  3
"Amdt_StdImp|Product Description: AutoCAD Mechanical|Company: Autodesk, Inc."
 90
     1024
280
     0
281
     0
  0
CLASS
  1
ACMIDSTANDARDISO
  2
AcmIdStdISO
  3
"Amdt_StdImp|Product Description: AutoCAD Mechanical|Company: Autodesk, Inc."
 90
     1024
280
     0
281
     0
  0
CLASS
  1
ACMDATUMSTANDARDISO
  2
AcmDatumStdISO
  3
"Amdt_StdImp|Product Description: AutoCAD Mechanical|Company: Autodesk, Inc."
 90
     1024
280
     0
281
     0
  0
CLASS
  1
ACMBOMSTANDARDISO
  2
AcmBOMStdISO
  3
"Amdt_StdImp|Product Description: AutoCAD Mechanical|Company: Autodesk, Inc."
 90
     1024
280
     0
281
     0
  0
CLASS
  1
ACMDETAILSTANDARDISO
  2
AmdtDetailSymStdISO
  3
"Amdt_StdImp|Product Description: AutoCAD Mechanical|Company: Autodesk, Inc."
 90
     1024
280
     0
281
     0
  0
CLASS
  1
ACMSECTIONSTANDARDISO
  2
AmdtSectionSymStdISO
  3
"Amdt_StdImp|Product Description: AutoCAD Mechanical|Company: Autodesk, Inc."
 90
     1024
280
     0
281
     0
  0
CLASS
  1
ACMCENTERLINESTANDARDISO
  2
AmdtCenterLineStdISO
  3
"Amdt_StdImp|Product Description: AutoCAD Mechanical|Company: Autodesk, Inc."
 90
     1024
280
     0
281
     0
  0
CLASS
  1
ACMNOTESTANDARDISO
  2
AmdtNoteStdISO
  3
"Amdt_StdImp|Product Description: AutoCAD Mechanical|Company: Autodesk, Inc."
 90
     1024
280
     0
281
     0
  0
CLASS
  1
ACAMGLAYSTD
  2
AcAmgLayStd
  3
"AmgLay|Product Description: AutoCAD Mechanical|Company: Autodesk, Inc."
 90
     1024
280
     0
281
     0
  0
CLASS
  1
ACAMGDIMSTD
  2
AcAmgDimStd
  3
"AmgDim|Product Description: AutoCAD Mechanical|Company: Autodesk, Inc."
 90
     1024
280
     0
281
     0
  0
CLASS
  1
ACAMGHOLECHARTSTDISO
  2
AcAmgHoleChartStdISO
  3
AmgDim|Product Description: AutoCAD Mechanical|Company: Autodesk, Inc.
 90
     1024
280
     0
281
     0
  0
CLASS
  1
ACAMGTITLESTD
  2
AcAmgTitleStd
  3
"AmgTitle|Product Description: AutoCAD Mechanical|Company: Autodesk, Inc."
 90
     1024
280
     0
281
     0
  0
CLASS
  1
LAYER_INDEX
  2
AcDbLayerIndex
  3
ObjectDBX Classes
 90
    32768
280
     0
281
     0
  0
CLASS
  1
IDBUFFER
  2
AcDbIdBuffer
  3
ObjectDBX Classes
 90
    32768
280
     0
281
     0
  0
CLASS
  1
DICTIONARYVAR
  2
AcDbDictionaryVar
  3
ObjectDBX Classes
 90
        0
280
     0
281
     0
  0
CLASS
  1
AM_DRAWING_MGR
  2
AcDmDwgMgr
  3
AcMechDwgViewMgmt
 90
     1024
280
     0
281
     0
  0
CLASS
  1
AM_DWG_DOCUMENT
  2
AcDmDwgDocument
  3
AcMechDwgViewMgmt
 90
     1024
280
     0
281
     0
  0
CLASS
  1
AM_DWG_SHEET
  2
AcDmSheet
  3
AcMechDwgViewMgmt
 90
     1024
280
     0
281
     0
  0
CLASS
  1
AM_VIEWDIMPARMAP
  2
AcDmViewDimParMap
  3
AcMechDwgViewMgmt
 90
     1024
280
     0
281
     0
  0
CLASS
  1
AM_DWGMGR_NAME
  2
AcDmDwgMgrName
  3
AcMechDwgViewMgmt
 90
     1024
280
     0
281
     0
  0
CLASS
  1
AMDTMENUSTATEMGR
  2
AmdtMenuStateMgr
  3
McadcomServices
 90
     1024
280
     0
281
     0
  0
CLASS
  1
AMDTMCOMMENUSTATE
  2
AmdtMcomMenuState
  3
McadcomServices
 90
     1024
280
     0
281
     0
  0
CLASS
  1
MAPIAMMOUDLE
  2
MApiAmModule
  3
MApiAmServices
 90
     1024
280
     0
281
     0
  0
CLASS
  1
AMDTADMENUSTATE
  2
AmdtAdMenuState
  3
DesignerServices
 90
    32768
280
     0
281
     0
  0
CLASS
  1
ADAPPL
  2
AcAdAppl
  3
DesignerAssemblies
 90
     1024
280
     0
281
     0
  0
CLASS
  1
DEPMGR
  2
AcAdDepMgr
  3
DesignerAssemblies
 90
     1024
280
     0
281
     0
  0
CLASS
  1
PARAMMGR
  2
AcAdParamMgr
  3
DesignerAssemblies
 90
     1024
280
     0
281
     0
  0
CLASS
  1
PARAMSCOPE
  2
AcAdParamScope
  3
DesignerAssemblies
 90
     1024
280
     0
281
     0
  0
CLASS
  1
NAMEDAPPL
  2
AcAdNamedAppl
  3
DesignerAssemblies
 90
     1024
280
     0
281
     0
  0
CLASS
  1
AMDTDMMENUSTATE
  2
AmdtDmMenuState
  3
AcMechDwgViewMgmt
 90
    32768
280
     0
281
     0
  0
CLASS
  1
AMDTAMMENUSTATE
  2
AmdtAmMenuState
  3
DesignerAssemblies
 90
     1024
280
     0
281
     0
  0
CLASS
  1
ACAMPROJECT
  2
AcAmProject
  3
DesignerAssemblies
 90
     1024
280
     0
281
     0
  0
CLASS
  1
ACAMGRCOMPDEF
  2
AcAmGrCompDef
  3
DesignerAssemblies
 90
     1024
280
     0
281
     0
  0
CLASS
  1
ACCMCONTEXT
  2
AcCmContext
  3
DesignerAssemblies
 90
     1024
280
     0
281
     0
  0
CLASS
  1
ACAMCOMPDEF
  2
AcAmCompDef
  3
DesignerAssemblies
 90
     1024
280
     0
281
     0
  0
CLASS
  1
ACAMCOMPDEFMGR
  2
AcAmCompDefMgr
  3
DesignerAssemblies
 90
     1024
280
     0
281
     0
  0
CLASS
  1
AMCONTEXTMGR
  2
AcAmContextMgr
  3
DesignerAssemblies
 90
     1024
280
     0
281
     0
  0
CLASS
  1
ACAMCONTEXTMODELER
  2
AcAmContextModeler
  3
DesignerAssemblies
 90
     1024
280
     0
281
     0
  0
CLASS
  1
ACMTHREADLINESTANDARDISO
  2
AmdtThreadLineStdISO
  3
"Amdt_StdImp|Product Description: AutoCAD Mechanical|Company: Autodesk, Inc."
 90
     1024
280
     0
281
     0
  0
CLASS
  1
CATALOGSTATE
  2
AcAmCatalogState
  3
DesignerAssemblies
 90
     1024
280
     0
281
     0
  0
CLASS
  1
ACAMGRCOMPDEFSET
  2
AcAmGrCompDefSet
  3
DesignerAssemblies
 90
     1024
280
     0
281
     0
  0
CLASS
  1
AMDTBROWSERDBTAB
  2
AmdtBrowserDbTab
  3
McadcomServices
 90
     1024
280
     0
281
     0
  0
CLASS
  1
CBROWSERAPPOBJECT
  2
CBrowserAppObject
  3
McadcomServices
 90
     1024
280
     0
281
     0
  0
CLASS
  1
DM_PLACEHOLDER
  2
AcDmSelsetPlaceholder
  3
McadcomServices
 90
     1024
280
     0
281
     0
  0
CLASS
  1
AMDTNOTETEMPLATEDB
  2
AmdtNoteTemplateDB
  3
AcmSymBB|Product Description: AutoCAD Mechanical|Company: Autodesk, Inc.
 90
     1024
280
     0
281
     0
  0
CLASS
  1
ACAMGFILTERDAT
  2
AcAmgFilterDat
  3
"AcadM|Product Description: AutoCAD Mechanical|Company: Autodesk, Inc."
 90
     1024
280
     0
281
     0
  0
CLASS
  1
AMDTNOTE
  2
AmdtNote
  3
"AcmSymBB|Product Description: AutoCAD Mechanical|Company: Autodesk, Inc."
 90
    33792
280
     0
281
     1
  0
CLASS
  1
AMDTFORMULAUPDATEDISPATCHER
  2
AmdtFormulaUpdateDispatcher
  3
AcMeServices
 90
     1024
280
     0
281
     0
  0
CLASS
  1
AMDTSECTIONSYM
  2
AmdtSectionSym
  3
"AcmSymBB|Product Description: AutoCAD Mechanical|Company: Autodesk, Inc."
 90
    33792
280
     0
281
     1
  0
CLASS
  1
AMDTSECTIONSYMLABEL
  2
AmdtSectionSymLabel
  3
"AcmSymBB|Product Description: AutoCAD Mechanical|Company: Autodesk, Inc."
 90
    33792
280
     0
281
     1
  0
CLASS
  1
AMDTDETAILSYM
  2
AmdtDetailSym
  3
"AcmSymBB|Product Description: AutoCAD Mechanical|Company: Autodesk, Inc."
 90
    33792
280
     0
281
     1
  0
CLASS
  1
AMDTDETAILSYMLABEL
  2
AmdtDetailSymLabel
  3
"AcmSymBB|Product Description: AutoCAD Mechanical|Company: Autodesk, Inc."
 90
    33792
280
     0
281
     1
  0
CLASS
  1
TABLESTYLE
  2
AcDbTableStyle
  3
ObjectDBX Classes
 90
     4095
280
     0
281
     0
  0
CLASS
  1
DIMASSOC
  2
AcDbDimAssoc
  3
"AcDbDimAssoc|Product Desc:     AcDim ARX App For Dimension|Company:          Autodesk, Inc.|WEB Address:      www.autodesk.com"
 90
        0
280
     0
281
     0
  0
CLASS
  1
ACMBOM
  2
AcmBom
  3
"AcmSymBB|Product Description: AutoCAD Mechanical|Company: Autodesk, Inc."
 90
     1024
280
     0
281
     0
  0
CLASS
  1
ACMDATAENTRYPART
  2
AcmDataEntryPart
  3
AcmSymBB|Product Description: AutoCAD Mechanical|Company: Autodesk, Inc.
 90
     1024
280
     0
281
     0
  0
CLASS
  1
ACMPARTREF
  2
AcmPartRef
  3
"AcmSymBB|Product Description: AutoCAD Mechanical|Company: Autodesk, Inc."
 90
     1024
280
     0
281
     1
  0
CLASS
  1
ACMBOMROW
  2
AcmBomRow
  3
"AcmSymBB|Product Description: AutoCAD Mechanical|Company: Autodesk, Inc."
 90
     1024
280
     0
281
     0
  0
CLASS
  1
ACMDATAENTRY
  2
AcmDataEntry
  3
AcmSymBB|Product Description: AutoCAD Mechanical|Company: Autodesk, Inc.
 90
     1024
280
     0
281
     0
  0
CLASS
  1
ACMBALLOON
  2
AcmBalloon
  3
"AcmSymBB|Product Description: AutoCAD Mechanical|Company: Autodesk, Inc."
 90
     1024
280
     0
281
     1
  0
CLASS
  1
ACMPARTLIST
  2
AcmPartList
  3
"AcmSymBB|Product Description: AutoCAD Mechanical|Company: Autodesk, Inc."
 90
     1024
280
     0
281
     1
  0
CLASS
  1
ACDBLINERES
  2
AcDbLineRes
  3
AcGrefServices
 90
     1024
280
     0
281
     0
  0
CLASS
  1
ACRFINSADJ
  2
AcRfInsAdjuster
  3
AcMeServices
 90
     1024
280
     0
281
     0
  0
CLASS
  1
ACRFATTGENMGR
  2
AcRfAttGeneralMgr
  3
AcAttribServices
 90
     1024
280
     0
281
     0
  0
CLASS
  1
ACRFOBJATTMGR
  2
AcRfObjAttGroupMgr
  3
AcAttribServices
 90
     1024
280
     0
281
     0
  0
CLASS
  1
ACRFMCADAPIATTHOLDER
  2
AcRfMCADAPIAttHolder
  3
AcAttribServices
 90
     1024
280
     0
281
     0
  0
CLASS
  1
AMDTSYSATTR
  2
AmdtSystemAttribute
  3
AcAttribServices
 90
     1024
280
     0
281
     0
  0
CLASS
  1
MATERIAL
  2
AcDbMaterial
  3
ObjectDBX Classes
 90
     1153
280
     0
281
     0
  0
CLASS
  1
VISUALSTYLE
  2
AcDbVisualStyle
  3
ObjectDBX Classes
 90
     4095
280
     0
281
     0
  0
CLASS
  1
SCALE
  2
AcDbScale
  3
ObjectDBX Classes
 90
     1153
280
     0
281
     0
  0
CLASS
  1
MLEADERSTYLE
  2
AcDbMLeaderStyle
  3
ACDB_MLEADERSTYLE_CLASS
 90
     4095
280
     0
281
     0
  0
CLASS
  1
ACDBSECTIONVIEWSTYLE
  2
AcDbSectionViewStyle
  3
ObjectDBX Classes
 90
     1025
280
     0
281
     0
  0
CLASS
  1
ACDBDETAILVIEWSTYLE
  2
AcDbDetailViewStyle
  3
ObjectDBX Classes
 90
     1025
280
     0
281
     0
  0
CLASS
  1
ACMTAPERSTANDARDISO
  2
AcmTaperStdISO
  3
"Amdt_StdImp|Product Description: AutoCAD Mechanical|Company: Autodesk, Inc."
 90
     1024
280
     0
281
     0
  0
CLASS
  1
ACMANOOTATIONVIEWSTANDARDISO
  2
AmdtAnViewStdISO
  3
"Amdt_StdImp|Product Description: AutoCAD Mechanical|Company: Autodesk, Inc."
 90
     1024
280
     0
281
     0
  0
CLASS
  1
CELLSTYLEMAP
  2
AcDbCellStyleMap
  3
ObjectDBX Classes
 90
     1152
280
     0
281
     0
  0
ENDSEC
  0
SECTION
  2
TABLES
  0
TABLE
  2
VPORT
  5
8
330
0
100
AcDbSymbolTable
 70
     1
  0
VPORT
  5
3786
330
8
100
AcDbSymbolTableRecord
100
AcDbViewportTableRecord
  2
*Active
 70
     0
 10
0.0
 20
0.0
 11
1.0
 21
1.0
 12
58.74889592692355
 22
76.24897031345854
 13
0.0
 23
0.0
 14
1.25
 24
1.25
 15
5.0
 25
5.0
 16
0.0
 26
0.0
 36
1.0
 17
0.0
 27
0.0
 37
0.0
 40
138.5476471752902
 41
1.249370277078085
 42
50.0
 43
0.0
 44
0.0
 50
0.0
 51
0.0
 71
    16
 72
   100
 73
     1
 74
     3
 75
     0
 76
     0
 77
     0
 78
     0
281
     0
 65
     1
110
0.0
120
0.0
130
0.0
111
1.0
121
0.0
131
0.0
112
0.0
122
1.0
132
0.0
 79
     0
146
0.0
1001
ACAD_NAV_VCDISPLAY
1070
     3
  0
ENDTAB
  0
TABLE
  2
LTYPE
  5
5
330
0
100
AcDbSymbolTable
 70
    20
  0
LTYPE
  5
14
330
5
100
AcDbSymbolTableRecord
100
AcDbLinetypeTableRecord
  2
ByBlock
 70
     0
  3

 72
    65
 73
     0
 40
0.0
  0
LTYPE
  5
15
330
5
100
AcDbSymbolTableRecord
100
AcDbLinetypeTableRecord
  2
ByLayer
 70
     0
  3

 72
    65
 73
     0
 40
0.0
  0
LTYPE
  5
16
330
5
100
AcDbSymbolTableRecord
100
AcDbLinetypeTableRecord
  2
Continuous
 70
     0
  3
Solid line
 72
    65
 73
     0
 40
0.0
  0
LTYPE
  5
64
330
5
100
AcDbSymbolTableRecord
100
AcDbLinetypeTableRecord
  2
AM_ISO02W050
 70
     0
  3
__ __ __ __ __ __ __ __ __ __ __ __ __ __ __
 72
    65
 73
     2
 40
7.5
 49
6.0
 74
     0
 49
-1.5
 74
     0
  0
LTYPE
  5
65
330
5
100
AcDbSymbolTableRecord
100
AcDbLinetypeTableRecord
  2
AM_ISO08W050
 70
     0
  3
____ . ____ . ____ . ____ . ____ . ____ . ____
 72
    65
 73
     4
 40
18.0
 49
12.0
 74
     0
 49
-1.5
 74
     0
 49
3.0
 74
     0
 49
-1.5
 74
     0
  0
LTYPE
  5
66
330
5
100
AcDbSymbolTableRecord
100
AcDbLinetypeTableRecord
  2
AM_ISO09W050
 70
     0
  3
_____ . . _____ . . _____ . . ____ .. ____
 72
    65
 73
     6
 40
22.5
 49
12.0
 74
     0
 49
-1.5
 74
     0
 49
3.0
 74
     0
 49
-1.5
 74
     0
 49
3.0
 74
     0
 49
-1.5
 74
     0
  0
LTYPE
  5
67
330
5
100
AcDbSymbolTableRecord
100
AcDbLinetypeTableRecord
  2
Amconstr
 70
     0
  3
_______________________
 72
    65
 73
     2
 40
9999.0
 49
9999.0
 74
     0
 49
0.0
 74
     0
  0
LTYPE
  5
68
330
5
100
AcDbSymbolTableRecord
100
AcDbLinetypeTableRecord
  2
AM_ISO08W050x2
 70
     0
  3
__ . __ . __ . __ . __ . __
 72
    65
 73
     4
 40
9.0
 49
6.0
 74
     0
 49
-0.75
 74
     0
 49
1.5
 74
     0
 49
-0.75
 74
     0
  0
LTYPE
  5
69
330
5
100
AcDbSymbolTableRecord
100
AcDbLinetypeTableRecord
  2
AM_ISO02W050x2
 70
     0
  3
 _ _ _ _ _ _ _ _ _ _ _ _
 72
    65
 73
     2
 40
3.75
 49
3.0
 74
     0
 49
-0.75
 74
     0
  0
LTYPE
  5
6C
330
5
100
AcDbSymbolTableRecord
100
AcDbLinetypeTableRecord
  2
Amzigzag
 70
     0
  3
/\/-/\/-/\/-/\/-/\/-/\/
 72
    65
 73
     2
 40
11.0001
 49
0.0001
 74
     4
 75
   135
340
6B
 46
0.04
 50
0.0
 44
0.0
 45
0.0
 49
-11.0
 74
     0
  0
LTYPE
  5
7A
330
5
100
AcDbSymbolTableRecord
100
AcDbLinetypeTableRecord
  2
ACISOWELD
 70
     0
  3
_ _ _ _ _
 72
    65
 73
     2
 40
2.0
 49
2.0
 74
     0
 49
-1.0
 74
     0
  0
LTYPE
  5
7B
330
5
100
AcDbSymbolTableRecord
100
AcDbLinetypeTableRecord
  2
ACISOTGB
 70
     0
  3
__ . . __ . .
 72
    65
 73
     6
 40
9.0
 49
4.0
 74
     0
 49
-1.0
 74
     0
 49
1.0
 74
     0
 49
-1.0
 74
     0
 49
1.0
 74
     0
 49
-1.0
 74
     0
  0
LTYPE
  5
7C
330
5
100
AcDbSymbolTableRecord
100
AcDbLinetypeTableRecord
  2
ACISOTGL
 70
     0
  3
_ _ _ _ _
 72
    65
 73
     2
 40
3.0
 49
2.0
 74
     0
 49
-1.0
 74
     0
  0
LTYPE
  5
7E
330
5
100
AcDbSymbolTableRecord
100
AcDbLinetypeTableRecord
  2
CENTER
 70
     0
  3
__ . __
 72
    65
 73
     4
 40
7.0
 49
4.0
 74
     0
 49
-1.0
 74
     0
 49
1.0
 74
     0
 49
-1.0
 74
     0
  0
LTYPE
  5
D8
330
5
100
AcDbSymbolTableRecord
100
AcDbLinetypeTableRecord
  2
HIDDEN
 70
     0
  3
Hidden __ __ __ __ __ __ __ __ __ __ __ __ __ _
 72
    65
 73
     2
 40
9.524999999999998
 49
6.349999999999999
 74
     0
 49
-3.174999999999999
 74
     0
  0
LTYPE
  5
D9
330
5
100
AcDbSymbolTableRecord
100
AcDbLinetypeTableRecord
  2
PHANTOM2
 70
     0
  3
Phantom (.5x) ___ _ _ ___ _ _ ___ _ _ ___ _ _
 72
    65
 73
     6
 40
31.75
 49
15.875
 74
     0
 49
-3.174999999999999
 74
     0
 49
3.174999999999999
 74
     0
 49
-3.174999999999999
 74
     0
 49
3.174999999999999
 74
     0
 49
-3.174999999999999
 74
     0
  0
LTYPE
  5
5BD
330
5
100
AcDbSymbolTableRecord
100
AcDbLinetypeTableRecord
  2
gen3
 70
     0
  3
-- -- -- -- -- -- -- -- -- -- -- -- -- -- --
 72
    65
 73
     2
 40
6.25
 49
4.75
 74
     0
 49
-1.5
 74
     0
  0
LTYPE
  5
5BE
330
5
100
AcDbSymbolTableRecord
100
AcDbLinetypeTableRecord
  2
gen7
 70
     0
  3
____ . ____ . ____ . ____ . ____ . ____ . ____
 72
    65
 73
     4
 40
13.75
 49
9.75
 74
     0
 49
-1.5
 74
     0
 49
1.0
 74
     0
 49
-1.5
 74
     0
  0
LTYPE
  5
5BF
330
5
100
AcDbSymbolTableRecord
100
AcDbLinetypeTableRecord
  2
gen3a
 70
     0
  3
 - - - - -
 72
    65
 73
     2
 40
3.125
 49
2.25
 74
     0
 49
-0.875
 74
     0
  0
LTYPE
  5
5C0
330
5
100
AcDbSymbolTableRecord
100
AcDbLinetypeTableRecord
  2
gen7a
 70
     0
  3
__ . __ . __
 72
    65
 73
     4
 40
6.875
 49
4.75
 74
     0
 49
-0.875
 74
     0
 49
0.375
 74
     0
 49
-0.875
 74
     0
  0
LTYPE
  5
5C1
330
5
100
AcDbSymbolTableRecord
100
AcDbLinetypeTableRecord
  2
gen4a
 70
     0
  3
_____ . . _____ . . _____ . . ____ .. ____
 72
    65
 73
     6
 40
16.25
 49
9.75
 74
     0
 49
-1.5
 74
     0
 49
1.0
 74
     0
 49
-1.5
 74
     0
 49
1.0
 74
     0
 49
-1.5
 74
     0
  0
LTYPE
  5
5C2
330
5
100
AcDbSymbolTableRecord
100
AcDbLinetypeTableRecord
  2
genzigzag
 70
     0
  3
/\/-/\/-/\/-/\/-/\/-/\/
 72
    65
 73
     2
 40
12.0001
 49
0.0001
 74
     4
 75
   135
340
6B
 46
2.0
 50
0.0
 44
0.0
 45
0.0
 49
-12.0
 74
     0
  0
ENDTAB
  0
TABLE
  2
LAYER
  5
2
102
{ACAD_XDICTIONARY
360
35D
102
}
330
0
100
AcDbSymbolTable
 70
    18
  0
LAYER
  5
10
102
{ACAD_XDICTIONARY
360
381F
102
}
330
2
100
AcDbSymbolTableRecord
100
AcDbLayerTableRecord
  2
0
 70
     0
 62
     7
  6
Continuous
370
    -3
390
F
  0
LAYER
  5
1E1
330
2
100
AcDbSymbolTableRecord
100
AcDbLayerTableRecord
  2
Defpoints
 70
     0
 62
     7
  6
Continuous
290
     0
370
    -3
390
F
  0
LAYER
  5
518
102
{ACAD_XDICTIONARY
360
3821
102
}
330
2
100
AcDbSymbolTableRecord
100
AcDbLayerTableRecord
  2
TK1
 70
     0
 62
     7
  6
Continuous
370
    25
390
F
  0
LAYER
  5
519
102
{ACAD_XDICTIONARY
360
3823
102
}
330
2
100
AcDbSymbolTableRecord
100
AcDbLayerTableRecord
  2
TK10
 70
     0
 62
     7
  6
AM_ISO02W050x2
370
    13
390
F
  0
LAYER
  5
51A
102
{ACAD_XDICTIONARY
360
3825
102
}
330
2
100
AcDbSymbolTableRecord
100
AcDbLayerTableRecord
  2
TK2
 70
     0
 62
    51
  6
Continuous
370
    25
390
F
  0
LAYER
  5
51B
102
{ACAD_XDICTIONARY
360
3827
102
}
330
2
100
AcDbSymbolTableRecord
100
AcDbLayerTableRecord
  2
TK3
 70
     0
 62
    91
  6
Continuous
370
    25
390
F
  0
LAYER
  5
51C
102
{ACAD_XDICTIONARY
360
3829
102
}
330
2
100
AcDbSymbolTableRecord
100
AcDbLayerTableRecord
  2
TK20
 70
     0
 62
    51
  6
AM_ISO02W050x2
370
    13
390
F
  0
LAYER
  5
51D
102
{ACAD_XDICTIONARY
360
382B
102
}
330
2
100
AcDbSymbolTableRecord
100
AcDbLayerTableRecord
  2
TK30
 70
     0
 62
    91
  6
AM_ISO02W050x2
370
    13
390
F
  0
LAYER
  5
5E5
102
{ACAD_XDICTIONARY
360
382D
102
}
330
2
100
AcDbSymbolTableRecord
100
AcDbLayerTableRecord
  2
7A
 70
     0
 62
     4
  6
gen7a
370
    -3
390
F
  0
LAYER
  5
5E6
102
{ACAD_XDICTIONARY
360
382F
102
}
330
2
100
AcDbSymbolTableRecord
100
AcDbLayerTableRecord
  2
RAHM2
 70
     0
 62
     1
  6
Continuous
370
    -3
390
F
  0
LAYER
  5
5E7
102
{ACAD_XDICTIONARY
360
3831
102
}
330
2
100
AcDbSymbolTableRecord
100
AcDbLayerTableRecord
  2
KLIN
 70
     0
 62
     1
  6
Continuous
370
    -3
390
F
  0
LAYER
  5
6CF
102
{ACAD_XDICTIONARY
360
3833
102
}
330
2
100
AcDbSymbolTableRecord
100
AcDbLayerTableRecord
  2
AM_5
 70
     0
 62
     3
  6
Continuous
370
    25
390
F
  0
LAYER
  5
6D0
102
{ACAD_XDICTIONARY
360
3835
102
}
330
2
100
AcDbSymbolTableRecord
100
AcDbLayerTableRecord
  2
AM_7
 70
     0
 62
     4
  6
AM_ISO08W050
370
    25
390
F
  0
LAYER
  5
AFF
102
{ACAD_XDICTIONARY
360
3837
102
}
330
2
100
AcDbSymbolTableRecord
100
AcDbLayerTableRecord
  2
AM_0
 70
     0
 62
     7
  6
Continuous
370
    50
390
F
  0
LAYER
  5
B76
102
{ACAD_XDICTIONARY
360
3839
102
}
330
2
100
AcDbSymbolTableRecord
100
AcDbLayerTableRecord
  2
AM_12
 70
     0
 62
     7
  6
Continuous
290
     0
370
    50
390
F
  0
LAYER
  5
B77
102
{ACAD_XDICTIONARY
360
383B
102
}
330
2
100
AcDbSymbolTableRecord
100
AcDbLayerTableRecord
  2
AM_PAREF
 70
     0
 62
     4
  6
Continuous
290
     0
370
    25
390
F
  0
LAYER
  5
B9B
102
{ACAD_XDICTIONARY
360
383D
102
}
330
2
100
AcDbSymbolTableRecord
100
AcDbLayerTableRecord
  2
AM_CL
 70
     0
 62
     1
  6
Amconstr
370
    25
390
F
  0
LAYER
  5
188B
102
{ACAD_XDICTIONARY
360
383F
102
}
330
2
100
AcDbSymbolTableRecord
100
AcDbLayerTableRecord
  2
AM_6
 70
     0
 62
     2
  6
Continuous
370
    35
390
F
  0
ENDTAB
  0
TABLE
  2
STYLE
  5
3
330
0
100
AcDbSymbolTable
 70
     5
  0
STYLE
  5
11
330
3
100
AcDbSymbolTableRecord
100
AcDbTextStyleTableRecord
  2
STANDARD
 70
     0
 40
0.0
 41
1.0
 50
0.0
 71
     0
 42
73.98571745357912
  3
ISOCP.SHX
  4
bigfont.shx
  0
STYLE
  5
6B
330
3
100
AcDbSymbolTableRecord
100
AcDbTextStyleTableRecord
  2

 70
     1
 40
0.0
 41
1.0
 50
0.0
 71
     0
 42
2.5
  3
ltypeshp.shx
  4

  0
STYLE
  5
6D
330
3
100
AcDbSymbolTableRecord
100
AcDbTextStyleTableRecord
  2
ACISOTS
 70
     0
 40
1.0
 41
1.0
 50
0.0
 71
     0
 42
2.5
  3
isocp.shx
  4
extfont.shx
  0
STYLE
  5
79
330
3
100
AcDbSymbolTableRecord
100
AcDbTextStyleTableRecord
  2
ACISOGDT
 70
     0
 40
0.0
 41
1.0
 50
0.0
 71
     0
 42
2.5
  3
amgdt.shx
  4

  0
STYLE
  5
5E8
330
3
100
AcDbSymbolTableRecord
100
AcDbTextStyleTableRecord
  2

 70
     1
 40
0.0
 41
1.0
 50
0.0
 71
     0
 42
3.0
  3
genltshp.shx
  4

  0
ENDTAB
  0
TABLE
  2
VIEW
  5
6
330
0
100
AcDbSymbolTable
 70
     6
  0
VIEW
  5
291
330
6
100
AcDbSymbolTableRecord
100
AcDbViewTableRecord
  2
AM_VIEW1
 70
     0
 40
68.75000000000001
 10
72.10028160200249
 20
118.125
 41
104.200563204005
 11
0.0
 21
0.0
 31
1.0
 12
0.0
 22
0.0
 32
0.0
 42
50.0
 43
0.0
 44
0.0
 50
0.0
 71
    16
281
     0
 72
     0
  0
VIEW
  5
292
330
6
100
AcDbSymbolTableRecord
100
AcDbViewTableRecord
  2
AM_VIEW2
 70
     0
 40
68.75000000000001
 10
65.39971839799751
 20
118.125
 41
104.200563204005
 11
0.0
 21
0.0
 31
1.0
 12
0.0
 22
0.0
 32
0.0
 42
50.0
 43
0.0
 44
0.0
 50
0.0
 71
    16
281
     0
 72
     0
  0
VIEW
  5
293
330
6
100
AcDbSymbolTableRecord
100
AcDbViewTableRecord
  2
AM_VIEW3
 70
     0
 40
68.75000000000001
 10
72.10028160200249
 20
49.375
 41
104.200563204005
 11
0.0
 21
0.0
 31
1.0
 12
0.0
 22
0.0
 32
0.0
 42
50.0
 43
0.0
 44
0.0
 50
0.0
 71
    16
281
     0
 72
     0
  0
VIEW
  5
294
330
6
100
AcDbSymbolTableRecord
100
AcDbViewTableRecord
  2
AM_VIEW4
 70
     0
 40
68.75000000000001
 10
65.39971839799751
 20
49.375
 41
104.200563204005
 11
0.0
 21
0.0
 31
1.0
 12
0.0
 22
0.0
 32
0.0
 42
50.0
 43
0.0
 44
0.0
 50
0.0
 71
    16
281
     0
 72
     0
  0
VIEW
  5
295
330
6
100
AcDbSymbolTableRecord
100
AcDbViewTableRecord
  2
AM_VIEW5
 70
     0
 40
68.75000000000003
 10
68.75
 20
83.75000000000001
 41
104.200563204005
 11
0.0
 21
0.0
 31
1.0
 12
0.0
 22
0.0
 32
0.0
 42
50.0
 43
0.0
 44
0.0
 50
0.0
 71
    16
281
     0
 72
     0
  0
VIEW
  5
296
330
6
100
AcDbSymbolTableRecord
100
AcDbViewTableRecord
  2
AM_VIEW6
 70
     0
 40
137.498625
 10
68.75
 20
83.75000000000001
 41
208.399042396746
 11
0.0
 21
0.0
 31
1.0
 12
0.0
 22
0.0
 32
0.0
 42
50.0
 43
0.0
 44
0.0
 50
0.0
 71
    16
281
     0
 72
     0
  0
ENDTAB
  0
TABLE
  2
UCS
  5
7
330
0
100
AcDbSymbolTable
 70
     0
  0
ENDTAB
  0
TABLE
  2
APPID
  5
9
330
0
100
AcDbSymbolTable
 70
    38
  0
APPID
  5
12
330
9
100
AcDbSymbolTableRecord
100
AcDbRegAppTableRecord
  2
ACAD
 70
     0
  0
APPID
  5
46
330
9
100
AcDbSymbolTableRecord
100
AcDbRegAppTableRecord
  2
MCAD_NO_VIS
 70
     0
  0
APPID
  5
47
330
9
100
AcDbSymbolTableRecord
100
AcDbRegAppTableRecord
  2
ACAD_TEMP_GRAPHIC
 70
     0
  0
APPID
  5
58
330
9
100
AcDbSymbolTableRecord
100
AcDbRegAppTableRecord
  2
ACATTRIBSERVICES
 70
     0
  0
APPID
  5
EE
330
9
100
AcDbSymbolTableRecord
100
AcDbRegAppTableRecord
  2
AD_DRAW
 70
     0
  0
APPID
  5
10C
330
9
100
AcDbSymbolTableRecord
100
AcDbRegAppTableRecord
  2
DESIGNERASSEMBLIES
 70
     0
  0
APPID
  5
111
330
9
100
AcDbSymbolTableRecord
100
AcDbRegAppTableRecord
  2
ACADM_DIM_EDIT
 70
     0
  0
APPID
  5
112
330
9
100
AcDbSymbolTableRecord
100
AcDbRegAppTableRecord
  2
AMDT_DM_ADJ
 70
     0
  0
APPID
  5
1E2
330
9
100
AcDbSymbolTableRecord
100
AcDbRegAppTableRecord
  2
GENIUS_GENREC_14
 70
     0
  0
APPID
  5
1E3
330
9
100
AcDbSymbolTableRecord
100
AcDbRegAppTableRecord
  2
GENIUS_GENODEF_13
 70
     0
  0
APPID
  5
1E4
330
9
100
AcDbSymbolTableRecord
100
AcDbRegAppTableRecord
  2
GENIUS_GENOBJ-N-REC_13
 70
     0
  0
APPID
  5
1E5
330
9
100
AcDbSymbolTableRecord
100
AcDbRegAppTableRecord
  2
GENIUS_GENDIMSH_14
 70
     0
  0
APPID
  5
1E6
330
9
100
AcDbSymbolTableRecord
100
AcDbRegAppTableRecord
  2
GENIUS_GENCFG_13
 70
     0
  0
APPID
  5
1E7
330
9
100
AcDbSymbolTableRecord
100
AcDbRegAppTableRecord
  2
GENIUS_GENCFG0_13
 70
     0
  0
APPID
  5
1E8
330
9
100
AcDbSymbolTableRecord
100
AcDbRegAppTableRecord
  2
GENIUS_GENCFG1_13
 70
     0
  0
APPID
  5
1E9
330
9
100
AcDbSymbolTableRecord
100
AcDbRegAppTableRecord
  2
GENIUS_GENCFG2_13
 70
     0
  0
APPID
  5
1EA
330
9
100
AcDbSymbolTableRecord
100
AcDbRegAppTableRecord
  2
GENIUS_GENCFG3_13
 70
     0
  0
APPID
  5
1EB
330
9
100
AcDbSymbolTableRecord
100
AcDbRegAppTableRecord
  2
GENIUS_GENCFG4_13
 70
     0
  0
APPID
  5
1EC
330
9
100
AcDbSymbolTableRecord
100
AcDbRegAppTableRecord
  2
GENIUS_GEVCFG0_13
 70
     0
  0
APPID
  5
1ED
330
9
100
AcDbSymbolTableRecord
100
AcDbRegAppTableRecord
  2
GENIUS_GENOENT_13
 70
     0
  0
APPID
  5
1EE
330
9
100
AcDbSymbolTableRecord
100
AcDbRegAppTableRecord
  2
GENIUS_GENOBJ-N-CRS_13
 70
     0
  0
APPID
  5
1EF
330
9
100
AcDbSymbolTableRecord
100
AcDbRegAppTableRecord
  2
GENIUS_GENOREF_13
 70
     0
  0
APPID
  5
1F0
330
9
100
AcDbSymbolTableRecord
100
AcDbRegAppTableRecord
  2
GENIUS_GENOLIS_13
 70
     0
  0
APPID
  5
1F1
330
9
100
AcDbSymbolTableRecord
100
AcDbRegAppTableRecord
  2
GENIUS_GENOBJ-N-TIT_13
 70
     0
  0
APPID
  5
1F2
330
9
100
AcDbSymbolTableRecord
100
AcDbRegAppTableRecord
  2
GENIUS_GENTITLE_13
 70
     0
  0
APPID
  5
1F3
330
9
100
AcDbSymbolTableRecord
100
AcDbRegAppTableRecord
  2
GENIUS_GENSCREG_15
 70
     0
  0
APPID
  5
1F4
330
9
100
AcDbSymbolTableRecord
100
AcDbRegAppTableRecord
  2
GENIUS_GENOBJ-N-SDF_13
 70
     0
  0
APPID
  5
1F5
330
9
100
AcDbSymbolTableRecord
100
AcDbRegAppTableRecord
  2
GENIUS_GENOBJ-N-CEN_13
 70
     0
  0
APPID
  5
1F6
330
9
100
AcDbSymbolTableRecord
100
AcDbRegAppTableRecord
  2
GENIUS_GENOBJ-N-HTC_13
 70
     0
  0
APPID
  5
1F7
330
9
100
AcDbSymbolTableRecord
100
AcDbRegAppTableRecord
  2
GENIUS_GENHATCH_13
 70
     0
  0
APPID
  5
484
330
9
100
AcDbSymbolTableRecord
100
AcDbRegAppTableRecord
  2
GENIUS_GENOBJ-N-ZOO_13
 70
     0
  0
APPID
  5
485
330
9
100
AcDbSymbolTableRecord
100
AcDbRegAppTableRecord
  2
GENIUS_GENZOO_17
 70
     0
  0
APPID
  5
5CB
330
9
100
AcDbSymbolTableRecord
100
AcDbRegAppTableRecord
  2
GEV_VCCNULL_SWITCH_OFF
 70
     0
  0
APPID
  5
5CC
330
9
100
AcDbSymbolTableRecord
100
AcDbRegAppTableRecord
  2
GENIUS_GENDTOL_13
 70
     0
  0
APPID
  5
C87
330
9
100
AcDbSymbolTableRecord
100
AcDbRegAppTableRecord
  2
GENIUS_GENOBJ-N-FIL_13
 70
     0
  0
APPID
  5
188C
330
9
100
AcDbSymbolTableRecord
100
AcDbRegAppTableRecord
  2
GENIUS_AMGTXT_16
 70
     0
  0
APPID
  5
37F2
330
9
100
AcDbSymbolTableRecord
100
AcDbRegAppTableRecord
  2
ACAD_NAV_VCDISPLAY
 70
     0
  0
APPID
  5
3892
330
9
100
AcDbSymbolTableRecord
100
AcDbRegAppTableRecord
  2
ACAD_MLEADERVER
 70
     0
  0
ENDTAB
  0
TABLE
  2
DIMSTYLE
  5
A
330
0
100
AcDbSymbolTable
 70
    16
100
AcDbDimStyleTable
 71
     1
340
81
  0
DIMSTYLE
105
81
330
A
100
AcDbSymbolTableRecord
100
AcDbDimStyleTableRecord
  2
AM_ISO
 70
     0
  4
"
 41
2.5
 42
1.0
 43
10.0
 44
1.0
 47
0.1
 48
0.1
 73
     0
 74
     0
 77
     1
 78
     8
 79
     2
140
3.5
141
0.0
143
0.0393701
146
0.71
147
1.5
172
     1
176
   256
177
   256
178
     2
271
     2
272
     2
283
     0
284
     8
340
11
341
407
342
407
371
    -1
372
    -1
  0
DIMSTYLE
105
82
102
{ACAD_REACTORS
330
35C3
102
}
330
A
100
AcDbSymbolTableRecord
100
AcDbDimStyleTableRecord
  2
AM_ISO$3
 70
     0
  4
"
 41
2.5
 42
1.0
 43
10.0
 44
1.0
 47
0.1
 48
0.1
 73
     0
 77
     1
 78
     8
 79
     2
140
3.5
141
0.0
143
0.0393701
146
0.71
147
1.5
176
   256
177
   256
178
     2
271
     2
272
     2
283
     0
284
     8
288
     1
289
     0
340
11
341
407
342
407
371
    -1
372
    -1
  0
DIMSTYLE
105
83
102
{ACAD_REACTORS
330
35D3
102
}
330
A
100
AcDbSymbolTableRecord
100
AcDbDimStyleTableRecord
  2
AM_ISO$4
 70
     0
  4
"
 41
2.5
 42
1.0
 43
10.0
 44
1.0
 47
0.1
 48
0.1
 73
     0
 77
     1
 78
     8
 79
     2
140
3.5
141
0.0
143
0.0393701
146
0.71
147
1.5
176
   256
177
   256
178
     2
271
     2
272
     2
283
     0
284
     8
288
     1
289
     0
340
11
341
407
342
407
371
    -1
372
    -1
  0
DIMSTYLE
105
84
330
A
100
AcDbSymbolTableRecord
100
AcDbDimStyleTableRecord
  2
AM_ISO$6
 70
     0
  4
"
 41
2.5
 42
1.0
 43
10.0
 44
1.0
 47
0.1
 48
0.1
 73
     0
 74
     0
 78
     8
 79
     2
140
3.5
141
0.0
143
0.0393701
146
0.71
147
1.5
172
     1
176
   256
177
   256
178
     2
271
     2
272
     2
283
     0
284
     8
340
11
341
407
342
407
371
    -1
372
    -1
  0
DIMSTYLE
105
85
330
A
100
AcDbSymbolTableRecord
100
AcDbDimStyleTableRecord
  2
AM_ISO$7
 70
     0
  4
"
 41
2.5
 42
1.0
 43
10.0
 44
1.0
 47
0.1
 48
0.1
 73
     0
 74
     0
 77
     1
 78
     8
 79
     2
140
5.0
141
0.0
143
0.0393701
146
0.71
147
1.5
172
     1
176
   256
177
   256
178
     2
271
     2
272
     2
283
     0
284
     8
340
11
341
407
342
407
371
    -1
372
    -1
  0
DIMSTYLE
105
86
330
A
100
AcDbSymbolTableRecord
100
AcDbDimStyleTableRecord
  2
AM_ISO$SF
 70
     0
  4
"
 41
2.5
 42
1.0
 43
10.0
 44
1.0
 47
0.1
 48
0.1
 73
     0
 74
     0
 75
     1
 76
     1
 77
     1
 78
     8
 79
     2
140
3.5
141
0.0
143
0.0393701
146
0.71
147
1.5
172
     1
176
   256
177
   256
178
     2
271
     2
272
     2
283
     0
284
     8
340
11
341
407
342
407
371
    -1
372
    -1
  0
DIMSTYLE
105
8B
330
A
100
AcDbSymbolTableRecord
100
AcDbDimStyleTableRecord
  2
AM_ISO$SH
 70
     0
  4
"
 41
2.5
 42
1.0
 43
10.0
 44
1.0
 47
0.1
 48
0.1
 73
     0
 74
     0
 75
     1
 76
     1
 77
     1
 78
     8
 79
     2
140
3.5
141
0.0
143
0.0393701
144
2.0
146
0.71
147
1.5
172
     1
173
     1
176
   256
177
   256
178
     2
271
     2
272
     2
283
     0
284
     8
340
11
341
407
343
87
344
407
371
    -1
372
    -1
  0
DIMSTYLE
105
5C3
330
A
100
AcDbSymbolTableRecord
100
AcDbDimStyleTableRecord
  2
GEN-ISO
 70
     0
  4
"
 41
2.5
 42
1.0
 43
10.0
 44
1.0
 47
0.1
 48
0.1
 73
     0
 74
     0
 77
     1
 78
     8
140
3.5
141
0.0
143
0.0393701
146
0.71
147
1.5
172
     1
176
   256
177
   256
178
     2
271
     2
272
     3
274
     4
283
     0
340
11
  0
DIMSTYLE
105
5C4
330
A
100
AcDbSymbolTableRecord
100
AcDbDimStyleTableRecord
  2
GEN-ISO$4
 70
     0
  4
"
 41
2.5
 42
1.0
 43
10.0
 44
1.0
 47
0.1
 48
0.1
 73
     0
 77
     1
 78
     8
140
3.5
141
0.0
143
0.0393701
146
0.71
147
1.5
176
   256
177
   256
178
     2
271
     2
272
     3
274
     4
283
     0
288
     1
289
     0
340
11
  0
DIMSTYLE
105
5C5
330
A
100
AcDbSymbolTableRecord
100
AcDbDimStyleTableRecord
  2
GEN-ISO$3
 70
     0
  4
"
 41
2.5
 42
1.0
 43
10.0
 44
1.0
 47
0.1
 48
0.1
 73
     0
 77
     1
 78
     8
140
3.5
141
0.0
143
0.0393701
146
0.71
147
1.5
176
   256
177
   256
178
     2
271
     2
272
     3
274
     4
283
     0
288
     1
289
     0
340
11
  0
DIMSTYLE
105
5C6
330
A
100
AcDbSymbolTableRecord
100
AcDbDimStyleTableRecord
  2
ISO-25
 70
     0
 41
2.5
 42
0.625
 43
3.75
 44
1.25
 74
     0
 77
     1
 78
     8
140
2.5
141
2.5
143
0.0394
145
1.0
147
0.625
172
     1
340
11
  0
DIMSTYLE
105
5C7
330
A
100
AcDbSymbolTableRecord
100
AcDbDimStyleTableRecord
  2
GEN-ISO$6
 70
     0
  4
"
 41
2.5
 42
1.0
 43
10.0
 44
1.0
 47
0.1
 48
0.1
 73
     0
 74
     0
 78
     8
140
3.5
141
0.0
143
0.0393701
146
0.71
147
1.5
176
   256
177
   256
178
     2
271
     2
272
     3
274
     4
283
     0
340
11
  0
DIMSTYLE
105
5C8
330
A
100
AcDbSymbolTableRecord
100
AcDbDimStyleTableRecord
  2
GEN-ISO-POS
 70
     0
  4
"
 41
2.5
 42
1.0
 43
10.0
 44
1.0
 47
0.1
 48
0.1
 73
     0
 74
     0
 78
     8
140
5.0
141
0.0
143
0.0393701
146
0.71
147
1.5
176
   256
177
   256
178
     2
271
     2
272
     3
274
     4
283
     0
340
11
  0
DIMSTYLE
105
5C9
330
A
100
AcDbSymbolTableRecord
100
AcDbDimStyleTableRecord
  2
GEN-ISO-AXE-F
 70
     0
  4
"
 41
2.5
 42
1.0
 43
10.0
 44
1.0
 47
0.1
 48
0.1
 73
     0
 74
     0
 75
     1
 76
     1
 77
     1
 78
     8
140
3.5
141
0.0
143
0.0393701
146
0.71
147
1.5
172
     1
176
   256
177
   256
178
     2
271
     2
272
     3
274
     4
283
     0
340
11
  0
DIMSTYLE
105
5CA
330
A
100
AcDbSymbolTableRecord
100
AcDbDimStyleTableRecord
  2
GEN-ISO-AXE-H
 70
     0
  4
"
 41
2.5
 42
1.0
 43
10.0
 44
1.0
 47
0.1
 48
0.1
 73
     0
 74
     0
 75
     1
 76
     1
 77
     1
 78
     8
140
3.5
141
0.0
143
0.0393701
144
2.0
146
0.71
147
1.5
172
     1
173
     1
176
   256
177
   256
178
     2
271
     2
272
     3
274
     4
283
     0
340
11
  0
DIMSTYLE
105
98C
102
{ACAD_REACTORS
330
35F0
330
3614
330
3638
330
3666
330
3694
330
36B8
102
}
330
A
100
AcDbSymbolTableRecord
100
AcDbDimStyleTableRecord
  2
AM_ISO$0
 70
     0
  4
"
 41
2.5
 42
1.0
 43
10.0
 44
1.0
 47
0.1
 48
0.1
 73
     0
 74
     0
 77
     1
 78
     8
 79
     2
140
3.5
141
0.0
143
0.0393701
146
0.71
147
1.5
172
     1
176
   256
177
   256
178
     2
271
     2
272
     2
283
     0
284
     8
340
11
341
407
342
407
371
    -1
372
    -1
  0
ENDTAB
  0
TABLE
  2
BLOCK_RECORD
  5
1
330
0
100
AcDbSymbolTable
 70
    49
  0
BLOCK_RECORD
  5
1F
102
{ACAD_XDICTIONARY
360
8F
102
}
330
1
100
AcDbSymbolTableRecord
100
AcDbBlockTableRecord
  2
*Model_Space
340
22
  0
BLOCK_RECORD
  5
23
330
1
100
AcDbSymbolTableRecord
100
AcDbBlockTableRecord
  2
*Paper_Space
340
26
  0
BLOCK_RECORD
  5
1B
330
1
100
AcDbSymbolTableRecord
100
AcDbBlockTableRecord
  2
*Paper_Space0
340
1E
  0
BLOCK_RECORD
  5
87
330
1
100
AcDbSymbolTableRecord
100
AcDbBlockTableRecord
  2
GENAXEH
340
0
  0
BLOCK_RECORD
  5
407
330
1
100
AcDbSymbolTableRecord
100
AcDbBlockTableRecord
  2
_Open30
340
0
102
{BLKREFS
331
3744
331
3749
331
374F
331
3750
331
3758
331
3759
331
3761
331
3762
331
376C
331
376D
331
3775
331
3776
331
377E
331
377F
102
}
  0
BLOCK_RECORD
  5
5A7
330
1
100
AcDbSymbolTableRecord
100
AcDbBlockTableRecord
  2
GEVCON
340
0
  0
BLOCK_RECORD
  5
5AA
330
1
100
AcDbSymbolTableRecord
100
AcDbBlockTableRecord
  2
GEVEP
340
0
  0
BLOCK_RECORD
  5
5B3
330
1
100
AcDbSymbolTableRecord
100
AcDbBlockTableRecord
  2
GEVFRAME
340
0
  0
BLOCK_RECORD
  5
5CD
102
{ACAD_XDICTIONARY
360
5D9
102
}
330
1
100
AcDbSymbolTableRecord
100
AcDbBlockTableRecord
  2
TAKACHI-A4
340
0
102
{BLKREFS
331
5E3
102
}
  0
BLOCK_RECORD
  5
5E9
102
{ACAD_XDICTIONARY
360
63E
102
}
330
1
100
AcDbSymbolTableRecord
100
AcDbBlockTableRecord
  2
TAKACHI-TITLE
340
0
102
{BLKREFS
331
642
102
}
  0
BLOCK_RECORD
  5
6A0
330
1
100
AcDbSymbolTableRecord
100
AcDbBlockTableRecord
  2
GENDOT
340
0
  0
BLOCK_RECORD
  5
35C4
330
1
100
AcDbSymbolTableRecord
100
AcDbBlockTableRecord
  2
*D38
340
0
  0
BLOCK_RECORD
  5
35D4
330
1
100
AcDbSymbolTableRecord
100
AcDbBlockTableRecord
  2
*D39
340
0
  0
BLOCK_RECORD
  5
35F1
330
1
100
AcDbSymbolTableRecord
100
AcDbBlockTableRecord
  2
*D40
340
0
  0
BLOCK_RECORD
  5
3615
330
1
100
AcDbSymbolTableRecord
100
AcDbBlockTableRecord
  2
*D41
340
0
  0
BLOCK_RECORD
  5
3639
330
1
100
AcDbSymbolTableRecord
100
AcDbBlockTableRecord
  2
*D42
340
0
  0
BLOCK_RECORD
  5
3667
330
1
100
AcDbSymbolTableRecord
100
AcDbBlockTableRecord
  2
*D43
340
0
  0
BLOCK_RECORD
  5
3695
330
1
100
AcDbSymbolTableRecord
100
AcDbBlockTableRecord
  2
*D44
340
0
  0
BLOCK_RECORD
  5
36B9
330
1
100
AcDbSymbolTableRecord
100
AcDbBlockTableRecord
  2
*D45
340
0
  0
BLOCK_RECORD
  5
37F3
330
1
100
AcDbSymbolTableRecord
100
AcDbBlockTableRecord
  2
*S46
340
0
  0
BLOCK_RECORD
  5
37FA
330
1
100
AcDbSymbolTableRecord
100
AcDbBlockTableRecord
  2
*S47
340
0
  0
BLOCK_RECORD
  5
3802
330
1
100
AcDbSymbolTableRecord
100
AcDbBlockTableRecord
  2
*S48
340
0
  0
ENDTAB
  0
ENDSEC
  0
SECTION
  2
BLOCKS
  0
BLOCK
  5
20
330
1F
100
AcDbEntity
  8
0
100
AcDbBlockBegin
  2
*Model_Space
 70
     0
 10
0.0
 20
0.0
 30
0.0
  3
*Model_Space
  1

  0
ENDBLK
  5
21
330
1F
100
AcDbEntity
  8
0
100
AcDbBlockEnd
  0
BLOCK
  5
24
330
23
100
AcDbEntity
 67
     1
  8
0
100
AcDbBlockBegin
  2
*Paper_Space
 70
     0
 10
0.0
 20
0.0
 30
0.0
  3
*Paper_Space
  1

  0
ENDBLK
  5
25
330
23
100
AcDbEntity
 67
     1
  8
0
100
AcDbBlockEnd
  0
BLOCK
  5
1C
330
1B
100
AcDbEntity
 67
     1
  8
0
100
AcDbBlockBegin
  2
*Paper_Space0
 70
     0
 10
0.0
 20
0.0
 30
0.0
  3
*Paper_Space0
  1

  0
VIEWPORT
  5
178
102
{ACAD_XDICTIONARY
360
3851
102
}
330
1B
100
AcDbEntity
 67
     1
  8
0
100
AcDbViewport
 10
133.3499908447265
 20
101.5999970436096
 30
0.0
 40
370.2266912936524
 41
228.4221935424805
 68
     0
 69
     0
 12
133.3499908447265
 22
101.5999970436096
 13
0.0
 23
0.0
 14
10.0
 24
10.0
 15
10.0
 25
10.0
 16
0.0
 26
0.0
 36
1.0
 17
0.0
 27
0.0
 37
0.0
 42
50.0
 43
0.0
 44
0.0
 45
228.4221935424805
 50
0.0
 51
0.0
 72
   100
 90
    32800
  1

281
     0
 71
     1
 74
     0
110
0.0
120
0.0
130
0.0
111
1.0
121
0.0
131
0.0
112
0.0
122
1.0
132
0.0
 79
     0
146
0.0
  0
ENDBLK
  5
1D
330
1B
100
AcDbEntity
 67
     1
  8
0
100
AcDbBlockEnd
  0
BLOCK
  5
89
330
87
100
AcDbEntity
  8
0
100
AcDbBlockBegin
  2
GENAXEH
 70
     0
 10
0.0
 20
0.0
 30
0.0
  3
GENAXEH
  1

  0
LINE
  5
88
330
87
100
AcDbEntity
  8
0
100
AcDbLine
 10
-1.0
 20
0.0
 30
0.0
 11
1.0
 21
0.0
 31
0.0
  0
ENDBLK
  5
8A
330
87
100
AcDbEntity
  8
0
100
AcDbBlockEnd
  0
BLOCK
  5
40B
330
407
100
AcDbEntity
  8
0
100
AcDbBlockBegin
  2
_Open30
 70
     0
 10
0.0
 20
0.0
 30
0.0
  3
_Open30
  1

  0
LINE
  5
408
330
407
100
AcDbEntity
  8
0
  6
ByBlock
 62
     0
370
    -2
100
AcDbLine
 10
-1.0
 20
0.26794919
 30
0.0
 11
0.0
 21
0.0
 31
0.0
  0
LINE
  5
409
330
407
100
AcDbEntity
  8
0
  6
ByBlock
 62
     0
370
    -2
100
AcDbLine
 10
0.0
 20
0.0
 30
0.0
 11
-1.0
 21
-0.26794919
 31
0.0
  0
LINE
  5
40A
330
407
100
AcDbEntity
  8
0
  6
ByBlock
 62
     0
370
    -2
100
AcDbLine
 10
0.0
 20
0.0
 30
0.0
 11
-1.0
 21
0.0
 31
0.0
  0
ENDBLK
  5
40C
330
407
100
AcDbEntity
  8
0
100
AcDbBlockEnd
  0
BLOCK
  5
5A8
330
5A7
100
AcDbEntity
  8
0
100
AcDbBlockBegin
  2
GEVCON
 70
     0
 10
0.0
 20
0.0
 30
0.0
  3
GEVCON
  1
GEVCON
  0
ENDBLK
  5
5A9
330
5A7
100
AcDbEntity
  8
0
100
AcDbBlockEnd
  0
BLOCK
  5
5AB
330
5AA
100
AcDbEntity
  8
0
100
AcDbBlockBegin
  2
GEVEP
 70
     0
 10
0.0
 20
0.0
 30
0.0
  3
GEVEP
  1

  0
LINE
  5
5AC
330
5AA
100
AcDbEntity
  8
0
100
AcDbLine
 10
2.0
 20
-2.0
 30
0.0
 11
-2.0
 21
-2.0
 31
0.0
  0
LINE
  5
5AD
330
5AA
100
AcDbEntity
  8
0
100
AcDbLine
 10
-2.0
 20
2.0
 30
0.0
 11
2.0
 21
2.0
 31
0.0
  0
LINE
  5
5AE
330
5AA
100
AcDbEntity
  8
0
100
AcDbLine
 10
2.0
 20
-2.0
 30
0.0
 11
-2.0
 21
2.0
 31
0.0
  0
LINE
  5
5AF
330
5AA
100
AcDbEntity
  8
0
100
AcDbLine
 10
-2.0
 20
-2.0
 30
0.0
 11
2.0
 21
2.0
 31
0.0
  0
LINE
  5
5B0
330
5AA
100
AcDbEntity
  8
0
100
AcDbLine
 10
-2.0
 20
-2.0
 30
0.0
 11
-2.0
 21
2.0
 31
0.0
  0
LINE
  5
5B1
330
5AA
100
AcDbEntity
  8
0
100
AcDbLine
 10
2.0
 20
2.0
 30
0.0
 11
2.0
 21
-2.0
 31
0.0
  0
ENDBLK
  5
5B2
330
5AA
100
AcDbEntity
  8
0
100
AcDbBlockEnd
  0
BLOCK
  5
5B4
330
5B3
100
AcDbEntity
  8
0
100
AcDbBlockBegin
  2
GEVFRAME
 70
     0
 10
0.0
 20
0.0
 30
0.0
  3
GEVFRAME
  1
GEVFRAME
  0
LINE
  5
5B5
330
5B3
100
AcDbEntity
  8
0
100
AcDbLine
 10
0.0
 20
0.0
 30
0.0
 11
1.0
 21
0.0
 31
0.0
  0
LINE
  5
5B6
330
5B3
100
AcDbEntity
  8
0
100
AcDbLine
 10
1.0
 20
0.0
 30
0.0
 11
1.0
 21
1.0
 31
0.0
  0
LINE
  5
5B7
330
5B3
100
AcDbEntity
  8
0
100
AcDbLine
 10
1.0
 20
1.0
 30
0.0
 11
0.0
 21
1.0
 31
0.0
  0
LINE
  5
5B8
330
5B3
100
AcDbEntity
  8
0
100
AcDbLine
 10
0.0
 20
1.0
 30
0.0
 11
0.0
 21
0.0
 31
0.0
  0
ENDBLK
  5
5B9
330
5B3
100
AcDbEntity
  8
0
100
AcDbBlockEnd
  0
BLOCK
  5
5DA
330
5CD
100
AcDbEntity
  8
0
100
AcDbBlockBegin
  2
TAKACHI-A4
 70
     0
 10
0.0
 20
0.0
 30
0.0
  3
TAKACHI-A4
  1

  0
TEXT
  5
5CE
330
5CD
100
AcDbEntity
  8
0
 60
     1
100
AcDbText
 10
10.0
 20
54.99999999999994
 30
0.0
 40
2.5
  1
!GENTITLE-LL
100
AcDbText
  0
TEXT
  5
5CF
330
5CD
100
AcDbEntity
  8
0
 60
     1
100
AcDbText
 10
215.0
 20
15.0
 30
0.0
 40
2.5
  1
!GENTITLE-INSERT
100
AcDbText
  0
TEXT
  5
5D0
330
5CD
100
AcDbEntity
  8
0
 60
     1
100
AcDbText
 10
215.0
 20
285.0000000000001
 30
0.0
 40
2.5
  1
!GENTITLE-RU
100
AcDbText
  0
TEXT
  5
5D1
330
5CD
100
AcDbEntity
  8
0
 60
     1
100
AcDbText
 10
215.0000000000001
 20
290.0
 30
0.0
 40
2.5
  1
!GENTITLE-MAX
100
AcDbText
  0
LINE
  5
5D2
330
5CD
100
AcDbEntity
  8
0
100
AcDbLine
 10
215.0
 20
290.0000000000001
 30
0.0
 11
20.00000000000003
 21
290.0
 31
0.0
1001
GENIUS_GENREC_14
1002
{
1000
PYDIR
1011
15.00000000000003
1021
295.0
1031
0.0
1002
}
1002
{
1000
PXDIR
1011
215.0
1021
15.0
1031
0.0
1002
}
1002
{
1000
PORI
1011
15.0
1021
15.0
1031
0.0
1002
}
1002
{
1000
PINS
1011
115.0
1021
155.0
1031
0.0
1002
}
1002
{
1000
HVAL
1000
280
1002
}
1002
{
1000
H
1070
     2
1002
}
1002
{
1000
WVAL
1000
200
1002
}
1002
{
1000
W
1070
     2
1002
}
1002
{
1000
C
1070
     4
1002
}
  0
LINE
  5
5D3
330
5CD
100
AcDbEntity
  8
0
100
AcDbLine
 10
20.00000000000003
 20
290.0
 30
0.0
 11
19.99999999999997
 21
15.0
 31
0.0
1001
GENIUS_GENREC_14
1002
{
1000
PYDIR
1011
15.00000000000003
1021
295.0
1031
0.0
1002
}
1002
{
1000
PXDIR
1011
215.0
1021
15.0
1031
0.0
1002
}
1002
{
1000
PORI
1011
15.0
1021
15.0
1031
0.0
1002
}
1002
{
1000
PINS
1011
115.0
1021
155.0
1031
0.0
1002
}
1002
{
1000
HVAL
1000
280
1002
}
1002
{
1000
H
1070
     2
1002
}
1002
{
1000
WVAL
1000
200
1002
}
1002
{
1000
W
1070
     2
1002
}
1002
{
1000
C
1070
     4
1002
}
  0
LINE
  5
5D4
330
5CD
100
AcDbEntity
  8
0
100
AcDbLine
 10
19.99999999999997
 20
15.0
 30
0.0
 11
215.0
 21
15.0
 31
0.0
1001
GENIUS_GENREC_14
1002
{
1000
PYDIR
1011
15.00000000000003
1021
295.0
1031
0.0
1002
}
1002
{
1000
PXDIR
1011
215.0
1021
15.0
1031
0.0
1002
}
1002
{
1000
PORI
1011
15.0
1021
15.0
1031
0.0
1002
}
1002
{
1000
PINS
1011
115.0
1021
155.0
1031
0.0
1002
}
1002
{
1000
HVAL
1000
280
1002
}
1002
{
1000
H
1070
     2
1002
}
1002
{
1000
WVAL
1000
200
1002
}
1002
{
1000
W
1070
     2
1002
}
1002
{
1000
C
1070
     4
1002
}
  0
LINE
  5
5D5
330
5CD
100
AcDbEntity
  8
0
100
AcDbLine
 10
215.0
 20
15.0
 30
0.0
 11
215.0000000000001
 21
290.0000000000001
 31
0.0
1001
GENIUS_GENREC_14
1002
{
1000
PYDIR
1011
15.00000000000003
1021
295.0
1031
0.0
1002
}
1002
{
1000
PXDIR
1011
215.0
1021
15.0
1031
0.0
1002
}
1002
{
1000
PORI
1011
15.0
1021
15.0
1031
0.0
1002
}
1002
{
1000
PINS
1011
115.0
1021
155.0
1031
0.0
1002
}
1002
{
1000
HVAL
1000
280
1002
}
1002
{
1000
H
1070
     2
1002
}
1002
{
1000
WVAL
1000
200
1002
}
1002
{
1000
W
1070
     2
1002
}
1002
{
1000
C
1070
     4
1002
}
  0
LINE
  5
5D6
330
5CD
100
AcDbEntity
  8
0
100
AcDbLine
 10
171.0000000000001
 20
285.0000000000001
 30
0.0
 11
215.0000000000001
 21
285.0000000000001
 31
0.0
  0
LINE
  5
5D7
330
5CD
100
AcDbEntity
  8
0
100
AcDbLine
 10
171.0000000000001
 20
290.0000000000001
 30
0.0
 11
171.0000000000001
 21
285.0000000000001
 31
0.0
  0
MTEXT
  5
5D8
330
5CD
100
AcDbEntity
  8
0
100
AcDbMText
 10
214.3592953827349
 20
286.1085429872271
 30
0.0
 40
2.5
 41
43.07840397728298
 71
     9
 72
     5
  1
(文書番号：TY-34)2004.10.29
 73
     1
 44
1.0
1001
ACAD
1000
MTEXTBEGIN
1070
    73
1070
     1
1070
    44
1040
1.0
1070
    74
1070
     0
1000
MTEXTEND
  0
ENDBLK
  5
5DB
330
5CD
100
AcDbEntity
  8
0
100
AcDbBlockEnd
  0
BLOCK
  5
63F
330
5E9
100
AcDbEntity
  8
0
100
AcDbBlockBegin
  2
TAKACHI-TITLE
 70
     2
 10
0.0
 20
0.0
 30
0.0
  3
TAKACHI-TITLE
  1

  0
LINE
  5
5EA
330
5E9
100
AcDbEntity
  8
RAHM2
100
AcDbLine
 10
-195.0
 20
30.00000000000003
 30
0.0
 11
-94.0
 21
30.00000000000003
 31
0.0
  0
LINE
  5
5EB
330
5E9
100
AcDbEntity
  8
RAHM2
100
AcDbLine
 10
-195.0
 20
35.00000000000003
 30
0.0
 11
-94.0
 21
35.00000000000003
 31
0.0
  0
LINE
  5
5EC
330
5E9
100
AcDbEntity
  8
RAHM2
100
AcDbLine
 10
-195.0
 20
40.00000000000002
 30
0.0
 11
-94.0
 21
40.00000000000002
 31
0.0
  0
LINE
  5
5ED
330
5E9
100
AcDbEntity
  8
RAHM2
100
AcDbLine
 10
-195.0
 20
45.00000000000002
 30
0.0
 11
-94.0
 21
45.00000000000002
 31
0.0
  0
LINE
  5
5EE
330
5E9
100
AcDbEntity
  8
0
100
AcDbLine
 10
-195.0
 20
7.0
 30
0.0
 11
-94.0
 21
7.0
 31
0.0
  0
LINE
  5
5EF
330
5E9
100
AcDbEntity
  8
0
100
AcDbLine
 10
-195.0
 20
19.99999999999997
 30
0.0
 11
-94.0
 21
19.99999999999997
 31
0.0
  0
ATTDEF
  5
5F0
330
5E9
100
AcDbEntity
  8
0
100
AcDbText
 10
-183.2438527145607
 20
8.950850524428082
 30
0.0
 40
2.5
  1

 11
-183.2438527145607
 21
8.617517191094748
 31
0.0
100
AcDbAttributeDefinition
  3
サブタイトル
  2
GEN-TITLE-DES2
 70
     0
 74
     1
  0
ATTDEF
  5
5F1
330
5E9
100
AcDbEntity
  8
0
100
AcDbText
 10
-183.2438527145607
 20
2.017517191094748
 30
0.0
 40
3.0
  1

 11
-183.2438527145607
 21
1.617517191094748
 31
0.0
100
AcDbAttributeDefinition
  3
図番
  2
GEN-TITLE-NR
 70
     0
 74
     1
  0
MTEXT
  5
5F2
330
5E9
100
AcDbEntity
  8
RAHM2
100
AcDbMText
 10
-193.8002551371314
 20
5.801035407279641
 30
0.0
 40
2.5
 41
90.0
 71
     1
 72
     5
  1
図番
 73
     1
 44
1.0
1001
ACAD
1000
MTEXTBEGIN
1070
    73
1070
     1
1070
    44
1040
1.0
1070
    74
1070
     0
1000
MTEXTEND
  0
ATTDEF
  5
5F3
330
5E9
100
AcDbEntity
  8
0
100
AcDbText
 10
-183.2438527145607
 20
14.40728619501834
 30
0.0
 40
4.0
  1

 11
-183.2438527145607
 21
13.87395286168501
 31
0.0
100
AcDbAttributeDefinition
  3
品名
  2
GEN-TITLE-DES1
 70
     0
 74
     1
  0
LINE
  5
5F4
330
5E9
100
AcDbEntity
  8
RAHM2
100
AcDbLine
 10
-187.5751288694036
 20
30.40000000000004
 30
0.0
 11
-190.0
 21
34.60000000000003
 31
0.0
  0
LINE
  5
5F5
330
5E9
100
AcDbEntity
  8
RAHM2
100
AcDbLine
 10
-190.0
 20
34.60000000000003
 30
0.0
 11
-192.4248711305964
 21
30.40000000000004
 31
0.0
  0
LINE
  5
5F6
330
5E9
100
AcDbEntity
  8
RAHM2
100
AcDbLine
 10
-185.0
 20
50.00000000000003
 30
0.0
 11
-185.0
 21
19.99999999999994
 31
0.0
  0
LINE
  5
5F7
330
5E9
100
AcDbEntity
  8
RAHM2
100
AcDbLine
 10
-192.4248711305964
 20
30.40000000000004
 30
0.0
 11
-187.5751288694036
 21
30.40000000000004
 31
0.0
  0
MTEXT
  5
5F8
330
5E9
100
AcDbEntity
  8
RAHM2
100
AcDbMText
 10
-190.0
 20
22.49999999999997
 30
0.0
 40
2.5
 41
10.0
 71
     5
 72
     5
  1
符号
 73
     1
 44
1.0
1001
ACAD
1000
MTEXTBEGIN
1070
    73
1070
     1
1070
    44
1040
1.0
1070
    74
1070
     0
1000
MTEXTEND
  0
MTEXT
  5
5F9
330
5E9
100
AcDbEntity
  8
RAHM2
100
AcDbMText
 10
-193.8002551371314
 20
18.80103540727961
 30
0.0
 40
2.5
 41
90.0
 71
     1
 72
     5
  1
品名
 73
     1
 44
1.0
1001
ACAD
1000
MTEXTBEGIN
1070
    73
1070
     1
1070
    44
1040
1.0
1070
    74
1070
     0
1000
MTEXTEND
  0
LINE
  5
5FA
330
5E9
100
AcDbEntity
  8
RAHM2
100
AcDbLine
 10
-192.4248711305964
 20
45.40000000000003
 30
0.0
 11
-187.5751288694036
 21
45.40000000000003
 31
0.0
  0
LINE
  5
5FB
330
5E9
100
AcDbEntity
  8
RAHM2
100
AcDbLine
 10
-187.5751288694036
 20
45.40000000000003
 30
0.0
 11
-190.0
 21
49.60000000000002
 31
0.0
  0
LINE
  5
5FC
330
5E9
100
AcDbEntity
  8
RAHM2
100
AcDbLine
 10
-192.4248711305964
 20
40.40000000000003
 30
0.0
 11
-187.5751288694036
 21
40.40000000000003
 31
0.0
  0
LINE
  5
5FD
330
5E9
100
AcDbEntity
  8
RAHM2
100
AcDbLine
 10
-187.5751288694036
 20
40.40000000000003
 30
0.0
 11
-190.0
 21
44.60000000000002
 31
0.0
  0
LINE
  5
5FE
330
5E9
100
AcDbEntity
  8
RAHM2
100
AcDbLine
 10
-192.4248711305964
 20
35.40000000000004
 30
0.0
 11
-187.5751288694036
 21
35.40000000000004
 31
0.0
  0
LINE
  5
5FF
330
5E9
100
AcDbEntity
  8
RAHM2
100
AcDbLine
 10
-187.5751288694036
 20
35.40000000000004
 30
0.0
 11
-190.0
 21
39.60000000000002
 31
0.0
  0
LINE
  5
600
330
5E9
100
AcDbEntity
  8
RAHM2
100
AcDbLine
 10
-190.0
 20
39.60000000000002
 30
0.0
 11
-192.4248711305964
 21
35.40000000000004
 31
0.0
  0
LINE
  5
601
330
5E9
100
AcDbEntity
  8
RAHM2
100
AcDbLine
 10
-190.0
 20
44.60000000000002
 30
0.0
 11
-192.4248711305964
 21
40.40000000000003
 31
0.0
  0
LINE
  5
602
330
5E9
100
AcDbEntity
  8
RAHM2
100
AcDbLine
 10
-190.0
 20
49.60000000000002
 30
0.0
 11
-192.4248711305964
 21
45.40000000000003
 31
0.0
  0
LINE
  5
603
330
5E9
100
AcDbEntity
  8
RAHM2
100
AcDbLine
 10
-129.0
 20
50.00000000000003
 30
0.0
 11
-129.0
 21
19.99999999999994
 31
0.0
  0
MTEXT
  5
604
330
5E9
100
AcDbEntity
  8
RAHM2
100
AcDbMText
 10
-157.1448171868856
 20
22.49999999999997
 30
0.0
 40
2.5
 41
45.0
 71
     5
 72
     5
  1
変更記事
 73
     1
 44
1.0
1001
ACAD
1000
MTEXTBEGIN
1070
    73
1070
     1
1070
    44
1040
1.0
1070
    74
1070
     0
1000
MTEXTEND
  0
LINE
  5
605
330
5E9
100
AcDbEntity
  8
0
100
AcDbLine
 10
-34.0
 20
50.0
 30
0.0
 11
-34.0
 21
0.0
 31
0.0
  0
LINE
  5
606
330
5E9
100
AcDbEntity
  8
0
100
AcDbLine
 10
-94.0
 20
50.0
 30
0.0
 11
-94.0
 21
0.0
 31
0.0
  0
MTEXT
  5
607
330
5E9
100
AcDbEntity
  8
0
100
AcDbMText
 10
-64.0
 20
5.0
 30
0.0
 40
3.5
 41
60.0
 71
     5
 72
     5
  1
\fＭＳ ゴシック|b0|i0|c128|p49;株式会社タカチ電機工業
 73
     1
 44
1.0
1001
ACAD
1000
MTEXTBEGIN
1070
    73
1070
     1
1070
    44
1040
1.0
1070
    74
1070
     0
1000
MTEXTEND
  0
LINE
  5
608
330
5E9
100
AcDbEntity
  8
0
100
AcDbLine
 10
-94.0
 20
10.0
 30
0.0
 11
-34.0
 21
10.0
 31
0.0
  0
ATTDEF
  5
609
330
5E9
100
AcDbEntity
  8
0
100
AcDbText
 10
-58.01405119799745
 20
39.25500556178349
 30
0.0
 40
3.0
  1

 72
     2
 11
-58.01405119799745
 21
39.25500556178349
 31
0.0
100
AcDbAttributeDefinition
  3
尺度
  2
GEN-TITLE-SCA
 70
     0
  0
ATTDEF
  5
60A
330
5E9
100
AcDbEntity
  8
0
100
AcDbText
 10
-77.00284966649007
 20
31.02180787943475
 30
0.0
 40
3.0
  1

 11
-77.00284966649007
 21
30.62180787943475
 31
0.0
100
AcDbAttributeDefinition
  3
材質
  2
GEN-TITLE-MAT1
 70
     0
 74
     1
  0
ATTDEF
  5
60B
330
5E9
100
AcDbEntity
  8
0
100
AcDbText
 10
-77.00284966649007
 20
21.02180787943475
 30
0.0
 40
3.0
  1

 11
-77.00284966649007
 21
20.62180787943475
 31
0.0
100
AcDbAttributeDefinition
  3
表面処理
  2
GEN-TITLE-MAT2
 70
     0
 74
     1
  0
ATTDEF
  5
60C
330
5E9
100
AcDbEntity
  8
0
100
AcDbText
 10
-77.00284966649007
 20
12.01751719109475
 30
0.0
 40
3.0
  1

 11
-77.00284966649007
 21
11.61751719109475
 31
0.0
100
AcDbAttributeDefinition
  3
日付
  2
GEN-TITLE-DAT
 70
     0
 74
     1
  0
LINE
  5
60D
330
5E9
100
AcDbEntity
  8
0
100
AcDbLine
 10
-94.0
 20
37.5
 30
0.0
 11
-34.0
 21
37.5
 31
0.0
  0
LINE
  5
60E
330
5E9
100
AcDbEntity
  8
0
100
AcDbLine
 10
-94.0
 20
27.5
 30
0.0
 11
-34.0
 21
27.5
 31
0.0
  0
LINE
  5
60F
330
5E9
100
AcDbEntity
  8
0
100
AcDbLine
 10
-94.0
 20
17.5
 30
0.0
 11
-34.0
 21
17.5
 31
0.0
  0
LINE
  5
610
330
5E9
100
AcDbEntity
  8
RAHM2
100
AcDbLine
 10
-109.0
 20
50.00000000000003
 30
0.0
 11
-109.0
 21
19.99999999999994
 31
0.0
  0
MTEXT
  5
611
330
5E9
100
AcDbEntity
  8
RAHM2
100
AcDbMText
 10
-119.4582894723942
 20
32.50000000000003
 30
0.0
 40
2.5
 41
20.0
 71
     5
 72
     5
  1
・  ・   
 73
     1
 44
1.0
1001
ACAD
1000
MTEXTBEGIN
1070
    73
1070
     1
1070
    44
1040
1.0
1070
    74
1070
     0
1000
MTEXTEND
  0
MTEXT
  5
612
330
5E9
100
AcDbEntity
  8
RAHM2
100
AcDbMText
 10
-118.738119805002
 20
22.49999999999997
 30
0.0
 40
2.5
 41
20.0
 71
     5
 72
     5
  1
年・月・日
 73
     1
 44
1.0
1001
ACAD
1000
MTEXTBEGIN
1070
    73
1070
     1
1070
    44
1040
1.0
1070
    74
1070
     0
1000
MTEXTEND
  0
MTEXT
  5
613
330
5E9
100
AcDbEntity
  8
RAHM2
100
AcDbMText
 10
-101.5
 20
22.49999999999997
 30
0.0
 40
2.5
 41
15.0
 71
     5
 72
     5
  1
担当
 73
     1
 44
1.0
1001
ACAD
1000
MTEXTBEGIN
1070
    73
1070
     1
1070
    44
1040
1.0
1070
    74
1070
     0
1000
MTEXTEND
  0
MTEXT
  5
614
330
5E9
100
AcDbEntity
  8
RAHM2
100
AcDbMText
 10
-119.4582894723942
 20
42.50000000000002
 30
0.0
 40
2.5
 41
20.0
 71
     5
 72
     5
  1
・  ・   
 73
     1
 44
1.0
1001
ACAD
1000
MTEXTBEGIN
1070
    73
1070
     1
1070
    44
1040
1.0
1070
    74
1070
     0
1000
MTEXTEND
  0
MTEXT
  5
615
330
5E9
100
AcDbEntity
  8
RAHM2
100
AcDbMText
 10
-119.4582894723942
 20
37.50000000000003
 30
0.0
 40
2.5
 41
20.0
 71
     5
 72
     5
  1
・  ・   
 73
     1
 44
1.0
1001
ACAD
1000
MTEXTBEGIN
1070
    73
1070
     1
1070
    44
1040
1.0
1070
    74
1070
     0
1000
MTEXTEND
  0
MTEXT
  5
616
330
5E9
100
AcDbEntity
  8
RAHM2
100
AcDbMText
 10
-119.4582894723942
 20
47.50000000000002
 30
0.0
 40
2.5
 41
20.0
 71
     5
 72
     5
  1
・  ・   
 73
     1
 44
1.0
1001
ACAD
1000
MTEXTBEGIN
1070
    73
1070
     1
1070
    44
1040
1.0
1070
    74
1070
     0
1000
MTEXTEND
  0
MTEXT
  5
617
330
5E9
100
AcDbEntity
  8
RAHM2
100
AcDbMText
 10
-92.80025513713145
 20
16.30103540727964
 30
0.0
 40
2.5
 41
60.0
 71
     1
 72
     5
  1
日付
 73
     1
 44
1.0
1001
ACAD
1000
MTEXTBEGIN
1070
    73
1070
     1
1070
    44
1040
1.0
1070
    74
1070
     0
1000
MTEXTEND
  0
MTEXT
  5
618
330
5E9
100
AcDbEntity
  8
RAHM2
100
AcDbMText
 10
-92.80025513713145
 20
26.30103540727964
 30
0.0
 40
2.5
 41
60.0
 71
     1
 72
     5
  1
表面処理
 73
     1
 44
1.0
1001
ACAD
1000
MTEXTBEGIN
1070
    73
1070
     1
1070
    44
1040
1.0
1070
    74
1070
     0
1000
MTEXTEND
  0
LINE
  5
619
330
5E9
100
AcDbEntity
  8
7A
100
AcDbLine
 10
-89.0
 20
43.75
 30
0.0
 11
-75.2186915997147
 21
43.75
 31
0.0
1001
GENIUS_GENOREF_13
1005
62C
  0
LINE
  5
61A
330
5E9
100
AcDbEntity
  8
0
100
AcDbLine
 10
-84.0
 20
45.75
 30
0.0
 11
-76.0
 21
46.74999999999999
 31
0.0
  0
LINE
  5
61B
330
5E9
100
AcDbEntity
  8
0
100
AcDbLine
 10
-76.0
 20
40.75
 30
0.0
 11
-84.0
 21
41.74999999999999
 31
0.0
  0
LINE
  5
61C
330
5E9
100
AcDbEntity
  8
7A
100
AcDbLine
 10
-89.0
 20
43.75
 30
0.0
 11
-89.0
 21
47.32478664473148
 31
0.0
1001
GENIUS_GENOREF_13
1005
62C
  0
CIRCLE
  5
61D
330
5E9
100
AcDbEntity
  8
0
100
AcDbCircle
 10
-89.0
 20
43.75
 30
0.0
 40
2.0
  0
CIRCLE
  5
61E
330
5E9
100
AcDbEntity
  8
0
100
AcDbCircle
 10
-89.0
 20
43.75
 30
0.0
 40
3.0
  0
LINE
  5
61F
330
5E9
100
AcDbEntity
  8
0
100
AcDbLine
 10
-84.0
 20
41.74999999999999
 30
0.0
 11
-84.0
 21
45.75
 31
0.0
  0
MTEXT
  5
620
330
5E9
100
AcDbEntity
  8
RAHM2
100
AcDbMText
 10
-92.80025513713145
 20
36.30103540727964
 30
0.0
 40
2.5
 41
60.0
 71
     1
 72
     5
  1
材質
 73
     1
 44
1.0
1001
ACAD
1000
MTEXTBEGIN
1070
    73
1070
     1
1070
    44
1040
1.0
1070
    74
1070
     0
1000
MTEXTEND
  0
LINE
  5
621
330
5E9
100
AcDbEntity
  8
7A
100
AcDbLine
 10
-89.0
 20
43.75
 30
0.0
 11
-92.72303737125117
 21
43.75
 31
0.0
1001
GENIUS_GENOREF_13
1005
62C
  0
LINE
  5
622
330
5E9
100
AcDbEntity
  8
7A
100
AcDbLine
 10
-89.0
 20
43.75
 30
0.0
 11
-89.0
 21
40.03991724228479
 31
0.0
1001
GENIUS_GENOREF_13
1005
62C
  0
LINE
  5
623
330
5E9
100
AcDbEntity
  8
0
100
AcDbLine
 10
-76.0
 20
46.74999999999999
 30
0.0
 11
-76.0
 21
40.75
 31
0.0
  0
LINE
  5
624
330
5E9
100
AcDbEntity
  8
0
100
AcDbLine
 10
-74.0
 20
50.0
 30
0.0
 11
-74.0
 21
37.5
 31
0.0
  0
MTEXT
  5
625
330
5E9
100
AcDbEntity
  8
RAHM2
100
AcDbMText
 10
-72.80025513713145
 20
48.80103540727964
 30
0.0
 40
2.5
 41
20.0
 71
     1
 72
     5
  1
尺度
 73
     1
 44
1.0
1001
ACAD
1000
MTEXTBEGIN
1070
    73
1070
     1
1070
    44
1040
1.0
1070
    74
1070
     0
1000
MTEXTEND
  0
ATTDEF
  5
626
330
5E9
100
AcDbEntity
  8
0
100
AcDbText
 10
-37.76317379391503
 20
39.25500556178349
 30
0.0
 40
3.0
  1

 72
     2
 11
-37.76317379391503
 21
39.25500556178349
 31
0.0
100
AcDbAttributeDefinition
  3
数量
  2
GEN-TITLE-QTY
 70
     0
  0
LINE
  5
627
330
5E9
100
AcDbEntity
  8
0
100
AcDbLine
 10
-34.0
 20
25.0
 30
0.0
 11
0.0
 21
25.0
 31
0.0
  0
LINE
  5
628
330
5E9
100
AcDbEntity
  8
0
100
AcDbLine
 10
-54.0
 20
50.0
 30
0.0
 11
-54.0
 21
37.5
 31
0.0
  0
MTEXT
  5
629
330
5E9
100
AcDbEntity
  8
RAHM2
100
AcDbMText
 10
-52.80025513713145
 20
48.80103540727964
 30
0.0
 40
2.5
 41
20.0
 71
     1
 72
     5
  1
数量
 73
     1
 44
1.0
1001
ACAD
1000
MTEXTBEGIN
1070
    73
1070
     1
1070
    44
1040
1.0
1070
    74
1070
     0
1000
MTEXTEND
  0
MTEXT
  5
62A
330
5E9
100
AcDbEntity
  8
RAHM2
100
AcDbMText
 10
-25.5
 20
23.80103540727964
 30
0.0
 40
2.5
 41
17.0
 71
     2
 72
     5
  1
承認
 73
     1
 44
1.0
1001
ACAD
1000
MTEXTBEGIN
1070
    73
1070
     1
1070
    44
1040
1.0
1070
    74
1070
     0
1000
MTEXTEND
  0
MTEXT
  5
62B
330
5E9
100
AcDbEntity
  8
RAHM2
100
AcDbMText
 10
-25.5
 20
48.80103540727964
 30
0.0
 40
2.5
 41
17.0
 71
     2
 72
     5
  1
承認
 73
     1
 44
1.0
1001
ACAD
1000
MTEXTBEGIN
1070
    73
1070
     1
1070
    44
1040
1.0
1070
    74
1070
     0
1000
MTEXTEND
  0
POINT
  5
62C
330
5E9
100
AcDbEntity
  8
0
 60
     1
100
AcDbPoint
 10
-320.5355579819676
 20
-138.1104841268254
 30
0.0
1001
GENIUS_GENODEF_13
1002
{
1000
HIER
1070
    10
1002
}
1002
{
1000
MANEDIT
1070
     0
1002
}
1002
{
1000
NOSEL
1070
     0
1002
}
1002
{
1000
BEHIND
1070
     0
1002
}
1002
{
1000
REACTOR
1002
}
1001
GENIUS_GENOBJ-N-CRS_13
1002
{
1000
OWNER
1000
GEN
1002
}
1001
GENIUS_GENOENT_13
1002
{
1000
MYREF
1005
62C
1002
}
1002
{
1000
GRP
1005
0
1002
}
1001
GENIUS_GENOLIS_13
1002
{
1000
ENT
1005
622
1005
621
1005
61C
1005
619
1002
}
  0
LINE
  5
62D
330
5E9
100
AcDbEntity
  8
RAHM2
100
AcDbLine
 10
-190.0
 20
29.60000000000002
 30
0.0
 11
-192.4248711305964
 21
25.40000000000004
 31
0.0
  0
LINE
  5
62E
330
5E9
100
AcDbEntity
  8
RAHM2
100
AcDbLine
 10
-187.5751288694036
 20
25.40000000000004
 30
0.0
 11
-190.0
 21
29.60000000000002
 31
0.0
  0
LINE
  5
62F
330
5E9
100
AcDbEntity
  8
RAHM2
100
AcDbLine
 10
-192.4248711305964
 20
25.40000000000004
 30
0.0
 11
-187.5751288694036
 21
25.40000000000004
 31
0.0
  0
LINE
  5
630
330
5E9
100
AcDbEntity
  8
RAHM2
100
AcDbLine
 10
-195.0
 20
25.00000000000003
 30
0.0
 11
-94.0
 21
25.00000000000003
 31
0.0
  0
MTEXT
  5
631
330
5E9
100
AcDbEntity
  8
RAHM2
100
AcDbMText
 10
-119.4582894723942
 20
27.50000000000003
 30
0.0
 40
2.5
 41
20.0
 71
     5
 72
     5
  1
・  ・   
 73
     1
 44
1.0
1001
ACAD
1000
MTEXTBEGIN
1070
    73
1070
     1
1070
    44
1040
1.0
1070
    74
1070
     0
1000
MTEXTEND
  0
TEXT
  5
632
330
5E9
100
AcDbEntity
  8
RAHM2
100
AcDbText
 10
-190.8155863565801
 20
25.98333333333337
 30
0.0
 40
2.5
  1
1
 72
     1
 11
-190.1905863565802
 21
25.65000000000003
 31
0.0
100
AcDbText
 73
     1
  0
TEXT
  5
633
330
5E9
100
AcDbEntity
  8
RAHM2
100
AcDbText
 10
-190.9183316929134
 20
30.98333333333337
 30
0.0
 40
2.5
  1
2
 72
     1
 11
-190.0
 21
30.65000000000003
 31
0.0
100
AcDbText
 73
     1
  0
TEXT
  5
634
330
5E9
100
AcDbEntity
  8
RAHM2
100
AcDbText
 10
-190.9267766952966
 20
35.98333333333334
 30
0.0
 40
2.5
  1
3
 72
     1
 11
-190.0
 21
35.65000000000001
 31
0.0
100
AcDbText
 73
     1
  0
TEXT
  5
635
330
5E9
100
AcDbEntity
  8
RAHM2
100
AcDbText
 10
-191.0
 20
40.98333333333337
 30
0.0
 40
2.5
  1
4
 72
     1
 11
-190.0
 21
40.65000000000003
 31
0.0
100
AcDbText
 73
     1
  0
TEXT
  5
636
330
5E9
100
AcDbEntity
  8
RAHM2
100
AcDbText
 10
-190.9267766952966
 20
45.98333333333337
 30
0.0
 40
2.5
  1
5
 72
     1
 11
-190.0
 21
45.65000000000003
 31
0.0
100
AcDbText
 73
     1
  0
LINE
  5
637
330
5E9
100
AcDbEntity
  8
0
100
AcDbLine
 10
-17.0
 20
50.0
 30
0.0
 11
-17.0
 21
0.0
 31
0.0
  0
LINE
  5
638
330
5E9
100
AcDbEntity
  8
0
100
AcDbLine
 10
-195.0
 20
0.0
 30
0.0
 11
0.0
 21
0.0
 31
0.0
1001
GENIUS_GENREC_14
1002
{
1000
PYDIR
1011
-184.0
1021
50.0
1031
0.0
1002
}
1002
{
1000
PXDIR
1011
0.0
1021
0.0
1031
0.0
1002
}
1002
{
1000
PORI
1011
-184.0
1021
0.0
1031
0.0
1002
}
1002
{
1000
PINS
1011
-100.5
1021
25.0
1031
0.0
1002
}
1002
{
1000
HVAL
1000
50
1002
}
1002
{
1000
H
1070
     2
1002
}
1002
{
1000
WVAL
1000
167
1002
}
1002
{
1000
W
1070
     2
1002
}
1002
{
1000
C
1070
     4
1002
}
1001
GENIUS_GENODEF_13
1002
{
1000
HIER
1070
     0
1002
}
1002
{
1000
MANEDIT
1070
     0
1002
}
1002
{
1000
NOSEL
1070
     0
1002
}
1002
{
1000
BEHIND
1070
     0
1002
}
1002
{
1000
REACTOR
1002
}
1001
GENIUS_GENOBJ-N-REC_13
1002
{
1000
OWNER
1000
GEN
1002
}
  0
LINE
  5
639
330
5E9
100
AcDbEntity
  8
0
100
AcDbLine
 10
0.0
 20
0.0
 30
0.0
 11
0.0
 21
50.0
 31
0.0
1001
GENIUS_GENREC_14
1002
{
1000
PYDIR
1011
-184.0
1021
50.0
1031
0.0
1002
}
1002
{
1000
PXDIR
1011
0.0
1021
0.0
1031
0.0
1002
}
1002
{
1000
PORI
1011
-184.0
1021
0.0
1031
0.0
1002
}
1002
{
1000
PINS
1011
-100.5
1021
25.0
1031
0.0
1002
}
1002
{
1000
HVAL
1000
50
1002
}
1002
{
1000
H
1070
     2
1002
}
1002
{
1000
WVAL
1000
167
1002
}
1002
{
1000
W
1070
     2
1002
}
1002
{
1000
C
1070
     4
1002
}
1001
GENIUS_GENODEF_13
1002
{
1000
HIER
1070
     0
1002
}
1002
{
1000
MANEDIT
1070
     0
1002
}
1002
{
1000
NOSEL
1070
     0
1002
}
1002
{
1000
BEHIND
1070
     0
1002
}
1002
{
1000
REACTOR
1002
}
1001
GENIUS_GENOBJ-N-REC_13
1002
{
1000
OWNER
1000
GEN
1002
}
  0
LINE
  5
63A
330
5E9
100
AcDbEntity
  8
0
100
AcDbLine
 10
0.0
 20
50.0
 30
0.0
 11
-195.0
 21
50.00000000000003
 31
0.0
1001
GENIUS_GENREC_14
1002
{
1000
PYDIR
1011
-184.0
1021
50.0
1031
0.0
1002
}
1002
{
1000
PXDIR
1011
0.0
1021
0.0
1031
0.0
1002
}
1002
{
1000
PORI
1011
-184.0
1021
0.0
1031
0.0
1002
}
1002
{
1000
PINS
1011
-100.5
1021
25.0
1031
0.0
1002
}
1002
{
1000
HVAL
1000
50
1002
}
1002
{
1000
H
1070
     2
1002
}
1002
{
1000
WVAL
1000
167
1002
}
1002
{
1000
W
1070
     2
1002
}
1002
{
1000
C
1070
     4
1002
}
1001
GENIUS_GENODEF_13
1002
{
1000
HIER
1070
     0
1002
}
1002
{
1000
MANEDIT
1070
     0
1002
}
1002
{
1000
NOSEL
1070
     0
1002
}
1002
{
1000
BEHIND
1070
     0
1002
}
1002
{
1000
REACTOR
1002
}
1001
GENIUS_GENOBJ-N-REC_13
1002
{
1000
OWNER
1000
GEN
1002
}
  0
LINE
  5
63B
330
5E9
100
AcDbEntity
  8
0
100
AcDbLine
 10
-195.0
 20
50.00000000000003
 30
0.0
 11
-195.0
 21
0.0
 31
0.0
1001
GENIUS_GENREC_14
1002
{
1000
PYDIR
1011
-195.0
1021
50.0
1031
0.0
1002
}
1002
{
1000
PXDIR
1011
-11.0
1021
0.0
1031
0.0
1002
}
1002
{
1000
PORI
1011
-195.0
1021
0.0
1031
0.0
1002
}
1002
{
1000
PINS
1011
-111.5
1021
25.0
1031
0.0
1002
}
1002
{
1000
HVAL
1000
50
1002
}
1002
{
1000
H
1070
     2
1002
}
1002
{
1000
WVAL
1000
167
1002
}
1002
{
1000
W
1070
     2
1002
}
1002
{
1000
C
1070
     4
1002
}
1001
GENIUS_GENODEF_13
1002
{
1000
HIER
1070
     0
1002
}
1002
{
1000
MANEDIT
1070
     0
1002
}
1002
{
1000
NOSEL
1070
     0
1002
}
1002
{
1000
BEHIND
1070
     0
1002
}
1002
{
1000
REACTOR
1002
}
1001
GENIUS_GENOBJ-N-REC_13
1002
{
1000
OWNER
1000
GEN
1002
}
  0
MTEXT
  5
63C
330
5E9
100
AcDbEntity
  8
RAHM2
100
AcDbMText
 10
-8.5
 20
48.80103540727964
 30
0.0
 40
2.5
 41
17.0
 71
     2
 72
     5
  1
検図
 73
     1
 44
1.0
1001
ACAD
1000
MTEXTBEGIN
1070
    73
1070
     1
1070
    44
1040
1.0
1070
    74
1070
     0
1000
MTEXTEND
  0
MTEXT
  5
63D
330
5E9
100
AcDbEntity
  8
RAHM2
100
AcDbMText
 10
-8.5
 20
23.80103540727964
 30
0.0
 40
2.5
 41
17.0
 71
     2
 72
     5
  1
製図
 73
     1
 44
1.0
1001
ACAD
1000
MTEXTBEGIN
1070
    73
1070
     1
1070
    44
1040
1.0
1070
    74
1070
     0
1000
MTEXTEND
  0
ENDBLK
  5
640
330
5E9
100
AcDbEntity
  8
0
100
AcDbBlockEnd
  0
BLOCK
  5
6A1
330
6A0
100
AcDbEntity
  8
0
100
AcDbBlockBegin
  2
GENDOT
 70
     0
 10
0.0
 20
0.0
 30
0.0
  3
GENDOT
  1

  0
LINE
  5
6A2
330
6A0
100
AcDbEntity
  8
0
100
AcDbLine
 10
0.0
 20
0.0
 30
0.0
 11
-1.0
 21
0.0
 31
0.0
  0
LWPOLYLINE
  5
6A3
330
6A0
100
AcDbEntity
  8
0
100
AcDbPolyline
 90
        2
 70
     1
 43
0.25
 10
-0.125
 20
0.0
 42
1.0
 10
0.125
 20
0.0
 42
1.0
  0
ENDBLK
  5
6A4
330
6A0
100
AcDbEntity
  8
0
100
AcDbBlockEnd
  0
BLOCK
  5
35D1
330
35C4
100
AcDbEntity
  8
0
100
AcDbBlockBegin
  2
*D38
 70
     1
 10
0.0
 20
0.0
 30
0.0
  3
*D38
  1

  0
LINE
  5
3741
330
35C4
100
AcDbEntity
  8
AM_5
100
AcDbLine
 10
90.03739750399891
 20
131.0611010700136
 30
0.0
 11
87.3623975039989
 21
131.0611010700136
 31
0.0
  0
LINE
  5
3742
330
35C4
100
AcDbEntity
  8
AM_5
100
AcDbLine
 10
87.3623975039989
 20
131.0611010700136
 30
0.0
 11
84.18752352454886
 21
126.6337526361186
 31
0.0
  0
MTEXT
  5
3743
102
{ACAD_XDICTIONARY
360
385D
102
}
330
35C4
100
AcDbEntity
  8
AM_5
 62
     2
100
AcDbMText
 10
89.07489750399891
 20
132.6861010700136
 30
0.0
 40
1.75
 41
0.0
 71
     5
 72
     1
  1
\U+22051
 73
     1
 44
1.0
1001
ACAD
1000
MTEXTBEGIN
1070
    73
1070
     1
1070
    44
1040
1.0
1070
    74
1070
     0
1000
MTEXTEND
  0
INSERT
  5
3744
330
35C4
100
AcDbEntity
  8
AM_5
100
AcDbBlockReference
  2
_Open30
 10
83.45908066267679
 20
125.6179421237751
 30
0.0
 41
1.25
 42
1.25
 43
1.25
 50
234.3555012143853
  0
POINT
  5
3745
330
35C4
100
AcDbEntity
  8
Defpoints
 62
     0
100
AcDbPoint
 10
83.45908066267679
 20
125.6179421237751
 30
0.0
  0
POINT
  5
3746
330
35C4
100
AcDbEntity
  8
Defpoints
 62
     0
100
AcDbPoint
 10
82.8763263731791
 20
124.8052937139003
 30
0.0
  0
ENDBLK
  5
35D2
330
35C4
100
AcDbEntity
  8
0
100
AcDbBlockEnd
  0
BLOCK
  5
35DF
330
35D4
100
AcDbEntity
  8
0
100
AcDbBlockBegin
  2
*D39
 70
     1
 10
0.0
 20
0.0
 30
0.0
  3
*D39
  1

  0
LINE
  5
3747
330
35D4
100
AcDbEntity
  8
AM_5
100
AcDbLine
 10
92.53306797515804
 20
39.91621036159661
 30
0.0
 11
85.94573989380162
 21
48.12664396911188
 31
0.0
  0
MTEXT
  5
3748
330
35D4
100
AcDbEntity
  8
AM_5
 62
     2
100
AcDbMText
 10
91.96227944812482
 20
43.2243415118697
 30
0.0
 40
1.75
 41
0.0
 71
     5
 72
     1
  1
4-R1
 11
0.6257939448327836
 21
-0.7799884221003687
 31
0.0
 73
     1
 44
1.0
1001
ACAD
1000
MTEXTBEGIN
1070
    73
1070
     1
1070
    44
1040
1.0
1070
    74
1070
     0
1000
MTEXTEND
  0
INSERT
  5
3749
330
35D4
100
AcDbEntity
  8
AM_5
100
AcDbBlockReference
  2
_Open30
 10
85.16349746276064
 20
49.10162949673734
 30
0.0
 41
1.25
 42
1.25
 43
1.25
 50
128.7404846471557
  0
POINT
  5
374A
330
35D4
100
AcDbEntity
  8
Defpoints
 62
     0
100
AcDbPoint
 10
85.16349746276064
 20
49.10162949673734
 30
0.0
  0
POINT
  5
374B
330
35D4
100
AcDbEntity
  8
Defpoints
 62
     0
100
AcDbPoint
 10
84.53770351792782
 20
49.88161791883776
 30
0.0
  0
ENDBLK
  5
35E0
330
35D4
100
AcDbEntity
  8
0
100
AcDbBlockEnd
  0
BLOCK
  5
3651
330
35F1
100
AcDbEntity
  8
0
100
AcDbBlockBegin
  2
*D40
 70
     1
 10
0.0
 20
0.0
 30
0.0
  3
*D40
  1

  0
LINE
  5
374C
330
35F1
100
AcDbEntity
  8
AM_5
100
AcDbLine
 10
34.90770351792827
 20
129.2116179188377
 30
0.0
 11
34.90770351792827
 21
135.2116179188377
 31
0.0
  0
LINE
  5
374D
330
35F1
100
AcDbEntity
  8
AM_5
100
AcDbLine
 10
83.16770351792801
 20
129.2116179188377
 30
0.0
 11
83.16770351792801
 21
135.2116179188377
 31
0.0
  0
LINE
  5
374E
330
35F1
100
AcDbEntity
  8
AM_5
100
AcDbLine
 10
36.15770351792827
 20
134.7116179188377
 30
0.0
 11
81.91770351792801
 21
134.7116179188377
 31
0.0
  0
INSERT
  5
374F
330
35F1
100
AcDbEntity
  8
AM_5
100
AcDbBlockReference
  2
_Open30
 10
34.90770351792827
 20
134.7116179188377
 30
0.0
 41
1.25
 42
1.25
 43
1.25
 50
180.0
  0
INSERT
  5
3750
330
35F1
100
AcDbEntity
  8
AM_5
100
AcDbBlockReference
  2
_Open30
 10
83.16770351792801
 20
134.7116179188377
 30
0.0
 41
1.25
 42
1.25
 43
1.25
  0
MTEXT
  5
3751
330
35F1
100
AcDbEntity
  8
AM_5
 62
     2
100
AcDbMText
 10
59.03770351792814
 20
136.3367901629322
 30
0.0
 40
1.75
 41
0.0
 71
     5
 72
     1
  1
48.26
 73
     1
 44
1.0
1001
ACAD
1000
MTEXTBEGIN
1070
    73
1070
     1
1070
    44
1040
1.0
1070
    74
1070
     0
1000
MTEXTEND
  0
POINT
  5
3752
330
35F1
100
AcDbEntity
  8
Defpoints
 62
     0
100
AcDbPoint
 10
34.90770351792827
 20
128.7116179188377
 30
0.0
  0
POINT
  5
3753
330
35F1
100
AcDbEntity
  8
Defpoints
 62
     0
100
AcDbPoint
 10
83.16770351792801
 20
128.7116179188377
 30
0.0
  0
POINT
  5
3754
330
35F1
100
AcDbEntity
  8
Defpoints
 62
     0
100
AcDbPoint
 10
83.16770351792801
 20
134.7116179188377
 30
0.0
  0
ENDBLK
  5
3652
330
35F1
100
AcDbEntity
  8
0
100
AcDbBlockEnd
  0
BLOCK
  5
3653
330
3615
100
AcDbEntity
  8
0
100
AcDbBlockBegin
  2
*D41
 70
     1
 10
0.0
 20
0.0
 30
0.0
  3
*D41
  1

  0
LINE
  5
3755
330
3615
100
AcDbEntity
  8
AM_5
100
AcDbLine
 10
32.53770351792792
 20
49.38161791883778
 30
0.0
 11
32.53770351792792
 21
43.38161791883774
 31
0.0
  0
LINE
  5
3756
330
3615
100
AcDbEntity
  8
AM_5
100
AcDbLine
 10
85.53770351792792
 20
49.38161791883778
 30
0.0
 11
85.53770351792792
 21
43.38161791883774
 31
0.0
  0
LINE
  5
3757
330
3615
100
AcDbEntity
  8
AM_5
100
AcDbLine
 10
33.78770351792792
 20
43.88161791883774
 30
0.0
 11
84.28770351792792
 21
43.88161791883774
 31
0.0
  0
INSERT
  5
3758
330
3615
100
AcDbEntity
  8
AM_5
100
AcDbBlockReference
  2
_Open30
 10
32.53770351792792
 20
43.88161791883774
 30
0.0
 41
1.25
 42
1.25
 43
1.25
 50
180.0
  0
INSERT
  5
3759
330
3615
100
AcDbEntity
  8
AM_5
100
AcDbBlockReference
  2
_Open30
 10
85.53770351792792
 20
43.88161791883774
 30
0.0
 41
1.25
 42
1.25
 43
1.25
  0
MTEXT
  5
375A
330
3615
100
AcDbEntity
  8
AM_5
 62
     2
100
AcDbMText
 10
59.03770351792792
 20
45.50661791883775
 30
0.0
 40
1.75
 41
0.0
 71
     5
 72
     1
  1
53
 73
     1
 44
1.0
1001
ACAD
1000
MTEXTBEGIN
1070
    73
1070
     1
1070
    44
1040
1.0
1070
    74
1070
     0
1000
MTEXTEND
  0
POINT
  5
375B
330
3615
100
AcDbEntity
  8
Defpoints
 62
     0
100
AcDbPoint
 10
32.53770351792792
 20
49.88161791883777
 30
0.0
  0
POINT
  5
375C
330
3615
100
AcDbEntity
  8
Defpoints
 62
     0
100
AcDbPoint
 10
85.53770351792792
 20
49.88161791883777
 30
0.0
  0
POINT
  5
375D
330
3615
100
AcDbEntity
  8
Defpoints
 62
     0
100
AcDbPoint
 10
85.53770351792792
 20
43.88161791883774
 30
0.0
  0
ENDBLK
  5
3654
330
3615
100
AcDbEntity
  8
0
100
AcDbBlockEnd
  0
BLOCK
  5
3655
330
3639
100
AcDbEntity
  8
0
100
AcDbBlockBegin
  2
*D42
 70
     1
 10
0.0
 20
0.0
 30
0.0
  3
*D42
  1

  0
LINE
  5
375E
330
3639
100
AcDbEntity
  8
AM_5
100
AcDbLine
 10
85.03770351792814
 20
127.8816179188378
 30
0.0
 11
92.03770452792792
 21
127.8816179188378
 31
0.0
  0
LINE
  5
375F
330
3639
100
AcDbEntity
  8
AM_5
100
AcDbLine
 10
85.03770351792814
 20
48.88161791883778
 30
0.0
 11
92.0377045279279
 21
48.88161791883778
 31
0.0
  0
LINE
  5
3760
330
3639
100
AcDbEntity
  8
AM_5
100
AcDbLine
 10
91.53770452792791
 20
126.6316179188378
 30
0.0
 11
91.53770452792789
 21
50.13161791883778
 31
0.0
  0
INSERT
  5
3761
330
3639
100
AcDbEntity
  8
AM_5
100
AcDbBlockReference
  2
_Open30
 10
91.53770452792791
 20
127.8816179188378
 30
0.0
 41
1.25
 42
1.25
 43
1.25
 50
90.0
  0
INSERT
  5
3762
330
3639
100
AcDbEntity
  8
AM_5
100
AcDbBlockReference
  2
_Open30
 10
91.53770452792789
 20
48.88161791883778
 30
0.0
 41
1.25
 42
1.25
 43
1.25
 50
270.0
  0
MTEXT
  5
3763
330
3639
100
AcDbEntity
  8
AM_5
 62
     2
100
AcDbMText
 10
89.91270452792788
 20
88.38161791883782
 30
0.0
 40
1.75
 41
0.0
 71
     5
 72
     1
  1
79
 11
0.0000000000000001
 21
1.0
 31
0.0
 73
     1
 44
1.0
1001
ACAD
1000
MTEXTBEGIN
1070
    73
1070
     1
1070
    44
1040
1.0
1070
    74
1070
     0
1000
MTEXTEND
  0
POINT
  5
3764
330
3639
100
AcDbEntity
  8
Defpoints
 62
     0
100
AcDbPoint
 10
84.53770351792815
 20
127.8816179188378
 30
0.0
  0
POINT
  5
3765
330
3639
100
AcDbEntity
  8
Defpoints
 62
     0
100
AcDbPoint
 10
84.53770351792815
 20
48.88161791883778
 30
0.0
  0
POINT
  5
3766
330
3639
100
AcDbEntity
  8
Defpoints
 62
     0
100
AcDbPoint
 10
91.53770452792789
 20
48.88161791883778
 30
0.0
  0
ENDBLK
  5
3656
330
3639
100
AcDbEntity
  8
0
100
AcDbBlockEnd
  0
BLOCK
  5
36D1
330
3667
100
AcDbEntity
  8
0
100
AcDbBlockBegin
  2
*D43
 70
     1
 10
0.0
 20
0.0
 30
0.0
  3
*D43
  1

  0
LINE
  5
3767
330
3667
100
AcDbEntity
  8
AM_5
100
AcDbLine
 10
33.03770351792838
 20
127.8816179188378
 30
0.0
 11
24.90770351792824
 21
127.8816179188378
 31
0.0
  0
LINE
  5
3768
330
3667
100
AcDbEntity
  8
AM_5
100
AcDbLine
 10
30.90770351792827
 20
125.2116179188377
 30
0.0
 11
24.90770351792824
 21
125.2116179188377
 31
0.0
  0
LINE
  5
3769
330
3667
100
AcDbEntity
  8
AM_5
100
AcDbLine
 10
25.40770351792823
 20
129.1316179188378
 30
0.0
 11
25.40770351792823
 21
130.3816179188378
 31
0.0
  0
LINE
  5
376A
330
3667
100
AcDbEntity
  8
AM_5
100
AcDbLine
 10
25.40770351792823
 20
123.9616179188377
 30
0.0
 11
25.40770351792823
 21
122.7116179188377
 31
0.0
  0
LINE
  5
376B
330
3667
100
AcDbEntity
  8
AM_5
100
AcDbLine
 10
25.40770351792823
 20
127.8816179188378
 30
0.0
 11
25.40770351792823
 21
125.2116179188377
 31
0.0
  0
INSERT
  5
376C
330
3667
100
AcDbEntity
  8
AM_5
100
AcDbBlockReference
  2
_Open30
 10
25.40770351792823
 20
127.8816179188378
 30
0.0
 41
1.25
 42
1.25
 43
1.25
 50
270.0
  0
INSERT
  5
376D
330
3667
100
AcDbEntity
  8
AM_5
100
AcDbBlockReference
  2
_Open30
 10
25.40770351792823
 20
125.2116179188377
 30
0.0
 41
1.25
 42
1.25
 43
1.25
 50
90.0
  0
MTEXT
  5
376E
330
3667
100
AcDbEntity
  8
AM_5
 62
     2
100
AcDbMText
 10
23.78253127383372
 20
126.5466179188378
 30
0.0
 40
1.75
 41
0.0
 71
     5
 72
     1
  1
2.67
 11
0.0000000000000001
 21
1.0
 31
0.0
 73
     1
 44
1.0
1001
ACAD
1000
MTEXTBEGIN
1070
    73
1070
     1
1070
    44
1040
1.0
1070
    74
1070
     0
1000
MTEXTEND
  0
POINT
  5
376F
330
3667
100
AcDbEntity
  8
Defpoints
 62
     0
100
AcDbPoint
 10
33.53770351792838
 20
127.8816179188378
 30
0.0
  0
POINT
  5
3770
330
3667
100
AcDbEntity
  8
Defpoints
 62
     0
100
AcDbPoint
 10
31.40770351792827
 20
125.2116179188377
 30
0.0
  0
POINT
  5
3771
330
3667
100
AcDbEntity
  8
Defpoints
 62
     0
100
AcDbPoint
 10
25.40770351792823
 20
125.2116179188377
 30
0.0
  0
ENDBLK
  5
36D2
330
3667
100
AcDbEntity
  8
0
100
AcDbBlockEnd
  0
BLOCK
  5
36D3
330
3695
100
AcDbEntity
  8
0
100
AcDbBlockBegin
  2
*D44
 70
     1
 10
0.0
 20
0.0
 30
0.0
  3
*D44
  1

  0
LINE
  5
3772
330
3695
100
AcDbEntity
  8
AM_5
100
AcDbLine
 10
30.90770351792827
 20
125.2116179188377
 30
0.0
 11
24.90770351792827
 21
125.2116179188377
 31
0.0
  0
LINE
  5
3773
330
3695
100
AcDbEntity
  8
AM_5
100
AcDbLine
 10
30.90770351792827
 20
54.0916179188377
 30
0.0
 11
24.90770351792825
 21
54.0916179188377
 31
0.0
  0
LINE
  5
3774
330
3695
100
AcDbEntity
  8
AM_5
100
AcDbLine
 10
25.40770351792827
 20
123.9616179188377
 30
0.0
 11
25.40770351792826
 21
55.3416179188377
 31
0.0
  0
INSERT
  5
3775
330
3695
100
AcDbEntity
  8
AM_5
100
AcDbBlockReference
  2
_Open30
 10
25.40770351792827
 20
125.2116179188377
 30
0.0
 41
1.25
 42
1.25
 43
1.25
 50
90.0
  0
INSERT
  5
3776
330
3695
100
AcDbEntity
  8
AM_5
100
AcDbBlockReference
  2
_Open30
 10
25.40770351792826
 20
54.0916179188377
 30
0.0
 41
1.25
 42
1.25
 43
1.25
 50
270.0
  0
MTEXT
  5
3777
330
3695
100
AcDbEntity
  8
AM_5
 62
     2
100
AcDbMText
 10
23.78253127383376
 20
89.65161791883772
 30
0.0
 40
1.75
 41
0.0
 71
     5
 72
     1
  1
71.12
 11
0.0000000000000001
 21
1.0
 31
0.0
 73
     1
 44
1.0
1001
ACAD
1000
MTEXTBEGIN
1070
    73
1070
     1
1070
    44
1040
1.0
1070
    74
1070
     0
1000
MTEXTEND
  0
POINT
  5
3778
330
3695
100
AcDbEntity
  8
Defpoints
 62
     0
100
AcDbPoint
 10
31.40770351792827
 20
125.2116179188377
 30
0.0
  0
POINT
  5
3779
330
3695
100
AcDbEntity
  8
Defpoints
 62
     0
100
AcDbPoint
 10
31.40770351792827
 20
54.0916179188377
 30
0.0
  0
POINT
  5
377A
330
3695
100
AcDbEntity
  8
Defpoints
 62
     0
100
AcDbPoint
 10
25.40770351792826
 20
54.0916179188377
 30
0.0
  0
ENDBLK
  5
36D4
330
3695
100
AcDbEntity
  8
0
100
AcDbBlockEnd
  0
BLOCK
  5
36D5
330
36B9
100
AcDbEntity
  8
0
100
AcDbBlockBegin
  2
*D45
 70
     1
 10
0.0
 20
0.0
 30
0.0
  3
*D45
  1

  0
LINE
  5
377B
330
36B9
100
AcDbEntity
  8
AM_5
100
AcDbLine
 10
30.90770351792827
 20
54.0916179188377
 30
0.0
 11
24.90770351792827
 21
54.0916179188377
 31
0.0
  0
LINE
  5
377C
330
36B9
100
AcDbEntity
  8
AM_5
100
AcDbLine
 10
33.03770351792792
 20
48.88161791883778
 30
0.0
 11
24.90770351792827
 21
48.88161791883778
 31
0.0
  0
LINE
  5
377D
330
36B9
100
AcDbEntity
  8
AM_5
100
AcDbLine
 10
25.40770351792827
 20
52.8416179188377
 30
0.0
 11
25.40770351792827
 21
50.13161791883778
 31
0.0
  0
INSERT
  5
377E
330
36B9
100
AcDbEntity
  8
AM_5
100
AcDbBlockReference
  2
_Open30
 10
25.40770351792827
 20
54.0916179188377
 30
0.0
 41
1.25
 42
1.25
 43
1.25
 50
90.0
  0
INSERT
  5
377F
330
36B9
100
AcDbEntity
  8
AM_5
100
AcDbBlockReference
  2
_Open30
 10
25.40770351792827
 20
48.88161791883778
 30
0.0
 41
1.25
 42
1.25
 43
1.25
 50
270.0
  0
MTEXT
  5
3780
330
36B9
100
AcDbEntity
  8
AM_5
 62
     2
100
AcDbMText
 10
23.78253127383377
 20
51.48661791883775
 30
0.0
 40
1.75
 41
0.0
 71
     5
 72
     1
  1
5.21
 11
0.0000000000000001
 21
1.0
 31
0.0
 73
     1
 44
1.0
1001
ACAD
1000
MTEXTBEGIN
1070
    73
1070
     1
1070
    44
1040
1.0
1070
    74
1070
     0
1000
MTEXTEND
  0
POINT
  5
3781
330
36B9
100
AcDbEntity
  8
Defpoints
 62
     0
100
AcDbPoint
 10
31.40770351792827
 20
54.0916179188377
 30
0.0
  0
POINT
  5
3782
330
36B9
100
AcDbEntity
  8
Defpoints
 62
     0
100
AcDbPoint
 10
33.53770351792793
 20
48.88161791883778
 30
0.0
  0
POINT
  5
3783
330
36B9
100
AcDbEntity
  8
Defpoints
 62
     0
100
AcDbPoint
 10
25.40770351792827
 20
48.88161791883778
 30
0.0
  0
ENDBLK
  5
36D6
330
36B9
100
AcDbEntity
  8
0
100
AcDbBlockEnd
  0
BLOCK
  5
37F7
330
37F3
100
AcDbEntity
  8
0
100
AcDbBlockBegin
  2
*S46
 70
     1
 10
0.0
 20
0.0
 30
0.0
  3
*S46
  1

  0
CIRCLE
  5
37F4
330
37F3
100
AcDbEntity
  8
AM_12
 62
     4
100
AcDbCircle
 10
37.02713988887709
 20
121.2421579184354
 30
0.0
 40
0.875
  0
LINE
  5
37F5
330
37F3
100
AcDbEntity
  8
AM_12
 62
     4
100
AcDbLine
 10
36.15213988887709
 20
120.3671579184354
 30
0.0
 11
37.90213988887709
 21
122.1171579184354
 31
0.0
  0
LINE
  5
37F6
330
37F3
100
AcDbEntity
  8
AM_12
 62
     4
100
AcDbLine
 10
36.15213988887709
 20
122.1171579184354
 30
0.0
 11
37.90213988887709
 21
120.3671579184354
 31
0.0
  0
ENDBLK
  5
37F8
330
37F3
100
AcDbEntity
  8
0
100
AcDbBlockEnd
  0
BLOCK
  5
37FF
330
37FA
100
AcDbEntity
  8
0
100
AcDbBlockBegin
  2
*S47
 70
     1
 10
0.0
 20
0.0
 30
0.0
  3
*S47
  1

  0
LINE
  5
37FB
330
37FA
100
AcDbEntity
  8
AM_5
100
AcDbLine
 10
28.49007307781482
 20
133.5430075913519
 30
0.0
 11
36.02935649014988
 21
122.6798394858294
 31
0.0
  0
TRACE
  5
37FC
330
37FA
100
AcDbEntity
  8
AM_5
  6
Continuous
100
AcDbTrace
 10
35.8400821219116
 20
122.5484788099218
 30
0.0
 11
36.21863085838818
 21
122.811200161737
 31
0.0
 12
37.02713988887709
 22
121.2421579184354
 32
0.0
 13
37.02713988887709
 23
121.2421579184354
 33
0.0
  0
MTEXT
  5
37FD
330
37FA
100
AcDbEntity
  8
AM_5
 62
     7
100
AcDbMText
 10
25.63926336716566
 20
137.6506692124775
 30
0.0
 40
2.5
 41
0.0
 71
     5
 72
     5
  1
1
  7
ACISOTS
 73
     1
 44
1.0
1001
ACAD
1000
MTEXTBEGIN
1070
    73
1070
     1
1070
    44
1040
1.0
1070
    74
1070
     0
1000
MTEXTEND
  0
CIRCLE
  5
37FE
330
37FA
100
AcDbEntity
  8
AM_5
 62
     3
100
AcDbCircle
 10
25.63926336716566
 20
137.6506692124775
 30
0.0
 40
5.0
  0
ENDBLK
  5
3800
330
37FA
100
AcDbEntity
  8
0
100
AcDbBlockEnd
  0
BLOCK
  5
381C
330
3802
100
AcDbEntity
  8
0
100
AcDbBlockBegin
  2
*S48
 70
     1
 10
0.0
 20
0.0
 30
0.0
  3
*S48
  1

  0
MTEXT
  5
3803
330
3802
100
AcDbEntity
  8
0
 62
     2
100
AcDbMText
 10
13.36146606701861
 20
34.91250000000002
 30
0.0
 40
1.75
 41
5.822932134037257
 71
     2
 72
     5
  1
1
  7
ACISOTS
 73
     1
 44
1.0
1001
ACAD
1000
MTEXTBEGIN
1070
    73
1070
     1
1070
    44
1040
1.0
1070
    74
1070
     0
1000
MTEXTEND
  0
LINE
  5
3804
330
3802
100
AcDbEntity
  8
0
 62
     1
100
AcDbLine
 10
16.72293213403725
 20
35.58750000000002
 30
0.0
 11
16.72293213403725
 21
32.50000000000002
 31
0.0
  0
MTEXT
  5
3805
330
3802
100
AcDbEntity
  8
0
 62
     2
100
AcDbMText
 10
17.17293213403724
 20
34.91250000000002
 30
0.0
 40
1.75
 41
17.73910368902454
 71
     1
 72
     5
  1
基板
  7
ACISOTS
 73
     1
 44
1.0
1001
ACAD
1000
MTEXTBEGIN
1070
    73
1070
     1
1070
    44
1040
1.0
1070
    74
1070
     0
1000
MTEXTEND
  0
LINE
  5
3806
330
3802
100
AcDbEntity
  8
0
 62
     1
100
AcDbLine
 10
35.36203582306179
 20
35.58750000000002
 30
0.0
 11
35.36203582306179
 21
32.50000000000002
 31
0.0
  0
MTEXT
  5
3807
330
3802
100
AcDbEntity
  8
0
 62
     2
100
AcDbMText
 10
35.81203582306179
 20
34.91250000000002
 30
0.0
 40
1.75
 41
8.084652801219093
 71
     1
 72
     5
  1
1
  7
ACISOTS
 73
     1
 44
1.0
1001
ACAD
1000
MTEXTBEGIN
1070
    73
1070
     1
1070
    44
1040
1.0
1070
    74
1070
     0
1000
MTEXTEND
  0
LINE
  5
3808
330
3802
100
AcDbEntity
  8
0
 62
     1
100
AcDbLine
 10
44.34668862428088
 20
35.58750000000002
 30
0.0
 11
44.34668862428088
 21
32.50000000000002
 31
0.0
  0
MTEXT
  5
3809
330
3802
100
AcDbEntity
  8
0
 62
     2
100
AcDbMText
 10
44.79668862428087
 20
34.91250000000002
 30
0.0
 40
1.75
 41
30.29070922755976
 71
     1
 72
     5
  1
ガラスエポキシ1.6ｔ（FR-4)
  7
ACISOTS
 73
     1
 44
1.0
1001
ACAD
1000
MTEXTBEGIN
1070
    73
1070
     1
1070
    44
1040
1.0
1070
    74
1070
     0
1000
MTEXTEND
  0
LINE
  5
380A
330
3802
100
AcDbEntity
  8
0
 62
     1
100
AcDbLine
 10
75.53739785184063
 20
35.58750000000002
 30
0.0
 11
75.53739785184063
 21
32.50000000000002
 31
0.0
  0
MTEXT
  5
380B
330
3802
100
AcDbEntity
  8
0
 62
     2
100
AcDbMText
 10
75.98739785184064
 20
34.91250000000002
 30
0.0
 40
1.75
 41
31.06260214815939
 71
     1
 72
     5
  1
ｽﾙｰﾎｰﾙ  鉛ﾌﾘｰﾊﾝﾀﾞ  ﾚｼﾞｽﾄ
  7
ACISOTS
 73
     1
 44
1.0
1001
ACAD
1000
MTEXTBEGIN
1070
    73
1070
     1
1070
    44
1040
1.0
1070
    74
1070
     0
1000
MTEXTEND
  0
LINE
  5
380C
330
3802
100
AcDbEntity
  8
0
 62
     1
100
AcDbLine
 10
9.999999999999985
 20
35.58750000000002
 30
0.0
 11
107.5
 21
35.58750000000002
 31
0.0
  0
MTEXT
  5
380D
330
3802
100
AcDbEntity
  8
0
 62
     2
100
AcDbMText
 10
13.36146606701861
 20
38.00000000000002
 30
0.0
 40
1.75
 41
5.822932134037257
 71
     2
 72
     5
  1
照番
  7
ACISOTS
 73
     1
 44
1.0
1001
ACAD
1000
MTEXTBEGIN
1070
    73
1070
     1
1070
    44
1040
1.0
1070
    74
1070
     0
1000
MTEXTEND
  0
LINE
  5
380E
330
3802
100
AcDbEntity
  8
0
 62
     1
100
AcDbLine
 10
16.72293213403725
 20
38.67500000000002
 30
0.0
 11
16.72293213403725
 21
35.58750000000002
 31
0.0
  0
MTEXT
  5
380F
330
3802
100
AcDbEntity
  8
0
 62
     2
100
AcDbMText
 10
26.04248397854951
 20
38.00000000000002
 30
0.0
 40
1.75
 41
17.73910368902454
 71
     2
 72
     5
  1
名称
  7
ACISOTS
 73
     1
 44
1.0
1001
ACAD
1000
MTEXTBEGIN
1070
    73
1070
     1
1070
    44
1040
1.0
1070
    74
1070
     0
1000
MTEXTEND
  0
LINE
  5
3810
330
3802
100
AcDbEntity
  8
0
 62
     1
100
AcDbLine
 10
35.36203582306179
 20
38.67500000000002
 30
0.0
 11
35.36203582306179
 21
35.58750000000002
 31
0.0
  0
MTEXT
  5
3811
330
3802
100
AcDbEntity
  8
0
 62
     2
100
AcDbMText
 10
39.85436222367133
 20
38.00000000000002
 30
0.0
 40
1.75
 41
8.084652801219093
 71
     2
 72
     5
  1
個数
  7
ACISOTS
 73
     1
 44
1.0
1001
ACAD
1000
MTEXTBEGIN
1070
    73
1070
     1
1070
    44
1040
1.0
1070
    74
1070
     0
1000
MTEXTEND
  0
LINE
  5
3812
330
3802
100
AcDbEntity
  8
0
 62
     1
100
AcDbLine
 10
44.34668862428088
 20
38.67500000000002
 30
0.0
 11
44.34668862428088
 21
35.58750000000002
 31
0.0
  0
MTEXT
  5
3813
330
3802
100
AcDbEntity
  8
0
 62
     2
100
AcDbMText
 10
59.94204323806076
 20
38.00000000000002
 30
0.0
 40
1.75
 41
30.29070922755976
 71
     2
 72
     5
  1
材質
  7
ACISOTS
 73
     1
 44
1.0
1001
ACAD
1000
MTEXTBEGIN
1070
    73
1070
     1
1070
    44
1040
1.0
1070
    74
1070
     0
1000
MTEXTEND
  0
LINE
  5
3814
330
3802
100
AcDbEntity
  8
0
 62
     1
100
AcDbLine
 10
75.53739785184063
 20
38.67500000000002
 30
0.0
 11
75.53739785184063
 21
35.58750000000002
 31
0.0
  0
MTEXT
  5
3815
330
3802
100
AcDbEntity
  8
0
 62
     2
100
AcDbMText
 10
91.51869892592033
 20
38.00000000000002
 30
0.0
 40
1.75
 41
31.06260214815939
 71
     2
 72
     5
  1
色・表面処理
  7
ACISOTS
 73
     1
 44
1.0
1001
ACAD
1000
MTEXTBEGIN
1070
    73
1070
     1
1070
    44
1040
1.0
1070
    74
1070
     0
1000
MTEXTEND
  0
MTEXT
  5
3816
330
3802
100
AcDbEntity
  8
0
 62
     2
100
AcDbMText
 10
58.75
 20
40.21875000000001
 30
0.0
 40
1.75
 41
0.0
 71
     5
 72
     5
  1
構成内容
  7
ACISOTS
 73
     1
 44
1.0
1001
ACAD
1000
MTEXTBEGIN
1070
    73
1070
     1
1070
    44
1040
1.0
1070
    74
1070
     0
1000
MTEXTEND
  0
LINE
  5
3817
330
3802
100
AcDbEntity
  8
0
 62
     1
100
AcDbLine
 10
9.999999999999985
 20
38.67500000000002
 30
0.0
 11
107.5
 21
38.67500000000002
 31
0.0
  0
LINE
  5
3818
330
3802
100
AcDbEntity
  8
0
 62
     7
100
AcDbLine
 10
9.999999999999985
 20
41.76250000000002
 30
0.0
 11
107.5
 21
41.76250000000002
 31
0.0
  0
LINE
  5
3819
330
3802
100
AcDbEntity
  8
0
 62
     7
100
AcDbLine
 10
107.5
 20
41.76250000000002
 30
0.0
 11
107.5
 21
32.50000000000002
 31
0.0
  0
LINE
  5
381A
330
3802
100
AcDbEntity
  8
0
 62
     7
100
AcDbLine
 10
107.5
 20
32.50000000000002
 30
0.0
 11
9.999999999999985
 21
32.50000000000002
 31
0.0
  0
LINE
  5
381B
330
3802
100
AcDbEntity
  8
0
 62
     7
100
AcDbLine
 10
9.999999999999985
 20
32.50000000000002
 30
0.0
 11
9.999999999999985
 21
41.76250000000002
 31
0.0
  0
ENDBLK
  5
381D
330
3802
100
AcDbEntity
  8
0
100
AcDbBlockEnd
  0
ENDSEC
  0
SECTION
  2
ENTITIES
  0
INSERT
  5
5E3
330
1F
100
AcDbEntity
  8
0
370
     0
100
AcDbBlockReference
  2
TAKACHI-A4
 10
0.0
 20
0.0
 30
0.0
 41
0.5
 42
0.5
 43
0.5
1001
GENIUS_GENOREF_13
1005
64C
1001
GENIUS_GENODEF_13
1002
{
1000
HIER
1070
     0
1002
}
1002
{
1000
MANEDIT
1070
     0
1002
}
1002
{
1000
NOSEL
1070
     0
1002
}
1002
{
1000
BEHIND
1070
     0
1002
}
1002
{
1000
OTHER
1070
     0
1002
}
1002
{
1000
REACTOR
1002
}
1001
GENIUS_GENOBJ-N-SDF_13
1002
{
1000
OWNER
1000
GEN
1002
}
1001
GENIUS_GENSCREG_15
1040
0.5
1040
1.0
1011
19.99999999999997
1021
15.0
1031
0.0
1011
117.5
1021
152.5
1031
0.0
1070
     3
  0
INSERT
  5
642
330
1F
100
AcDbEntity
  8
0
370
     0
100
AcDbBlockReference
 66
     1
  2
TAKACHI-TITLE
 10
107.5
 20
7.5
 30
0.0
 41
0.5
 42
0.5
 43
0.5
1001
GENIUS_GENOREF_13
1005
64C
  0
ATTRIB
  5
830
330
642
100
AcDbEntity
  8
0
100
AcDbText
 10
15.87807364271965
 20
11.97542526221404
 30
0.0
 40
1.25
  1

 11
15.87807364271965
 21
11.80875859554737
 31
0.0
100
AcDbAttribute
  2
GEN-TITLE-DES2
 70
     0
 74
     1
  0
ATTRIB
  5
831
330
642
100
AcDbEntity
  8
0
100
AcDbText
 10
15.87807364271965
 20
8.508758595547373
 30
0.0
 40
1.5
  1

 11
15.87807364271965
 21
8.308758595547374
 31
0.0
100
AcDbAttribute
  2
GEN-TITLE-NR
 70
     0
 74
     1
  0
ATTRIB
  5
832
330
642
100
AcDbEntity
  8
0
100
AcDbText
 10
15.87807364271965
 20
14.70364309750917
 30
0.0
 40
2.0
  1
TNF53-79
 11
15.87807364271965
 21
14.4369764308425
 31
0.0
100
AcDbAttribute
  2
GEN-TITLE-DES1
 70
     0
 74
     1
  0
ATTRIB
  5
833
330
642
100
AcDbEntity
  8
0
100
AcDbText
 10
76.46797440100129
 20
27.12750278089175
 30
0.0
 40
1.5
  1
2:1
 72
     2
 11
78.49297440100129
 21
27.12750278089175
 31
0.0
100
AcDbAttribute
  2
GEN-TITLE-SCA
 70
     0
  0
ATTRIB
  5
834
330
642
100
AcDbEntity
  8
0
100
AcDbText
 10
68.99857516675497
 20
23.01090393971738
 30
0.0
 40
1.5
  1

 11
68.99857516675497
 21
22.81090393971738
 31
0.0
100
AcDbAttribute
  2
GEN-TITLE-MAT1
 70
     0
 74
     1
  0
ATTRIB
  5
835
330
642
100
AcDbEntity
  8
0
100
AcDbText
 10
68.99857516675497
 20
18.01090393971738
 30
0.0
 40
1.5
  1

 11
68.99857516675497
 21
17.81090393971737
 31
0.0
100
AcDbAttribute
  2
GEN-TITLE-MAT2
 70
     0
 74
     1
  0
ATTRIB
  5
836
330
642
100
AcDbEntity
  8
0
100
AcDbText
 10
68.99857516675497
 20
13.50875859554737
 30
0.0
 40
1.5
  1
2006/02/28
 11
68.99857516675497
 21
13.30875859554737
 31
0.0
100
AcDbAttribute
  2
GEN-TITLE-DAT
 70
     0
 74
     1
  0
ATTRIB
  5
837
330
642
100
AcDbEntity
  8
0
100
AcDbText
 10
88.61841310304249
 20
27.12750278089175
 30
0.0
 40
1.5
  1

 72
     2
 11
88.61841310304249
 21
27.12750278089175
 31
0.0
100
AcDbAttribute
  2
GEN-TITLE-QTY
 70
     0
  0
SEQEND
  5
82F
330
642
100
AcDbEntity
  8
0
370
     0
  0
POINT
  5
64C
330
1F
100
AcDbEntity
  8
0
 60
     1
100
AcDbPoint
 10
0.0
 20
0.0
 30
0.0
1001
GENIUS_GENOENT_13
1002
{
1000
MYREF
1005
64C
1002
}
1002
{
1000
GRP
1005
0
1002
}
1001
GENIUS_GENOBJ-N-TIT_13
1002
{
1000
OWNER
1000
GEN
1002
}
1001
GENIUS_GENODEF_13
1002
{
1000
HIER
1070
     1
1002
}
1002
{
1000
MANEDIT
1070
     0
1002
}
1002
{
1000
NOSEL
1070
     0
1002
}
1002
{
1000
BEHIND
1070
     0
1002
}
1002
{
1000
OTHER
1070
     0
1002
}
1002
{
1000
REACTOR
1002
}
1001
GENIUS_GENOLIS_13
1002
{
1000
ENT
1005
642
1005
5E3
1005
82E
1002
}
1001
GENIUS_GENTITLE_13
1002
{
1000
BORDER
1000
TAKACHI-A4
1002
}
1002
{
1000
TITLE
1000
TAKACHI-TITLE
1002
}
1002
{
1000
SCALE
1000
2:1
1002
}
1002
{
1000
TITLESTD
1000
ISO
1002
}
1002
{
1000
HRA
1005
5E3
1002
}
1002
{
1000
HTIT
1005
642
1002
}
1002
{
1000
GENIUSID
1005
64C
1002
}
1002
{
1000
INVTXTID
1005
0
1002
}
1002
{
1000
UNCHG
1002
{
1000
GEN-TITLE-SIZ
1000
GEN-TITLE-SCA
1002
}
1002
}
  0
INSERT
  5
B78
102
{ACAD_REACTORS
330
B75
102
}
330
1F
100
AcDbEntity
  8
AM_12
100
AcDbBlockReference
  2
*S46
 10
0.0
 20
0.0
 30
0.0
  0
INSERT
  5
B7D
102
{ACAD_REACTORS
330
B7C
102
}
330
1F
100
AcDbEntity
  8
AM_5
100
AcDbBlockReference
  2
*S47
 10
0.0
 20
0.0
 30
0.0
  0
INSERT
  5
BAA
102
{ACAD_REACTORS
330
B74
102
}
330
1F
100
AcDbEntity
  8
0
100
AcDbBlockReference
  2
*S48
 10
0.0
 20
0.0
 30
0.0
  0
CIRCLE
  5
329D
330
1F
100
AcDbEntity
  8
TK1
100
AcDbCircle
 10
83.16770351792802
 20
54.0916179188377
 30
0.0
 40
0.5
  0
LINE
  5
329E
330
1F
100
AcDbEntity
  8
AM_7
  6
AM_ISO08W050x2
100
AcDbLine
 10
83.16770351792802
 20
54.0916179188377
 30
0.0
 11
83.16770351792802
 21
50.5916179188377
 31
0.0
1001
GENIUS_GENOREF_13
1005
3516
  0
LINE
  5
329F
330
1F
100
AcDbEntity
  8
AM_7
  6
AM_ISO08W050x2
100
AcDbLine
 10
83.16770351792802
 20
54.0916179188377
 30
0.0
 11
79.66770351792803
 21
54.0916179188377
 31
0.0
1001
GENIUS_GENOREF_13
1005
3516
  0
LINE
  5
32A0
330
1F
100
AcDbEntity
  8
AM_7
  6
AM_ISO08W050x2
100
AcDbLine
 10
83.16770351792802
 20
54.0916179188377
 30
0.0
 11
83.16770351792802
 21
57.59161791883769
 31
0.0
1001
GENIUS_GENOREF_13
1005
3516
  0
LINE
  5
32A1
330
1F
100
AcDbEntity
  8
AM_7
  6
AM_ISO08W050x2
100
AcDbLine
 10
83.16770351792802
 20
54.0916179188377
 30
0.0
 11
86.66770351792804
 21
54.0916179188377
 31
0.0
1001
GENIUS_GENOREF_13
1005
3516
  0
CIRCLE
  5
32A2
330
1F
100
AcDbEntity
  8
TK1
100
AcDbCircle
 10
34.90770351792827
 20
54.0916179188377
 30
0.0
 40
0.5
  0
LINE
  5
32A3
330
1F
100
AcDbEntity
  8
AM_7
  6
AM_ISO08W050x2
100
AcDbLine
 10
34.90770351792827
 20
54.0916179188377
 30
0.0
 11
34.90770351792827
 21
50.5916179188377
 31
0.0
1001
GENIUS_GENOREF_13
1005
3515
  0
LINE
  5
32A4
102
{ACAD_REACTORS
330
36A0
330
36C4
102
}
330
1F
100
AcDbEntity
  8
AM_7
  6
AM_ISO08W050x2
100
AcDbLine
 10
34.90770351792827
 20
54.0916179188377
 30
0.0
 11
31.40770351792827
 21
54.0916179188377
 31
0.0
1001
GENIUS_GENOREF_13
1005
3515
  0
LINE
  5
32A5
330
1F
100
AcDbEntity
  8
AM_7
  6
AM_ISO08W050x2
100
AcDbLine
 10
34.90770351792827
 20
54.0916179188377
 30
0.0
 11
34.90770351792827
 21
57.59161791883769
 31
0.0
1001
GENIUS_GENOREF_13
1005
3515
  0
LINE
  5
32A6
330
1F
100
AcDbEntity
  8
AM_7
  6
AM_ISO08W050x2
100
AcDbLine
 10
34.90770351792827
 20
54.0916179188377
 30
0.0
 11
38.40770351792827
 21
54.0916179188377
 31
0.0
1001
GENIUS_GENOREF_13
1005
3515
  0
CIRCLE
  5
32A7
330
1F
100
AcDbEntity
  8
TK1
100
AcDbCircle
 10
83.16770351792802
 20
125.2116179188377
 30
0.0
 40
0.5
  0
LINE
  5
32A8
330
1F
100
AcDbEntity
  8
AM_7
  6
AM_ISO08W050x2
100
AcDbLine
 10
83.16770351792802
 20
125.2116179188377
 30
0.0
 11
83.16770351792802
 21
121.7116179188377
 31
0.0
1001
GENIUS_GENOREF_13
1005
3514
  0
LINE
  5
32A9
330
1F
100
AcDbEntity
  8
AM_7
  6
AM_ISO08W050x2
100
AcDbLine
 10
83.16770351792802
 20
125.2116179188377
 30
0.0
 11
79.66770351792803
 21
125.2116179188377
 31
0.0
1001
GENIUS_GENOREF_13
1005
3514
  0
LINE
  5
32AA
102
{ACAD_REACTORS
330
35FC
102
}
330
1F
100
AcDbEntity
  8
AM_7
  6
AM_ISO08W050x2
100
AcDbLine
 10
83.16770351792802
 20
125.2116179188377
 30
0.0
 11
83.16770351792802
 21
128.7116179188377
 31
0.0
1001
GENIUS_GENOREF_13
1005
3514
  0
LINE
  5
32AB
330
1F
100
AcDbEntity
  8
AM_7
  6
AM_ISO08W050x2
100
AcDbLine
 10
83.16770351792802
 20
125.2116179188377
 30
0.0
 11
86.66770351792804
 21
125.2116179188377
 31
0.0
1001
GENIUS_GENOREF_13
1005
3514
  0
CIRCLE
  5
32AC
330
1F
100
AcDbEntity
  8
TK1
100
AcDbCircle
 10
34.90770351792827
 20
125.2116179188377
 30
0.0
 40
0.5
  0
LINE
  5
32AD
330
1F
100
AcDbEntity
  8
AM_7
  6
AM_ISO08W050x2
100
AcDbLine
 10
34.90770351792827
 20
125.2116179188377
 30
0.0
 11
34.90770351792827
 21
121.7116179188377
 31
0.0
1001
GENIUS_GENOREF_13
1005
3513
  0
LINE
  5
32AE
102
{ACAD_REACTORS
330
3677
330
36A0
102
}
330
1F
100
AcDbEntity
  8
AM_7
  6
AM_ISO08W050x2
100
AcDbLine
 10
34.90770351792827
 20
125.2116179188377
 30
0.0
 11
31.40770351792827
 21
125.2116179188377
 31
0.0
1001
GENIUS_GENOREF_13
1005
3513
  0
LINE
  5
32AF
102
{ACAD_REACTORS
330
35FC
102
}
330
1F
100
AcDbEntity
  8
AM_7
  6
AM_ISO08W050x2
100
AcDbLine
 10
34.90770351792827
 20
125.2116179188377
 30
0.0
 11
34.90770351792827
 21
128.7116179188377
 31
0.0
1001
GENIUS_GENOREF_13
1005
3513
  0
LINE
  5
32B0
330
1F
100
AcDbEntity
  8
AM_7
  6
AM_ISO08W050x2
100
AcDbLine
 10
34.90770351792827
 20
125.2116179188377
 30
0.0
 11
38.40770351792827
 21
125.2116179188377
 31
0.0
1001
GENIUS_GENOREF_13
1005
3513
  0
CIRCLE
  5
32B5
330
1F
100
AcDbEntity
  8
TK1
100
AcDbCircle
 10
60.30770351792813
 20
87.11161791883768
 30
0.0
 40
0.5
  0
CIRCLE
  5
32B6
330
1F
100
AcDbEntity
  8
TK1
100
AcDbCircle
 10
57.76770351792817
 20
87.11161791883768
 30
0.0
 40
0.5
  0
CIRCLE
  5
32B7
330
1F
100
AcDbEntity
  8
TK1
100
AcDbCircle
 10
60.30770351792813
 20
84.57161791883772
 30
0.0
 40
0.5
  0
CIRCLE
  5
32B8
330
1F
100
AcDbEntity
  8
TK1
100
AcDbCircle
 10
60.30770351792813
 20
82.0316179188377
 30
0.0
 40
0.5
  0
CIRCLE
  5
32B9
330
1F
100
AcDbEntity
  8
TK1
100
AcDbCircle
 10
60.30770351792813
 20
79.49161791883767
 30
0.0
 40
0.5
  0
CIRCLE
  5
32BA
330
1F
100
AcDbEntity
  8
TK1
100
AcDbCircle
 10
60.30770351792813
 20
76.95161791883771
 30
0.0
 40
0.5
  0
CIRCLE
  5
32BB
330
1F
100
AcDbEntity
  8
TK1
100
AcDbCircle
 10
60.30770351792813
 20
74.41161791883775
 30
0.0
 40
0.5
  0
CIRCLE
  5
32BC
330
1F
100
AcDbEntity
  8
TK1
100
AcDbCircle
 10
60.30770351792813
 20
71.87161791883767
 30
0.0
 40
0.5
  0
CIRCLE
  5
32BD
330
1F
100
AcDbEntity
  8
TK1
100
AcDbCircle
 10
60.30770351792813
 20
69.33161791883771
 30
0.0
 40
0.5
  0
CIRCLE
  5
32BE
330
1F
100
AcDbEntity
  8
TK1
100
AcDbCircle
 10
60.30770351792813
 20
66.79161791883775
 30
0.0
 40
0.5
  0
CIRCLE
  5
32BF
330
1F
100
AcDbEntity
  8
TK1
100
AcDbCircle
 10
60.30770351792813
 20
64.25161791883772
 30
0.0
 40
0.5
  0
CIRCLE
  5
32C0
330
1F
100
AcDbEntity
  8
TK1
100
AcDbCircle
 10
60.30770351792813
 20
61.7116179188377
 30
0.0
 40
0.5
  0
CIRCLE
  5
32C1
330
1F
100
AcDbEntity
  8
TK1
100
AcDbCircle
 10
60.30770351792813
 20
59.17161791883774
 30
0.0
 40
0.5
  0
CIRCLE
  5
32C2
330
1F
100
AcDbEntity
  8
TK1
100
AcDbCircle
 10
60.30770351792813
 20
56.63161791883772
 30
0.0
 40
0.5
  0
CIRCLE
  5
32C3
330
1F
100
AcDbEntity
  8
TK1
100
AcDbCircle
 10
60.30770351792813
 20
54.0916179188377
 30
0.0
 40
0.5
  0
CIRCLE
  5
32C4
330
1F
100
AcDbEntity
  8
TK1
100
AcDbCircle
 10
62.84770351792809
 20
87.11161791883768
 30
0.0
 40
0.5
  0
CIRCLE
  5
32C5
330
1F
100
AcDbEntity
  8
TK1
100
AcDbCircle
 10
62.84770351792809
 20
84.57161791883772
 30
0.0
 40
0.5
  0
CIRCLE
  5
32C6
330
1F
100
AcDbEntity
  8
TK1
100
AcDbCircle
 10
62.84770351792809
 20
82.0316179188377
 30
0.0
 40
0.5
  0
CIRCLE
  5
32C7
330
1F
100
AcDbEntity
  8
TK1
100
AcDbCircle
 10
62.84770351792809
 20
79.49161791883767
 30
0.0
 40
0.5
  0
CIRCLE
  5
32C8
330
1F
100
AcDbEntity
  8
TK1
100
AcDbCircle
 10
62.84770351792809
 20
76.95161791883771
 30
0.0
 40
0.5
  0
CIRCLE
  5
32C9
330
1F
100
AcDbEntity
  8
TK1
100
AcDbCircle
 10
62.84770351792809
 20
74.41161791883775
 30
0.0
 40
0.5
  0
CIRCLE
  5
32CA
330
1F
100
AcDbEntity
  8
TK1
100
AcDbCircle
 10
62.84770351792809
 20
71.87161791883767
 30
0.0
 40
0.5
  0
CIRCLE
  5
32CB
330
1F
100
AcDbEntity
  8
TK1
100
AcDbCircle
 10
62.84770351792809
 20
69.33161791883771
 30
0.0
 40
0.5
  0
CIRCLE
  5
32CC
330
1F
100
AcDbEntity
  8
TK1
100
AcDbCircle
 10
62.84770351792809
 20
66.79161791883775
 30
0.0
 40
0.5
  0
CIRCLE
  5
32CD
330
1F
100
AcDbEntity
  8
TK1
100
AcDbCircle
 10
62.84770351792809
 20
64.25161791883772
 30
0.0
 40
0.5
  0
CIRCLE
  5
32CE
330
1F
100
AcDbEntity
  8
TK1
100
AcDbCircle
 10
62.84770351792809
 20
61.7116179188377
 30
0.0
 40
0.5
  0
CIRCLE
  5
32CF
330
1F
100
AcDbEntity
  8
TK1
100
AcDbCircle
 10
62.84770351792809
 20
59.17161791883774
 30
0.0
 40
0.5
  0
CIRCLE
  5
32D0
330
1F
100
AcDbEntity
  8
TK1
100
AcDbCircle
 10
62.84770351792809
 20
56.63161791883772
 30
0.0
 40
0.5
  0
CIRCLE
  5
32D1
330
1F
100
AcDbEntity
  8
TK1
100
AcDbCircle
 10
62.84770351792809
 20
54.0916179188377
 30
0.0
 40
0.5
  0
CIRCLE
  5
32D2
330
1F
100
AcDbEntity
  8
TK1
100
AcDbCircle
 10
65.38770351792805
 20
87.11161791883768
 30
0.0
 40
0.5
  0
CIRCLE
  5
32D3
330
1F
100
AcDbEntity
  8
TK1
100
AcDbCircle
 10
65.38770351792805
 20
84.57161791883772
 30
0.0
 40
0.5
  0
CIRCLE
  5
32D4
330
1F
100
AcDbEntity
  8
TK1
100
AcDbCircle
 10
65.38770351792805
 20
82.0316179188377
 30
0.0
 40
0.5
  0
CIRCLE
  5
32D5
330
1F
100
AcDbEntity
  8
TK1
100
AcDbCircle
 10
65.38770351792805
 20
79.49161791883767
 30
0.0
 40
0.5
  0
CIRCLE
  5
32D6
330
1F
100
AcDbEntity
  8
TK1
100
AcDbCircle
 10
65.38770351792805
 20
76.95161791883771
 30
0.0
 40
0.5
  0
CIRCLE
  5
32D7
330
1F
100
AcDbEntity
  8
TK1
100
AcDbCircle
 10
65.38770351792805
 20
74.41161791883775
 30
0.0
 40
0.5
  0
CIRCLE
  5
32D8
330
1F
100
AcDbEntity
  8
TK1
100
AcDbCircle
 10
65.38770351792805
 20
71.87161791883767
 30
0.0
 40
0.5
  0
CIRCLE
  5
32D9
330
1F
100
AcDbEntity
  8
TK1
100
AcDbCircle
 10
65.38770351792805
 20
69.33161791883771
 30
0.0
 40
0.5
  0
CIRCLE
  5
32DA
330
1F
100
AcDbEntity
  8
TK1
100
AcDbCircle
 10
65.38770351792805
 20
66.79161791883775
 30
0.0
 40
0.5
  0
CIRCLE
  5
32DB
330
1F
100
AcDbEntity
  8
TK1
100
AcDbCircle
 10
65.38770351792805
 20
64.25161791883772
 30
0.0
 40
0.5
  0
CIRCLE
  5
32DC
330
1F
100
AcDbEntity
  8
TK1
100
AcDbCircle
 10
65.38770351792805
 20
61.7116179188377
 30
0.0
 40
0.5
  0
CIRCLE
  5
32DD
330
1F
100
AcDbEntity
  8
TK1
100
AcDbCircle
 10
65.38770351792805
 20
59.17161791883774
 30
0.0
 40
0.5
  0
CIRCLE
  5
32DE
330
1F
100
AcDbEntity
  8
TK1
100
AcDbCircle
 10
65.38770351792805
 20
56.63161791883772
 30
0.0
 40
0.5
  0
CIRCLE
  5
32DF
330
1F
100
AcDbEntity
  8
TK1
100
AcDbCircle
 10
65.38770351792805
 20
54.0916179188377
 30
0.0
 40
0.5
  0
CIRCLE
  5
32E0
330
1F
100
AcDbEntity
  8
TK1
100
AcDbCircle
 10
67.92770351792825
 20
87.11161791883768
 30
0.0
 40
0.5
  0
CIRCLE
  5
32E1
330
1F
100
AcDbEntity
  8
TK1
100
AcDbCircle
 10
67.92770351792825
 20
84.57161791883772
 30
0.0
 40
0.5
  0
CIRCLE
  5
32E2
330
1F
100
AcDbEntity
  8
TK1
100
AcDbCircle
 10
67.92770351792825
 20
82.0316179188377
 30
0.0
 40
0.5
  0
CIRCLE
  5
32E3
330
1F
100
AcDbEntity
  8
TK1
100
AcDbCircle
 10
67.92770351792825
 20
79.49161791883767
 30
0.0
 40
0.5
  0
CIRCLE
  5
32E4
330
1F
100
AcDbEntity
  8
TK1
100
AcDbCircle
 10
67.92770351792825
 20
76.95161791883771
 30
0.0
 40
0.5
  0
CIRCLE
  5
32E5
330
1F
100
AcDbEntity
  8
TK1
100
AcDbCircle
 10
67.92770351792825
 20
74.41161791883775
 30
0.0
 40
0.5
  0
CIRCLE
  5
32E6
330
1F
100
AcDbEntity
  8
TK1
100
AcDbCircle
 10
67.92770351792825
 20
71.87161791883767
 30
0.0
 40
0.5
  0
CIRCLE
  5
32E7
330
1F
100
AcDbEntity
  8
TK1
100
AcDbCircle
 10
67.92770351792825
 20
69.33161791883771
 30
0.0
 40
0.5
  0
CIRCLE
  5
32E8
330
1F
100
AcDbEntity
  8
TK1
100
AcDbCircle
 10
67.92770351792825
 20
66.79161791883775
 30
0.0
 40
0.5
  0
CIRCLE
  5
32E9
330
1F
100
AcDbEntity
  8
TK1
100
AcDbCircle
 10
67.92770351792825
 20
64.25161791883772
 30
0.0
 40
0.5
  0
CIRCLE
  5
32EA
330
1F
100
AcDbEntity
  8
TK1
100
AcDbCircle
 10
67.92770351792825
 20
61.7116179188377
 30
0.0
 40
0.5
  0
CIRCLE
  5
32EB
330
1F
100
AcDbEntity
  8
TK1
100
AcDbCircle
 10
67.92770351792825
 20
59.17161791883774
 30
0.0
 40
0.5
  0
CIRCLE
  5
32EC
330
1F
100
AcDbEntity
  8
TK1
100
AcDbCircle
 10
67.92770351792825
 20
56.63161791883772
 30
0.0
 40
0.5
  0
CIRCLE
  5
32ED
330
1F
100
AcDbEntity
  8
TK1
100
AcDbCircle
 10
67.92770351792825
 20
54.0916179188377
 30
0.0
 40
0.5
  0
CIRCLE
  5
32EE
330
1F
100
AcDbEntity
  8
TK1
100
AcDbCircle
 10
70.46770351792821
 20
87.11161791883768
 30
0.0
 40
0.5
  0
CIRCLE
  5
32EF
330
1F
100
AcDbEntity
  8
TK1
100
AcDbCircle
 10
70.46770351792821
 20
84.57161791883772
 30
0.0
 40
0.5
  0
CIRCLE
  5
32F0
330
1F
100
AcDbEntity
  8
TK1
100
AcDbCircle
 10
70.46770351792821
 20
82.0316179188377
 30
0.0
 40
0.5
  0
CIRCLE
  5
32F1
330
1F
100
AcDbEntity
  8
TK1
100
AcDbCircle
 10
70.46770351792821
 20
79.49161791883767
 30
0.0
 40
0.5
  0
CIRCLE
  5
32F2
330
1F
100
AcDbEntity
  8
TK1
100
AcDbCircle
 10
70.46770351792821
 20
76.95161791883771
 30
0.0
 40
0.5
  0
CIRCLE
  5
32F3
330
1F
100
AcDbEntity
  8
TK1
100
AcDbCircle
 10
70.46770351792821
 20
74.41161791883775
 30
0.0
 40
0.5
  0
CIRCLE
  5
32F4
330
1F
100
AcDbEntity
  8
TK1
100
AcDbCircle
 10
70.46770351792821
 20
71.87161791883767
 30
0.0
 40
0.5
  0
CIRCLE
  5
32F5
330
1F
100
AcDbEntity
  8
TK1
100
AcDbCircle
 10
70.46770351792821
 20
69.33161791883771
 30
0.0
 40
0.5
  0
CIRCLE
  5
32F6
330
1F
100
AcDbEntity
  8
TK1
100
AcDbCircle
 10
70.46770351792821
 20
66.79161791883775
 30
0.0
 40
0.5
  0
CIRCLE
  5
32F7
330
1F
100
AcDbEntity
  8
TK1
100
AcDbCircle
 10
70.46770351792821
 20
64.25161791883772
 30
0.0
 40
0.5
  0
CIRCLE
  5
32F8
330
1F
100
AcDbEntity
  8
TK1
100
AcDbCircle
 10
70.46770351792821
 20
61.7116179188377
 30
0.0
 40
0.5
  0
CIRCLE
  5
32F9
330
1F
100
AcDbEntity
  8
TK1
100
AcDbCircle
 10
70.46770351792821
 20
59.17161791883774
 30
0.0
 40
0.5
  0
CIRCLE
  5
32FA
330
1F
100
AcDbEntity
  8
TK1
100
AcDbCircle
 10
70.46770351792821
 20
56.63161791883772
 30
0.0
 40
0.5
  0
CIRCLE
  5
32FB
330
1F
100
AcDbEntity
  8
TK1
100
AcDbCircle
 10
70.46770351792821
 20
54.0916179188377
 30
0.0
 40
0.5
  0
CIRCLE
  5
32FC
330
1F
100
AcDbEntity
  8
TK1
100
AcDbCircle
 10
73.00770351792817
 20
87.11161791883768
 30
0.0
 40
0.5
  0
CIRCLE
  5
32FD
330
1F
100
AcDbEntity
  8
TK1
100
AcDbCircle
 10
73.00770351792817
 20
84.57161791883772
 30
0.0
 40
0.5
  0
CIRCLE
  5
32FE
330
1F
100
AcDbEntity
  8
TK1
100
AcDbCircle
 10
73.00770351792817
 20
82.0316179188377
 30
0.0
 40
0.5
  0
CIRCLE
  5
32FF
330
1F
100
AcDbEntity
  8
TK1
100
AcDbCircle
 10
73.00770351792817
 20
79.49161791883767
 30
0.0
 40
0.5
  0
CIRCLE
  5
3300
330
1F
100
AcDbEntity
  8
TK1
100
AcDbCircle
 10
73.00770351792817
 20
76.95161791883771
 30
0.0
 40
0.5
  0
CIRCLE
  5
3301
330
1F
100
AcDbEntity
  8
TK1
100
AcDbCircle
 10
73.00770351792817
 20
74.41161791883775
 30
0.0
 40
0.5
  0
CIRCLE
  5
3302
330
1F
100
AcDbEntity
  8
TK1
100
AcDbCircle
 10
73.00770351792817
 20
71.87161791883767
 30
0.0
 40
0.5
  0
CIRCLE
  5
3303
330
1F
100
AcDbEntity
  8
TK1
100
AcDbCircle
 10
73.00770351792817
 20
69.33161791883771
 30
0.0
 40
0.5
  0
CIRCLE
  5
3304
330
1F
100
AcDbEntity
  8
TK1
100
AcDbCircle
 10
73.00770351792817
 20
66.79161791883775
 30
0.0
 40
0.5
  0
CIRCLE
  5
3305
330
1F
100
AcDbEntity
  8
TK1
100
AcDbCircle
 10
73.00770351792817
 20
64.25161791883772
 30
0.0
 40
0.5
  0
CIRCLE
  5
3306
330
1F
100
AcDbEntity
  8
TK1
100
AcDbCircle
 10
73.00770351792817
 20
61.7116179188377
 30
0.0
 40
0.5
  0
CIRCLE
  5
3307
330
1F
100
AcDbEntity
  8
TK1
100
AcDbCircle
 10
73.00770351792817
 20
59.17161791883774
 30
0.0
 40
0.5
  0
CIRCLE
  5
3308
330
1F
100
AcDbEntity
  8
TK1
100
AcDbCircle
 10
73.00770351792817
 20
56.63161791883772
 30
0.0
 40
0.5
  0
CIRCLE
  5
3309
330
1F
100
AcDbEntity
  8
TK1
100
AcDbCircle
 10
73.00770351792817
 20
54.0916179188377
 30
0.0
 40
0.5
  0
CIRCLE
  5
330A
330
1F
100
AcDbEntity
  8
TK1
100
AcDbCircle
 10
75.54770351792814
 20
87.11161791883768
 30
0.0
 40
0.5
  0
CIRCLE
  5
330B
330
1F
100
AcDbEntity
  8
TK1
100
AcDbCircle
 10
75.54770351792814
 20
84.57161791883772
 30
0.0
 40
0.5
  0
CIRCLE
  5
330C
330
1F
100
AcDbEntity
  8
TK1
100
AcDbCircle
 10
75.54770351792814
 20
82.0316179188377
 30
0.0
 40
0.5
  0
CIRCLE
  5
330D
330
1F
100
AcDbEntity
  8
TK1
100
AcDbCircle
 10
75.54770351792814
 20
79.49161791883767
 30
0.0
 40
0.5
  0
CIRCLE
  5
330E
330
1F
100
AcDbEntity
  8
TK1
100
AcDbCircle
 10
75.54770351792814
 20
76.95161791883771
 30
0.0
 40
0.5
  0
CIRCLE
  5
330F
330
1F
100
AcDbEntity
  8
TK1
100
AcDbCircle
 10
75.54770351792814
 20
74.41161791883775
 30
0.0
 40
0.5
  0
CIRCLE
  5
3310
330
1F
100
AcDbEntity
  8
TK1
100
AcDbCircle
 10
75.54770351792814
 20
71.87161791883767
 30
0.0
 40
0.5
  0
CIRCLE
  5
3311
330
1F
100
AcDbEntity
  8
TK1
100
AcDbCircle
 10
75.54770351792814
 20
69.33161791883771
 30
0.0
 40
0.5
  0
CIRCLE
  5
3312
330
1F
100
AcDbEntity
  8
TK1
100
AcDbCircle
 10
75.54770351792814
 20
66.79161791883775
 30
0.0
 40
0.5
  0
CIRCLE
  5
3313
330
1F
100
AcDbEntity
  8
TK1
100
AcDbCircle
 10
75.54770351792814
 20
64.25161791883772
 30
0.0
 40
0.5
  0
CIRCLE
  5
3314
330
1F
100
AcDbEntity
  8
TK1
100
AcDbCircle
 10
75.54770351792814
 20
61.7116179188377
 30
0.0
 40
0.5
  0
CIRCLE
  5
3315
330
1F
100
AcDbEntity
  8
TK1
100
AcDbCircle
 10
75.54770351792814
 20
59.17161791883774
 30
0.0
 40
0.5
  0
CIRCLE
  5
3316
330
1F
100
AcDbEntity
  8
TK1
100
AcDbCircle
 10
75.54770351792814
 20
56.63161791883772
 30
0.0
 40
0.5
  0
CIRCLE
  5
3317
330
1F
100
AcDbEntity
  8
TK1
100
AcDbCircle
 10
75.54770351792814
 20
54.0916179188377
 30
0.0
 40
0.5
  0
CIRCLE
  5
3318
330
1F
100
AcDbEntity
  8
TK1
100
AcDbCircle
 10
78.0877035179281
 20
87.11161791883768
 30
0.0
 40
0.5
  0
CIRCLE
  5
3319
330
1F
100
AcDbEntity
  8
TK1
100
AcDbCircle
 10
78.0877035179281
 20
84.57161791883772
 30
0.0
 40
0.5
  0
CIRCLE
  5
331A
330
1F
100
AcDbEntity
  8
TK1
100
AcDbCircle
 10
78.0877035179281
 20
82.0316179188377
 30
0.0
 40
0.5
  0
CIRCLE
  5
331B
330
1F
100
AcDbEntity
  8
TK1
100
AcDbCircle
 10
78.0877035179281
 20
79.49161791883767
 30
0.0
 40
0.5
  0
CIRCLE
  5
331C
330
1F
100
AcDbEntity
  8
TK1
100
AcDbCircle
 10
78.0877035179281
 20
76.95161791883771
 30
0.0
 40
0.5
  0
CIRCLE
  5
331D
330
1F
100
AcDbEntity
  8
TK1
100
AcDbCircle
 10
78.0877035179281
 20
74.41161791883775
 30
0.0
 40
0.5
  0
CIRCLE
  5
331E
330
1F
100
AcDbEntity
  8
TK1
100
AcDbCircle
 10
78.0877035179281
 20
71.87161791883767
 30
0.0
 40
0.5
  0
CIRCLE
  5
331F
330
1F
100
AcDbEntity
  8
TK1
100
AcDbCircle
 10
78.0877035179281
 20
69.33161791883771
 30
0.0
 40
0.5
  0
CIRCLE
  5
3320
330
1F
100
AcDbEntity
  8
TK1
100
AcDbCircle
 10
78.0877035179281
 20
66.79161791883775
 30
0.0
 40
0.5
  0
CIRCLE
  5
3321
330
1F
100
AcDbEntity
  8
TK1
100
AcDbCircle
 10
78.0877035179281
 20
64.25161791883772
 30
0.0
 40
0.5
  0
CIRCLE
  5
3322
330
1F
100
AcDbEntity
  8
TK1
100
AcDbCircle
 10
78.0877035179281
 20
61.7116179188377
 30
0.0
 40
0.5
  0
CIRCLE
  5
3323
330
1F
100
AcDbEntity
  8
TK1
100
AcDbCircle
 10
78.0877035179281
 20
59.17161791883774
 30
0.0
 40
0.5
  0
CIRCLE
  5
3324
330
1F
100
AcDbEntity
  8
TK1
100
AcDbCircle
 10
78.0877035179281
 20
56.63161791883772
 30
0.0
 40
0.5
  0
CIRCLE
  5
3325
330
1F
100
AcDbEntity
  8
TK1
100
AcDbCircle
 10
78.0877035179281
 20
54.0916179188377
 30
0.0
 40
0.5
  0
CIRCLE
  5
3326
330
1F
100
AcDbEntity
  8
TK1
100
AcDbCircle
 10
80.62770351792806
 20
87.11161791883768
 30
0.0
 40
0.5
  0
CIRCLE
  5
3327
330
1F
100
AcDbEntity
  8
TK1
100
AcDbCircle
 10
80.62770351792806
 20
84.57161791883772
 30
0.0
 40
0.5
  0
CIRCLE
  5
3328
330
1F
100
AcDbEntity
  8
TK1
100
AcDbCircle
 10
80.62770351792806
 20
82.0316179188377
 30
0.0
 40
0.5
  0
CIRCLE
  5
3329
330
1F
100
AcDbEntity
  8
TK1
100
AcDbCircle
 10
80.62770351792806
 20
79.49161791883767
 30
0.0
 40
0.5
  0
CIRCLE
  5
332A
330
1F
100
AcDbEntity
  8
TK1
100
AcDbCircle
 10
80.62770351792806
 20
76.95161791883771
 30
0.0
 40
0.5
  0
CIRCLE
  5
332B
330
1F
100
AcDbEntity
  8
TK1
100
AcDbCircle
 10
80.62770351792806
 20
74.41161791883775
 30
0.0
 40
0.5
  0
CIRCLE
  5
332C
330
1F
100
AcDbEntity
  8
TK1
100
AcDbCircle
 10
80.62770351792806
 20
71.87161791883767
 30
0.0
 40
0.5
  0
CIRCLE
  5
332D
330
1F
100
AcDbEntity
  8
TK1
100
AcDbCircle
 10
80.62770351792806
 20
69.33161791883771
 30
0.0
 40
0.5
  0
CIRCLE
  5
332E
330
1F
100
AcDbEntity
  8
TK1
100
AcDbCircle
 10
80.62770351792806
 20
66.79161791883775
 30
0.0
 40
0.5
  0
CIRCLE
  5
332F
330
1F
100
AcDbEntity
  8
TK1
100
AcDbCircle
 10
80.62770351792806
 20
64.25161791883772
 30
0.0
 40
0.5
  0
CIRCLE
  5
3330
330
1F
100
AcDbEntity
  8
TK1
100
AcDbCircle
 10
80.62770351792806
 20
61.7116179188377
 30
0.0
 40
0.5
  0
CIRCLE
  5
3331
330
1F
100
AcDbEntity
  8
TK1
100
AcDbCircle
 10
80.62770351792806
 20
59.17161791883774
 30
0.0
 40
0.5
  0
CIRCLE
  5
3332
330
1F
100
AcDbEntity
  8
TK1
100
AcDbCircle
 10
80.62770351792806
 20
56.63161791883772
 30
0.0
 40
0.5
  0
CIRCLE
  5
3333
330
1F
100
AcDbEntity
  8
TK1
100
AcDbCircle
 10
80.62770351792806
 20
54.0916179188377
 30
0.0
 40
0.5
  0
CIRCLE
  5
3334
330
1F
100
AcDbEntity
  8
TK1
100
AcDbCircle
 10
83.16770351792802
 20
87.11161791883768
 30
0.0
 40
0.5
  0
CIRCLE
  5
3335
330
1F
100
AcDbEntity
  8
TK1
100
AcDbCircle
 10
83.16770351792802
 20
84.57161791883772
 30
0.0
 40
0.5
  0
CIRCLE
  5
3336
330
1F
100
AcDbEntity
  8
TK1
100
AcDbCircle
 10
83.16770351792802
 20
82.0316179188377
 30
0.0
 40
0.5
  0
CIRCLE
  5
3337
330
1F
100
AcDbEntity
  8
TK1
100
AcDbCircle
 10
83.16770351792802
 20
79.49161791883767
 30
0.0
 40
0.5
  0
CIRCLE
  5
3338
330
1F
100
AcDbEntity
  8
TK1
100
AcDbCircle
 10
83.16770351792802
 20
76.95161791883771
 30
0.0
 40
0.5
  0
CIRCLE
  5
3339
330
1F
100
AcDbEntity
  8
TK1
100
AcDbCircle
 10
83.16770351792802
 20
74.41161791883775
 30
0.0
 40
0.5
  0
CIRCLE
  5
333A
330
1F
100
AcDbEntity
  8
TK1
100
AcDbCircle
 10
83.16770351792802
 20
71.87161791883767
 30
0.0
 40
0.5
  0
CIRCLE
  5
333B
330
1F
100
AcDbEntity
  8
TK1
100
AcDbCircle
 10
83.16770351792802
 20
69.33161791883771
 30
0.0
 40
0.5
  0
CIRCLE
  5
333C
330
1F
100
AcDbEntity
  8
TK1
100
AcDbCircle
 10
83.16770351792802
 20
66.79161791883775
 30
0.0
 40
0.5
  0
CIRCLE
  5
333D
330
1F
100
AcDbEntity
  8
TK1
100
AcDbCircle
 10
83.16770351792802
 20
64.25161791883772
 30
0.0
 40
0.5
  0
CIRCLE
  5
333E
330
1F
100
AcDbEntity
  8
TK1
100
AcDbCircle
 10
83.16770351792802
 20
61.7116179188377
 30
0.0
 40
0.5
  0
CIRCLE
  5
333F
330
1F
100
AcDbEntity
  8
TK1
100
AcDbCircle
 10
83.16770351792802
 20
59.17161791883774
 30
0.0
 40
0.5
  0
CIRCLE
  5
3340
330
1F
100
AcDbEntity
  8
TK1
100
AcDbCircle
 10
83.16770351792802
 20
56.63161791883772
 30
0.0
 40
0.5
  0
CIRCLE
  5
3341
330
1F
100
AcDbEntity
  8
TK1
100
AcDbCircle
 10
34.90770351792827
 20
56.63161791883772
 30
0.0
 40
0.5
  0
CIRCLE
  5
3342
330
1F
100
AcDbEntity
  8
TK1
100
AcDbCircle
 10
34.90770351792827
 20
59.17161791883774
 30
0.0
 40
0.5
  0
CIRCLE
  5
3343
330
1F
100
AcDbEntity
  8
TK1
100
AcDbCircle
 10
34.90770351792827
 20
61.7116179188377
 30
0.0
 40
0.5
  0
CIRCLE
  5
3344
330
1F
100
AcDbEntity
  8
TK1
100
AcDbCircle
 10
34.90770351792827
 20
64.25161791883772
 30
0.0
 40
0.5
  0
CIRCLE
  5
3345
330
1F
100
AcDbEntity
  8
TK1
100
AcDbCircle
 10
34.90770351792827
 20
66.79161791883775
 30
0.0
 40
0.5
  0
CIRCLE
  5
3346
330
1F
100
AcDbEntity
  8
TK1
100
AcDbCircle
 10
34.90770351792827
 20
69.33161791883771
 30
0.0
 40
0.5
  0
CIRCLE
  5
3347
330
1F
100
AcDbEntity
  8
TK1
100
AcDbCircle
 10
34.90770351792827
 20
71.87161791883767
 30
0.0
 40
0.5
  0
CIRCLE
  5
3348
330
1F
100
AcDbEntity
  8
TK1
100
AcDbCircle
 10
34.90770351792827
 20
74.41161791883775
 30
0.0
 40
0.5
  0
CIRCLE
  5
3349
330
1F
100
AcDbEntity
  8
TK1
100
AcDbCircle
 10
34.90770351792827
 20
76.95161791883771
 30
0.0
 40
0.5
  0
CIRCLE
  5
334A
330
1F
100
AcDbEntity
  8
TK1
100
AcDbCircle
 10
34.90770351792827
 20
79.49161791883767
 30
0.0
 40
0.5
  0
CIRCLE
  5
334B
330
1F
100
AcDbEntity
  8
TK1
100
AcDbCircle
 10
34.90770351792827
 20
82.0316179188377
 30
0.0
 40
0.5
  0
CIRCLE
  5
334C
330
1F
100
AcDbEntity
  8
TK1
100
AcDbCircle
 10
34.90770351792827
 20
84.57161791883772
 30
0.0
 40
0.5
  0
CIRCLE
  5
334D
330
1F
100
AcDbEntity
  8
TK1
100
AcDbCircle
 10
37.44770351792823
 20
54.0916179188377
 30
0.0
 40
0.5
  0
CIRCLE
  5
334E
330
1F
100
AcDbEntity
  8
TK1
100
AcDbCircle
 10
37.44770351792823
 20
56.63161791883772
 30
0.0
 40
0.5
  0
CIRCLE
  5
334F
330
1F
100
AcDbEntity
  8
TK1
100
AcDbCircle
 10
37.44770351792823
 20
59.17161791883774
 30
0.0
 40
0.5
  0
CIRCLE
  5
3350
330
1F
100
AcDbEntity
  8
TK1
100
AcDbCircle
 10
37.44770351792823
 20
61.7116179188377
 30
0.0
 40
0.5
  0
CIRCLE
  5
3351
330
1F
100
AcDbEntity
  8
TK1
100
AcDbCircle
 10
37.44770351792823
 20
64.25161791883772
 30
0.0
 40
0.5
  0
CIRCLE
  5
3352
330
1F
100
AcDbEntity
  8
TK1
100
AcDbCircle
 10
37.44770351792823
 20
66.79161791883775
 30
0.0
 40
0.5
  0
CIRCLE
  5
3353
330
1F
100
AcDbEntity
  8
TK1
100
AcDbCircle
 10
37.44770351792823
 20
69.33161791883771
 30
0.0
 40
0.5
  0
CIRCLE
  5
3354
330
1F
100
AcDbEntity
  8
TK1
100
AcDbCircle
 10
37.44770351792823
 20
71.87161791883767
 30
0.0
 40
0.5
  0
CIRCLE
  5
3355
330
1F
100
AcDbEntity
  8
TK1
100
AcDbCircle
 10
37.44770351792823
 20
74.41161791883775
 30
0.0
 40
0.5
  0
CIRCLE
  5
3356
330
1F
100
AcDbEntity
  8
TK1
100
AcDbCircle
 10
37.44770351792823
 20
76.95161791883771
 30
0.0
 40
0.5
  0
CIRCLE
  5
3357
330
1F
100
AcDbEntity
  8
TK1
100
AcDbCircle
 10
37.44770351792823
 20
79.49161791883767
 30
0.0
 40
0.5
  0
CIRCLE
  5
3358
330
1F
100
AcDbEntity
  8
TK1
100
AcDbCircle
 10
37.44770351792823
 20
82.0316179188377
 30
0.0
 40
0.5
  0
CIRCLE
  5
3359
330
1F
100
AcDbEntity
  8
TK1
100
AcDbCircle
 10
37.44770351792823
 20
84.57161791883772
 30
0.0
 40
0.5
  0
CIRCLE
  5
335A
330
1F
100
AcDbEntity
  8
TK1
100
AcDbCircle
 10
39.9877035179282
 20
54.0916179188377
 30
0.0
 40
0.5
  0
CIRCLE
  5
335B
330
1F
100
AcDbEntity
  8
TK1
100
AcDbCircle
 10
39.9877035179282
 20
56.63161791883772
 30
0.0
 40
0.5
  0
CIRCLE
  5
335C
330
1F
100
AcDbEntity
  8
TK1
100
AcDbCircle
 10
39.9877035179282
 20
59.17161791883774
 30
0.0
 40
0.5
  0
CIRCLE
  5
335D
330
1F
100
AcDbEntity
  8
TK1
100
AcDbCircle
 10
39.9877035179282
 20
61.7116179188377
 30
0.0
 40
0.5
  0
CIRCLE
  5
335E
330
1F
100
AcDbEntity
  8
TK1
100
AcDbCircle
 10
39.9877035179282
 20
64.25161791883772
 30
0.0
 40
0.5
  0
CIRCLE
  5
335F
330
1F
100
AcDbEntity
  8
TK1
100
AcDbCircle
 10
39.9877035179282
 20
66.79161791883775
 30
0.0
 40
0.5
  0
CIRCLE
  5
3360
330
1F
100
AcDbEntity
  8
TK1
100
AcDbCircle
 10
39.9877035179282
 20
69.33161791883771
 30
0.0
 40
0.5
  0
CIRCLE
  5
3361
330
1F
100
AcDbEntity
  8
TK1
100
AcDbCircle
 10
39.9877035179282
 20
71.87161791883767
 30
0.0
 40
0.5
  0
CIRCLE
  5
3362
330
1F
100
AcDbEntity
  8
TK1
100
AcDbCircle
 10
39.9877035179282
 20
74.41161791883775
 30
0.0
 40
0.5
  0
CIRCLE
  5
3363
330
1F
100
AcDbEntity
  8
TK1
100
AcDbCircle
 10
39.9877035179282
 20
76.95161791883771
 30
0.0
 40
0.5
  0
CIRCLE
  5
3364
330
1F
100
AcDbEntity
  8
TK1
100
AcDbCircle
 10
39.9877035179282
 20
79.49161791883767
 30
0.0
 40
0.5
  0
CIRCLE
  5
3365
330
1F
100
AcDbEntity
  8
TK1
100
AcDbCircle
 10
39.9877035179282
 20
82.0316179188377
 30
0.0
 40
0.5
  0
CIRCLE
  5
3366
330
1F
100
AcDbEntity
  8
TK1
100
AcDbCircle
 10
39.9877035179282
 20
84.57161791883772
 30
0.0
 40
0.5
  0
CIRCLE
  5
3367
330
1F
100
AcDbEntity
  8
TK1
100
AcDbCircle
 10
42.52770351792816
 20
54.0916179188377
 30
0.0
 40
0.5
  0
CIRCLE
  5
3368
330
1F
100
AcDbEntity
  8
TK1
100
AcDbCircle
 10
42.52770351792816
 20
56.63161791883772
 30
0.0
 40
0.5
  0
CIRCLE
  5
3369
330
1F
100
AcDbEntity
  8
TK1
100
AcDbCircle
 10
42.52770351792816
 20
59.17161791883774
 30
0.0
 40
0.5
  0
CIRCLE
  5
336A
330
1F
100
AcDbEntity
  8
TK1
100
AcDbCircle
 10
42.52770351792816
 20
61.7116179188377
 30
0.0
 40
0.5
  0
CIRCLE
  5
336B
330
1F
100
AcDbEntity
  8
TK1
100
AcDbCircle
 10
42.52770351792816
 20
64.25161791883772
 30
0.0
 40
0.5
  0
CIRCLE
  5
336C
330
1F
100
AcDbEntity
  8
TK1
100
AcDbCircle
 10
42.52770351792816
 20
66.79161791883775
 30
0.0
 40
0.5
  0
CIRCLE
  5
336D
330
1F
100
AcDbEntity
  8
TK1
100
AcDbCircle
 10
42.52770351792816
 20
69.33161791883771
 30
0.0
 40
0.5
  0
CIRCLE
  5
336E
330
1F
100
AcDbEntity
  8
TK1
100
AcDbCircle
 10
42.52770351792816
 20
71.87161791883767
 30
0.0
 40
0.5
  0
CIRCLE
  5
336F
330
1F
100
AcDbEntity
  8
TK1
100
AcDbCircle
 10
42.52770351792816
 20
74.41161791883775
 30
0.0
 40
0.5
  0
CIRCLE
  5
3370
330
1F
100
AcDbEntity
  8
TK1
100
AcDbCircle
 10
42.52770351792816
 20
76.95161791883771
 30
0.0
 40
0.5
  0
CIRCLE
  5
3371
330
1F
100
AcDbEntity
  8
TK1
100
AcDbCircle
 10
42.52770351792816
 20
79.49161791883767
 30
0.0
 40
0.5
  0
CIRCLE
  5
3372
330
1F
100
AcDbEntity
  8
TK1
100
AcDbCircle
 10
42.52770351792816
 20
82.0316179188377
 30
0.0
 40
0.5
  0
CIRCLE
  5
3373
330
1F
100
AcDbEntity
  8
TK1
100
AcDbCircle
 10
42.52770351792816
 20
84.57161791883772
 30
0.0
 40
0.5
  0
CIRCLE
  5
3374
330
1F
100
AcDbEntity
  8
TK1
100
AcDbCircle
 10
45.06770351792812
 20
54.0916179188377
 30
0.0
 40
0.5
  0
CIRCLE
  5
3375
330
1F
100
AcDbEntity
  8
TK1
100
AcDbCircle
 10
45.06770351792812
 20
56.63161791883772
 30
0.0
 40
0.5
  0
CIRCLE
  5
3376
330
1F
100
AcDbEntity
  8
TK1
100
AcDbCircle
 10
45.06770351792812
 20
59.17161791883774
 30
0.0
 40
0.5
  0
CIRCLE
  5
3377
330
1F
100
AcDbEntity
  8
TK1
100
AcDbCircle
 10
45.06770351792812
 20
61.7116179188377
 30
0.0
 40
0.5
  0
CIRCLE
  5
3378
330
1F
100
AcDbEntity
  8
TK1
100
AcDbCircle
 10
45.06770351792812
 20
64.25161791883772
 30
0.0
 40
0.5
  0
CIRCLE
  5
3379
330
1F
100
AcDbEntity
  8
TK1
100
AcDbCircle
 10
45.06770351792812
 20
66.79161791883775
 30
0.0
 40
0.5
  0
CIRCLE
  5
337A
330
1F
100
AcDbEntity
  8
TK1
100
AcDbCircle
 10
45.06770351792812
 20
69.33161791883771
 30
0.0
 40
0.5
  0
CIRCLE
  5
337B
330
1F
100
AcDbEntity
  8
TK1
100
AcDbCircle
 10
45.06770351792812
 20
71.87161791883767
 30
0.0
 40
0.5
  0
CIRCLE
  5
337C
330
1F
100
AcDbEntity
  8
TK1
100
AcDbCircle
 10
45.06770351792812
 20
74.41161791883775
 30
0.0
 40
0.5
  0
CIRCLE
  5
337D
330
1F
100
AcDbEntity
  8
TK1
100
AcDbCircle
 10
45.06770351792812
 20
76.95161791883771
 30
0.0
 40
0.5
  0
CIRCLE
  5
337E
330
1F
100
AcDbEntity
  8
TK1
100
AcDbCircle
 10
45.06770351792812
 20
79.49161791883767
 30
0.0
 40
0.5
  0
CIRCLE
  5
337F
330
1F
100
AcDbEntity
  8
TK1
100
AcDbCircle
 10
45.06770351792812
 20
82.0316179188377
 30
0.0
 40
0.5
  0
CIRCLE
  5
3380
330
1F
100
AcDbEntity
  8
TK1
100
AcDbCircle
 10
45.06770351792812
 20
84.57161791883772
 30
0.0
 40
0.5
  0
CIRCLE
  5
3381
330
1F
100
AcDbEntity
  8
TK1
100
AcDbCircle
 10
47.60770351792809
 20
54.0916179188377
 30
0.0
 40
0.5
  0
CIRCLE
  5
3382
330
1F
100
AcDbEntity
  8
TK1
100
AcDbCircle
 10
47.60770351792809
 20
56.63161791883772
 30
0.0
 40
0.5
  0
CIRCLE
  5
3383
330
1F
100
AcDbEntity
  8
TK1
100
AcDbCircle
 10
47.60770351792809
 20
59.17161791883774
 30
0.0
 40
0.5
  0
CIRCLE
  5
3384
330
1F
100
AcDbEntity
  8
TK1
100
AcDbCircle
 10
47.60770351792809
 20
61.7116179188377
 30
0.0
 40
0.5
  0
CIRCLE
  5
3385
330
1F
100
AcDbEntity
  8
TK1
100
AcDbCircle
 10
47.60770351792809
 20
64.25161791883772
 30
0.0
 40
0.5
  0
CIRCLE
  5
3386
330
1F
100
AcDbEntity
  8
TK1
100
AcDbCircle
 10
47.60770351792809
 20
66.79161791883775
 30
0.0
 40
0.5
  0
CIRCLE
  5
3387
330
1F
100
AcDbEntity
  8
TK1
100
AcDbCircle
 10
47.60770351792809
 20
69.33161791883771
 30
0.0
 40
0.5
  0
CIRCLE
  5
3388
330
1F
100
AcDbEntity
  8
TK1
100
AcDbCircle
 10
47.60770351792809
 20
71.87161791883767
 30
0.0
 40
0.5
  0
CIRCLE
  5
3389
330
1F
100
AcDbEntity
  8
TK1
100
AcDbCircle
 10
47.60770351792809
 20
74.41161791883775
 30
0.0
 40
0.5
  0
CIRCLE
  5
338A
330
1F
100
AcDbEntity
  8
TK1
100
AcDbCircle
 10
47.60770351792809
 20
76.95161791883771
 30
0.0
 40
0.5
  0
CIRCLE
  5
338B
330
1F
100
AcDbEntity
  8
TK1
100
AcDbCircle
 10
47.60770351792809
 20
79.49161791883767
 30
0.0
 40
0.5
  0
CIRCLE
  5
338C
330
1F
100
AcDbEntity
  8
TK1
100
AcDbCircle
 10
47.60770351792809
 20
82.0316179188377
 30
0.0
 40
0.5
  0
CIRCLE
  5
338D
330
1F
100
AcDbEntity
  8
TK1
100
AcDbCircle
 10
47.60770351792809
 20
84.57161791883772
 30
0.0
 40
0.5
  0
CIRCLE
  5
338E
330
1F
100
AcDbEntity
  8
TK1
100
AcDbCircle
 10
50.14770351792805
 20
54.0916179188377
 30
0.0
 40
0.5
  0
CIRCLE
  5
338F
330
1F
100
AcDbEntity
  8
TK1
100
AcDbCircle
 10
50.14770351792805
 20
56.63161791883772
 30
0.0
 40
0.5
  0
CIRCLE
  5
3390
330
1F
100
AcDbEntity
  8
TK1
100
AcDbCircle
 10
50.14770351792805
 20
59.17161791883774
 30
0.0
 40
0.5
  0
CIRCLE
  5
3391
330
1F
100
AcDbEntity
  8
TK1
100
AcDbCircle
 10
50.14770351792805
 20
61.7116179188377
 30
0.0
 40
0.5
  0
CIRCLE
  5
3392
330
1F
100
AcDbEntity
  8
TK1
100
AcDbCircle
 10
50.14770351792805
 20
64.25161791883772
 30
0.0
 40
0.5
  0
CIRCLE
  5
3393
330
1F
100
AcDbEntity
  8
TK1
100
AcDbCircle
 10
50.14770351792805
 20
66.79161791883775
 30
0.0
 40
0.5
  0
CIRCLE
  5
3394
330
1F
100
AcDbEntity
  8
TK1
100
AcDbCircle
 10
50.14770351792805
 20
69.33161791883771
 30
0.0
 40
0.5
  0
CIRCLE
  5
3395
330
1F
100
AcDbEntity
  8
TK1
100
AcDbCircle
 10
50.14770351792805
 20
71.87161791883767
 30
0.0
 40
0.5
  0
CIRCLE
  5
3396
330
1F
100
AcDbEntity
  8
TK1
100
AcDbCircle
 10
50.14770351792805
 20
74.41161791883775
 30
0.0
 40
0.5
  0
CIRCLE
  5
3397
330
1F
100
AcDbEntity
  8
TK1
100
AcDbCircle
 10
50.14770351792805
 20
76.95161791883771
 30
0.0
 40
0.5
  0
CIRCLE
  5
3398
330
1F
100
AcDbEntity
  8
TK1
100
AcDbCircle
 10
50.14770351792805
 20
79.49161791883767
 30
0.0
 40
0.5
  0
CIRCLE
  5
3399
330
1F
100
AcDbEntity
  8
TK1
100
AcDbCircle
 10
50.14770351792805
 20
82.0316179188377
 30
0.0
 40
0.5
  0
CIRCLE
  5
339A
330
1F
100
AcDbEntity
  8
TK1
100
AcDbCircle
 10
50.14770351792805
 20
84.57161791883772
 30
0.0
 40
0.5
  0
CIRCLE
  5
339B
330
1F
100
AcDbEntity
  8
TK1
100
AcDbCircle
 10
52.68770351792824
 20
54.0916179188377
 30
0.0
 40
0.5
  0
CIRCLE
  5
339C
330
1F
100
AcDbEntity
  8
TK1
100
AcDbCircle
 10
52.68770351792824
 20
56.63161791883772
 30
0.0
 40
0.5
  0
CIRCLE
  5
339D
330
1F
100
AcDbEntity
  8
TK1
100
AcDbCircle
 10
52.68770351792824
 20
59.17161791883774
 30
0.0
 40
0.5
  0
CIRCLE
  5
339E
330
1F
100
AcDbEntity
  8
TK1
100
AcDbCircle
 10
52.68770351792824
 20
61.7116179188377
 30
0.0
 40
0.5
  0
CIRCLE
  5
339F
330
1F
100
AcDbEntity
  8
TK1
100
AcDbCircle
 10
52.68770351792824
 20
64.25161791883772
 30
0.0
 40
0.5
  0
CIRCLE
  5
33A0
330
1F
100
AcDbEntity
  8
TK1
100
AcDbCircle
 10
52.68770351792824
 20
66.79161791883775
 30
0.0
 40
0.5
  0
CIRCLE
  5
33A1
330
1F
100
AcDbEntity
  8
TK1
100
AcDbCircle
 10
52.68770351792824
 20
69.33161791883771
 30
0.0
 40
0.5
  0
CIRCLE
  5
33A2
330
1F
100
AcDbEntity
  8
TK1
100
AcDbCircle
 10
52.68770351792824
 20
71.87161791883767
 30
0.0
 40
0.5
  0
CIRCLE
  5
33A3
330
1F
100
AcDbEntity
  8
TK1
100
AcDbCircle
 10
52.68770351792824
 20
74.41161791883775
 30
0.0
 40
0.5
  0
CIRCLE
  5
33A4
330
1F
100
AcDbEntity
  8
TK1
100
AcDbCircle
 10
52.68770351792824
 20
76.95161791883771
 30
0.0
 40
0.5
  0
CIRCLE
  5
33A5
330
1F
100
AcDbEntity
  8
TK1
100
AcDbCircle
 10
52.68770351792824
 20
79.49161791883767
 30
0.0
 40
0.5
  0
CIRCLE
  5
33A6
330
1F
100
AcDbEntity
  8
TK1
100
AcDbCircle
 10
52.68770351792824
 20
82.0316179188377
 30
0.0
 40
0.5
  0
CIRCLE
  5
33A7
330
1F
100
AcDbEntity
  8
TK1
100
AcDbCircle
 10
52.68770351792824
 20
84.57161791883772
 30
0.0
 40
0.5
  0
CIRCLE
  5
33A8
330
1F
100
AcDbEntity
  8
TK1
100
AcDbCircle
 10
55.22770351792821
 20
54.0916179188377
 30
0.0
 40
0.5
  0
CIRCLE
  5
33A9
330
1F
100
AcDbEntity
  8
TK1
100
AcDbCircle
 10
55.22770351792821
 20
56.63161791883772
 30
0.0
 40
0.5
  0
CIRCLE
  5
33AA
330
1F
100
AcDbEntity
  8
TK1
100
AcDbCircle
 10
55.22770351792821
 20
59.17161791883774
 30
0.0
 40
0.5
  0
CIRCLE
  5
33AB
330
1F
100
AcDbEntity
  8
TK1
100
AcDbCircle
 10
55.22770351792821
 20
61.7116179188377
 30
0.0
 40
0.5
  0
CIRCLE
  5
33AC
330
1F
100
AcDbEntity
  8
TK1
100
AcDbCircle
 10
55.22770351792821
 20
64.25161791883772
 30
0.0
 40
0.5
  0
CIRCLE
  5
33AD
330
1F
100
AcDbEntity
  8
TK1
100
AcDbCircle
 10
55.22770351792821
 20
66.79161791883775
 30
0.0
 40
0.5
  0
CIRCLE
  5
33AE
330
1F
100
AcDbEntity
  8
TK1
100
AcDbCircle
 10
55.22770351792821
 20
69.33161791883771
 30
0.0
 40
0.5
  0
CIRCLE
  5
33AF
330
1F
100
AcDbEntity
  8
TK1
100
AcDbCircle
 10
55.22770351792821
 20
71.87161791883767
 30
0.0
 40
0.5
  0
CIRCLE
  5
33B0
330
1F
100
AcDbEntity
  8
TK1
100
AcDbCircle
 10
55.22770351792821
 20
74.41161791883775
 30
0.0
 40
0.5
  0
CIRCLE
  5
33B1
330
1F
100
AcDbEntity
  8
TK1
100
AcDbCircle
 10
55.22770351792821
 20
76.95161791883771
 30
0.0
 40
0.5
  0
CIRCLE
  5
33B2
330
1F
100
AcDbEntity
  8
TK1
100
AcDbCircle
 10
55.22770351792821
 20
79.49161791883767
 30
0.0
 40
0.5
  0
CIRCLE
  5
33B3
330
1F
100
AcDbEntity
  8
TK1
100
AcDbCircle
 10
55.22770351792821
 20
82.0316179188377
 30
0.0
 40
0.5
  0
CIRCLE
  5
33B4
330
1F
100
AcDbEntity
  8
TK1
100
AcDbCircle
 10
55.22770351792821
 20
84.57161791883772
 30
0.0
 40
0.5
  0
CIRCLE
  5
33B5
330
1F
100
AcDbEntity
  8
TK1
100
AcDbCircle
 10
57.76770351792817
 20
54.0916179188377
 30
0.0
 40
0.5
  0
CIRCLE
  5
33B6
330
1F
100
AcDbEntity
  8
TK1
100
AcDbCircle
 10
57.76770351792817
 20
56.63161791883772
 30
0.0
 40
0.5
  0
CIRCLE
  5
33B7
330
1F
100
AcDbEntity
  8
TK1
100
AcDbCircle
 10
57.76770351792817
 20
59.17161791883774
 30
0.0
 40
0.5
  0
CIRCLE
  5
33B8
330
1F
100
AcDbEntity
  8
TK1
100
AcDbCircle
 10
57.76770351792817
 20
61.7116179188377
 30
0.0
 40
0.5
  0
CIRCLE
  5
33B9
330
1F
100
AcDbEntity
  8
TK1
100
AcDbCircle
 10
57.76770351792817
 20
64.25161791883772
 30
0.0
 40
0.5
  0
CIRCLE
  5
33BA
330
1F
100
AcDbEntity
  8
TK1
100
AcDbCircle
 10
57.76770351792817
 20
66.79161791883775
 30
0.0
 40
0.5
  0
CIRCLE
  5
33BB
330
1F
100
AcDbEntity
  8
TK1
100
AcDbCircle
 10
57.76770351792817
 20
69.33161791883771
 30
0.0
 40
0.5
  0
CIRCLE
  5
33BC
330
1F
100
AcDbEntity
  8
TK1
100
AcDbCircle
 10
57.76770351792817
 20
71.87161791883767
 30
0.0
 40
0.5
  0
CIRCLE
  5
33BD
330
1F
100
AcDbEntity
  8
TK1
100
AcDbCircle
 10
57.76770351792817
 20
74.41161791883775
 30
0.0
 40
0.5
  0
CIRCLE
  5
33BE
330
1F
100
AcDbEntity
  8
TK1
100
AcDbCircle
 10
57.76770351792817
 20
76.95161791883771
 30
0.0
 40
0.5
  0
CIRCLE
  5
33BF
330
1F
100
AcDbEntity
  8
TK1
100
AcDbCircle
 10
57.76770351792817
 20
79.49161791883767
 30
0.0
 40
0.5
  0
CIRCLE
  5
33C0
330
1F
100
AcDbEntity
  8
TK1
100
AcDbCircle
 10
57.76770351792817
 20
82.0316179188377
 30
0.0
 40
0.5
  0
CIRCLE
  5
33C1
330
1F
100
AcDbEntity
  8
TK1
100
AcDbCircle
 10
57.76770351792817
 20
84.57161791883772
 30
0.0
 40
0.5
  0
CIRCLE
  5
33C2
330
1F
100
AcDbEntity
  8
TK1
100
AcDbCircle
 10
34.90770351792827
 20
87.11161791883768
 30
0.0
 40
0.5
  0
CIRCLE
  5
33C3
330
1F
100
AcDbEntity
  8
TK1
100
AcDbCircle
 10
37.44770351792823
 20
87.11161791883768
 30
0.0
 40
0.5
  0
CIRCLE
  5
33C4
330
1F
100
AcDbEntity
  8
TK1
100
AcDbCircle
 10
39.9877035179282
 20
87.11161791883768
 30
0.0
 40
0.5
  0
CIRCLE
  5
33C5
330
1F
100
AcDbEntity
  8
TK1
100
AcDbCircle
 10
42.52770351792816
 20
87.11161791883768
 30
0.0
 40
0.5
  0
CIRCLE
  5
33C6
330
1F
100
AcDbEntity
  8
TK1
100
AcDbCircle
 10
45.06770351792812
 20
87.11161791883768
 30
0.0
 40
0.5
  0
CIRCLE
  5
33C7
330
1F
100
AcDbEntity
  8
TK1
100
AcDbCircle
 10
47.60770351792809
 20
87.11161791883768
 30
0.0
 40
0.5
  0
CIRCLE
  5
33C8
330
1F
100
AcDbEntity
  8
TK1
100
AcDbCircle
 10
50.14770351792805
 20
87.11161791883768
 30
0.0
 40
0.5
  0
CIRCLE
  5
33C9
330
1F
100
AcDbEntity
  8
TK1
100
AcDbCircle
 10
52.68770351792824
 20
87.11161791883768
 30
0.0
 40
0.5
  0
CIRCLE
  5
33CA
330
1F
100
AcDbEntity
  8
TK1
100
AcDbCircle
 10
55.22770351792821
 20
87.11161791883768
 30
0.0
 40
0.5
  0
CIRCLE
  5
33CB
330
1F
100
AcDbEntity
  8
TK1
100
AcDbCircle
 10
57.76770351792817
 20
87.11161791883768
 30
0.0
 40
0.5
  0
CIRCLE
  5
33CC
330
1F
100
AcDbEntity
  8
TK1
100
AcDbCircle
 10
57.76770351792817
 20
89.65161791883776
 30
0.0
 40
0.5
  0
CIRCLE
  5
33CD
330
1F
100
AcDbEntity
  8
TK1
100
AcDbCircle
 10
55.22770351792821
 20
89.65161791883776
 30
0.0
 40
0.5
  0
CIRCLE
  5
33CE
330
1F
100
AcDbEntity
  8
TK1
100
AcDbCircle
 10
52.68770351792824
 20
89.65161791883776
 30
0.0
 40
0.5
  0
CIRCLE
  5
33CF
330
1F
100
AcDbEntity
  8
TK1
100
AcDbCircle
 10
50.14770351792805
 20
89.65161791883776
 30
0.0
 40
0.5
  0
CIRCLE
  5
33D0
330
1F
100
AcDbEntity
  8
TK1
100
AcDbCircle
 10
47.60770351792809
 20
89.65161791883776
 30
0.0
 40
0.5
  0
CIRCLE
  5
33D1
330
1F
100
AcDbEntity
  8
TK1
100
AcDbCircle
 10
45.06770351792812
 20
89.65161791883776
 30
0.0
 40
0.5
  0
CIRCLE
  5
33D2
330
1F
100
AcDbEntity
  8
TK1
100
AcDbCircle
 10
42.52770351792816
 20
89.65161791883776
 30
0.0
 40
0.5
  0
CIRCLE
  5
33D3
330
1F
100
AcDbEntity
  8
TK1
100
AcDbCircle
 10
39.9877035179282
 20
89.65161791883776
 30
0.0
 40
0.5
  0
CIRCLE
  5
33D4
330
1F
100
AcDbEntity
  8
TK1
100
AcDbCircle
 10
37.44770351792823
 20
89.65161791883776
 30
0.0
 40
0.5
  0
CIRCLE
  5
33D5
330
1F
100
AcDbEntity
  8
TK1
100
AcDbCircle
 10
34.90770351792827
 20
89.65161791883776
 30
0.0
 40
0.5
  0
CIRCLE
  5
33D6
330
1F
100
AcDbEntity
  8
TK1
100
AcDbCircle
 10
57.76770351792817
 20
92.19161791883772
 30
0.0
 40
0.5
  0
CIRCLE
  5
33D7
330
1F
100
AcDbEntity
  8
TK1
100
AcDbCircle
 10
57.76770351792817
 20
94.7316179188378
 30
0.0
 40
0.5
  0
CIRCLE
  5
33D8
330
1F
100
AcDbEntity
  8
TK1
100
AcDbCircle
 10
57.76770351792817
 20
97.27161791883776
 30
0.0
 40
0.5
  0
CIRCLE
  5
33D9
330
1F
100
AcDbEntity
  8
TK1
100
AcDbCircle
 10
57.76770351792817
 20
99.81161791883772
 30
0.0
 40
0.5
  0
CIRCLE
  5
33DA
330
1F
100
AcDbEntity
  8
TK1
100
AcDbCircle
 10
57.76770351792817
 20
102.3516179188377
 30
0.0
 40
0.5
  0
CIRCLE
  5
33DB
330
1F
100
AcDbEntity
  8
TK1
100
AcDbCircle
 10
57.76770351792817
 20
104.8916179188377
 30
0.0
 40
0.5
  0
CIRCLE
  5
33DC
330
1F
100
AcDbEntity
  8
TK1
100
AcDbCircle
 10
57.76770351792817
 20
107.4316179188377
 30
0.0
 40
0.5
  0
CIRCLE
  5
33DD
330
1F
100
AcDbEntity
  8
TK1
100
AcDbCircle
 10
57.76770351792817
 20
109.9716179188377
 30
0.0
 40
0.5
  0
CIRCLE
  5
33DE
330
1F
100
AcDbEntity
  8
TK1
100
AcDbCircle
 10
57.76770351792817
 20
112.5116179188377
 30
0.0
 40
0.5
  0
CIRCLE
  5
33DF
330
1F
100
AcDbEntity
  8
TK1
100
AcDbCircle
 10
57.76770351792817
 20
115.0516179188377
 30
0.0
 40
0.5
  0
CIRCLE
  5
33E0
330
1F
100
AcDbEntity
  8
TK1
100
AcDbCircle
 10
57.76770351792817
 20
117.5916179188377
 30
0.0
 40
0.5
  0
CIRCLE
  5
33E1
330
1F
100
AcDbEntity
  8
TK1
100
AcDbCircle
 10
57.76770351792817
 20
120.1316179188378
 30
0.0
 40
0.5
  0
CIRCLE
  5
33E2
330
1F
100
AcDbEntity
  8
TK1
100
AcDbCircle
 10
57.76770351792817
 20
122.6716179188378
 30
0.0
 40
0.5
  0
CIRCLE
  5
33E3
330
1F
100
AcDbEntity
  8
TK1
100
AcDbCircle
 10
57.76770351792817
 20
125.2116179188377
 30
0.0
 40
0.5
  0
CIRCLE
  5
33E4
330
1F
100
AcDbEntity
  8
TK1
100
AcDbCircle
 10
55.22770351792821
 20
92.19161791883772
 30
0.0
 40
0.5
  0
CIRCLE
  5
33E5
330
1F
100
AcDbEntity
  8
TK1
100
AcDbCircle
 10
55.22770351792821
 20
94.7316179188378
 30
0.0
 40
0.5
  0
CIRCLE
  5
33E6
330
1F
100
AcDbEntity
  8
TK1
100
AcDbCircle
 10
55.22770351792821
 20
97.27161791883776
 30
0.0
 40
0.5
  0
CIRCLE
  5
33E7
330
1F
100
AcDbEntity
  8
TK1
100
AcDbCircle
 10
55.22770351792821
 20
99.81161791883772
 30
0.0
 40
0.5
  0
CIRCLE
  5
33E8
330
1F
100
AcDbEntity
  8
TK1
100
AcDbCircle
 10
55.22770351792821
 20
102.3516179188377
 30
0.0
 40
0.5
  0
CIRCLE
  5
33E9
330
1F
100
AcDbEntity
  8
TK1
100
AcDbCircle
 10
55.22770351792821
 20
104.8916179188377
 30
0.0
 40
0.5
  0
CIRCLE
  5
33EA
330
1F
100
AcDbEntity
  8
TK1
100
AcDbCircle
 10
55.22770351792821
 20
107.4316179188377
 30
0.0
 40
0.5
  0
CIRCLE
  5
33EB
330
1F
100
AcDbEntity
  8
TK1
100
AcDbCircle
 10
55.22770351792821
 20
109.9716179188377
 30
0.0
 40
0.5
  0
CIRCLE
  5
33EC
330
1F
100
AcDbEntity
  8
TK1
100
AcDbCircle
 10
55.22770351792821
 20
112.5116179188377
 30
0.0
 40
0.5
  0
CIRCLE
  5
33ED
330
1F
100
AcDbEntity
  8
TK1
100
AcDbCircle
 10
55.22770351792821
 20
115.0516179188377
 30
0.0
 40
0.5
  0
CIRCLE
  5
33EE
330
1F
100
AcDbEntity
  8
TK1
100
AcDbCircle
 10
55.22770351792821
 20
117.5916179188377
 30
0.0
 40
0.5
  0
CIRCLE
  5
33EF
330
1F
100
AcDbEntity
  8
TK1
100
AcDbCircle
 10
55.22770351792821
 20
120.1316179188378
 30
0.0
 40
0.5
  0
CIRCLE
  5
33F0
330
1F
100
AcDbEntity
  8
TK1
100
AcDbCircle
 10
55.22770351792821
 20
122.6716179188378
 30
0.0
 40
0.5
  0
CIRCLE
  5
33F1
330
1F
100
AcDbEntity
  8
TK1
100
AcDbCircle
 10
55.22770351792821
 20
125.2116179188377
 30
0.0
 40
0.5
  0
CIRCLE
  5
33F2
330
1F
100
AcDbEntity
  8
TK1
100
AcDbCircle
 10
52.68770351792824
 20
92.19161791883772
 30
0.0
 40
0.5
  0
CIRCLE
  5
33F3
330
1F
100
AcDbEntity
  8
TK1
100
AcDbCircle
 10
52.68770351792824
 20
94.7316179188378
 30
0.0
 40
0.5
  0
CIRCLE
  5
33F4
330
1F
100
AcDbEntity
  8
TK1
100
AcDbCircle
 10
52.68770351792824
 20
97.27161791883776
 30
0.0
 40
0.5
  0
CIRCLE
  5
33F5
330
1F
100
AcDbEntity
  8
TK1
100
AcDbCircle
 10
52.68770351792824
 20
99.81161791883772
 30
0.0
 40
0.5
  0
CIRCLE
  5
33F6
330
1F
100
AcDbEntity
  8
TK1
100
AcDbCircle
 10
52.68770351792824
 20
102.3516179188377
 30
0.0
 40
0.5
  0
CIRCLE
  5
33F7
330
1F
100
AcDbEntity
  8
TK1
100
AcDbCircle
 10
52.68770351792824
 20
104.8916179188377
 30
0.0
 40
0.5
  0
CIRCLE
  5
33F8
330
1F
100
AcDbEntity
  8
TK1
100
AcDbCircle
 10
52.68770351792824
 20
107.4316179188377
 30
0.0
 40
0.5
  0
CIRCLE
  5
33F9
330
1F
100
AcDbEntity
  8
TK1
100
AcDbCircle
 10
52.68770351792824
 20
109.9716179188377
 30
0.0
 40
0.5
  0
CIRCLE
  5
33FA
330
1F
100
AcDbEntity
  8
TK1
100
AcDbCircle
 10
52.68770351792824
 20
112.5116179188377
 30
0.0
 40
0.5
  0
CIRCLE
  5
33FB
330
1F
100
AcDbEntity
  8
TK1
100
AcDbCircle
 10
52.68770351792824
 20
115.0516179188377
 30
0.0
 40
0.5
  0
CIRCLE
  5
33FC
330
1F
100
AcDbEntity
  8
TK1
100
AcDbCircle
 10
52.68770351792824
 20
117.5916179188377
 30
0.0
 40
0.5
  0
CIRCLE
  5
33FD
330
1F
100
AcDbEntity
  8
TK1
100
AcDbCircle
 10
52.68770351792824
 20
120.1316179188378
 30
0.0
 40
0.5
  0
CIRCLE
  5
33FE
330
1F
100
AcDbEntity
  8
TK1
100
AcDbCircle
 10
52.68770351792824
 20
122.6716179188378
 30
0.0
 40
0.5
  0
CIRCLE
  5
33FF
330
1F
100
AcDbEntity
  8
TK1
100
AcDbCircle
 10
52.68770351792824
 20
125.2116179188377
 30
0.0
 40
0.5
  0
CIRCLE
  5
3400
330
1F
100
AcDbEntity
  8
TK1
100
AcDbCircle
 10
50.14770351792805
 20
92.19161791883772
 30
0.0
 40
0.5
  0
CIRCLE
  5
3401
330
1F
100
AcDbEntity
  8
TK1
100
AcDbCircle
 10
50.14770351792805
 20
94.7316179188378
 30
0.0
 40
0.5
  0
CIRCLE
  5
3402
330
1F
100
AcDbEntity
  8
TK1
100
AcDbCircle
 10
50.14770351792805
 20
97.27161791883776
 30
0.0
 40
0.5
  0
CIRCLE
  5
3403
330
1F
100
AcDbEntity
  8
TK1
100
AcDbCircle
 10
50.14770351792805
 20
99.81161791883772
 30
0.0
 40
0.5
  0
CIRCLE
  5
3404
330
1F
100
AcDbEntity
  8
TK1
100
AcDbCircle
 10
50.14770351792805
 20
102.3516179188377
 30
0.0
 40
0.5
  0
CIRCLE
  5
3405
330
1F
100
AcDbEntity
  8
TK1
100
AcDbCircle
 10
50.14770351792805
 20
104.8916179188377
 30
0.0
 40
0.5
  0
CIRCLE
  5
3406
330
1F
100
AcDbEntity
  8
TK1
100
AcDbCircle
 10
50.14770351792805
 20
107.4316179188377
 30
0.0
 40
0.5
  0
CIRCLE
  5
3407
330
1F
100
AcDbEntity
  8
TK1
100
AcDbCircle
 10
50.14770351792805
 20
109.9716179188377
 30
0.0
 40
0.5
  0
CIRCLE
  5
3408
330
1F
100
AcDbEntity
  8
TK1
100
AcDbCircle
 10
50.14770351792805
 20
112.5116179188377
 30
0.0
 40
0.5
  0
CIRCLE
  5
3409
330
1F
100
AcDbEntity
  8
TK1
100
AcDbCircle
 10
50.14770351792805
 20
115.0516179188377
 30
0.0
 40
0.5
  0
CIRCLE
  5
340A
330
1F
100
AcDbEntity
  8
TK1
100
AcDbCircle
 10
50.14770351792805
 20
117.5916179188377
 30
0.0
 40
0.5
  0
CIRCLE
  5
340B
330
1F
100
AcDbEntity
  8
TK1
100
AcDbCircle
 10
50.14770351792805
 20
120.1316179188378
 30
0.0
 40
0.5
  0
CIRCLE
  5
340C
330
1F
100
AcDbEntity
  8
TK1
100
AcDbCircle
 10
50.14770351792805
 20
122.6716179188378
 30
0.0
 40
0.5
  0
CIRCLE
  5
340D
330
1F
100
AcDbEntity
  8
TK1
100
AcDbCircle
 10
50.14770351792805
 20
125.2116179188377
 30
0.0
 40
0.5
  0
CIRCLE
  5
340E
330
1F
100
AcDbEntity
  8
TK1
100
AcDbCircle
 10
47.60770351792809
 20
92.19161791883772
 30
0.0
 40
0.5
  0
CIRCLE
  5
340F
330
1F
100
AcDbEntity
  8
TK1
100
AcDbCircle
 10
47.60770351792809
 20
94.7316179188378
 30
0.0
 40
0.5
  0
CIRCLE
  5
3410
330
1F
100
AcDbEntity
  8
TK1
100
AcDbCircle
 10
47.60770351792809
 20
97.27161791883776
 30
0.0
 40
0.5
  0
CIRCLE
  5
3411
330
1F
100
AcDbEntity
  8
TK1
100
AcDbCircle
 10
47.60770351792809
 20
99.81161791883772
 30
0.0
 40
0.5
  0
CIRCLE
  5
3412
330
1F
100
AcDbEntity
  8
TK1
100
AcDbCircle
 10
47.60770351792809
 20
102.3516179188377
 30
0.0
 40
0.5
  0
CIRCLE
  5
3413
330
1F
100
AcDbEntity
  8
TK1
100
AcDbCircle
 10
47.60770351792809
 20
104.8916179188377
 30
0.0
 40
0.5
  0
CIRCLE
  5
3414
330
1F
100
AcDbEntity
  8
TK1
100
AcDbCircle
 10
47.60770351792809
 20
107.4316179188377
 30
0.0
 40
0.5
  0
CIRCLE
  5
3415
330
1F
100
AcDbEntity
  8
TK1
100
AcDbCircle
 10
47.60770351792809
 20
109.9716179188377
 30
0.0
 40
0.5
  0
CIRCLE
  5
3416
330
1F
100
AcDbEntity
  8
TK1
100
AcDbCircle
 10
47.60770351792809
 20
112.5116179188377
 30
0.0
 40
0.5
  0
CIRCLE
  5
3417
330
1F
100
AcDbEntity
  8
TK1
100
AcDbCircle
 10
47.60770351792809
 20
115.0516179188377
 30
0.0
 40
0.5
  0
CIRCLE
  5
3418
330
1F
100
AcDbEntity
  8
TK1
100
AcDbCircle
 10
47.60770351792809
 20
117.5916179188377
 30
0.0
 40
0.5
  0
CIRCLE
  5
3419
330
1F
100
AcDbEntity
  8
TK1
100
AcDbCircle
 10
47.60770351792809
 20
120.1316179188378
 30
0.0
 40
0.5
  0
CIRCLE
  5
341A
330
1F
100
AcDbEntity
  8
TK1
100
AcDbCircle
 10
47.60770351792809
 20
122.6716179188378
 30
0.0
 40
0.5
  0
CIRCLE
  5
341B
330
1F
100
AcDbEntity
  8
TK1
100
AcDbCircle
 10
47.60770351792809
 20
125.2116179188377
 30
0.0
 40
0.5
  0
CIRCLE
  5
341C
330
1F
100
AcDbEntity
  8
TK1
100
AcDbCircle
 10
45.06770351792812
 20
92.19161791883772
 30
0.0
 40
0.5
  0
CIRCLE
  5
341D
330
1F
100
AcDbEntity
  8
TK1
100
AcDbCircle
 10
45.06770351792812
 20
94.7316179188378
 30
0.0
 40
0.5
  0
CIRCLE
  5
341E
330
1F
100
AcDbEntity
  8
TK1
100
AcDbCircle
 10
45.06770351792812
 20
97.27161791883776
 30
0.0
 40
0.5
  0
CIRCLE
  5
341F
330
1F
100
AcDbEntity
  8
TK1
100
AcDbCircle
 10
45.06770351792812
 20
99.81161791883772
 30
0.0
 40
0.5
  0
CIRCLE
  5
3420
330
1F
100
AcDbEntity
  8
TK1
100
AcDbCircle
 10
45.06770351792812
 20
102.3516179188377
 30
0.0
 40
0.5
  0
CIRCLE
  5
3421
330
1F
100
AcDbEntity
  8
TK1
100
AcDbCircle
 10
45.06770351792812
 20
104.8916179188377
 30
0.0
 40
0.5
  0
CIRCLE
  5
3422
330
1F
100
AcDbEntity
  8
TK1
100
AcDbCircle
 10
45.06770351792812
 20
107.4316179188377
 30
0.0
 40
0.5
  0
CIRCLE
  5
3423
330
1F
100
AcDbEntity
  8
TK1
100
AcDbCircle
 10
45.06770351792812
 20
109.9716179188377
 30
0.0
 40
0.5
  0
CIRCLE
  5
3424
330
1F
100
AcDbEntity
  8
TK1
100
AcDbCircle
 10
45.06770351792812
 20
112.5116179188377
 30
0.0
 40
0.5
  0
CIRCLE
  5
3425
330
1F
100
AcDbEntity
  8
TK1
100
AcDbCircle
 10
45.06770351792812
 20
115.0516179188377
 30
0.0
 40
0.5
  0
CIRCLE
  5
3426
330
1F
100
AcDbEntity
  8
TK1
100
AcDbCircle
 10
45.06770351792812
 20
117.5916179188377
 30
0.0
 40
0.5
  0
CIRCLE
  5
3427
330
1F
100
AcDbEntity
  8
TK1
100
AcDbCircle
 10
45.06770351792812
 20
120.1316179188378
 30
0.0
 40
0.5
  0
CIRCLE
  5
3428
330
1F
100
AcDbEntity
  8
TK1
100
AcDbCircle
 10
45.06770351792812
 20
122.6716179188378
 30
0.0
 40
0.5
  0
CIRCLE
  5
3429
330
1F
100
AcDbEntity
  8
TK1
100
AcDbCircle
 10
45.06770351792812
 20
125.2116179188377
 30
0.0
 40
0.5
  0
CIRCLE
  5
342A
330
1F
100
AcDbEntity
  8
TK1
100
AcDbCircle
 10
42.52770351792816
 20
92.19161791883772
 30
0.0
 40
0.5
  0
CIRCLE
  5
342B
330
1F
100
AcDbEntity
  8
TK1
100
AcDbCircle
 10
42.52770351792816
 20
94.7316179188378
 30
0.0
 40
0.5
  0
CIRCLE
  5
342C
330
1F
100
AcDbEntity
  8
TK1
100
AcDbCircle
 10
42.52770351792816
 20
97.27161791883776
 30
0.0
 40
0.5
  0
CIRCLE
  5
342D
330
1F
100
AcDbEntity
  8
TK1
100
AcDbCircle
 10
42.52770351792816
 20
99.81161791883772
 30
0.0
 40
0.5
  0
CIRCLE
  5
342E
330
1F
100
AcDbEntity
  8
TK1
100
AcDbCircle
 10
42.52770351792816
 20
102.3516179188377
 30
0.0
 40
0.5
  0
CIRCLE
  5
342F
330
1F
100
AcDbEntity
  8
TK1
100
AcDbCircle
 10
42.52770351792816
 20
104.8916179188377
 30
0.0
 40
0.5
  0
CIRCLE
  5
3430
330
1F
100
AcDbEntity
  8
TK1
100
AcDbCircle
 10
42.52770351792816
 20
107.4316179188377
 30
0.0
 40
0.5
  0
CIRCLE
  5
3431
330
1F
100
AcDbEntity
  8
TK1
100
AcDbCircle
 10
42.52770351792816
 20
109.9716179188377
 30
0.0
 40
0.5
  0
CIRCLE
  5
3432
330
1F
100
AcDbEntity
  8
TK1
100
AcDbCircle
 10
42.52770351792816
 20
112.5116179188377
 30
0.0
 40
0.5
  0
CIRCLE
  5
3433
330
1F
100
AcDbEntity
  8
TK1
100
AcDbCircle
 10
42.52770351792816
 20
115.0516179188377
 30
0.0
 40
0.5
  0
CIRCLE
  5
3434
330
1F
100
AcDbEntity
  8
TK1
100
AcDbCircle
 10
42.52770351792816
 20
117.5916179188377
 30
0.0
 40
0.5
  0
CIRCLE
  5
3435
330
1F
100
AcDbEntity
  8
TK1
100
AcDbCircle
 10
42.52770351792816
 20
120.1316179188378
 30
0.0
 40
0.5
  0
CIRCLE
  5
3436
330
1F
100
AcDbEntity
  8
TK1
100
AcDbCircle
 10
42.52770351792816
 20
122.6716179188378
 30
0.0
 40
0.5
  0
CIRCLE
  5
3437
330
1F
100
AcDbEntity
  8
TK1
100
AcDbCircle
 10
42.52770351792816
 20
125.2116179188377
 30
0.0
 40
0.5
  0
CIRCLE
  5
3438
330
1F
100
AcDbEntity
  8
TK1
100
AcDbCircle
 10
39.9877035179282
 20
92.19161791883772
 30
0.0
 40
0.5
  0
CIRCLE
  5
3439
330
1F
100
AcDbEntity
  8
TK1
100
AcDbCircle
 10
39.9877035179282
 20
94.7316179188378
 30
0.0
 40
0.5
  0
CIRCLE
  5
343A
330
1F
100
AcDbEntity
  8
TK1
100
AcDbCircle
 10
39.9877035179282
 20
97.27161791883776
 30
0.0
 40
0.5
  0
CIRCLE
  5
343B
330
1F
100
AcDbEntity
  8
TK1
100
AcDbCircle
 10
39.9877035179282
 20
99.81161791883772
 30
0.0
 40
0.5
  0
CIRCLE
  5
343C
330
1F
100
AcDbEntity
  8
TK1
100
AcDbCircle
 10
39.9877035179282
 20
102.3516179188377
 30
0.0
 40
0.5
  0
CIRCLE
  5
343D
330
1F
100
AcDbEntity
  8
TK1
100
AcDbCircle
 10
39.9877035179282
 20
104.8916179188377
 30
0.0
 40
0.5
  0
CIRCLE
  5
343E
330
1F
100
AcDbEntity
  8
TK1
100
AcDbCircle
 10
39.9877035179282
 20
107.4316179188377
 30
0.0
 40
0.5
  0
CIRCLE
  5
343F
330
1F
100
AcDbEntity
  8
TK1
100
AcDbCircle
 10
39.9877035179282
 20
109.9716179188377
 30
0.0
 40
0.5
  0
CIRCLE
  5
3440
330
1F
100
AcDbEntity
  8
TK1
100
AcDbCircle
 10
39.9877035179282
 20
112.5116179188377
 30
0.0
 40
0.5
  0
CIRCLE
  5
3441
330
1F
100
AcDbEntity
  8
TK1
100
AcDbCircle
 10
39.9877035179282
 20
115.0516179188377
 30
0.0
 40
0.5
  0
CIRCLE
  5
3442
330
1F
100
AcDbEntity
  8
TK1
100
AcDbCircle
 10
39.9877035179282
 20
117.5916179188377
 30
0.0
 40
0.5
  0
CIRCLE
  5
3443
330
1F
100
AcDbEntity
  8
TK1
100
AcDbCircle
 10
39.9877035179282
 20
120.1316179188378
 30
0.0
 40
0.5
  0
CIRCLE
  5
3444
330
1F
100
AcDbEntity
  8
TK1
100
AcDbCircle
 10
39.9877035179282
 20
122.6716179188378
 30
0.0
 40
0.5
  0
CIRCLE
  5
3445
330
1F
100
AcDbEntity
  8
TK1
100
AcDbCircle
 10
39.9877035179282
 20
125.2116179188377
 30
0.0
 40
0.5
  0
CIRCLE
  5
3446
330
1F
100
AcDbEntity
  8
TK1
100
AcDbCircle
 10
37.44770351792823
 20
92.19161791883772
 30
0.0
 40
0.5
  0
CIRCLE
  5
3447
330
1F
100
AcDbEntity
  8
TK1
100
AcDbCircle
 10
37.44770351792823
 20
94.7316179188378
 30
0.0
 40
0.5
  0
CIRCLE
  5
3448
330
1F
100
AcDbEntity
  8
TK1
100
AcDbCircle
 10
37.44770351792823
 20
97.27161791883776
 30
0.0
 40
0.5
  0
CIRCLE
  5
3449
330
1F
100
AcDbEntity
  8
TK1
100
AcDbCircle
 10
37.44770351792823
 20
99.81161791883772
 30
0.0
 40
0.5
  0
CIRCLE
  5
344A
330
1F
100
AcDbEntity
  8
TK1
100
AcDbCircle
 10
37.44770351792823
 20
102.3516179188377
 30
0.0
 40
0.5
  0
CIRCLE
  5
344B
330
1F
100
AcDbEntity
  8
TK1
100
AcDbCircle
 10
37.44770351792823
 20
104.8916179188377
 30
0.0
 40
0.5
  0
CIRCLE
  5
344C
330
1F
100
AcDbEntity
  8
TK1
100
AcDbCircle
 10
37.44770351792823
 20
107.4316179188377
 30
0.0
 40
0.5
  0
CIRCLE
  5
344D
330
1F
100
AcDbEntity
  8
TK1
100
AcDbCircle
 10
37.44770351792823
 20
109.9716179188377
 30
0.0
 40
0.5
  0
CIRCLE
  5
344E
330
1F
100
AcDbEntity
  8
TK1
100
AcDbCircle
 10
37.44770351792823
 20
112.5116179188377
 30
0.0
 40
0.5
  0
CIRCLE
  5
344F
330
1F
100
AcDbEntity
  8
TK1
100
AcDbCircle
 10
37.44770351792823
 20
115.0516179188377
 30
0.0
 40
0.5
  0
CIRCLE
  5
3450
330
1F
100
AcDbEntity
  8
TK1
100
AcDbCircle
 10
37.44770351792823
 20
117.5916179188377
 30
0.0
 40
0.5
  0
CIRCLE
  5
3451
330
1F
100
AcDbEntity
  8
TK1
100
AcDbCircle
 10
37.44770351792823
 20
120.1316179188378
 30
0.0
 40
0.5
  0
CIRCLE
  5
3452
330
1F
100
AcDbEntity
  8
TK1
100
AcDbCircle
 10
37.44770351792823
 20
122.6716179188378
 30
0.0
 40
0.5
  0
CIRCLE
  5
3453
330
1F
100
AcDbEntity
  8
TK1
100
AcDbCircle
 10
37.44770351792823
 20
125.2116179188377
 30
0.0
 40
0.5
  0
CIRCLE
  5
3454
330
1F
100
AcDbEntity
  8
TK1
100
AcDbCircle
 10
34.90770351792827
 20
92.19161791883772
 30
0.0
 40
0.5
  0
CIRCLE
  5
3455
330
1F
100
AcDbEntity
  8
TK1
100
AcDbCircle
 10
34.90770351792827
 20
94.7316179188378
 30
0.0
 40
0.5
  0
CIRCLE
  5
3456
330
1F
100
AcDbEntity
  8
TK1
100
AcDbCircle
 10
34.90770351792827
 20
97.27161791883776
 30
0.0
 40
0.5
  0
CIRCLE
  5
3457
330
1F
100
AcDbEntity
  8
TK1
100
AcDbCircle
 10
34.90770351792827
 20
99.81161791883772
 30
0.0
 40
0.5
  0
CIRCLE
  5
3458
330
1F
100
AcDbEntity
  8
TK1
100
AcDbCircle
 10
34.90770351792827
 20
102.3516179188377
 30
0.0
 40
0.5
  0
CIRCLE
  5
3459
330
1F
100
AcDbEntity
  8
TK1
100
AcDbCircle
 10
34.90770351792827
 20
104.8916179188377
 30
0.0
 40
0.5
  0
CIRCLE
  5
345A
330
1F
100
AcDbEntity
  8
TK1
100
AcDbCircle
 10
34.90770351792827
 20
107.4316179188377
 30
0.0
 40
0.5
  0
CIRCLE
  5
345B
330
1F
100
AcDbEntity
  8
TK1
100
AcDbCircle
 10
34.90770351792827
 20
109.9716179188377
 30
0.0
 40
0.5
  0
CIRCLE
  5
345C
330
1F
100
AcDbEntity
  8
TK1
100
AcDbCircle
 10
34.90770351792827
 20
112.5116179188377
 30
0.0
 40
0.5
  0
CIRCLE
  5
345D
330
1F
100
AcDbEntity
  8
TK1
100
AcDbCircle
 10
34.90770351792827
 20
115.0516179188377
 30
0.0
 40
0.5
  0
CIRCLE
  5
345E
330
1F
100
AcDbEntity
  8
TK1
100
AcDbCircle
 10
34.90770351792827
 20
117.5916179188377
 30
0.0
 40
0.5
  0
CIRCLE
  5
345F
330
1F
100
AcDbEntity
  8
TK1
100
AcDbCircle
 10
34.90770351792827
 20
120.1316179188378
 30
0.0
 40
0.5
  0
CIRCLE
  5
3460
330
1F
100
AcDbEntity
  8
TK1
100
AcDbCircle
 10
34.90770351792827
 20
122.6716179188378
 30
0.0
 40
0.5
  0
CIRCLE
  5
3461
330
1F
100
AcDbEntity
  8
TK1
100
AcDbCircle
 10
83.16770351792802
 20
122.6716179188378
 30
0.0
 40
0.5
  0
CIRCLE
  5
3462
330
1F
100
AcDbEntity
  8
TK1
100
AcDbCircle
 10
83.16770351792802
 20
120.1316179188378
 30
0.0
 40
0.5
  0
CIRCLE
  5
3463
330
1F
100
AcDbEntity
  8
TK1
100
AcDbCircle
 10
83.16770351792802
 20
117.5916179188377
 30
0.0
 40
0.5
  0
CIRCLE
  5
3464
330
1F
100
AcDbEntity
  8
TK1
100
AcDbCircle
 10
83.16770351792802
 20
115.0516179188377
 30
0.0
 40
0.5
  0
CIRCLE
  5
3465
330
1F
100
AcDbEntity
  8
TK1
100
AcDbCircle
 10
83.16770351792802
 20
112.5116179188377
 30
0.0
 40
0.5
  0
CIRCLE
  5
3466
330
1F
100
AcDbEntity
  8
TK1
100
AcDbCircle
 10
83.16770351792802
 20
109.9716179188377
 30
0.0
 40
0.5
  0
CIRCLE
  5
3467
330
1F
100
AcDbEntity
  8
TK1
100
AcDbCircle
 10
83.16770351792802
 20
107.4316179188377
 30
0.0
 40
0.5
  0
CIRCLE
  5
3468
330
1F
100
AcDbEntity
  8
TK1
100
AcDbCircle
 10
83.16770351792802
 20
104.8916179188377
 30
0.0
 40
0.5
  0
CIRCLE
  5
3469
330
1F
100
AcDbEntity
  8
TK1
100
AcDbCircle
 10
83.16770351792802
 20
102.3516179188377
 30
0.0
 40
0.5
  0
CIRCLE
  5
346A
330
1F
100
AcDbEntity
  8
TK1
100
AcDbCircle
 10
83.16770351792802
 20
99.81161791883772
 30
0.0
 40
0.5
  0
CIRCLE
  5
346B
330
1F
100
AcDbEntity
  8
TK1
100
AcDbCircle
 10
83.16770351792802
 20
97.27161791883776
 30
0.0
 40
0.5
  0
CIRCLE
  5
346C
330
1F
100
AcDbEntity
  8
TK1
100
AcDbCircle
 10
83.16770351792802
 20
94.7316179188378
 30
0.0
 40
0.5
  0
CIRCLE
  5
346D
330
1F
100
AcDbEntity
  8
TK1
100
AcDbCircle
 10
83.16770351792802
 20
92.19161791883772
 30
0.0
 40
0.5
  0
CIRCLE
  5
346E
330
1F
100
AcDbEntity
  8
TK1
100
AcDbCircle
 10
83.16770351792802
 20
89.65161791883776
 30
0.0
 40
0.5
  0
CIRCLE
  5
346F
330
1F
100
AcDbEntity
  8
TK1
100
AcDbCircle
 10
80.62770351792806
 20
125.2116179188377
 30
0.0
 40
0.5
  0
CIRCLE
  5
3470
330
1F
100
AcDbEntity
  8
TK1
100
AcDbCircle
 10
80.62770351792806
 20
122.6716179188378
 30
0.0
 40
0.5
  0
CIRCLE
  5
3471
330
1F
100
AcDbEntity
  8
TK1
100
AcDbCircle
 10
80.62770351792806
 20
120.1316179188378
 30
0.0
 40
0.5
  0
CIRCLE
  5
3472
330
1F
100
AcDbEntity
  8
TK1
100
AcDbCircle
 10
80.62770351792806
 20
117.5916179188377
 30
0.0
 40
0.5
  0
CIRCLE
  5
3473
330
1F
100
AcDbEntity
  8
TK1
100
AcDbCircle
 10
80.62770351792806
 20
115.0516179188377
 30
0.0
 40
0.5
  0
CIRCLE
  5
3474
330
1F
100
AcDbEntity
  8
TK1
100
AcDbCircle
 10
80.62770351792806
 20
112.5116179188377
 30
0.0
 40
0.5
  0
CIRCLE
  5
3475
330
1F
100
AcDbEntity
  8
TK1
100
AcDbCircle
 10
80.62770351792806
 20
109.9716179188377
 30
0.0
 40
0.5
  0
CIRCLE
  5
3476
330
1F
100
AcDbEntity
  8
TK1
100
AcDbCircle
 10
80.62770351792806
 20
107.4316179188377
 30
0.0
 40
0.5
  0
CIRCLE
  5
3477
330
1F
100
AcDbEntity
  8
TK1
100
AcDbCircle
 10
80.62770351792806
 20
104.8916179188377
 30
0.0
 40
0.5
  0
CIRCLE
  5
3478
330
1F
100
AcDbEntity
  8
TK1
100
AcDbCircle
 10
80.62770351792806
 20
102.3516179188377
 30
0.0
 40
0.5
  0
CIRCLE
  5
3479
330
1F
100
AcDbEntity
  8
TK1
100
AcDbCircle
 10
80.62770351792806
 20
99.81161791883772
 30
0.0
 40
0.5
  0
CIRCLE
  5
347A
330
1F
100
AcDbEntity
  8
TK1
100
AcDbCircle
 10
80.62770351792806
 20
97.27161791883776
 30
0.0
 40
0.5
  0
CIRCLE
  5
347B
330
1F
100
AcDbEntity
  8
TK1
100
AcDbCircle
 10
80.62770351792806
 20
94.7316179188378
 30
0.0
 40
0.5
  0
CIRCLE
  5
347C
330
1F
100
AcDbEntity
  8
TK1
100
AcDbCircle
 10
80.62770351792806
 20
92.19161791883772
 30
0.0
 40
0.5
  0
CIRCLE
  5
347D
330
1F
100
AcDbEntity
  8
TK1
100
AcDbCircle
 10
80.62770351792806
 20
89.65161791883776
 30
0.0
 40
0.5
  0
CIRCLE
  5
347E
330
1F
100
AcDbEntity
  8
TK1
100
AcDbCircle
 10
78.0877035179281
 20
125.2116179188377
 30
0.0
 40
0.5
  0
CIRCLE
  5
347F
330
1F
100
AcDbEntity
  8
TK1
100
AcDbCircle
 10
78.0877035179281
 20
122.6716179188378
 30
0.0
 40
0.5
  0
CIRCLE
  5
3480
330
1F
100
AcDbEntity
  8
TK1
100
AcDbCircle
 10
78.0877035179281
 20
120.1316179188378
 30
0.0
 40
0.5
  0
CIRCLE
  5
3481
330
1F
100
AcDbEntity
  8
TK1
100
AcDbCircle
 10
78.0877035179281
 20
117.5916179188377
 30
0.0
 40
0.5
  0
CIRCLE
  5
3482
330
1F
100
AcDbEntity
  8
TK1
100
AcDbCircle
 10
78.0877035179281
 20
115.0516179188377
 30
0.0
 40
0.5
  0
CIRCLE
  5
3483
330
1F
100
AcDbEntity
  8
TK1
100
AcDbCircle
 10
78.0877035179281
 20
112.5116179188377
 30
0.0
 40
0.5
  0
CIRCLE
  5
3484
330
1F
100
AcDbEntity
  8
TK1
100
AcDbCircle
 10
78.0877035179281
 20
109.9716179188377
 30
0.0
 40
0.5
  0
CIRCLE
  5
3485
330
1F
100
AcDbEntity
  8
TK1
100
AcDbCircle
 10
78.0877035179281
 20
107.4316179188377
 30
0.0
 40
0.5
  0
CIRCLE
  5
3486
330
1F
100
AcDbEntity
  8
TK1
100
AcDbCircle
 10
78.0877035179281
 20
104.8916179188377
 30
0.0
 40
0.5
  0
CIRCLE
  5
3487
330
1F
100
AcDbEntity
  8
TK1
100
AcDbCircle
 10
78.0877035179281
 20
102.3516179188377
 30
0.0
 40
0.5
  0
CIRCLE
  5
3488
330
1F
100
AcDbEntity
  8
TK1
100
AcDbCircle
 10
78.0877035179281
 20
99.81161791883772
 30
0.0
 40
0.5
  0
CIRCLE
  5
3489
330
1F
100
AcDbEntity
  8
TK1
100
AcDbCircle
 10
78.0877035179281
 20
97.27161791883776
 30
0.0
 40
0.5
  0
CIRCLE
  5
348A
330
1F
100
AcDbEntity
  8
TK1
100
AcDbCircle
 10
78.0877035179281
 20
94.7316179188378
 30
0.0
 40
0.5
  0
CIRCLE
  5
348B
330
1F
100
AcDbEntity
  8
TK1
100
AcDbCircle
 10
78.0877035179281
 20
92.19161791883772
 30
0.0
 40
0.5
  0
CIRCLE
  5
348C
330
1F
100
AcDbEntity
  8
TK1
100
AcDbCircle
 10
78.0877035179281
 20
89.65161791883776
 30
0.0
 40
0.5
  0
CIRCLE
  5
348D
330
1F
100
AcDbEntity
  8
TK1
100
AcDbCircle
 10
75.54770351792814
 20
125.2116179188377
 30
0.0
 40
0.5
  0
CIRCLE
  5
348E
330
1F
100
AcDbEntity
  8
TK1
100
AcDbCircle
 10
75.54770351792814
 20
122.6716179188378
 30
0.0
 40
0.5
  0
CIRCLE
  5
348F
330
1F
100
AcDbEntity
  8
TK1
100
AcDbCircle
 10
75.54770351792814
 20
120.1316179188378
 30
0.0
 40
0.5
  0
CIRCLE
  5
3490
330
1F
100
AcDbEntity
  8
TK1
100
AcDbCircle
 10
75.54770351792814
 20
117.5916179188377
 30
0.0
 40
0.5
  0
CIRCLE
  5
3491
330
1F
100
AcDbEntity
  8
TK1
100
AcDbCircle
 10
75.54770351792814
 20
115.0516179188377
 30
0.0
 40
0.5
  0
CIRCLE
  5
3492
330
1F
100
AcDbEntity
  8
TK1
100
AcDbCircle
 10
75.54770351792814
 20
112.5116179188377
 30
0.0
 40
0.5
  0
CIRCLE
  5
3493
330
1F
100
AcDbEntity
  8
TK1
100
AcDbCircle
 10
75.54770351792814
 20
109.9716179188377
 30
0.0
 40
0.5
  0
CIRCLE
  5
3494
330
1F
100
AcDbEntity
  8
TK1
100
AcDbCircle
 10
75.54770351792814
 20
107.4316179188377
 30
0.0
 40
0.5
  0
CIRCLE
  5
3495
330
1F
100
AcDbEntity
  8
TK1
100
AcDbCircle
 10
75.54770351792814
 20
104.8916179188377
 30
0.0
 40
0.5
  0
CIRCLE
  5
3496
330
1F
100
AcDbEntity
  8
TK1
100
AcDbCircle
 10
75.54770351792814
 20
102.3516179188377
 30
0.0
 40
0.5
  0
CIRCLE
  5
3497
330
1F
100
AcDbEntity
  8
TK1
100
AcDbCircle
 10
75.54770351792814
 20
99.81161791883772
 30
0.0
 40
0.5
  0
CIRCLE
  5
3498
330
1F
100
AcDbEntity
  8
TK1
100
AcDbCircle
 10
75.54770351792814
 20
97.27161791883776
 30
0.0
 40
0.5
  0
CIRCLE
  5
3499
330
1F
100
AcDbEntity
  8
TK1
100
AcDbCircle
 10
75.54770351792814
 20
94.7316179188378
 30
0.0
 40
0.5
  0
CIRCLE
  5
349A
330
1F
100
AcDbEntity
  8
TK1
100
AcDbCircle
 10
75.54770351792814
 20
92.19161791883772
 30
0.0
 40
0.5
  0
CIRCLE
  5
349B
330
1F
100
AcDbEntity
  8
TK1
100
AcDbCircle
 10
75.54770351792814
 20
89.65161791883776
 30
0.0
 40
0.5
  0
CIRCLE
  5
349C
330
1F
100
AcDbEntity
  8
TK1
100
AcDbCircle
 10
73.00770351792817
 20
125.2116179188377
 30
0.0
 40
0.5
  0
CIRCLE
  5
349D
330
1F
100
AcDbEntity
  8
TK1
100
AcDbCircle
 10
73.00770351792817
 20
122.6716179188378
 30
0.0
 40
0.5
  0
CIRCLE
  5
349E
330
1F
100
AcDbEntity
  8
TK1
100
AcDbCircle
 10
73.00770351792817
 20
120.1316179188378
 30
0.0
 40
0.5
  0
CIRCLE
  5
349F
330
1F
100
AcDbEntity
  8
TK1
100
AcDbCircle
 10
73.00770351792817
 20
117.5916179188377
 30
0.0
 40
0.5
  0
CIRCLE
  5
34A0
330
1F
100
AcDbEntity
  8
TK1
100
AcDbCircle
 10
73.00770351792817
 20
115.0516179188377
 30
0.0
 40
0.5
  0
CIRCLE
  5
34A1
330
1F
100
AcDbEntity
  8
TK1
100
AcDbCircle
 10
73.00770351792817
 20
112.5116179188377
 30
0.0
 40
0.5
  0
CIRCLE
  5
34A2
330
1F
100
AcDbEntity
  8
TK1
100
AcDbCircle
 10
73.00770351792817
 20
109.9716179188377
 30
0.0
 40
0.5
  0
CIRCLE
  5
34A3
330
1F
100
AcDbEntity
  8
TK1
100
AcDbCircle
 10
73.00770351792817
 20
107.4316179188377
 30
0.0
 40
0.5
  0
CIRCLE
  5
34A4
330
1F
100
AcDbEntity
  8
TK1
100
AcDbCircle
 10
73.00770351792817
 20
104.8916179188377
 30
0.0
 40
0.5
  0
CIRCLE
  5
34A5
330
1F
100
AcDbEntity
  8
TK1
100
AcDbCircle
 10
73.00770351792817
 20
102.3516179188377
 30
0.0
 40
0.5
  0
CIRCLE
  5
34A6
330
1F
100
AcDbEntity
  8
TK1
100
AcDbCircle
 10
73.00770351792817
 20
99.81161791883772
 30
0.0
 40
0.5
  0
CIRCLE
  5
34A7
330
1F
100
AcDbEntity
  8
TK1
100
AcDbCircle
 10
73.00770351792817
 20
97.27161791883776
 30
0.0
 40
0.5
  0
CIRCLE
  5
34A8
330
1F
100
AcDbEntity
  8
TK1
100
AcDbCircle
 10
73.00770351792817
 20
94.7316179188378
 30
0.0
 40
0.5
  0
CIRCLE
  5
34A9
330
1F
100
AcDbEntity
  8
TK1
100
AcDbCircle
 10
73.00770351792817
 20
92.19161791883772
 30
0.0
 40
0.5
  0
CIRCLE
  5
34AA
330
1F
100
AcDbEntity
  8
TK1
100
AcDbCircle
 10
73.00770351792817
 20
89.65161791883776
 30
0.0
 40
0.5
  0
CIRCLE
  5
34AB
330
1F
100
AcDbEntity
  8
TK1
100
AcDbCircle
 10
70.46770351792821
 20
125.2116179188377
 30
0.0
 40
0.5
  0
CIRCLE
  5
34AC
330
1F
100
AcDbEntity
  8
TK1
100
AcDbCircle
 10
70.46770351792821
 20
122.6716179188378
 30
0.0
 40
0.5
  0
CIRCLE
  5
34AD
330
1F
100
AcDbEntity
  8
TK1
100
AcDbCircle
 10
70.46770351792821
 20
120.1316179188378
 30
0.0
 40
0.5
  0
CIRCLE
  5
34AE
330
1F
100
AcDbEntity
  8
TK1
100
AcDbCircle
 10
70.46770351792821
 20
117.5916179188377
 30
0.0
 40
0.5
  0
CIRCLE
  5
34AF
330
1F
100
AcDbEntity
  8
TK1
100
AcDbCircle
 10
70.46770351792821
 20
115.0516179188377
 30
0.0
 40
0.5
  0
CIRCLE
  5
34B0
330
1F
100
AcDbEntity
  8
TK1
100
AcDbCircle
 10
70.46770351792821
 20
112.5116179188377
 30
0.0
 40
0.5
  0
CIRCLE
  5
34B1
330
1F
100
AcDbEntity
  8
TK1
100
AcDbCircle
 10
70.46770351792821
 20
109.9716179188377
 30
0.0
 40
0.5
  0
CIRCLE
  5
34B2
330
1F
100
AcDbEntity
  8
TK1
100
AcDbCircle
 10
70.46770351792821
 20
107.4316179188377
 30
0.0
 40
0.5
  0
CIRCLE
  5
34B3
330
1F
100
AcDbEntity
  8
TK1
100
AcDbCircle
 10
70.46770351792821
 20
104.8916179188377
 30
0.0
 40
0.5
  0
CIRCLE
  5
34B4
330
1F
100
AcDbEntity
  8
TK1
100
AcDbCircle
 10
70.46770351792821
 20
102.3516179188377
 30
0.0
 40
0.5
  0
CIRCLE
  5
34B5
330
1F
100
AcDbEntity
  8
TK1
100
AcDbCircle
 10
70.46770351792821
 20
99.81161791883772
 30
0.0
 40
0.5
  0
CIRCLE
  5
34B6
330
1F
100
AcDbEntity
  8
TK1
100
AcDbCircle
 10
70.46770351792821
 20
97.27161791883776
 30
0.0
 40
0.5
  0
CIRCLE
  5
34B7
330
1F
100
AcDbEntity
  8
TK1
100
AcDbCircle
 10
70.46770351792821
 20
94.7316179188378
 30
0.0
 40
0.5
  0
CIRCLE
  5
34B8
330
1F
100
AcDbEntity
  8
TK1
100
AcDbCircle
 10
70.46770351792821
 20
92.19161791883772
 30
0.0
 40
0.5
  0
CIRCLE
  5
34B9
330
1F
100
AcDbEntity
  8
TK1
100
AcDbCircle
 10
70.46770351792821
 20
89.65161791883776
 30
0.0
 40
0.5
  0
CIRCLE
  5
34BA
330
1F
100
AcDbEntity
  8
TK1
100
AcDbCircle
 10
67.92770351792825
 20
125.2116179188377
 30
0.0
 40
0.5
  0
CIRCLE
  5
34BB
330
1F
100
AcDbEntity
  8
TK1
100
AcDbCircle
 10
67.92770351792825
 20
122.6716179188378
 30
0.0
 40
0.5
  0
CIRCLE
  5
34BC
330
1F
100
AcDbEntity
  8
TK1
100
AcDbCircle
 10
67.92770351792825
 20
120.1316179188378
 30
0.0
 40
0.5
  0
CIRCLE
  5
34BD
330
1F
100
AcDbEntity
  8
TK1
100
AcDbCircle
 10
67.92770351792825
 20
117.5916179188377
 30
0.0
 40
0.5
  0
CIRCLE
  5
34BE
330
1F
100
AcDbEntity
  8
TK1
100
AcDbCircle
 10
67.92770351792825
 20
115.0516179188377
 30
0.0
 40
0.5
  0
CIRCLE
  5
34BF
330
1F
100
AcDbEntity
  8
TK1
100
AcDbCircle
 10
67.92770351792825
 20
112.5116179188377
 30
0.0
 40
0.5
  0
CIRCLE
  5
34C0
330
1F
100
AcDbEntity
  8
TK1
100
AcDbCircle
 10
67.92770351792825
 20
109.9716179188377
 30
0.0
 40
0.5
  0
CIRCLE
  5
34C1
330
1F
100
AcDbEntity
  8
TK1
100
AcDbCircle
 10
67.92770351792825
 20
107.4316179188377
 30
0.0
 40
0.5
  0
CIRCLE
  5
34C2
330
1F
100
AcDbEntity
  8
TK1
100
AcDbCircle
 10
67.92770351792825
 20
104.8916179188377
 30
0.0
 40
0.5
  0
CIRCLE
  5
34C3
330
1F
100
AcDbEntity
  8
TK1
100
AcDbCircle
 10
67.92770351792825
 20
102.3516179188377
 30
0.0
 40
0.5
  0
CIRCLE
  5
34C4
330
1F
100
AcDbEntity
  8
TK1
100
AcDbCircle
 10
67.92770351792825
 20
99.81161791883772
 30
0.0
 40
0.5
  0
CIRCLE
  5
34C5
330
1F
100
AcDbEntity
  8
TK1
100
AcDbCircle
 10
67.92770351792825
 20
97.27161791883776
 30
0.0
 40
0.5
  0
CIRCLE
  5
34C6
330
1F
100
AcDbEntity
  8
TK1
100
AcDbCircle
 10
67.92770351792825
 20
94.7316179188378
 30
0.0
 40
0.5
  0
CIRCLE
  5
34C7
330
1F
100
AcDbEntity
  8
TK1
100
AcDbCircle
 10
67.92770351792825
 20
92.19161791883772
 30
0.0
 40
0.5
  0
CIRCLE
  5
34C8
330
1F
100
AcDbEntity
  8
TK1
100
AcDbCircle
 10
67.92770351792825
 20
89.65161791883776
 30
0.0
 40
0.5
  0
CIRCLE
  5
34C9
330
1F
100
AcDbEntity
  8
TK1
100
AcDbCircle
 10
65.38770351792805
 20
125.2116179188377
 30
0.0
 40
0.5
  0
CIRCLE
  5
34CA
330
1F
100
AcDbEntity
  8
TK1
100
AcDbCircle
 10
65.38770351792805
 20
122.6716179188378
 30
0.0
 40
0.5
  0
CIRCLE
  5
34CB
330
1F
100
AcDbEntity
  8
TK1
100
AcDbCircle
 10
65.38770351792805
 20
120.1316179188378
 30
0.0
 40
0.5
  0
CIRCLE
  5
34CC
330
1F
100
AcDbEntity
  8
TK1
100
AcDbCircle
 10
65.38770351792805
 20
117.5916179188377
 30
0.0
 40
0.5
  0
CIRCLE
  5
34CD
330
1F
100
AcDbEntity
  8
TK1
100
AcDbCircle
 10
65.38770351792805
 20
115.0516179188377
 30
0.0
 40
0.5
  0
CIRCLE
  5
34CE
330
1F
100
AcDbEntity
  8
TK1
100
AcDbCircle
 10
65.38770351792805
 20
112.5116179188377
 30
0.0
 40
0.5
  0
CIRCLE
  5
34CF
330
1F
100
AcDbEntity
  8
TK1
100
AcDbCircle
 10
65.38770351792805
 20
109.9716179188377
 30
0.0
 40
0.5
  0
CIRCLE
  5
34D0
330
1F
100
AcDbEntity
  8
TK1
100
AcDbCircle
 10
65.38770351792805
 20
107.4316179188377
 30
0.0
 40
0.5
  0
CIRCLE
  5
34D1
330
1F
100
AcDbEntity
  8
TK1
100
AcDbCircle
 10
65.38770351792805
 20
104.8916179188377
 30
0.0
 40
0.5
  0
CIRCLE
  5
34D2
330
1F
100
AcDbEntity
  8
TK1
100
AcDbCircle
 10
65.38770351792805
 20
102.3516179188377
 30
0.0
 40
0.5
  0
CIRCLE
  5
34D3
330
1F
100
AcDbEntity
  8
TK1
100
AcDbCircle
 10
65.38770351792805
 20
99.81161791883772
 30
0.0
 40
0.5
  0
CIRCLE
  5
34D4
330
1F
100
AcDbEntity
  8
TK1
100
AcDbCircle
 10
65.38770351792805
 20
97.27161791883776
 30
0.0
 40
0.5
  0
CIRCLE
  5
34D5
330
1F
100
AcDbEntity
  8
TK1
100
AcDbCircle
 10
65.38770351792805
 20
94.7316179188378
 30
0.0
 40
0.5
  0
CIRCLE
  5
34D6
330
1F
100
AcDbEntity
  8
TK1
100
AcDbCircle
 10
65.38770351792805
 20
92.19161791883772
 30
0.0
 40
0.5
  0
CIRCLE
  5
34D7
330
1F
100
AcDbEntity
  8
TK1
100
AcDbCircle
 10
65.38770351792805
 20
89.65161791883776
 30
0.0
 40
0.5
  0
CIRCLE
  5
34D8
330
1F
100
AcDbEntity
  8
TK1
100
AcDbCircle
 10
62.84770351792809
 20
125.2116179188377
 30
0.0
 40
0.5
  0
CIRCLE
  5
34D9
330
1F
100
AcDbEntity
  8
TK1
100
AcDbCircle
 10
62.84770351792809
 20
122.6716179188378
 30
0.0
 40
0.5
  0
CIRCLE
  5
34DA
330
1F
100
AcDbEntity
  8
TK1
100
AcDbCircle
 10
62.84770351792809
 20
120.1316179188378
 30
0.0
 40
0.5
  0
CIRCLE
  5
34DB
330
1F
100
AcDbEntity
  8
TK1
100
AcDbCircle
 10
62.84770351792809
 20
117.5916179188377
 30
0.0
 40
0.5
  0
CIRCLE
  5
34DC
330
1F
100
AcDbEntity
  8
TK1
100
AcDbCircle
 10
62.84770351792809
 20
115.0516179188377
 30
0.0
 40
0.5
  0
CIRCLE
  5
34DD
330
1F
100
AcDbEntity
  8
TK1
100
AcDbCircle
 10
62.84770351792809
 20
112.5116179188377
 30
0.0
 40
0.5
  0
CIRCLE
  5
34DE
330
1F
100
AcDbEntity
  8
TK1
100
AcDbCircle
 10
62.84770351792809
 20
109.9716179188377
 30
0.0
 40
0.5
  0
CIRCLE
  5
34DF
330
1F
100
AcDbEntity
  8
TK1
100
AcDbCircle
 10
62.84770351792809
 20
107.4316179188377
 30
0.0
 40
0.5
  0
CIRCLE
  5
34E0
330
1F
100
AcDbEntity
  8
TK1
100
AcDbCircle
 10
62.84770351792809
 20
104.8916179188377
 30
0.0
 40
0.5
  0
CIRCLE
  5
34E1
330
1F
100
AcDbEntity
  8
TK1
100
AcDbCircle
 10
62.84770351792809
 20
102.3516179188377
 30
0.0
 40
0.5
  0
CIRCLE
  5
34E2
330
1F
100
AcDbEntity
  8
TK1
100
AcDbCircle
 10
62.84770351792809
 20
99.81161791883772
 30
0.0
 40
0.5
  0
CIRCLE
  5
34E3
330
1F
100
AcDbEntity
  8
TK1
100
AcDbCircle
 10
62.84770351792809
 20
97.27161791883776
 30
0.0
 40
0.5
  0
CIRCLE
  5
34E4
330
1F
100
AcDbEntity
  8
TK1
100
AcDbCircle
 10
62.84770351792809
 20
94.7316179188378
 30
0.0
 40
0.5
  0
CIRCLE
  5
34E5
330
1F
100
AcDbEntity
  8
TK1
100
AcDbCircle
 10
62.84770351792809
 20
92.19161791883772
 30
0.0
 40
0.5
  0
CIRCLE
  5
34E6
330
1F
100
AcDbEntity
  8
TK1
100
AcDbCircle
 10
62.84770351792809
 20
89.65161791883776
 30
0.0
 40
0.5
  0
CIRCLE
  5
34E7
330
1F
100
AcDbEntity
  8
TK1
100
AcDbCircle
 10
60.30770351792813
 20
125.2116179188377
 30
0.0
 40
0.5
  0
CIRCLE
  5
34E8
330
1F
100
AcDbEntity
  8
TK1
100
AcDbCircle
 10
60.30770351792813
 20
122.6716179188378
 30
0.0
 40
0.5
  0
CIRCLE
  5
34E9
330
1F
100
AcDbEntity
  8
TK1
100
AcDbCircle
 10
60.30770351792813
 20
120.1316179188378
 30
0.0
 40
0.5
  0
CIRCLE
  5
34EA
330
1F
100
AcDbEntity
  8
TK1
100
AcDbCircle
 10
60.30770351792813
 20
117.5916179188377
 30
0.0
 40
0.5
  0
CIRCLE
  5
34EB
330
1F
100
AcDbEntity
  8
TK1
100
AcDbCircle
 10
60.30770351792813
 20
115.0516179188377
 30
0.0
 40
0.5
  0
CIRCLE
  5
34EC
330
1F
100
AcDbEntity
  8
TK1
100
AcDbCircle
 10
60.30770351792813
 20
112.5116179188377
 30
0.0
 40
0.5
  0
CIRCLE
  5
34ED
330
1F
100
AcDbEntity
  8
TK1
100
AcDbCircle
 10
60.30770351792813
 20
109.9716179188377
 30
0.0
 40
0.5
  0
CIRCLE
  5
34EE
330
1F
100
AcDbEntity
  8
TK1
100
AcDbCircle
 10
60.30770351792813
 20
107.4316179188377
 30
0.0
 40
0.5
  0
CIRCLE
  5
34EF
330
1F
100
AcDbEntity
  8
TK1
100
AcDbCircle
 10
60.30770351792813
 20
104.8916179188377
 30
0.0
 40
0.5
  0
CIRCLE
  5
34F0
330
1F
100
AcDbEntity
  8
TK1
100
AcDbCircle
 10
60.30770351792813
 20
102.3516179188377
 30
0.0
 40
0.5
  0
CIRCLE
  5
34F1
330
1F
100
AcDbEntity
  8
TK1
100
AcDbCircle
 10
60.30770351792813
 20
99.81161791883772
 30
0.0
 40
0.5
  0
CIRCLE
  5
34F2
330
1F
100
AcDbEntity
  8
TK1
100
AcDbCircle
 10
60.30770351792813
 20
97.27161791883776
 30
0.0
 40
0.5
  0
CIRCLE
  5
34F3
330
1F
100
AcDbEntity
  8
TK1
100
AcDbCircle
 10
60.30770351792813
 20
94.7316179188378
 30
0.0
 40
0.5
  0
CIRCLE
  5
34F4
330
1F
100
AcDbEntity
  8
TK1
100
AcDbCircle
 10
60.30770351792813
 20
92.19161791883772
 30
0.0
 40
0.5
  0
CIRCLE
  5
34F5
330
1F
100
AcDbEntity
  8
TK1
100
AcDbCircle
 10
57.76770351792817
 20
89.65161791883776
 30
0.0
 40
0.5
  0
CIRCLE
  5
34F6
330
1F
100
AcDbEntity
  8
TK1
100
AcDbCircle
 10
60.30770351792813
 20
89.65161791883776
 30
0.0
 40
0.5
  0
MTEXT
  5
34F8
330
1F
100
AcDbEntity
  8
AM_6
100
AcDbMText
 10
46.11252958620986
 20
51.44983074284869
 30
0.0
 40
2.0
 41
17.06294954997611
 71
     1
 72
     5
  1
{\fArial|b0|i0|c0|p32;TAKACHI}
 73
     1
 44
1.0
1001
GENIUS_AMGTXT_16
1040
3.5
1040
0.12
1001
ACAD
1000
MTEXTBEGIN
1070
    73
1070
     1
1070
    44
1040
1.0
1070
    74
1070
     0
1000
MTEXTEND
  0
MTEXT
  5
34F9
330
1F
100
AcDbEntity
  8
AM_6
100
AcDbMText
 10
59.5906723407939
 20
51.44983074284869
 30
0.0
 40
2.0
 41
17.06294954997611
 71
     1
 72
     5
  1
{\fArial|b0|i0|c0|p32;TNF53-79}
 73
     1
 44
1.0
1001
GENIUS_AMGTXT_16
1040
3.5
1040
0.12
1001
ACAD
1000
MTEXTBEGIN
1070
    73
1070
     1
1070
    44
1040
1.0
1070
    74
1070
     0
1000
MTEXTEND
  0
LINE
  5
34FA
102
{ACAD_REACTORS
330
3644
102
}
330
1F
100
AcDbEntity
  8
TK1
100
AcDbLine
 10
33.53770351792793
 20
48.88161791883778
 30
0.0
 11
84.53770351792792
 21
48.88161791883778
 31
0.0
1001
GENIUS_GENREC_14
1002
{
1000
PYDIR
1011
32.53770351792815
1021
128.8816179188378
1031
0.0
1002
}
1002
{
1000
PXDIR
1011
85.53770351792815
1021
48.88161791883778
1031
0.0
1002
}
1002
{
1000
PORI
1011
32.53770351792815
1021
48.88161791883778
1031
0.0
1002
}
1002
{
1000
PINS
1011
59.03770351792815
1021
88.88161791883778
1031
0.0
1002
}
1002
{
1000
HVAL
1000
80
1002
}
1002
{
1000
H
1070
     2
1002
}
1002
{
1000
WVAL
1000
53
1002
}
1002
{
1000
W
1070
     2
1002
}
1002
{
1000
C
1070
     4
1002
}
1001
GENIUS_GENOBJ-N-REC_13
1002
{
1000
OWNER
1000
GEN
1002
}
1001
GENIUS_GENODEF_13
1002
{
1000
HIER
1070
     0
1002
}
1002
{
1000
MANEDIT
1070
     0
1002
}
1002
{
1000
NOSEL
1070
     0
1002
}
1002
{
1000
BEHIND
1070
     0
1002
}
1002
{
1000
OTHER
1070
     0
1002
}
1002
{
1000
REACTOR
1002
}
  0
LINE
  5
34FB
330
1F
100
AcDbEntity
  8
TK1
100
AcDbLine
 10
85.53770351792792
 20
49.88161791883777
 30
0.0
 11
85.53770351792815
 21
126.8816179188378
 31
0.0
1001
GENIUS_GENREC_14
1002
{
1000
PYDIR
1011
32.53770351792815
1021
128.3816179188378
1031
0.0
1002
}
1002
{
1000
PXDIR
1011
85.53770351792815
1021
48.38161791883777
1031
0.0
1002
}
1002
{
1000
PORI
1011
32.53770351792815
1021
48.38161791883777
1031
0.0
1002
}
1002
{
1000
PINS
1011
59.03770351792815
1021
88.38161791883777
1031
0.0
1002
}
1002
{
1000
HVAL
1000
80
1002
}
1002
{
1000
H
1070
     2
1002
}
1002
{
1000
WVAL
1000
53
1002
}
1002
{
1000
W
1070
     2
1002
}
1002
{
1000
C
1070
     4
1002
}
1001
GENIUS_GENOBJ-N-REC_13
1002
{
1000
OWNER
1000
GEN
1002
}
1001
GENIUS_GENODEF_13
1002
{
1000
HIER
1070
     0
1002
}
1002
{
1000
MANEDIT
1070
     0
1002
}
1002
{
1000
NOSEL
1070
     0
1002
}
1002
{
1000
BEHIND
1070
     0
1002
}
1002
{
1000
OTHER
1070
     0
1002
}
1002
{
1000
REACTOR
1002
}
  0
LINE
  5
34FC
330
1F
100
AcDbEntity
  8
TK1
100
AcDbLine
 10
84.53770351792815
 20
127.8816179188378
 30
0.0
 11
33.53770351792838
 21
127.8816179188378
 31
0.0
1001
GENIUS_GENREC_14
1002
{
1000
PYDIR
1011
32.53770351792815
1021
127.8816179188378
1031
0.0
1002
}
1002
{
1000
PXDIR
1011
85.53770351792815
1021
47.88161791883777
1031
0.0
1002
}
1002
{
1000
PORI
1011
32.53770351792815
1021
47.88161791883777
1031
0.0
1002
}
1002
{
1000
PINS
1011
59.03770351792815
1021
87.88161791883778
1031
0.0
1002
}
1002
{
1000
HVAL
1000
80
1002
}
1002
{
1000
H
1070
     2
1002
}
1002
{
1000
WVAL
1000
53
1002
}
1002
{
1000
W
1070
     2
1002
}
1002
{
1000
C
1070
     4
1002
}
1001
GENIUS_GENOBJ-N-REC_13
1002
{
1000
OWNER
1000
GEN
1002
}
1001
GENIUS_GENODEF_13
1002
{
1000
HIER
1070
     0
1002
}
1002
{
1000
MANEDIT
1070
     0
1002
}
1002
{
1000
NOSEL
1070
     0
1002
}
1002
{
1000
BEHIND
1070
     0
1002
}
1002
{
1000
OTHER
1070
     0
1002
}
1002
{
1000
REACTOR
1002
}
  0
LINE
  5
34FD
330
1F
100
AcDbEntity
  8
TK1
100
AcDbLine
 10
32.53770351792838
 20
126.8816179188378
 30
0.0
 11
32.53770351792792
 21
49.88161791883777
 31
0.0
1001
GENIUS_GENREC_14
1002
{
1000
PYDIR
1011
32.53770351792815
1021
128.3816179188378
1031
0.0
1002
}
1002
{
1000
PXDIR
1011
85.53770351792815
1021
48.38161791883777
1031
0.0
1002
}
1002
{
1000
PORI
1011
32.53770351792815
1021
48.38161791883777
1031
0.0
1002
}
1002
{
1000
PINS
1011
59.03770351792815
1021
88.38161791883777
1031
0.0
1002
}
1002
{
1000
HVAL
1000
80
1002
}
1002
{
1000
H
1070
     2
1002
}
1002
{
1000
WVAL
1000
53
1002
}
1002
{
1000
W
1070
     2
1002
}
1002
{
1000
C
1070
     4
1002
}
1001
GENIUS_GENOBJ-N-REC_13
1002
{
1000
OWNER
1000
GEN
1002
}
1001
GENIUS_GENODEF_13
1002
{
1000
HIER
1070
     0
1002
}
1002
{
1000
MANEDIT
1070
     0
1002
}
1002
{
1000
NOSEL
1070
     0
1002
}
1002
{
1000
BEHIND
1070
     0
1002
}
1002
{
1000
OTHER
1070
     0
1002
}
1002
{
1000
REACTOR
1002
}
  0
ARC
  5
34FE
102
{ACAD_REACTORS
330
3677
102
}
330
1F
100
AcDbEntity
  8
TK1
100
AcDbCircle
 10
33.53770351792838
 20
126.8816179188378
 30
0.0
 40
1.0
100
AcDbArc
 50
90.0
 51
180.0
1001
GENIUS_GENREC_14
1002
{
1000
PYDIR
1011
32.53770351792815
1021
127.8816179188378
1031
0.0
1002
}
1002
{
1000
PXDIR
1011
85.53770351792815
1021
47.88161791883777
1031
0.0
1002
}
1002
{
1000
PORI
1011
32.53770351792815
1021
47.88161791883777
1031
0.0
1002
}
1002
{
1000
PINS
1011
59.03770351792815
1021
87.88161791883778
1031
0.0
1002
}
1002
{
1000
HVAL
1000
80
1002
}
1002
{
1000
H
1070
     2
1002
}
1002
{
1000
WVAL
1000
53
1002
}
1002
{
1000
W
1070
     2
1002
}
1002
{
1000
C
1070
     4
1002
}
1001
GENIUS_GENOBJ-N-REC_13
1002
{
1000
OWNER
1000
GEN
1002
}
1001
GENIUS_GENODEF_13
1002
{
1000
HIER
1070
     0
1002
}
1002
{
1000
MANEDIT
1070
     0
1002
}
1002
{
1000
NOSEL
1070
     0
1002
}
1002
{
1000
BEHIND
1070
     0
1002
}
1002
{
1000
OTHER
1070
     0
1002
}
1002
{
1000
REACTOR
1002
}
1001
GENIUS_GENOBJ-N-FIL_13
1002
{
1000
OWNER
1000
GEN
1002
}
  0
ARC
  5
34FF
102
{ACAD_REACTORS
330
3644
102
}
330
1F
100
AcDbEntity
  8
TK1
100
AcDbCircle
 10
84.53770351792815
 20
126.8816179188378
 30
0.0
 40
1.0
100
AcDbArc
 50
0.0
 51
90.0
1001
GENIUS_GENREC_14
1002
{
1000
PYDIR
1011
32.53770351792815
1021
128.3816179188378
1031
0.0
1002
}
1002
{
1000
PXDIR
1011
85.53770351792815
1021
48.38161791883777
1031
0.0
1002
}
1002
{
1000
PORI
1011
32.53770351792815
1021
48.38161791883777
1031
0.0
1002
}
1002
{
1000
PINS
1011
59.03770351792815
1021
88.38161791883777
1031
0.0
1002
}
1002
{
1000
HVAL
1000
80
1002
}
1002
{
1000
H
1070
     2
1002
}
1002
{
1000
WVAL
1000
53
1002
}
1002
{
1000
W
1070
     2
1002
}
1002
{
1000
C
1070
     4
1002
}
1001
GENIUS_GENOBJ-N-REC_13
1002
{
1000
OWNER
1000
GEN
1002
}
1001
GENIUS_GENODEF_13
1002
{
1000
HIER
1070
     0
1002
}
1002
{
1000
MANEDIT
1070
     0
1002
}
1002
{
1000
NOSEL
1070
     0
1002
}
1002
{
1000
BEHIND
1070
     0
1002
}
1002
{
1000
OTHER
1070
     0
1002
}
1002
{
1000
REACTOR
1002
}
1001
GENIUS_GENOBJ-N-FIL_13
1002
{
1000
OWNER
1000
GEN
1002
}
  0
ARC
  5
3500
102
{ACAD_REACTORS
330
3620
102
}
330
1F
100
AcDbEntity
  8
TK1
100
AcDbCircle
 10
84.53770351792792
 20
49.88161791883777
 30
0.0
 40
1.0
100
AcDbArc
 50
270.0
 51
0.0
1001
GENIUS_GENREC_14
1002
{
1000
PYDIR
1011
32.53770351792815
1021
128.3816179188378
1031
0.0
1002
}
1002
{
1000
PXDIR
1011
85.53770351792815
1021
48.38161791883777
1031
0.0
1002
}
1002
{
1000
PORI
1011
32.53770351792815
1021
48.38161791883777
1031
0.0
1002
}
1002
{
1000
PINS
1011
59.03770351792815
1021
88.38161791883777
1031
0.0
1002
}
1002
{
1000
HVAL
1000
80
1002
}
1002
{
1000
H
1070
     2
1002
}
1002
{
1000
WVAL
1000
53
1002
}
1002
{
1000
W
1070
     2
1002
}
1002
{
1000
C
1070
     4
1002
}
1001
GENIUS_GENOBJ-N-REC_13
1002
{
1000
OWNER
1000
GEN
1002
}
1001
GENIUS_GENOBJ-N-FIL_13
1002
{
1000
OWNER
1000
GEN
1002
}
1001
GENIUS_GENODEF_13
1002
{
1000
HIER
1070
     0
1002
}
1002
{
1000
MANEDIT
1070
     0
1002
}
1002
{
1000
NOSEL
1070
     0
1002
}
1002
{
1000
BEHIND
1070
     0
1002
}
1002
{
1000
OTHER
1070
     0
1002
}
1002
{
1000
REACTOR
1002
}
  0
ARC
  5
3501
102
{ACAD_REACTORS
330
3620
330
36C4
102
}
330
1F
100
AcDbEntity
  8
TK1
100
AcDbCircle
 10
33.53770351792793
 20
49.88161791883777
 30
0.0
 40
1.0
100
AcDbArc
 50
180.0
 51
270.0
1001
GENIUS_GENREC_14
1002
{
1000
PYDIR
1011
32.53770351792815
1021
128.3816179188378
1031
0.0
1002
}
1002
{
1000
PXDIR
1011
85.53770351792815
1021
48.38161791883777
1031
0.0
1002
}
1002
{
1000
PORI
1011
32.53770351792815
1021
48.38161791883777
1031
0.0
1002
}
1002
{
1000
PINS
1011
59.03770351792815
1021
88.38161791883777
1031
0.0
1002
}
1002
{
1000
HVAL
1000
80
1002
}
1002
{
1000
H
1070
     2
1002
}
1002
{
1000
WVAL
1000
53
1002
}
1002
{
1000
W
1070
     2
1002
}
1002
{
1000
C
1070
     4
1002
}
1001
GENIUS_GENOBJ-N-REC_13
1002
{
1000
OWNER
1000
GEN
1002
}
1001
GENIUS_GENOBJ-N-FIL_13
1002
{
1000
OWNER
1000
GEN
1002
}
1001
GENIUS_GENODEF_13
1002
{
1000
HIER
1070
     0
1002
}
1002
{
1000
MANEDIT
1070
     0
1002
}
1002
{
1000
NOSEL
1070
     0
1002
}
1002
{
1000
BEHIND
1070
     0
1002
}
1002
{
1000
OTHER
1070
     0
1002
}
1002
{
1000
REACTOR
1002
}
  0
POINT
  5
3513
330
1F
100
AcDbEntity
  8
0
 60
     1
100
AcDbPoint
 10
-151.1877931502606
 20
-196.1878380901469
 30
0.0
1001
GENIUS_GENOBJ-N-CRS_13
1002
{
1000
OWNER
1000
GEN
1002
}
1001
GENIUS_GENOENT_13
1002
{
1000
MYREF
1005
3513
1002
}
1002
{
1000
GRP
1005
0
1002
}
1001
GENIUS_GENOLIS_13
1002
{
1000
ENT
1005
32AD
1005
32AE
1005
32AF
1005
32B0
1002
}
1001
GENIUS_GENODEF_13
1002
{
1000
HIER
1070
    10
1002
}
1002
{
1000
MANEDIT
1070
     0
1002
}
1002
{
1000
NOSEL
1070
     0
1002
}
1002
{
1000
BEHIND
1070
     0
1002
}
1002
{
1000
OTHER
1070
     0
1002
}
1002
{
1000
REACTOR
1002
}
  0
POINT
  5
3514
330
1F
100
AcDbEntity
  8
0
 60
     1
100
AcDbPoint
 10
-151.1877931502606
 20
-196.1878380901469
 30
0.0
1001
GENIUS_GENOENT_13
1002
{
1000
MYREF
1005
3514
1002
}
1002
{
1000
GRP
1005
0
1002
}
1001
GENIUS_GENOBJ-N-CRS_13
1002
{
1000
OWNER
1000
GEN
1002
}
1001
GENIUS_GENODEF_13
1002
{
1000
HIER
1070
    10
1002
}
1002
{
1000
MANEDIT
1070
     0
1002
}
1002
{
1000
NOSEL
1070
     0
1002
}
1002
{
1000
BEHIND
1070
     0
1002
}
1002
{
1000
OTHER
1070
     0
1002
}
1002
{
1000
REACTOR
1002
}
1001
GENIUS_GENOLIS_13
1002
{
1000
ENT
1005
32A8
1005
32A9
1005
32AA
1005
32AB
1002
}
  0
POINT
  5
3515
330
1F
100
AcDbEntity
  8
0
 60
     1
100
AcDbPoint
 10
-151.1877931502606
 20
-196.1878380901469
 30
0.0
1001
GENIUS_GENOENT_13
1002
{
1000
MYREF
1005
3515
1002
}
1002
{
1000
GRP
1005
0
1002
}
1001
GENIUS_GENOBJ-N-CRS_13
1002
{
1000
OWNER
1000
GEN
1002
}
1001
GENIUS_GENODEF_13
1002
{
1000
HIER
1070
    10
1002
}
1002
{
1000
MANEDIT
1070
     0
1002
}
1002
{
1000
NOSEL
1070
     0
1002
}
1002
{
1000
BEHIND
1070
     0
1002
}
1002
{
1000
OTHER
1070
     0
1002
}
1002
{
1000
REACTOR
1002
}
1001
GENIUS_GENOLIS_13
1002
{
1000
ENT
1005
32A3
1005
32A4
1005
32A5
1005
32A6
1002
}
  0
POINT
  5
3516
330
1F
100
AcDbEntity
  8
0
 60
     1
100
AcDbPoint
 10
-151.1877931502606
 20
-196.1878380901469
 30
0.0
1001
GENIUS_GENOLIS_13
1002
{
1000
ENT
1005
329E
1005
329F
1005
32A0
1005
32A1
1002
}
1001
GENIUS_GENOBJ-N-CRS_13
1002
{
1000
OWNER
1000
GEN
1002
}
1001
GENIUS_GENOENT_13
1002
{
1000
MYREF
1005
3516
1002
}
1002
{
1000
GRP
1005
0
1002
}
1001
GENIUS_GENODEF_13
1002
{
1000
HIER
1070
    10
1002
}
1002
{
1000
MANEDIT
1070
     0
1002
}
1002
{
1000
NOSEL
1070
     0
1002
}
1002
{
1000
BEHIND
1070
     0
1002
}
1002
{
1000
OTHER
1070
     0
1002
}
1002
{
1000
REACTOR
1002
}
  0
DIMENSION
  5
35C3
330
1F
100
AcDbEntity
  8
AM_5
100
AcDbDimension
  2
*D38
 10
82.8763263731791
 20
124.8052937139003
 30
0.0
 11
87.36239750399894
 21
131.0611010700136
 31
0.0
 70
   163
 71
     5
 42
1.000000000000028
  3
AM_ISO$3
100
AcDbDiametricDimension
 15
83.45908066267679
 25
125.6179421237751
 35
0.0
 40
0.0
1001
ACAD
1000
DSTYLE
1002
{
1070
   144
1040
1.0
1070
    40
1040
0.5
1070
   279
1070
     1
1002
}
  0
DIMENSION
  5
35D3
330
1F
100
AcDbEntity
  8
AM_5
100
AcDbDimension
  2
*D39
 10
84.53770351792782
 20
49.88161791883776
 30
0.0
 11
90.69479826221174
 21
42.20742635151644
 31
0.0
 70
   164
  1
4-<>
 71
     5
 42
1.000000000000063
  3
AM_ISO$4
100
AcDbRadialDimension
 15
85.16349746276064
 25
49.10162949673734
 35
0.0
 40
0.0
1001
ACAD
1000
DSTYLE
1002
{
1070
    40
1040
0.5
1070
    74
1070
     0
1070
   279
1070
     1
1002
}
  0
DIMENSION
  5
35F0
102
{ACAD_XDICTIONARY
360
35FB
102
}
102
{ACAD_REACTORS
330
35FC
102
}
330
1F
100
AcDbEntity
  8
AM_5
100
AcDbDimension
  2
*D40
 10
83.16770351792801
 20
134.7116179188377
 30
0.0
 11
59.03770351792814
 21
136.3367901629322
 31
0.0
 70
    32
 71
     5
 42
48.25999999999973
  3
AM_ISO$0
100
AcDbAlignedDimension
 13
34.90770351792827
 23
128.7116179188377
 33
0.0
 14
83.16770351792801
 24
128.7116179188377
 34
0.0
100
AcDbRotatedDimension
1001
ACAD
1000
DSTYLE
1002
{
1070
   144
1040
1.0
1070
    40
1040
0.5
1070
   279
1070
     1
1002
}
  0
DIMENSION
  5
3614
102
{ACAD_XDICTIONARY
360
361F
102
}
102
{ACAD_REACTORS
330
3620
102
}
330
1F
100
AcDbEntity
  8
AM_5
100
AcDbDimension
  2
*D41
 10
85.53770351792792
 20
43.88161791883774
 30
0.0
 11
59.03770351792792
 21
45.50661791883775
 31
0.0
 70
    32
 71
     5
 42
53.0
  3
AM_ISO$0
100
AcDbAlignedDimension
 13
32.53770351792792
 23
49.88161791883777
 33
0.0
 14
85.53770351792792
 24
49.88161791883777
 34
0.0
 50
0.0000000000001018
100
AcDbRotatedDimension
1001
ACAD
1000
DSTYLE
1002
{
1070
   144
1040
1.0
1070
    40
1040
0.5
1070
   279
1070
     1
1002
}
  0
DIMENSION
  5
3638
102
{ACAD_XDICTIONARY
360
3643
102
}
102
{ACAD_REACTORS
330
3644
102
}
330
1F
100
AcDbEntity
  8
AM_5
100
AcDbDimension
  2
*D42
 10
91.53770452792789
 20
48.88161791883778
 30
0.0
 11
89.91270452792788
 21
88.38161791883782
 31
0.0
 70
    32
 71
     5
 42
79.00000000000005
  3
AM_ISO$0
100
AcDbAlignedDimension
 13
84.53770351792815
 23
127.8816179188378
 33
0.0
 14
84.53770351792815
 24
48.88161791883778
 34
0.0
 50
90.0
100
AcDbRotatedDimension
1001
ACAD
1000
DSTYLE
1002
{
1070
   144
1040
1.0
1070
    40
1040
0.5
1070
   279
1070
     1
1002
}
  0
DIMENSION
  5
3666
102
{ACAD_XDICTIONARY
360
3676
102
}
102
{ACAD_REACTORS
330
3677
102
}
330
1F
100
AcDbEntity
  8
AM_5
100
AcDbDimension
  2
*D43
 10
25.40770351792823
 20
125.2116179188377
 30
0.0
 11
25.40770351792821
 21
126.5466179188378
 31
0.0
 70
   160
 71
     5
 42
2.670000000000086
  3
AM_ISO$0
100
AcDbAlignedDimension
 13
33.53770351792838
 23
127.8816179188378
 33
0.0
 14
31.40770351792827
 24
125.2116179188377
 34
0.0
 50
90.0
100
AcDbRotatedDimension
1001
ACAD
1000
DSTYLE
1002
{
1070
    40
1040
0.5
1002
}
  0
DIMENSION
  5
3694
102
{ACAD_XDICTIONARY
360
369F
102
}
102
{ACAD_REACTORS
330
36A0
102
}
330
1F
100
AcDbEntity
  8
AM_5
100
AcDbDimension
  2
*D44
 10
25.40770351792826
 20
54.0916179188377
 30
0.0
 11
23.78253127383376
 21
89.65161791883772
 31
0.0
 70
    32
 71
     5
 42
71.12000000000006
  3
AM_ISO$0
100
AcDbAlignedDimension
 13
31.40770351792827
 23
125.2116179188377
 33
0.0
 14
31.40770351792827
 24
54.0916179188377
 34
0.0
 50
90.0
100
AcDbRotatedDimension
1001
ACAD
1000
DSTYLE
1002
{
1070
   144
1040
1.0
1070
    40
1040
0.5
1070
   279
1070
     1
1002
}
  0
DIMENSION
  5
36B8
102
{ACAD_XDICTIONARY
360
36C3
102
}
102
{ACAD_REACTORS
330
36C4
102
}
330
1F
100
AcDbEntity
  8
AM_5
100
AcDbDimension
  2
*D45
 10
25.40770351792827
 20
48.88161791883778
 30
0.0
 11
23.78253127383377
 21
51.48661791883775
 31
0.0
 70
    32
 71
     5
 42
5.209999999999922
  3
AM_ISO$0
100
AcDbAlignedDimension
 13
31.40770351792827
 23
54.0916179188377
 33
0.0
 14
33.53770351792793
 24
48.88161791883778
 34
0.0
 50
90.0
100
AcDbRotatedDimension
1001
ACAD
1000
DSTYLE
1002
{
1070
   144
1040
1.0
1070
    40
1040
0.5
1070
   279
1070
     1
1002
}
  0
VIEWPORT
  5
17C
102
{ACAD_XDICTIONARY
360
3853
102
}
330
23
100
AcDbEntity
 67
     1
  8
0
100
AcDbViewport
 10
133.3499908447265
 20
101.5999970436096
 30
0.0
 40
370.2266912936524
 41
228.4221935424805
 68
     1
 69
     1
 12
133.3499908447265
 22
101.5999970436096
 13
0.0
 23
0.0
 14
10.0
 24
10.0
 15
10.0
 25
10.0
 16
0.0
 26
0.0
 36
1.0
 17
0.0
 27
0.0
 37
0.0
 42
50.0
 43
0.0
 44
0.0
 45
228.4221935424805
 50
0.0
 51
0.0
 72
   100
 90
    32800
  1

281
     0
 71
     1
 74
     0
110
0.0
120
0.0
130
0.0
111
1.0
121
0.0
131
0.0
112
0.0
122
1.0
132
0.0
 79
     0
146
0.0
  0
ENDSEC
  0
SECTION
  2
OBJECTS
  0
DICTIONARY
  5
C
330
0
100
AcDbDictionary
281
     1
  3
ACAD_CIP_PREVIOUS_PRODUCT_INFO
350
37DB
  3
ACAD_COLOR
350
BE
  3
ACAD_DETAILVIEWSTYLE
350
37CF
  3
ACAD_GROUP
350
D
  3
ACAD_LAYOUT
350
1A
  3
ACAD_MATERIAL
350
BD
  3
ACAD_MLEADERSTYLE
350
37CB
  3
ACAD_MLINESTYLE
350
17
  3
ACAD_PLOTSETTINGS
350
19
  3
ACAD_PLOTSTYLENAME
350
E
  3
ACAD_SCALELIST
350
37B9
  3
ACAD_SECTIONVIEWSTYLE
350
37CD
  3
ACAD_TABLESTYLE
350
583
  3
ACAD_VISUALSTYLE
350
37A0
  3
ACDB_RECOMPOSE_DATA
350
3849
  3
AcDbVariableDictionary
350
94
  3
AcmDictionary
350
5B
  3
AMG
350
41
  3
AMGSNAPSETTINGS
350
220
  3
DWGPROPS
350
384A
  0
DICTIONARY
  5
35D
330
2
100
AcDbDictionary
280
     1
281
     1
  3
ACAD_LAYERFILTERS
360
451
  3
ACAD_LAYERSTATES
360
35E
  3
AMLAYER_GROUPCOLORS
360
4A4
  0
DICTIONARY
  5
381F
330
10
100
AcDbDictionary
280
     1
281
     1
  3
ADSK_XREC_LAYER_RECONCILED
360
3820
  0
DICTIONARY
  5
3821
330
518
100
AcDbDictionary
280
     1
281
     1
  3
ADSK_XREC_LAYER_RECONCILED
360
3822
  0
DICTIONARY
  5
3823
330
519
100
AcDbDictionary
280
     1
281
     1
  3
ADSK_XREC_LAYER_RECONCILED
360
3824
  0
DICTIONARY
  5
3825
330
51A
100
AcDbDictionary
280
     1
281
     1
  3
ADSK_XREC_LAYER_RECONCILED
360
3826
  0
DICTIONARY
  5
3827
330
51B
100
AcDbDictionary
280
     1
281
     1
  3
ADSK_XREC_LAYER_RECONCILED
360
3828
  0
DICTIONARY
  5
3829
330
51C
100
AcDbDictionary
280
     1
281
     1
  3
ADSK_XREC_LAYER_RECONCILED
360
382A
  0
DICTIONARY
  5
382B
330
51D
100
AcDbDictionary
280
     1
281
     1
  3
ADSK_XREC_LAYER_RECONCILED
360
382C
  0
DICTIONARY
  5
382D
330
5E5
100
AcDbDictionary
280
     1
281
     1
  3
ADSK_XREC_LAYER_RECONCILED
360
382E
  0
DICTIONARY
  5
382F
330
5E6
100
AcDbDictionary
280
     1
281
     1
  3
ADSK_XREC_LAYER_RECONCILED
360
3830
  0
DICTIONARY
  5
3831
330
5E7
100
AcDbDictionary
280
     1
281
     1
  3
ADSK_XREC_LAYER_RECONCILED
360
3832
  0
DICTIONARY
  5
3833
330
6CF
100
AcDbDictionary
280
     1
281
     1
  3
ADSK_XREC_LAYER_RECONCILED
360
3834
  0
DICTIONARY
  5
3835
330
6D0
100
AcDbDictionary
280
     1
281
     1
  3
ADSK_XREC_LAYER_RECONCILED
360
3836
  0
DICTIONARY
  5
3837
330
AFF
100
AcDbDictionary
280
     1
281
     1
  3
ADSK_XREC_LAYER_RECONCILED
360
3838
  0
DICTIONARY
  5
3839
330
B76
100
AcDbDictionary
280
     1
281
     1
  3
ADSK_XREC_LAYER_RECONCILED
360
383A
  0
DICTIONARY
  5
383B
330
B77
100
AcDbDictionary
280
     1
281
     1
  3
ADSK_XREC_LAYER_RECONCILED
360
383C
  0
DICTIONARY
  5
383D
330
B9B
100
AcDbDictionary
280
     1
281
     1
  3
ADSK_XREC_LAYER_RECONCILED
360
383E
  0
DICTIONARY
  5
383F
330
188B
100
AcDbDictionary
280
     1
281
     1
  3
ADSK_XREC_LAYER_RECONCILED
360
3840
  0
DICTIONARY
  5
8F
330
1F
100
AcDbDictionary
280
     1
281
     1
  0
DICTIONARY
  5
5D9
330
5CD
100
AcDbDictionary
280
     1
281
     1
  0
DICTIONARY
  5
63E
330
5E9
100
AcDbDictionary
280
     1
281
     1
  0
DICTIONARY
  5
3851
330
178
100
AcDbDictionary
280
     1
281
     1
  3
ACAD_XREC_ROUNDTRIP
360
3852
  0
DICTIONARY
  5
385D
330
3743
100
AcDbDictionary
280
     1
281
     1
  3
ACAD_MTEXT_RT
360
385E
  0
DICTIONARY
  5
35FB
330
35F0
100
AcDbDictionary
280
     1
281
     1
  3
ACAD_DIMASSOC
360
35FC
  0
DICTIONARY
  5
361F
330
3614
100
AcDbDictionary
280
     1
281
     1
  3
ACAD_DIMASSOC
360
3620
  0
DICTIONARY
  5
3643
330
3638
100
AcDbDictionary
280
     1
281
     1
  3
ACAD_DIMASSOC
360
3644
  0
DICTIONARY
  5
3676
330
3666
100
AcDbDictionary
280
     1
281
     1
  3
ACAD_DIMASSOC
360
3677
  0
DICTIONARY
  5
369F
330
3694
100
AcDbDictionary
280
     1
281
     1
  3
ACAD_DIMASSOC
360
36A0
  0
DICTIONARY
  5
36C3
330
36B8
100
AcDbDictionary
280
     1
281
     1
  3
ACAD_DIMASSOC
360
36C4
  0
DICTIONARY
  5
3853
330
17C
100
AcDbDictionary
280
     1
281
     1
  3
ACAD_XREC_ROUNDTRIP
360
3854
  0
XRECORD
  5
37DB
102
{ACAD_REACTORS
330
C
102
}
330
C
100
AcDbXrecord
280
     1
300
AMECH_PP
300
2013
300
PDSS_F_S
  0
DICTIONARY
  5
BE
102
{ACAD_REACTORS
330
C
102
}
330
C
100
AcDbDictionary
281
     1
  0
DICTIONARY
  5
37CF
102
{ACAD_REACTORS
330
C
102
}
330
C
100
AcDbDictionary
281
     1
  3
Metric50
350
37D0
  0
DICTIONARY
  5
D
102
{ACAD_REACTORS
330
C
102
}
330
C
100
AcDbDictionary
281
     1
  0
DICTIONARY
  5
1A
102
{ACAD_REACTORS
330
C
102
}
330
C
100
AcDbDictionary
281
     1
  3
Model
350
22
  3
レイアウト1
350
1E
  3
レイアウト2
350
26
  0
DICTIONARY
  5
BD
102
{ACAD_REACTORS
330
C
102
}
330
C
100
AcDbDictionary
281
     1
  3
ByBlock
350
3790
  3
ByLayer
350
3788
  3
Global
350
3798
  0
DICTIONARY
  5
37CB
102
{ACAD_REACTORS
330
C
102
}
330
C
100
AcDbDictionary
281
     1
  3
Standard
350
37CC
  0
DICTIONARY
  5
17
102
{ACAD_REACTORS
330
C
102
}
330
C
100
AcDbDictionary
281
     1
  3
Standard
350
18
  0
DICTIONARY
  5
19
102
{ACAD_REACTORS
330
C
102
}
330
C
100
AcDbDictionary
281
     1
  0
ACDBDICTIONARYWDFLT
  5
E
102
{ACAD_REACTORS
330
C
102
}
330
C
100
AcDbDictionary
281
     1
  3
Normal
350
F
100
AcDbDictionaryWithDefault
340
F
  0
DICTIONARY
  5
37B9
102
{ACAD_REACTORS
330
C
102
}
330
C
100
AcDbDictionary
281
     1
  3
A0
350
37BA
  3
A1
350
37BB
  3
A2
350
37BC
  3
A3
350
37BD
  3
A4
350
37BE
  3
A5
350
37BF
  3
A6
350
37C0
  3
A7
350
37C1
  3
A8
350
37C2
  3
A9
350
37C3
  3
B0
350
37C4
  3
B1
350
37C5
  3
B2
350
37C6
  3
B3
350
37C7
  3
B4
350
37C8
  3
B5
350
37C9
  3
B6
350
37CA
  0
DICTIONARY
  5
37CD
102
{ACAD_REACTORS
330
C
102
}
330
C
100
AcDbDictionary
281
     1
  3
Metric50
350
37CE
  0
DICTIONARY
  5
583
102
{ACAD_REACTORS
330
C
102
}
330
C
100
AcDbDictionary
281
     1
  3
Standard
350
584
  0
DICTIONARY
  5
37A0
102
{ACAD_REACTORS
330
C
102
}
330
C
100
AcDbDictionary
281
     1
  3
2dWireframe
350
37A6
  3
Basic
350
37A5
  3
Brighten
350
37AC
  3
ColorChange
350
37B0
  3
Conceptual
350
37A9
  3
Dim
350
37AB
  3
EdgeColorOff
350
37B8
  3
Facepattern
350
37AF
  3
Flat
350
37A1
  3
FlatWithEdges
350
37A2
  3
Gouraud
350
37A3
  3
GouraudWithEdges
350
37A4
  3
Hidden
350
37A8
  3
JitterOff
350
37B6
  3
Linepattern
350
37AE
  3
OverhangOff
350
37B7
  3
Realistic
350
37AA
  3
Shaded
350
37B5
  3
Shaded with edges
350
37B4
  3
Shades of Gray
350
37B1
  3
Sketchy
350
37B2
  3
Thicken
350
37AD
  3
Wireframe
350
37A7
  3
X-Ray
350
37B3
  0
XRECORD
  5
3849
102
{ACAD_REACTORS
330
C
102
}
330
C
100
AcDbXrecord
280
     1
 90
        1
330
584
  0
DICTIONARY
  5
94
102
{ACAD_REACTORS
330
C
102
}
330
C
100
AcDbDictionary
281
     1
  3
CANNOSCALE
350
3844
  3
CMLEADERSTYLE
350
3841
  3
CTABLESTYLE
350
B86
  3
CVIEWDETAILSTYLE
350
3842
  3
CVIEWSECTIONSTYLE
350
3843
  3
DIMASSOC
350
96
  3
INDEXCTL
350
95
  3
SORTENTS
350
3845
  3
XCLIPFRAME
350
3846
  0
DICTIONARY
  5
5B
102
{ACAD_REACTORS
330
C
102
}
330
C
100
AcDbDictionary
281
     1
  3
AcmBOM
350
B73
  3
AcmStdDictionary
350
61
  3
AMDTSECTSYM_ARROWCOLOR
350
58F
  0
DICTIONARY
  5
41
102
{ACAD_REACTORS
330
C
102
}
330
C
100
AcDbDictionary
281
     1
  0
DICTIONARY
  5
220
102
{ACAD_REACTORS
330
C
102
}
330
C
100
AcDbDictionary
281
     1
  0
XRECORD
  5
384A
102
{ACAD_REACTORS
330
C
102
}
330
C
100
AcDbXrecord
280
     1
  1
DWGPROPS COOKIE
  2

  3

  4

  6

  7

  8
中根
  9

300
AmdtFileType=84
301
=
302
=
303
=
304
=
305
=
306
=
307
=
308
=
309
=
 40
0.0493754282407407
 41
2453795.581804826
 42
2457008.414640579
  1

 90
        1
  0
DICTIONARY
  5
451
102
{ACAD_REACTORS
330
35D
102
}
330
35D
100
AcDbDictionary
281
     1
  0
DICTIONARY
  5
35E
102
{ACAD_REACTORS
330
35D
102
}
330
35D
100
AcDbDictionary
281
     1
  3
takachi1
350
35F
  0
DICTIONARY
  5
4A4
102
{ACAD_REACTORS
330
35D
102
}
330
35D
100
AcDbDictionary
280
     1
281
     1
  0
XRECORD
  5
3820
102
{ACAD_REACTORS
330
381F
102
}
330
381F
100
AcDbXrecord
280
     1
290
     1
  0
XRECORD
  5
3822
102
{ACAD_REACTORS
330
3821
102
}
330
3821
100
AcDbXrecord
280
     1
290
     1
  0
XRECORD
  5
3824
102
{ACAD_REACTORS
330
3823
102
}
330
3823
100
AcDbXrecord
280
     1
290
     1
  0
XRECORD
  5
3826
102
{ACAD_REACTORS
330
3825
102
}
330
3825
100
AcDbXrecord
280
     1
290
     1
  0
XRECORD
  5
3828
102
{ACAD_REACTORS
330
3827
102
}
330
3827
100
AcDbXrecord
280
     1
290
     1
  0
XRECORD
  5
382A
102
{ACAD_REACTORS
330
3829
102
}
330
3829
100
AcDbXrecord
280
     1
290
     1
  0
XRECORD
  5
382C
102
{ACAD_REACTORS
330
382B
102
}
330
382B
100
AcDbXrecord
280
     1
290
     1
  0
XRECORD
  5
382E
102
{ACAD_REACTORS
330
382D
102
}
330
382D
100
AcDbXrecord
280
     1
290
     1
  0
XRECORD
  5
3830
102
{ACAD_REACTORS
330
382F
102
}
330
382F
100
AcDbXrecord
280
     1
290
     1
  0
XRECORD
  5
3832
102
{ACAD_REACTORS
330
3831
102
}
330
3831
100
AcDbXrecord
280
     1
290
     1
  0
XRECORD
  5
3834
102
{ACAD_REACTORS
330
3833
102
}
330
3833
100
AcDbXrecord
280
     1
290
     1
  0
XRECORD
  5
3836
102
{ACAD_REACTORS
330
3835
102
}
330
3835
100
AcDbXrecord
280
     1
290
     1
  0
XRECORD
  5
3838
102
{ACAD_REACTORS
330
3837
102
}
330
3837
100
AcDbXrecord
280
     1
290
     1
  0
XRECORD
  5
383A
102
{ACAD_REACTORS
330
3839
102
}
330
3839
100
AcDbXrecord
280
     1
290
     1
  0
XRECORD
  5
383C
102
{ACAD_REACTORS
330
383B
102
}
330
383B
100
AcDbXrecord
280
     1
290
     1
  0
XRECORD
  5
383E
102
{ACAD_REACTORS
330
383D
102
}
330
383D
100
AcDbXrecord
280
     1
290
     1
  0
XRECORD
  5
3840
102
{ACAD_REACTORS
330
383F
102
}
330
383F
100
AcDbXrecord
280
     1
290
     1
  0
XRECORD
  5
3852
102
{ACAD_REACTORS
330
3851
102
}
330
3851
100
AcDbXrecord
280
     1
102
SHADEPLOT
 70
     0
  0
XRECORD
  5
385E
102
{ACAD_REACTORS
330
385D
102
}
330
385D
100
AcDbXrecord
280
     1
 40
1892.0
  1
\U+22051
  0
DIMASSOC
  5
35FC
102
{ACAD_REACTORS
330
35FB
102
}
330
35FB
100
AcDbDimAssoc
330
35F0
 90
        3
 70
     0
 71
     0
  1
AcDbOsnapPointRef
 72
     1
331
32AF
 73
     0
 91
        0
 40
0.0
 10
0.0
 20
0.0
 30
2.000000000000000E+50
 75
     0
  1
AcDbOsnapPointRef
 72
     8
331
32AA
 73
     0
 91
        0
 40
1.0
 10
0.0
 20
0.0
 30
0.0
 75
     1
  1
AcDbOsnapPointRef
 72
     1
331
32AF
 73
     0
 91
        0
 40
0.0
 10
0.0
 20
0.0
 30
2.000000000000000E+50
 75
     0
  0
DIMASSOC
  5
3620
102
{ACAD_REACTORS
330
361F
102
}
330
361F
100
AcDbDimAssoc
330
3614
 90
        3
 70
     0
 71
     0
  1
AcDbOsnapPointRef
 72
    13
331
3501
 73
     0
 91
        0
 40
0.0
 10
0.0
 20
0.0
 30
2.000000000000000E+50
 75
     0
  1
AcDbOsnapPointRef
 72
     1
331
3500
 73
     0
 91
        0
 40
0.0
 10
0.0
 20
0.0
 30
2.000000000000000E+50
 75
     0
  0
DIMASSOC
  5
3644
102
{ACAD_REACTORS
330
3643
102
}
330
3643
100
AcDbDimAssoc
330
3638
 90
        3
 70
     0
 71
     0
  1
AcDbOsnapPointRef
 72
     1
331
34FF
 73
     0
 91
        0
 40
0.0
 10
0.0
 20
0.0
 30
2.000000000000000E+50
 75
     0
  1
AcDbOsnapPointRef
 72
     8
331
34FA
 73
     0
 91
        0
 40
1.0
 10
0.0
 20
0.0
 30
0.0
 75
     1
  1
AcDbOsnapPointRef
 72
     1
331
34FF
 73
     0
 91
        0
 40
0.0
 10
0.0
 20
0.0
 30
2.000000000000000E+50
 75
     0
  0
DIMASSOC
  5
3677
102
{ACAD_REACTORS
330
3676
102
}
330
3676
100
AcDbDimAssoc
330
3666
 90
        3
 70
     0
 71
     0
  1
AcDbOsnapPointRef
 72
    13
331
34FE
 73
     0
 91
        0
 40
0.0
 10
0.0
 20
0.0
 30
2.000000000000000E+50
 75
     0
  1
AcDbOsnapPointRef
 72
     1
331
32AE
 73
     0
 91
        0
 40
0.0
 10
0.0
 20
0.0
 30
2.000000000000000E+50
 75
     0
  0
DIMASSOC
  5
36A0
102
{ACAD_REACTORS
330
369F
102
}
330
369F
100
AcDbDimAssoc
330
3694
 90
        3
 70
     0
 71
     0
  1
AcDbOsnapPointRef
 72
     1
331
32AE
 73
     0
 91
        0
 40
0.0
 10
0.0
 20
0.0
 30
2.000000000000000E+50
 75
     0
  1
AcDbOsnapPointRef
 72
     1
331
32A4
 73
     0
 91
        0
 40
0.0
 10
0.0
 20
0.0
 30
2.000000000000000E+50
 75
     0
  0
DIMASSOC
  5
36C4
102
{ACAD_REACTORS
330
36C3
102
}
330
36C3
100
AcDbDimAssoc
330
36B8
 90
        3
 70
     0
 71
     0
  1
AcDbOsnapPointRef
 72
     1
331
32A4
 73
     0
 91
        0
 40
0.0
 10
0.0
 20
0.0
 30
2.000000000000000E+50
 75
     0
  1
AcDbOsnapPointRef
 72
     1
331
3501
 73
     0
 91
        0
 40
0.0
 10
0.0
 20
0.0
 30
2.000000000000000E+50
 75
     0
  0
XRECORD
  5
3854
102
{ACAD_REACTORS
330
3853
102
}
330
3853
100
AcDbXrecord
280
     1
102
SHADEPLOT
 70
     0
  0
ACDBDETAILVIEWSTYLE
  5
37D0
102
{ACAD_REACTORS
330
37CF
102
}
330
37CF
100
AcDbModelDocViewStyle
 70
     0
  3
Metric50
290
     0
100
AcDbDetailViewStyle
 70
     0
 71
     0
 90
        3
 71
     1
340
11
 40
5.0
340
0
 40
5.0
300

 40
0.0
280
     1
 71
     2
340
16
 90
       25
 71
     3
340
11
 40
5.0
 90
        0
 40
15.0
 90
        1
300
%<\AcVar ViewDetailId>% (%<\AcVar ViewScale \f "%sn">%)
 71
     4
340
16
 90
       25
340
16
 90
       25
280
     0
  0
LAYOUT
  5
22
102
{ACAD_XDICTIONARY
360
384D
102
}
102
{ACAD_REACTORS
330
1A
102
}
330
1A
100
AcDbPlotSettings
  1

  2
RICOH IPSiO CX7200 RPCS
  4
A3
  6
AM_VIEW1
 40
5.873749732971191
 41
5.873747825622558
 42
5.873748779296875
 43
5.873748779296875
 44
296.9259948730469
 45
419.9466552734374
 46
2.589999999999999
 47
4.099999999999999
 48
10.0
 49
0.0
140
410.0
141
280.0
142
1.0
143
1.0
 70
 11956
 72
     1
 73
     1
 74
     4
  7
takachi-1.ctb
 75
    16
147
1.0
148
-10.0
149
0.0
100
AcDbLayout
  1
Model
 70
     1
 71
     0
 10
0.0
 20
0.0
 11
12.0
 21
9.0
 12
0.0
 22
0.0
 32
0.0
 14
0.0
 24
0.0
 34
0.0
 15
0.0
 25
0.0
 35
0.0
146
0.0
 13
0.0
 23
0.0
 33
0.0
 16
1.0
 26
0.0
 36
0.0
 17
0.0
 27
1.0
 37
0.0
 76
     0
330
1F
331
3786
  0
LAYOUT
  5
1E
102
{ACAD_XDICTIONARY
360
384B
102
}
102
{ACAD_REACTORS
330
1A
102
}
330
1A
100
AcDbPlotSettings
  1

  2
none_device
  4
Letter_(8.50_x_11.00_Inches)
  6

 40
6.349999904632568
 41
6.349999904632568
 42
6.350006103515625
 43
6.350006103515625
 44
215.8999938964844
 45
279.3999938964844
 46
0.0
 47
0.0
 48
0.0
 49
0.0
140
0.0
141
0.0
142
1.0
143
1.0
 70
   688
 72
     1
 73
     1
 74
     5
  7
takachi-1.ctb
 75
    16
147
1.0
148
0.0
149
0.0
100
AcDbLayout
  1
レイアウト1
 70
     1
 71
     1
 10
-6.350006103515625
 20
-6.349999904632568
 11
273.0499877929688
 21
209.5499939918518
 12
0.0
 22
0.0
 32
0.0
 14
1.000000000000000E+20
 24
1.000000000000000E+20
 34
1.000000000000000E+20
 15
-1.000000000000000E+20
 25
-1.000000000000000E+20
 35
-1.000000000000000E+20
146
0.0
 13
0.0
 23
0.0
 33
0.0
 16
1.0
 26
0.0
 36
0.0
 17
0.0
 27
1.0
 37
0.0
 76
     0
330
1B
331
178
  0
LAYOUT
  5
26
102
{ACAD_XDICTIONARY
360
384F
102
}
102
{ACAD_REACTORS
330
1A
102
}
330
1A
100
AcDbPlotSettings
  1

  2
none_device
  4
Letter_(8.50_x_11.00_Inches)
  6

 40
6.349999904632568
 41
6.349999904632568
 42
6.350006103515625
 43
6.350006103515625
 44
215.8999938964844
 45
279.3999938964844
 46
0.0
 47
0.0
 48
0.0
 49
0.0
140
0.0
141
0.0
142
1.0
143
1.0
 70
   688
 72
     1
 73
     1
 74
     5
  7
takachi-1.ctb
 75
    16
147
1.0
148
0.0
149
0.0
100
AcDbLayout
  1
レイアウト2
 70
     1
 71
     2
 10
-6.350006103515625
 20
-6.349999904632568
 11
273.0499877929688
 21
209.5499939918518
 12
0.0
 22
0.0
 32
0.0
 14
1.000000000000000E+20
 24
1.000000000000000E+20
 34
1.000000000000000E+20
 15
-1.000000000000000E+20
 25
-1.000000000000000E+20
 35
-1.000000000000000E+20
146
0.0
 13
0.0
 23
0.0
 33
0.0
 16
1.0
 26
0.0
 36
0.0
 17
0.0
 27
1.0
 37
0.0
 76
     0
330
23
331
17C
  0
MATERIAL
  5
3790
102
{ACAD_XDICTIONARY
360
3791
102
}
102
{ACAD_REACTORS
330
BD
102
}
330
BD
100
AcDbMaterial
  1
ByBlock
 72
     0
 43
0.0008202099737533
 43
0.0
 43
0.0
 43
0.0
 43
0.0
 43
0.0008202099737533
 43
0.0
 43
0.0
 43
0.0
 43
0.0
 43
1.0
 43
0.0
 43
0.0
 43
0.0
 43
0.0
 43
1.0
 77
     0
 47
0.0008202099737533
 47
0.0
 47
0.0
 47
0.0
 47
0.0
 47
0.0008202099737533
 47
0.0
 47
0.0
 47
0.0
 47
0.0
 47
1.0
 47
0.0
 47
0.0
 47
0.0
 47
0.0
 47
1.0
171
     0
 49
0.0008202099737533
 49
0.0
 49
0.0
 49
0.0
 49
0.0
 49
0.0008202099737533
 49
0.0
 49
0.0
 49
0.0
 49
0.0
 49
1.0
 49
0.0
 49
0.0
 49
0.0
 49
0.0
 49
1.0
175
     0
142
0.0008202099737533
142
0.0
142
0.0
142
0.0
142
0.0
142
0.0008202099737533
142
0.0
142
0.0
142
0.0
142
0.0
142
1.0
142
0.0
142
0.0
142
0.0
142
0.0
142
1.0
179
     0
144
0.0008202099737533
144
0.0
144
0.0
144
0.0
144
0.0
144
0.0008202099737533
144
0.0
144
0.0
144
0.0
144
0.0
144
1.0
144
0.0
144
0.0
144
0.0
144
0.0
144
1.0
147
0.0008202099737533
147
0.0
147
0.0
147
0.0
147
0.0
147
0.0008202099737533
147
0.0
147
0.0
147
0.0
147
0.0
147
1.0
147
0.0
147
0.0
147
0.0
147
0.0
147
1.0
  0
MATERIAL
  5
3788
102
{ACAD_XDICTIONARY
360
3789
102
}
102
{ACAD_REACTORS
330
BD
102
}
330
BD
100
AcDbMaterial
  1
ByLayer
 72
     0
 43
0.0008202099737533
 43
0.0
 43
0.0
 43
0.0
 43
0.0
 43
0.0008202099737533
 43
0.0
 43
0.0
 43
0.0
 43
0.0
 43
1.0
 43
0.0
 43
0.0
 43
0.0
 43
0.0
 43
1.0
 77
     0
 47
0.0008202099737533
 47
0.0
 47
0.0
 47
0.0
 47
0.0
 47
0.0008202099737533
 47
0.0
 47
0.0
 47
0.0
 47
0.0
 47
1.0
 47
0.0
 47
0.0
 47
0.0
 47
0.0
 47
1.0
171
     0
 49
0.0008202099737533
 49
0.0
 49
0.0
 49
0.0
 49
0.0
 49
0.0008202099737533
 49
0.0
 49
0.0
 49
0.0
 49
0.0
 49
1.0
 49
0.0
 49
0.0
 49
0.0
 49
0.0
 49
1.0
175
     0
142
0.0008202099737533
142
0.0
142
0.0
142
0.0
142
0.0
142
0.0008202099737533
142
0.0
142
0.0
142
0.0
142
0.0
142
1.0
142
0.0
142
0.0
142
0.0
142
0.0
142
1.0
179
     0
144
0.0008202099737533
144
0.0
144
0.0
144
0.0
144
0.0
144
0.0008202099737533
144
0.0
144
0.0
144
0.0
144
0.0
144
1.0
144
0.0
144
0.0
144
0.0
144
0.0
144
1.0
147
0.0008202099737533
147
0.0
147
0.0
147
0.0
147
0.0
147
0.0008202099737533
147
0.0
147
0.0
147
0.0
147
0.0
147
1.0
147
0.0
147
0.0
147
0.0
147
0.0
147
1.0
  0
MATERIAL
  5
3798
102
{ACAD_XDICTIONARY
360
3799
102
}
102
{ACAD_REACTORS
330
BD
102
}
330
BD
100
AcDbMaterial
  1
Global
 72
     0
 43
0.0008202099737533
 43
0.0
 43
0.0
 43
0.0
 43
0.0
 43
0.0008202099737533
 43
0.0
 43
0.0
 43
0.0
 43
0.0
 43
1.0
 43
0.0
 43
0.0
 43
0.0
 43
0.0
 43
1.0
 77
     0
 47
0.0008202099737533
 47
0.0
 47
0.0
 47
0.0
 47
0.0
 47
0.0008202099737533
 47
0.0
 47
0.0
 47
0.0
 47
0.0
 47
1.0
 47
0.0
 47
0.0
 47
0.0
 47
0.0
 47
1.0
171
     0
 49
0.0008202099737533
 49
0.0
 49
0.0
 49
0.0
 49
0.0
 49
0.0008202099737533
 49
0.0
 49
0.0
 49
0.0
 49
0.0
 49
1.0
 49
0.0
 49
0.0
 49
0.0
 49
0.0
 49
1.0
175
     0
142
0.0008202099737533
142
0.0
142
0.0
142
0.0
142
0.0
142
0.0008202099737533
142
0.0
142
0.0
142
0.0
142
0.0
142
1.0
142
0.0
142
0.0
142
0.0
142
0.0
142
1.0
179
     0
144
0.0008202099737533
144
0.0
144
0.0
144
0.0
144
0.0
144
0.0008202099737533
144
0.0
144
0.0
144
0.0
144
0.0
144
1.0
144
0.0
144
0.0
144
0.0
144
0.0
144
1.0
147
0.0008202099737533
147
0.0
147
0.0
147
0.0
147
0.0
147
0.0008202099737533
147
0.0
147
0.0
147
0.0
147
0.0
147
1.0
147
0.0
147
0.0
147
0.0
147
0.0
147
1.0
  0
MLEADERSTYLE
  5
37CC
102
{ACAD_XDICTIONARY
360
3893
102
}
102
{ACAD_REACTORS
330
37CB
102
}
330
37CB
100
AcDbMLeaderStyle
170
     2
171
     1
172
     0
 90
        2
 40
0.0
 41
0.0
173
     1
 91
-1056964608
340
14
 92
       -2
290
     1
 42
2.0
291
     1
 43
0.36
  3
Standard
 44
4.0
300

342
11
174
     1
178
     6
175
     1
176
     0
 93
-1056964608
 45
4.0
292
     0
297
     0
 46
4.0
 94
-1056964608
 47
1.0
 49
1.0
140
1.0
293
     1
141
0.0
294
     1
177
     0
142
1.0
295
     0
296
     0
143
0.125
1001
ACAD_MLEADERVER
1070
     2
  0
MLINESTYLE
  5
18
102
{ACAD_REACTORS
330
17
102
}
330
17
100
AcDbMlineStyle
  2
STANDARD
 70
     0
  3

 62
   256
 51
90.0
 52
90.0
 71
     2
 49
0.5
 62
   256
  6
BYLAYER
 49
-0.5
 62
   256
  6
BYLAYER
  0
ACDBPLACEHOLDER
  5
F
102
{ACAD_REACTORS
330
E
102
}
330
E
  0
SCALE
  5
37BA
102
{ACAD_REACTORS
330
37B9
102
}
330
37B9
100
AcDbScale
 70
     0
300
1:1
140
1.0
141
1.0
290
     1
  0
SCALE
  5
37BB
102
{ACAD_REACTORS
330
37B9
102
}
330
37B9
100
AcDbScale
 70
     0
300
1:2
140
1.0
141
2.0
290
     0
  0
SCALE
  5
37BC
102
{ACAD_REACTORS
330
37B9
102
}
330
37B9
100
AcDbScale
 70
     0
300
1:4
140
1.0
141
4.0
290
     0
  0
SCALE
  5
37BD
102
{ACAD_REACTORS
330
37B9
102
}
330
37B9
100
AcDbScale
 70
     0
300
1:5
140
1.0
141
5.0
290
     0
  0
SCALE
  5
37BE
102
{ACAD_REACTORS
330
37B9
102
}
330
37B9
100
AcDbScale
 70
     0
300
1:8
140
1.0
141
8.0
290
     0
  0
SCALE
  5
37BF
102
{ACAD_REACTORS
330
37B9
102
}
330
37B9
100
AcDbScale
 70
     0
300
1:10
140
1.0
141
10.0
290
     0
  0
SCALE
  5
37C0
102
{ACAD_REACTORS
330
37B9
102
}
330
37B9
100
AcDbScale
 70
     0
300
1:16
140
1.0
141
16.0
290
     0
  0
SCALE
  5
37C1
102
{ACAD_REACTORS
330
37B9
102
}
330
37B9
100
AcDbScale
 70
     0
300
1:20
140
1.0
141
20.0
290
     0
  0
SCALE
  5
37C2
102
{ACAD_REACTORS
330
37B9
102
}
330
37B9
100
AcDbScale
 70
     0
300
1:30
140
1.0
141
30.0
290
     0
  0
SCALE
  5
37C3
102
{ACAD_REACTORS
330
37B9
102
}
330
37B9
100
AcDbScale
 70
     0
300
1:40
140
1.0
141
40.0
290
     0
  0
SCALE
  5
37C4
102
{ACAD_REACTORS
330
37B9
102
}
330
37B9
100
AcDbScale
 70
     0
300
1:50
140
1.0
141
50.0
290
     0
  0
SCALE
  5
37C5
102
{ACAD_REACTORS
330
37B9
102
}
330
37B9
100
AcDbScale
 70
     0
300
1:100
140
1.0
141
100.0
290
     0
  0
SCALE
  5
37C6
102
{ACAD_REACTORS
330
37B9
102
}
330
37B9
100
AcDbScale
 70
     0
300
2:1
140
2.0
141
1.0
290
     0
  0
SCALE
  5
37C7
102
{ACAD_REACTORS
330
37B9
102
}
330
37B9
100
AcDbScale
 70
     0
300
4:1
140
4.0
141
1.0
290
     0
  0
SCALE
  5
37C8
102
{ACAD_REACTORS
330
37B9
102
}
330
37B9
100
AcDbScale
 70
     0
300
8:1
140
8.0
141
1.0
290
     0
  0
SCALE
  5
37C9
102
{ACAD_REACTORS
330
37B9
102
}
330
37B9
100
AcDbScale
 70
     0
300
10:1
140
10.0
141
1.0
290
     0
  0
SCALE
  5
37CA
102
{ACAD_REACTORS
330
37B9
102
}
330
37B9
100
AcDbScale
 70
     0
300
100:1
140
100.0
141
1.0
290
     0
  0
ACDBSECTIONVIEWSTYLE
  5
37CE
102
{ACAD_REACTORS
330
37CD
102
}
330
37CD
100
AcDbModelDocViewStyle
 70
     0
  3
Metric50
290
     0
100
AcDbSectionViewStyle
 70
     0
 71
     0
 90
      102
 71
     1
340
11
 40
5.0
340
0
340
0
 40
5.0
300
I, O, Q, S, X, Z
 40
10.0
 90
        0
 40
2.5
 90
        0
 71
     2
340
16
 90
       25
340
16
 90
       50
 40
5.0
 40
2.5
 40
5.0
 71
     3
340
11
 40
5.0
 90
        0
 40
15.0
 90
        1
300
%<\AcVar ViewSectionStartId>%-%<\AcVar ViewSectionEndId>% (%<\AcVar ViewScale \f "%sn">%)
 71
     4
300
ANSI31
 40
1.0
 90
        0
290
     0
290
     0
 90
        6
 40
0.0
 40
1.570796326794896
 40
0.2617993877991494
 40
1.308996938995747
 40
-0.2617993877991494
 40
1.832595714594046
  0
TABLESTYLE
  5
584
102
{ACAD_XDICTIONARY
360
3847
102
}
102
{ACAD_REACTORS
330
583
102
}
330
583
100
AcDbTableStyle
  3
Standard
 70
     0
 71
     0
 40
1.5
 41
1.5
280
     0
281
     0
  7
STANDARD
140
4.5
170
     2
 62
     0
 63
     7
283
     0
274
    -2
284
     1
 64
     0
275
    -2
285
     1
 65
     0
276
    -2
286
     1
 66
     0
277
    -2
287
     1
 67
     0
278
    -2
288
     1
 68
     0
279
    -2
289
     1
 69
     0
  7
STANDARD
140
6.0
170
     5
 62
     0
 63
     7
283
     0
274
    -2
284
     1
 64
     0
275
    -2
285
     1
 65
     0
276
    -2
286
     1
 66
     0
277
    -2
287
     1
 67
     0
278
    -2
288
     1
 68
     0
279
    -2
289
     1
 69
     0
  7
STANDARD
140
4.5
170
     5
 62
     0
 63
     7
283
     0
274
    -2
284
     1
 64
     0
275
    -2
285
     1
 65
     0
276
    -2
286
     1
 66
     0
277
    -2
287
     1
 67
     0
278
    -2
288
     1
 68
     0
279
    -2
289
     1
 69
     0
  0
VISUALSTYLE
  5
37A6
102
{ACAD_XDICTIONARY
360
386C
102
}
102
{ACAD_REACTORS
330
37A0
102
}
330
37A0
100
AcDbVisualStyle
  2
2dWireframe
 70
     4
 71
     0
 72
     2
 73
     0
 90
        0
 40
-0.6
 41
-30.0
 62
     5
 63
     7
 74
     1
 91
        4
 64
     7
 65
   257
 75
     1
175
     1
 42
1.0
 92
        0
 66
   257
 43
1.0
 76
     1
 77
     6
 78
     2
 67
     7
 79
     5
170
     0
171
     0
290
     0
174
     0
 93
        1
 44
0.0
173
     0
291
     0
 45
0.0
1001
ACAD
1000
AcDbSavedByObjectVersion
1070
     0
  0
VISUALSTYLE
  5
37A5
102
{ACAD_XDICTIONARY
360
386A
102
}
102
{ACAD_REACTORS
330
37A0
102
}
330
37A0
100
AcDbVisualStyle
  2
Basic
 70
     7
 71
     1
 72
     0
 73
     1
 90
        0
 40
-0.6
 41
-30.0
 62
     5
 63
     7
 74
     0
 91
        4
 64
     7
 65
   257
 75
     1
175
     1
 42
1.0
 92
        8
 66
     7
 43
1.0
 76
     1
 77
     6
 78
     2
 67
     7
 79
     5
170
     0
171
     0
290
     0
174
     0
 93
        1
 44
0.0
173
     0
291
     1
 45
0.0
1001
ACAD
1000
AcDbSavedByObjectVersion
1070
     0
  0
VISUALSTYLE
  5
37AC
102
{ACAD_XDICTIONARY
360
3878
102
}
102
{ACAD_REACTORS
330
37A0
102
}
330
37A0
100
AcDbVisualStyle
  2
Brighten
 70
    12
 71
     2
 72
     2
 73
     0
 90
        0
 40
-0.6
 41
-30.0
 62
     5
 63
     7
 74
     1
 91
        4
 64
     7
 65
   257
 75
     1
175
     1
 42
1.0
 92
        8
 66
     7
 43
1.0
 76
     1
 77
     6
 78
     2
 67
     7
 79
     5
170
     0
171
     0
290
     0
174
     0
 93
        1
 44
50.0
173
     0
291
     1
 45
0.0
1001
ACAD
1000
AcDbSavedByObjectVersion
1070
     0
  0
VISUALSTYLE
  5
37B0
102
{ACAD_XDICTIONARY
360
3880
102
}
102
{ACAD_REACTORS
330
37A0
102
}
330
37A0
100
AcDbVisualStyle
  2
ColorChange
 70
    16
 71
     2
 72
     2
 73
     3
 90
        0
 40
-0.6
 41
-30.0
 62
     5
 63
     8
 74
     1
 91
        4
 64
     7
 65
   257
 75
     1
175
     1
 42
1.0
 92
        8
 66
     8
 43
1.0
 76
     1
 77
     6
 78
     2
 67
     7
 79
     5
170
     0
171
     0
290
     0
174
     0
 93
        1
 44
0.0
173
     0
291
     1
 45
0.0
1001
ACAD
1000
AcDbSavedByObjectVersion
1070
     0
  0
VISUALSTYLE
  5
37A9
102
{ACAD_XDICTIONARY
360
3872
102
}
102
{ACAD_REACTORS
330
37A0
102
}
330
37A0
100
AcDbVisualStyle
  2
Conceptual
 70
     9
 71
     3
 72
     2
 73
     0
 90
        0
 40
-0.6
 41
-30.0
 62
     5
 63
     7
 74
     2
 91
        2
 64
     7
 65
   257
 75
     1
175
     1
 42
179.0
 92
        8
 66
     7
 43
1.0
 76
     1
 77
     6
 78
     2
 67
     7
 79
     3
170
     0
171
     0
290
     0
174
     0
 93
        1
 44
0.0
173
     0
291
     0
 45
0.0
1001
ACAD
1000
AcDbSavedByObjectVersion
1070
     0
  0
VISUALSTYLE
  5
37AB
102
{ACAD_XDICTIONARY
360
3876
102
}
102
{ACAD_REACTORS
330
37A0
102
}
330
37A0
100
AcDbVisualStyle
  2
Dim
 70
    11
 71
     2
 72
     2
 73
     0
 90
        0
 40
-0.6
 41
-30.0
 62
     5
 63
     7
 74
     1
 91
        4
 64
     7
 65
   257
 75
     1
175
     1
 42
1.0
 92
        8
 66
     7
 43
1.0
 76
     1
 77
     6
 78
     2
 67
     7
 79
     5
170
     0
171
     0
290
     0
174
     0
 93
        1
 44
-50.0
173
     0
291
     1
 45
0.0
1001
ACAD
1000
AcDbSavedByObjectVersion
1070
     0
  0
VISUALSTYLE
  5
37B8
102
{ACAD_XDICTIONARY
360
3890
102
}
102
{ACAD_REACTORS
330
37A0
102
}
330
37A0
100
AcDbVisualStyle
  2
EdgeColorOff
 70
    22
 71
     2
 72
     2
 73
     0
 90
        0
 40
-0.6
 41
-30.0
 62
     5
 63
     7
 74
     1
 91
        4
 64
     7
 65
   257
 75
     1
175
     1
 42
1.0
 92
        8
 66
     7
 43
1.0
 76
     1
 77
     6
 78
     2
 67
     7
 79
     5
170
     0
171
     0
290
     0
174
     0
 93
        1
 44
0.0
173
     0
291
     1
 45
0.0
1001
ACAD
1000
AcDbSavedByObjectVersion
1070
     0
  0
VISUALSTYLE
  5
37AF
102
{ACAD_XDICTIONARY
360
387E
102
}
102
{ACAD_REACTORS
330
37A0
102
}
330
37A0
100
AcDbVisualStyle
  2
Facepattern
 70
    15
 71
     2
 72
     2
 73
     0
 90
        0
 40
-0.6
 41
-30.0
 62
     5
 63
     7
 74
     1
 91
        4
 64
     7
 65
   257
 75
     1
175
     1
 42
1.0
 92
        8
 66
     7
 43
1.0
 76
     1
 77
     6
 78
     2
 67
     7
 79
     5
170
     0
171
     0
290
     0
174
     0
 93
        1
 44
0.0
173
     0
291
     1
 45
0.0
1001
ACAD
1000
AcDbSavedByObjectVersion
1070
     0
  0
VISUALSTYLE
  5
37A1
102
{ACAD_XDICTIONARY
360
3862
102
}
102
{ACAD_REACTORS
330
37A0
102
}
330
37A0
100
AcDbVisualStyle
  2
Flat
 70
     0
 71
     2
 72
     1
 73
     1
 90
        2
 40
-0.6
 41
30.0
 62
     5
 63
     7
 74
     0
 91
        0
 64
     7
 65
   257
 75
     1
175
     1
 42
1.0
 92
        8
 66
     7
 43
1.0
 76
     1
 77
     6
 78
     2
 67
     7
 79
     5
170
     0
171
     0
290
     0
174
     0
 93
       13
 44
0.0
173
     0
291
     1
 45
0.0
1001
ACAD
1000
AcDbSavedByObjectVersion
1070
     0
  0
VISUALSTYLE
  5
37A2
102
{ACAD_XDICTIONARY
360
3864
102
}
102
{ACAD_REACTORS
330
37A0
102
}
330
37A0
100
AcDbVisualStyle
  2
FlatWithEdges
 70
     1
 71
     2
 72
     1
 73
     1
 90
        2
 40
-0.6
 41
30.0
 62
     5
 63
     7
 74
     1
 91
        0
 64
     7
 65
   257
 75
     1
175
     1
 42
1.0
 92
        0
 66
   257
 43
1.0
 76
     1
 77
     6
 78
     2
 67
     7
 79
     5
170
     0
171
     0
290
     0
174
     0
 93
       13
 44
0.0
173
     0
291
     1
 45
0.0
1001
ACAD
1000
AcDbSavedByObjectVersion
1070
     0
  0
VISUALSTYLE
  5
37A3
102
{ACAD_XDICTIONARY
360
3866
102
}
102
{ACAD_REACTORS
330
37A0
102
}
330
37A0
100
AcDbVisualStyle
  2
Gouraud
 70
     2
 71
     2
 72
     2
 73
     1
 90
        2
 40
-0.6
 41
30.0
 62
     5
 63
     7
 74
     0
 91
        0
 64
     7
 65
   257
 75
     1
175
     1
 42
1.0
 92
        0
 66
     7
 43
1.0
 76
     1
 77
     6
 78
     2
 67
     7
 79
     5
170
     0
171
     0
290
     0
174
     0
 93
       13
 44
0.0
173
     0
291
     1
 45
0.0
1001
ACAD
1000
AcDbSavedByObjectVersion
1070
     0
  0
VISUALSTYLE
  5
37A4
102
{ACAD_XDICTIONARY
360
3868
102
}
102
{ACAD_REACTORS
330
37A0
102
}
330
37A0
100
AcDbVisualStyle
  2
GouraudWithEdges
 70
     3
 71
     2
 72
     2
 73
     1
 90
        2
 40
-0.6
 41
30.0
 62
     5
 63
     7
 74
     1
 91
        0
 64
     7
 65
   257
 75
     1
175
     1
 42
1.0
 92
        0
 66
   257
 43
1.0
 76
     1
 77
     6
 78
     2
 67
     7
 79
     5
170
     0
171
     0
290
     0
174
     0
 93
       13
 44
0.0
173
     0
291
     1
 45
0.0
1001
ACAD
1000
AcDbSavedByObjectVersion
1070
     0
  0
VISUALSTYLE
  5
37A8
102
{ACAD_XDICTIONARY
360
3870
102
}
102
{ACAD_REACTORS
330
37A0
102
}
330
37A0
100
AcDbVisualStyle
  2
Hidden
 70
     6
 71
     1
 72
     2
 73
     2
 90
        0
 40
-0.6
 41
-30.0
 62
     5
 63
     7
 74
     2
 91
        2
 64
     7
 65
   257
 75
     2
175
     1
 42
40.0
 92
        0
 66
   257
 43
1.0
 76
     1
 77
     6
 78
     2
 67
     7
 79
     3
170
     0
171
     0
290
     0
174
     0
 93
        1
 44
0.0
173
     0
291
     0
 45
0.0
1001
ACAD
1000
AcDbSavedByObjectVersion
1070
     0
  0
VISUALSTYLE
  5
37B6
102
{ACAD_XDICTIONARY
360
388C
102
}
102
{ACAD_REACTORS
330
37A0
102
}
330
37A0
100
AcDbVisualStyle
  2
JitterOff
 70
    20
 71
     2
 72
     2
 73
     0
 90
        0
 40
-0.6
 41
-30.0
 62
     5
 63
     7
 74
     1
 91
        4
 64
     7
 65
   257
 75
     1
175
     1
 42
1.0
 92
       10
 66
     7
 43
1.0
 76
     1
 77
     6
 78
     2
 67
     7
 79
     5
170
     0
171
     0
290
     0
174
     0
 93
        1
 44
0.0
173
     0
291
     1
 45
0.0
1001
ACAD
1000
AcDbSavedByObjectVersion
1070
     0
  0
VISUALSTYLE
  5
37AE
102
{ACAD_XDICTIONARY
360
387C
102
}
102
{ACAD_REACTORS
330
37A0
102
}
330
37A0
100
AcDbVisualStyle
  2
Linepattern
 70
    14
 71
     2
 72
     2
 73
     0
 90
        0
 40
-0.6
 41
-30.0
 62
     5
 63
     7
 74
     1
 91
        4
 64
     7
 65
   257
 75
     7
175
     7
 42
1.0
 92
        8
 66
     7
 43
1.0
 76
     1
 77
     6
 78
     2
 67
     7
 79
     5
170
     0
171
     0
290
     0
174
     0
 93
        1
 44
0.0
173
     0
291
     1
 45
0.0
1001
ACAD
1000
AcDbSavedByObjectVersion
1070
     0
  0
VISUALSTYLE
  5
37B7
102
{ACAD_XDICTIONARY
360
388E
102
}
102
{ACAD_REACTORS
330
37A0
102
}
330
37A0
100
AcDbVisualStyle
  2
OverhangOff
 70
    21
 71
     2
 72
     2
 73
     0
 90
        0
 40
-0.6
 41
-30.0
 62
     5
 63
     7
 74
     1
 91
        4
 64
     7
 65
   257
 75
     1
175
     1
 42
1.0
 92
        9
 66
     7
 43
1.0
 76
     1
 77
     6
 78
     2
 67
     7
 79
     5
170
     0
171
     0
290
     0
174
     0
 93
        1
 44
0.0
173
     0
291
     1
 45
0.0
1001
ACAD
1000
AcDbSavedByObjectVersion
1070
     0
  0
VISUALSTYLE
  5
37AA
102
{ACAD_XDICTIONARY
360
3874
102
}
102
{ACAD_REACTORS
330
37A0
102
}
330
37A0
100
AcDbVisualStyle
  2
Realistic
 70
     8
 71
     2
 72
     3
 73
     0
 90
        2
 40
-0.6
 41
30.0
 62
     5
 63
     7
 74
     0
 91
        0
 64
     7
 65
   257
 75
     1
175
     1
 42
1.0
 92
        8
 66
   257
 43
1.0
 76
     1
 77
     6
 78
     2
 67
     7
 79
     3
170
     0
171
     0
290
     0
174
     0
 93
       13
 44
0.0
173
     0
291
     0
 45
0.0
1001
ACAD
1000
AcDbSavedByObjectVersion
1070
     0
  0
VISUALSTYLE
  5
37B5
102
{ACAD_XDICTIONARY
360
388A
102
}
102
{ACAD_REACTORS
330
37A0
102
}
330
37A0
100
AcDbVisualStyle
  2
Shaded
 70
    27
 71
     2
 72
     2
 73
     1
 90
        2
 40
-0.6
 41
30.0
 62
     5
 63
     7
 74
     0
 91
        4
 64
     7
 65
   257
 75
     1
175
     1
 42
1.0
 92
        8
 66
   257
 43
1.0
 76
     1
 77
     6
 78
     2
 67
     8
 79
     3
170
     0
171
     0
290
     0
174
     0
 93
        5
 44
0.0
173
     0
291
     0
 45
0.0
1001
ACAD
1000
AcDbSavedByObjectVersion
1070
     0
  0
VISUALSTYLE
  5
37B4
102
{ACAD_XDICTIONARY
360
3888
102
}
102
{ACAD_REACTORS
330
37A0
102
}
330
37A0
100
AcDbVisualStyle
  2
Shaded with edges
 70
    26
 71
     2
 72
     2
 73
     1
 90
        2
 40
-0.6
 41
30.0
 62
     5
 63
     7
 74
     1
 91
       10
 64
     7
 65
   257
 75
     2
175
     1
 42
1.0
 92
        8
 66
   257
 43
1.0
 76
     1
 77
     6
 78
     2
 67
     7
 79
     3
170
     0
171
     0
290
     0
174
     0
 93
        5
 44
0.0
173
     0
291
     0
 45
0.0
1001
ACAD
1000
AcDbSavedByObjectVersion
1070
     0
  0
VISUALSTYLE
  5
37B1
102
{ACAD_XDICTIONARY
360
3882
102
}
102
{ACAD_REACTORS
330
37A0
102
}
330
37A0
100
AcDbVisualStyle
  2
Shades of Gray
 70
    23
 71
     2
 72
     2
 73
     3
 90
        0
 40
-0.6
 41
-30.0
 62
     5
 63
     7
 74
     2
 91
        2
 64
     7
 65
     7
 75
     1
175
     1
 42
40.0
 92
        8
 66
     7
 43
1.0
 76
     1
 77
     6
 78
     2
 67
     7
 79
     3
170
     0
171
     0
290
     0
174
     0
 93
        1
 44
0.0
173
     0
291
     0
 45
0.0
1001
ACAD
1000
AcDbSavedByObjectVersion
1070
     0
  0
VISUALSTYLE
  5
37B2
102
{ACAD_XDICTIONARY
360
3884
102
}
102
{ACAD_REACTORS
330
37A0
102
}
330
37A0
100
AcDbVisualStyle
  2
Sketchy
 70
    24
 71
     1
 72
     2
 73
     2
 90
        0
 40
-0.6
 41
-30.0
 62
     5
 63
     7
 74
     2
 91
        2
 64
     7
 65
     7
 75
     1
175
     1
 42
40.0
 92
       11
 66
     7
 43
1.0
 76
     1
 77
     6
 78
     2
 67
     7
 79
     6
170
     0
171
     0
290
     0
174
     0
 93
        1
 44
0.0
173
     0
291
     0
 45
0.0
1001
ACAD
1000
AcDbSavedByObjectVersion
1070
     0
  0
VISUALSTYLE
  5
37AD
102
{ACAD_XDICTIONARY
360
387A
102
}
102
{ACAD_REACTORS
330
37A0
102
}
330
37A0
100
AcDbVisualStyle
  2
Thicken
 70
    13
 71
     2
 72
     2
 73
     0
 90
        0
 40
-0.6
 41
-30.0
 62
     5
 63
     7
 74
     1
 91
        4
 64
     7
 65
   257
 75
     1
175
     1
 42
1.0
 92
       12
 66
     7
 43
1.0
 76
     1
 77
     6
 78
     2
 67
     7
 79
     5
170
     0
171
     0
290
     0
174
     0
 93
        1
 44
0.0
173
     0
291
     1
 45
0.0
1001
ACAD
1000
AcDbSavedByObjectVersion
1070
     0
  0
VISUALSTYLE
  5
37A7
102
{ACAD_XDICTIONARY
360
386E
102
}
102
{ACAD_REACTORS
330
37A0
102
}
330
37A0
100
AcDbVisualStyle
  2
Wireframe
 70
     5
 71
     0
 72
     2
 73
     0
 90
        0
 40
-0.6
 41
-30.0
 62
     5
 63
     7
 74
     1
 91
        4
 64
     7
 65
   257
 75
     1
175
     1
 42
1.0
 92
        0
 66
   257
 43
1.0
 76
     1
 77
     6
 78
     2
 67
     7
 79
     3
170
     0
171
     0
290
     0
174
     0
 93
        1
 44
0.0
173
     0
291
     0
 45
0.0
1001
ACAD
1000
AcDbSavedByObjectVersion
1070
     0
  0
VISUALSTYLE
  5
37B3
102
{ACAD_XDICTIONARY
360
3886
102
}
102
{ACAD_REACTORS
330
37A0
102
}
330
37A0
100
AcDbVisualStyle
  2
X-Ray
 70
    25
 71
     2
 72
     2
 73
     1
 90
        1
 40
0.5
 41
-30.0
 62
     5
 63
     7
 74
     1
 91
        0
 64
     7
 65
   257
 75
     1
175
     1
 42
1.0
 92
        8
 66
     7
 43
1.0
 76
     1
 77
     6
 78
     2
 67
     7
 79
     3
170
     0
171
     0
290
     0
174
     0
 93
       13
 44
0.0
173
     0
291
     0
 45
0.0
1001
ACAD
1000
AcDbSavedByObjectVersion
1070
     0
  0
DICTIONARYVAR
  5
3844
102
{ACAD_REACTORS
330
94
102
}
330
94
100
DictionaryVariables
280
     0
  1
1:1
  0
DICTIONARYVAR
  5
3841
102
{ACAD_REACTORS
330
94
102
}
330
94
100
DictionaryVariables
280
     0
  1
STANDARD
  0
DICTIONARYVAR
  5
B86
102
{ACAD_REACTORS
330
94
102
}
330
94
100
DictionaryVariables
280
     0
  1
STANDARD
  0
DICTIONARYVAR
  5
3842
102
{ACAD_REACTORS
330
94
102
}
330
94
100
DictionaryVariables
280
     0
  1
Metric50
  0
DICTIONARYVAR
  5
3843
102
{ACAD_REACTORS
330
94
102
}
330
94
100
DictionaryVariables
280
     0
  1
Metric50
  0
DICTIONARYVAR
  5
96
102
{ACAD_REACTORS
330
94
102
}
330
94
100
DictionaryVariables
280
     0
  1
2
  0
DICTIONARYVAR
  5
95
102
{ACAD_REACTORS
330
94
102
}
330
94
100
DictionaryVariables
280
     0
  1
0
  0
DICTIONARYVAR
  5
3845
102
{ACAD_REACTORS
330
94
102
}
330
94
100
DictionaryVariables
280
     0
  1
127
  0
DICTIONARYVAR
  5
3846
102
{ACAD_REACTORS
330
94
102
}
330
94
100
DictionaryVariables
280
     0
  1
0
  0
DICTIONARY
  5
B73
102
{ACAD_REACTORS
330
5B
102
}
330
5B
100
AcDbDictionary
281
     1
  0
DICTIONARY
  5
61
102
{ACAD_REACTORS
330
5B
102
}
330
5B
100
AcDbDictionary
281
     1
  0
XRECORD
  5
58F
102
{ACAD_REACTORS
330
5B
102
}
330
5B
100
AcDbXrecord
280
     1
 90
-1023410169
  0
XRECORD
  5
35F
102
{ACAD_REACTORS
330
35E
102
}
330
35E
100
AcDbXrecord
280
     1
 91
       16
330
1E1
 90
        0
 62
     7
370
    -3
331
16
  1
色_7
330
10
 90
        8
 62
     7
370
    -3
331
16
  1
色_7
  0
DICTIONARY
  5
384D
330
22
100
AcDbDictionary
280
     1
281
     1
  3
ACAD_XREC_ROUNDTRIP
360
384E
  0
DICTIONARY
  5
384B
330
1E
100
AcDbDictionary
280
     1
281
     1
  3
ACAD_XREC_ROUNDTRIP
360
384C
  0
DICTIONARY
  5
384F
330
26
100
AcDbDictionary
280
     1
281
     1
  3
ACAD_XREC_ROUNDTRIP
360
3850
  0
DICTIONARY
  5
3791
330
3790
100
AcDbDictionary
280
     1
281
     1
  3
ACAD_XREC_ROUNDTRIP
360
3860
  3
BUMPTILE
360
3793
  3
DIFFUSETILE
360
3792
  3
OPACITYTILE
360
3796
  3
REFLECTIONTILE
360
3795
  3
REFRACTIONTILE
360
3797
  3
SPECULARTILE
360
3794
  0
DICTIONARY
  5
3789
330
3788
100
AcDbDictionary
280
     1
281
     1
  3
ACAD_XREC_ROUNDTRIP
360
385F
  3
BUMPTILE
360
378B
  3
DIFFUSETILE
360
378A
  3
OPACITYTILE
360
378E
  3
REFLECTIONTILE
360
378D
  3
REFRACTIONTILE
360
378F
  3
SPECULARTILE
360
378C
  0
DICTIONARY
  5
3799
330
3798
100
AcDbDictionary
280
     1
281
     1
  3
ACAD_XREC_ROUNDTRIP
360
3861
  3
BUMPTILE
360
379B
  3
DIFFUSETILE
360
379A
  3
OPACITYTILE
360
379E
  3
REFLECTIONTILE
360
379D
  3
REFRACTIONTILE
360
379F
  3
SPECULARTILE
360
379C
  0
DICTIONARY
  5
3893
330
37CC
100
AcDbDictionary
280
     1
281
     1
  3
ACAD_XREC_ROUNDTRIP
360
3894
  0
DICTIONARY
  5
3847
330
584
100
AcDbDictionary
280
     1
281
     1
  3
ACAD_ROUNDTRIP_2008_TABLESTYLE_CELLSTYLEMAP
360
3848
  3
ACAD_XREC_ROUNDTRIP
360
3855
  0
DICTIONARY
  5
386C
330
37A6
100
AcDbDictionary
280
     1
281
     1
  3
ACAD_XREC_ROUNDTRIP
360
386D
  0
DICTIONARY
  5
386A
330
37A5
100
AcDbDictionary
280
     1
281
     1
  3
ACAD_XREC_ROUNDTRIP
360
386B
  0
DICTIONARY
  5
3878
330
37AC
100
AcDbDictionary
280
     1
281
     1
  3
ACAD_XREC_ROUNDTRIP
360
3879
  0
DICTIONARY
  5
3880
330
37B0
100
AcDbDictionary
280
     1
281
     1
  3
ACAD_XREC_ROUNDTRIP
360
3881
  0
DICTIONARY
  5
3872
330
37A9
100
AcDbDictionary
280
     1
281
     1
  3
ACAD_XREC_ROUNDTRIP
360
3873
  0
DICTIONARY
  5
3876
330
37AB
100
AcDbDictionary
280
     1
281
     1
  3
ACAD_XREC_ROUNDTRIP
360
3877
  0
DICTIONARY
  5
3890
330
37B8
100
AcDbDictionary
280
     1
281
     1
  3
ACAD_XREC_ROUNDTRIP
360
3891
  0
DICTIONARY
  5
387E
330
37AF
100
AcDbDictionary
280
     1
281
     1
  3
ACAD_XREC_ROUNDTRIP
360
387F
  0
DICTIONARY
  5
3862
330
37A1
100
AcDbDictionary
280
     1
281
     1
  3
ACAD_XREC_ROUNDTRIP
360
3863
  0
DICTIONARY
  5
3864
330
37A2
100
AcDbDictionary
280
     1
281
     1
  3
ACAD_XREC_ROUNDTRIP
360
3865
  0
DICTIONARY
  5
3866
330
37A3
100
AcDbDictionary
280
     1
281
     1
  3
ACAD_XREC_ROUNDTRIP
360
3867
  0
DICTIONARY
  5
3868
330
37A4
100
AcDbDictionary
280
     1
281
     1
  3
ACAD_XREC_ROUNDTRIP
360
3869
  0
DICTIONARY
  5
3870
330
37A8
100
AcDbDictionary
280
     1
281
     1
  3
ACAD_XREC_ROUNDTRIP
360
3871
  0
DICTIONARY
  5
388C
330
37B6
100
AcDbDictionary
280
     1
281
     1
  3
ACAD_XREC_ROUNDTRIP
360
388D
  0
DICTIONARY
  5
387C
330
37AE
100
AcDbDictionary
280
     1
281
     1
  3
ACAD_XREC_ROUNDTRIP
360
387D
  0
DICTIONARY
  5
388E
330
37B7
100
AcDbDictionary
280
     1
281
     1
  3
ACAD_XREC_ROUNDTRIP
360
388F
  0
DICTIONARY
  5
3874
330
37AA
100
AcDbDictionary
280
     1
281
     1
  3
ACAD_XREC_ROUNDTRIP
360
3875
  0
DICTIONARY
  5
388A
330
37B5
100
AcDbDictionary
280
     1
281
     1
  3
ACAD_XREC_ROUNDTRIP
360
388B
  0
DICTIONARY
  5
3888
330
37B4
100
AcDbDictionary
280
     1
281
     1
  3
ACAD_XREC_ROUNDTRIP
360
3889
  0
DICTIONARY
  5
3882
330
37B1
100
AcDbDictionary
280
     1
281
     1
  3
ACAD_XREC_ROUNDTRIP
360
3883
  0
DICTIONARY
  5
3884
330
37B2
100
AcDbDictionary
280
     1
281
     1
  3
ACAD_XREC_ROUNDTRIP
360
3885
  0
DICTIONARY
  5
387A
330
37AD
100
AcDbDictionary
280
     1
281
     1
  3
ACAD_XREC_ROUNDTRIP
360
387B
  0
DICTIONARY
  5
386E
330
37A7
100
AcDbDictionary
280
     1
281
     1
  3
ACAD_XREC_ROUNDTRIP
360
386F
  0
DICTIONARY
  5
3886
330
37B3
100
AcDbDictionary
280
     1
281
     1
  3
ACAD_XREC_ROUNDTRIP
360
3887
  0
XRECORD
  5
384E
102
{ACAD_REACTORS
330
384D
102
}
330
384D
100
AcDbXrecord
280
     1
102
SHADEPLOT
 70
     0
102
SHADEPLOTRESLEVEL
 70
     2
102
SHADEPLOTCUSTOMDPI
 70
   300
  0
XRECORD
  5
384C
102
{ACAD_REACTORS
330
384B
102
}
330
384B
100
AcDbXrecord
280
     1
102
SHADEPLOT
 70
     1
102
SHADEPLOTRESLEVEL
 70
     2
102
SHADEPLOTCUSTOMDPI
 70
   300
  0
XRECORD
  5
3850
102
{ACAD_REACTORS
330
384F
102
}
330
384F
100
AcDbXrecord
280
     1
102
SHADEPLOT
 70
     1
102
SHADEPLOTRESLEVEL
 70
     2
102
SHADEPLOTCUSTOMDPI
 70
   300
  0
XRECORD
  5
3860
102
{ACAD_REACTORS
330
3791
102
}
330
3791
100
AcDbXrecord
280
     1
102
MATERIAL
148
0.0
149
0.0
149
0.0
 93
        0
 94
      127
282
     0
 72
     0
 77
     0
171
     0
175
     0
179
     0
273
     0
  0
XRECORD
  5
3793
102
{ACAD_REACTORS
330
3791
102
}
330
3791
100
AcDbXrecord
280
     1
270
     1
271
     1
  0
XRECORD
  5
3792
102
{ACAD_REACTORS
330
3791
102
}
330
3791
100
AcDbXrecord
280
     1
270
     1
271
     1
  0
XRECORD
  5
3796
102
{ACAD_REACTORS
330
3791
102
}
330
3791
100
AcDbXrecord
280
     1
270
     1
271
     1
  0
XRECORD
  5
3795
102
{ACAD_REACTORS
330
3791
102
}
330
3791
100
AcDbXrecord
280
     1
270
     1
271
     1
  0
XRECORD
  5
3797
102
{ACAD_REACTORS
330
3791
102
}
330
3791
100
AcDbXrecord
280
     1
270
     1
271
     1
  0
XRECORD
  5
3794
102
{ACAD_REACTORS
330
3791
102
}
330
3791
100
AcDbXrecord
280
     1
270
     1
271
     1
  0
XRECORD
  5
385F
102
{ACAD_REACTORS
330
3789
102
}
330
3789
100
AcDbXrecord
280
     1
102
MATERIAL
148
0.0
149
0.0
149
0.0
 93
        0
 94
      127
282
     0
 72
     0
 77
     0
171
     0
175
     0
179
     0
273
     0
  0
XRECORD
  5
378B
102
{ACAD_REACTORS
330
3789
102
}
330
3789
100
AcDbXrecord
280
     1
270
     1
271
     1
  0
XRECORD
  5
378A
102
{ACAD_REACTORS
330
3789
102
}
330
3789
100
AcDbXrecord
280
     1
270
     1
271
     1
  0
XRECORD
  5
378E
102
{ACAD_REACTORS
330
3789
102
}
330
3789
100
AcDbXrecord
280
     1
270
     1
271
     1
  0
XRECORD
  5
378D
102
{ACAD_REACTORS
330
3789
102
}
330
3789
100
AcDbXrecord
280
     1
270
     1
271
     1
  0
XRECORD
  5
378F
102
{ACAD_REACTORS
330
3789
102
}
330
3789
100
AcDbXrecord
280
     1
270
     1
271
     1
  0
XRECORD
  5
378C
102
{ACAD_REACTORS
330
3789
102
}
330
3789
100
AcDbXrecord
280
     1
270
     1
271
     1
  0
XRECORD
  5
3861
102
{ACAD_REACTORS
330
3799
102
}
330
3799
100
AcDbXrecord
280
     1
102
MATERIAL
148
0.0
149
0.0
149
0.0
 93
        0
 94
      127
282
     0
 72
     0
 77
     0
171
     0
175
     0
179
     0
273
     0
  0
XRECORD
  5
379B
102
{ACAD_REACTORS
330
3799
102
}
330
3799
100
AcDbXrecord
280
     1
270
     1
271
     1
  0
XRECORD
  5
379A
102
{ACAD_REACTORS
330
3799
102
}
330
3799
100
AcDbXrecord
280
     1
270
     1
271
     1
  0
XRECORD
  5
379E
102
{ACAD_REACTORS
330
3799
102
}
330
3799
100
AcDbXrecord
280
     1
270
     1
271
     1
  0
XRECORD
  5
379D
102
{ACAD_REACTORS
330
3799
102
}
330
3799
100
AcDbXrecord
280
     1
270
     1
271
     1
  0
XRECORD
  5
379F
102
{ACAD_REACTORS
330
3799
102
}
330
3799
100
AcDbXrecord
280
     1
270
     1
271
     1
  0
XRECORD
  5
379C
102
{ACAD_REACTORS
330
3799
102
}
330
3799
100
AcDbXrecord
280
     1
270
     1
271
     1
  0
XRECORD
  5
3894
102
{ACAD_REACTORS
330
3893
102
}
330
3893
100
AcDbXrecord
280
     1
102
ACAD_ROUNDTRIP_2012_MLEADER_STYLE
298
     1
  0
CELLSTYLEMAP
  5
3848
102
{ACAD_REACTORS
330
3847
102
}
330
3847
100
AcDbCellStyleMap
 90
        3
300
CELLSTYLE
  1
TABLEFORMAT_BEGIN
 90
        5
170
     1
 91
        0
 92
    32768
 62
   257
 93
        1
300
CONTENTFORMAT
  1
CONTENTFORMAT_BEGIN
 90
        0
 91
        0
 92
        4
 93
        0
300

 40
0.0
140
1.0
 94
        5
 62
     0
340
11
144
6.0
309
CONTENTFORMAT_END
171
     1
301
MARGIN
  1
CELLMARGIN_BEGIN
 40
1.5
 40
1.5
 40
1.5
 40
1.5
 40
0.18
 40
0.18
309
CELLMARGIN_END
 94
        6
 95
        1
302
GRIDFORMAT
  1
GRIDFORMAT_BEGIN
 90
        0
 91
        1
 62
     0
 92
       -2
340
0
 93
        0
 40
0.045
309
GRIDFORMAT_END
 95
        2
302
GRIDFORMAT
  1
GRIDFORMAT_BEGIN
 90
        0
 91
        1
 62
     0
 92
       -2
340
0
 93
        0
 40
0.045
309
GRIDFORMAT_END
 95
        4
302
GRIDFORMAT
  1
GRIDFORMAT_BEGIN
 90
        0
 91
        1
 62
     0
 92
       -2
340
0
 93
        0
 40
0.045
309
GRIDFORMAT_END
 95
        8
302
GRIDFORMAT
  1
GRIDFORMAT_BEGIN
 90
        0
 91
        1
 62
     0
 92
       -2
340
0
 93
        0
 40
0.045
309
GRIDFORMAT_END
 95
       16
302
GRIDFORMAT
  1
GRIDFORMAT_BEGIN
 90
        0
 91
        1
 62
     0
 92
       -2
340
0
 93
        0
 40
0.045
309
GRIDFORMAT_END
 95
       32
302
GRIDFORMAT
  1
GRIDFORMAT_BEGIN
 90
        0
 91
        1
 62
     0
 92
       -2
340
0
 93
        0
 40
0.045
309
GRIDFORMAT_END
309
TABLEFORMAT_END
  1
CELLSTYLE_BEGIN
 90
        1
 91
        1
300
_TITLE
309
CELLSTYLE_END
300
CELLSTYLE
  1
TABLEFORMAT_BEGIN
 90
        5
170
     1
 91
        0
 92
        0
 62
   257
 93
        1
300
CONTENTFORMAT
  1
CONTENTFORMAT_BEGIN
 90
        0
 91
        0
 92
        4
 93
        0
300

 40
0.0
140
1.0
 94
        5
 62
     0
340
11
144
4.5
309
CONTENTFORMAT_END
171
     1
301
MARGIN
  1
CELLMARGIN_BEGIN
 40
1.5
 40
1.5
 40
1.5
 40
1.5
 40
0.18
 40
0.18
309
CELLMARGIN_END
 94
        6
 95
        1
302
GRIDFORMAT
  1
GRIDFORMAT_BEGIN
 90
        0
 91
        1
 62
     0
 92
       -2
340
0
 93
        0
 40
0.045
309
GRIDFORMAT_END
 95
        2
302
GRIDFORMAT
  1
GRIDFORMAT_BEGIN
 90
        0
 91
        1
 62
     0
 92
       -2
340
0
 93
        0
 40
0.045
309
GRIDFORMAT_END
 95
        4
302
GRIDFORMAT
  1
GRIDFORMAT_BEGIN
 90
        0
 91
        1
 62
     0
 92
       -2
340
0
 93
        0
 40
0.045
309
GRIDFORMAT_END
 95
        8
302
GRIDFORMAT
  1
GRIDFORMAT_BEGIN
 90
        0
 91
        1
 62
     0
 92
       -2
340
0
 93
        0
 40
0.045
309
GRIDFORMAT_END
 95
       16
302
GRIDFORMAT
  1
GRIDFORMAT_BEGIN
 90
        0
 91
        1
 62
     0
 92
       -2
340
0
 93
        0
 40
0.045
309
GRIDFORMAT_END
 95
       32
302
GRIDFORMAT
  1
GRIDFORMAT_BEGIN
 90
        0
 91
        1
 62
     0
 92
       -2
340
0
 93
        0
 40
0.045
309
GRIDFORMAT_END
309
TABLEFORMAT_END
  1
CELLSTYLE_BEGIN
 90
        2
 91
        1
300
_HEADER
309
CELLSTYLE_END
300
CELLSTYLE
  1
TABLEFORMAT_BEGIN
 90
        5
170
     1
 91
        0
 92
        0
 62
   257
 93
        1
300
CONTENTFORMAT
  1
CONTENTFORMAT_BEGIN
 90
        0
 91
        0
 92
        4
 93
        0
300

 40
0.0
140
1.0
 94
        2
 62
     0
340
11
144
4.5
309
CONTENTFORMAT_END
171
     1
301
MARGIN
  1
CELLMARGIN_BEGIN
 40
1.5
 40
1.5
 40
1.5
 40
1.5
 40
0.18
 40
0.18
309
CELLMARGIN_END
 94
        6
 95
        1
302
GRIDFORMAT
  1
GRIDFORMAT_BEGIN
 90
        0
 91
        1
 62
     0
 92
       -2
340
0
 93
        0
 40
0.045
309
GRIDFORMAT_END
 95
        2
302
GRIDFORMAT
  1
GRIDFORMAT_BEGIN
 90
        0
 91
        1
 62
     0
 92
       -2
340
0
 93
        0
 40
0.045
309
GRIDFORMAT_END
 95
        4
302
GRIDFORMAT
  1
GRIDFORMAT_BEGIN
 90
        0
 91
        1
 62
     0
 92
       -2
340
0
 93
        0
 40
0.045
309
GRIDFORMAT_END
 95
        8
302
GRIDFORMAT
  1
GRIDFORMAT_BEGIN
 90
        0
 91
        1
 62
     0
 92
       -2
340
0
 93
        0
 40
0.045
309
GRIDFORMAT_END
 95
       16
302
GRIDFORMAT
  1
GRIDFORMAT_BEGIN
 90
        0
 91
        1
 62
     0
 92
       -2
340
0
 93
        0
 40
0.045
309
GRIDFORMAT_END
 95
       32
302
GRIDFORMAT
  1
GRIDFORMAT_BEGIN
 90
        0
 91
        1
 62
     0
 92
       -2
340
0
 93
        0
 40
0.045
309
GRIDFORMAT_END
309
TABLEFORMAT_END
  1
CELLSTYLE_BEGIN
 90
        3
 91
        2
300
_DATA
309
CELLSTYLE_END
  0
XRECORD
  5
3855
102
{ACAD_REACTORS
330
3847
102
}
330
3847
100
AcDbXrecord
280
     1
102
ACAD_ROUNDTRIP_PRE2007_TABLESTYLE
 90
        4
 91
        0
  1

 92
        4
 93
        0
  2

 94
        4
 95
        0
  3

  0
XRECORD
  5
386D
102
{ACAD_REACTORS
330
386C
102
}
330
386C
100
AcDbXrecord
280
     1
102
RTVSPost2010Prop28
280
     1
102
RTVSPost2010PropOp28
 70
     1
102
RTVSPost2010Prop29
280
     1
102
RTVSPost2010PropOp29
 70
     1
102
RTVSPost2010Prop30
280
     0
102
RTVSPost2010PropOp30
 70
     1
102
RTVSPost2010Prop31
280
     0
102
RTVSPost2010PropOp31
 70
     1
102
RTVSPost2010Prop32
280
     0
102
RTVSPost2010PropOp32
 70
     1
102
RTVSPost2010Prop33
280
     0
102
RTVSPost2010PropOp33
 70
     1
102
RTVSPost2010Prop34
280
     0
102
RTVSPost2010PropOp34
 70
     1
102
RTVSPost2010Prop35
280
     0
102
RTVSPost2010PropOp35
 70
     1
102
RTVSPost2010Prop36
280
     0
102
RTVSPost2010PropOp36
 70
     1
102
RTVSPost2010Prop37
 90
       50
102
RTVSPost2010PropOp37
 70
     1
102
RTVSPost2010Prop38
140
0.0
102
RTVSPost2010PropOp38
 70
     1
102
RTVSPost2010Prop39
140
1.0
102
RTVSPost2010PropOp39
 70
     1
102
RTVSPost2010Prop40
 90
        0
102
RTVSPost2010PropOp40
 70
     1
102
RTVSPost2010Prop41ColorIndex
 90
       18
102
RTVSPost2010Prop41ColorRGB
 90
        0
102
RTVSPost2010PropOp41
 70
     1
102
RTVSPost2010Prop42
 90
       50
102
RTVSPost2010PropOp42
 70
     1
102
RTVSPost2010Prop43
 90
        3
102
RTVSPost2010PropOp43
 70
     1
102
RTVSPost2010Prop44ColorIndex
 90
        5
102
RTVSPost2010Prop44ColorRGB
 90
      255
102
RTVSPost2010PropOp44
 70
     1
102
RTVSPost2010Prop45
280
     0
102
RTVSPost2010PropOp45
 70
     1
102
RTVSPost2010Prop46
 90
       50
102
RTVSPost2010PropOp46
 70
     1
102
RTVSPost2010Prop47
 90
       50
102
RTVSPost2010PropOp47
 70
     1
102
RTVSPost2010Prop48
 90
       50
102
RTVSPost2010PropOp48
 70
     1
102
RTVSPost2010Prop49
280
     0
102
RTVSPost2010PropOp49
 70
     1
102
RTVSPost2010Prop50
 90
       50
102
RTVSPost2010PropOp50
 70
     1
102
RTVSPost2010Prop51ColorIndex
 90
      256
102
RTVSPost2010Prop51ColorRGB
 90
-16777216
102
RTVSPost2010PropOp51
 70
     0
102
RTVSPost2010Prop52
140
1.0
102
RTVSPost2010PropOp52
 70
     0
102
RTVSPost2010Prop53
 90
        2
102
RTVSPost2010PropOp53
 70
     1
102
RTVSPost2010Prop54
  1
strokes_ogs.tif
102
RTVSPost2010PropOp54
 70
     1
102
RTVSPost2010Prop55
280
     0
102
RTVSPost2010PropOp55
 70
     1
102
RTVSPost2010Prop56
140
1.0
102
RTVSPost2010PropOp56
 70
     1
102
RTVSPost2010Prop57
140
1.0
102
RTVSPost2010PropOp57
 70
     1
102
RTVSPropertyOp0
 70
     1
102
RTVSPropertyOp1
 70
     1
102
RTVSPropertyOp2
 70
     1
102
RTVSPropertyOp3
 70
     1
102
RTVSPropertyOp4
 70
     1
102
RTVSPropertyOp5
 70
     1
102
RTVSPropertyOp6
 70
     1
102
RTVSPropertyOp7
 70
     1
102
RTVSPropertyOp8
 70
     1
102
RTVSPropertyOp9
 70
     1
102
RTVSPropertyOp10
 70
     1
102
RTVSPropertyOp11
 70
     1
102
RTVSPropertyOp12
 70
     1
102
RTVSPropertyOp13
 70
     1
102
RTVSPropertyOp14
 70
     1
102
RTVSPropertyOp15
 70
     1
102
RTVSPropertyOp16
 70
     1
102
RTVSPropertyOp17
 70
     1
102
RTVSPropertyOp18
 70
     1
102
RTVSPropertyOp19
 70
     1
102
RTVSPropertyOp20
 70
     1
102
RTVSPropertyOp21
 70
     1
102
RTVSPropertyOp22
 70
     1
102
RTVSPropertyOp23
 70
     1
102
RTVSPropertyOp24
 70
     1
102
RTVSPropertyOp25
 70
     1
102
RTVSPropertyOp26
 70
     1
102
RTVSPropertyOp27
 70
     1
102
RTVSPropertyOp28
 70
     1
102
RTVSPropertyOp29
 70
     1
102
RTVSPropertyOp30
 70
     1
102
RTVSPropertyOp31
 70
     1
102
RTVSPropertyOp32
 70
     1
102
RTVSPropertyOp33
 70
     1
102
RTVSPropertyOp34
 70
     1
102
RTVSPropertyOp35
 70
     1
102
RTVSPropertyOp36
 70
     1
102
RTVSPropertyOp37
 70
     1
102
RTVSPropertyOp38
 70
     1
102
RTVSPropertyOp39
 70
     1
102
RTVSPropertyOp40
 70
     1
102
RTVSPropertyOp41
 70
     1
102
RTVSPropertyOp42
 70
     1
102
RTVSPropertyOp43
 70
     1
102
RTVSPropertyOp44
 70
     1
102
RTVSPropertyOp45
 70
     1
102
RTVSPropertyOp46
 70
     1
102
RTVSPropertyOp47
 70
     1
102
RTVSPropertyOp48
 70
     1
102
RTVSPropertyOp49
 70
     1
102
RTVSPropertyOp50
 70
     1
102
RTVSPropertyOp51
 70
     0
102
RTVSPropertyOp52
 70
     0
102
RTVSPropertyOp53
 70
     1
102
RTVSPropertyOp54
 70
     1
102
RTVSPropertyOp55
 70
     1
102
RTVSPropertyOp56
 70
     1
102
RTVSPropertyOp57
 70
     1
102
RTVSPropertyOp58
 70
     1
102
RTVSPropertyOp59
 70
     1
102
RTVSPropertyOp60
 70
     1
102
RTVSPropertyOp61
 70
     1
102
RTVSPropertyOp62
 70
     1
  0
XRECORD
  5
386B
102
{ACAD_REACTORS
330
386A
102
}
330
386A
100
AcDbXrecord
280
     1
102
RTVSPost2010Prop28
280
     0
102
RTVSPost2010PropOp28
 70
     1
102
RTVSPost2010Prop29
280
     1
102
RTVSPost2010PropOp29
 70
     1
102
RTVSPost2010Prop30
280
     1
102
RTVSPost2010PropOp30
 70
     1
102
RTVSPost2010Prop31
280
     0
102
RTVSPost2010PropOp31
 70
     1
102
RTVSPost2010Prop32
280
     0
102
RTVSPost2010PropOp32
 70
     1
102
RTVSPost2010Prop33
280
     0
102
RTVSPost2010PropOp33
 70
     1
102
RTVSPost2010Prop34
280
     0
102
RTVSPost2010PropOp34
 70
     1
102
RTVSPost2010Prop35
280
     0
102
RTVSPost2010PropOp35
 70
     1
102
RTVSPost2010Prop36
280
     0
102
RTVSPost2010PropOp36
 70
     1
102
RTVSPost2010Prop37
 90
       50
102
RTVSPost2010PropOp37
 70
     1
102
RTVSPost2010Prop38
140
0.0
102
RTVSPost2010PropOp38
 70
     1
102
RTVSPost2010Prop39
140
1.0
102
RTVSPost2010PropOp39
 70
     1
102
RTVSPost2010Prop40
 90
        0
102
RTVSPost2010PropOp40
 70
     1
102
RTVSPost2010Prop41ColorIndex
 90
       18
102
RTVSPost2010Prop41ColorRGB
 90
        0
102
RTVSPost2010PropOp41
 70
     1
102
RTVSPost2010Prop42
 90
       50
102
RTVSPost2010PropOp42
 70
     1
102
RTVSPost2010Prop43
 90
        3
102
RTVSPost2010PropOp43
 70
     1
102
RTVSPost2010Prop44ColorIndex
 90
        5
102
RTVSPost2010Prop44ColorRGB
 90
      255
102
RTVSPost2010PropOp44
 70
     1
102
RTVSPost2010Prop45
280
     0
102
RTVSPost2010PropOp45
 70
     1
102
RTVSPost2010Prop46
 90
       50
102
RTVSPost2010PropOp46
 70
     1
102
RTVSPost2010Prop47
 90
       50
102
RTVSPost2010PropOp47
 70
     1
102
RTVSPost2010Prop48
 90
       50
102
RTVSPost2010PropOp48
 70
     1
102
RTVSPost2010Prop49
280
     0
102
RTVSPost2010PropOp49
 70
     1
102
RTVSPost2010Prop50
 90
       50
102
RTVSPost2010PropOp50
 70
     1
102
RTVSPost2010Prop51ColorIndex
 90
      256
102
RTVSPost2010Prop51ColorRGB
 90
-16777216
102
RTVSPost2010PropOp51
 70
     0
102
RTVSPost2010Prop52
140
1.0
102
RTVSPost2010PropOp52
 70
     0
102
RTVSPost2010Prop53
 90
        2
102
RTVSPost2010PropOp53
 70
     1
102
RTVSPost2010Prop54
  1
strokes_ogs.tif
102
RTVSPost2010PropOp54
 70
     1
102
RTVSPost2010Prop55
280
     0
102
RTVSPost2010PropOp55
 70
     1
102
RTVSPost2010Prop56
140
1.0
102
RTVSPost2010PropOp56
 70
     1
102
RTVSPost2010Prop57
140
1.0
102
RTVSPost2010PropOp57
 70
     1
102
RTVSPropertyOp0
 70
     1
102
RTVSPropertyOp1
 70
     1
102
RTVSPropertyOp2
 70
     1
102
RTVSPropertyOp3
 70
     1
102
RTVSPropertyOp4
 70
     1
102
RTVSPropertyOp5
 70
     1
102
RTVSPropertyOp6
 70
     1
102
RTVSPropertyOp7
 70
     1
102
RTVSPropertyOp8
 70
     1
102
RTVSPropertyOp9
 70
     1
102
RTVSPropertyOp10
 70
     1
102
RTVSPropertyOp11
 70
     1
102
RTVSPropertyOp12
 70
     1
102
RTVSPropertyOp13
 70
     1
102
RTVSPropertyOp14
 70
     1
102
RTVSPropertyOp15
 70
     1
102
RTVSPropertyOp16
 70
     1
102
RTVSPropertyOp17
 70
     1
102
RTVSPropertyOp18
 70
     1
102
RTVSPropertyOp19
 70
     1
102
RTVSPropertyOp20
 70
     1
102
RTVSPropertyOp21
 70
     1
102
RTVSPropertyOp22
 70
     1
102
RTVSPropertyOp23
 70
     1
102
RTVSPropertyOp24
 70
     1
102
RTVSPropertyOp25
 70
     1
102
RTVSPropertyOp26
 70
     1
102
RTVSPropertyOp27
 70
     1
102
RTVSPropertyOp28
 70
     1
102
RTVSPropertyOp29
 70
     1
102
RTVSPropertyOp30
 70
     1
102
RTVSPropertyOp31
 70
     1
102
RTVSPropertyOp32
 70
     1
102
RTVSPropertyOp33
 70
     1
102
RTVSPropertyOp34
 70
     1
102
RTVSPropertyOp35
 70
     1
102
RTVSPropertyOp36
 70
     1
102
RTVSPropertyOp37
 70
     1
102
RTVSPropertyOp38
 70
     1
102
RTVSPropertyOp39
 70
     1
102
RTVSPropertyOp40
 70
     1
102
RTVSPropertyOp41
 70
     1
102
RTVSPropertyOp42
 70
     1
102
RTVSPropertyOp43
 70
     1
102
RTVSPropertyOp44
 70
     1
102
RTVSPropertyOp45
 70
     1
102
RTVSPropertyOp46
 70
     1
102
RTVSPropertyOp47
 70
     1
102
RTVSPropertyOp48
 70
     1
102
RTVSPropertyOp49
 70
     1
102
RTVSPropertyOp50
 70
     1
102
RTVSPropertyOp51
 70
     0
102
RTVSPropertyOp52
 70
     0
102
RTVSPropertyOp53
 70
     1
102
RTVSPropertyOp54
 70
     1
102
RTVSPropertyOp55
 70
     1
102
RTVSPropertyOp56
 70
     1
102
RTVSPropertyOp57
 70
     1
102
RTVSPropertyOp58
 70
     1
102
RTVSPropertyOp59
 70
     1
102
RTVSPropertyOp60
 70
     1
102
RTVSPropertyOp61
 70
     1
102
RTVSPropertyOp62
 70
     1
  0
XRECORD
  5
3879
102
{ACAD_REACTORS
330
3878
102
}
330
3878
100
AcDbXrecord
280
     1
102
RTVSPost2010Prop28
280
     0
102
RTVSPost2010PropOp28
 70
     1
102
RTVSPost2010Prop29
280
     1
102
RTVSPost2010PropOp29
 70
     1
102
RTVSPost2010Prop30
280
     1
102
RTVSPost2010PropOp30
 70
     1
102
RTVSPost2010Prop31
280
     0
102
RTVSPost2010PropOp31
 70
     1
102
RTVSPost2010Prop32
280
     0
102
RTVSPost2010PropOp32
 70
     1
102
RTVSPost2010Prop33
280
     0
102
RTVSPost2010PropOp33
 70
     1
102
RTVSPost2010Prop34
280
     0
102
RTVSPost2010PropOp34
 70
     1
102
RTVSPost2010Prop35
280
     0
102
RTVSPost2010PropOp35
 70
     1
102
RTVSPost2010Prop36
280
     0
102
RTVSPost2010PropOp36
 70
     1
102
RTVSPost2010Prop37
 90
       50
102
RTVSPost2010PropOp37
 70
     1
102
RTVSPost2010Prop38
140
0.0
102
RTVSPost2010PropOp38
 70
     1
102
RTVSPost2010Prop39
140
1.0
102
RTVSPost2010PropOp39
 70
     1
102
RTVSPost2010Prop40
 90
        0
102
RTVSPost2010PropOp40
 70
     1
102
RTVSPost2010Prop41ColorIndex
 90
       18
102
RTVSPost2010Prop41ColorRGB
 90
        0
102
RTVSPost2010PropOp41
 70
     1
102
RTVSPost2010Prop42
 90
       50
102
RTVSPost2010PropOp42
 70
     1
102
RTVSPost2010Prop43
 90
        3
102
RTVSPost2010PropOp43
 70
     1
102
RTVSPost2010Prop44ColorIndex
 90
        5
102
RTVSPost2010Prop44ColorRGB
 90
      255
102
RTVSPost2010PropOp44
 70
     1
102
RTVSPost2010Prop45
280
     0
102
RTVSPost2010PropOp45
 70
     1
102
RTVSPost2010Prop46
 90
       50
102
RTVSPost2010PropOp46
 70
     1
102
RTVSPost2010Prop47
 90
       50
102
RTVSPost2010PropOp47
 70
     1
102
RTVSPost2010Prop48
 90
       50
102
RTVSPost2010PropOp48
 70
     1
102
RTVSPost2010Prop49
280
     0
102
RTVSPost2010PropOp49
 70
     1
102
RTVSPost2010Prop50
 90
       50
102
RTVSPost2010PropOp50
 70
     1
102
RTVSPost2010Prop51ColorIndex
 90
      256
102
RTVSPost2010Prop51ColorRGB
 90
-16777216
102
RTVSPost2010PropOp51
 70
     0
102
RTVSPost2010Prop52
140
1.0
102
RTVSPost2010PropOp52
 70
     0
102
RTVSPost2010Prop53
 90
        2
102
RTVSPost2010PropOp53
 70
     1
102
RTVSPost2010Prop54
  1
strokes_ogs.tif
102
RTVSPost2010PropOp54
 70
     1
102
RTVSPost2010Prop55
280
     0
102
RTVSPost2010PropOp55
 70
     1
102
RTVSPost2010Prop56
140
1.0
102
RTVSPost2010PropOp56
 70
     1
102
RTVSPost2010Prop57
140
1.0
102
RTVSPost2010PropOp57
 70
     1
102
RTVSPropertyOp0
 70
     1
102
RTVSPropertyOp1
 70
     1
102
RTVSPropertyOp2
 70
     1
102
RTVSPropertyOp3
 70
     1
102
RTVSPropertyOp4
 70
     1
102
RTVSPropertyOp5
 70
     1
102
RTVSPropertyOp6
 70
     1
102
RTVSPropertyOp7
 70
     1
102
RTVSPropertyOp8
 70
     1
102
RTVSPropertyOp9
 70
     1
102
RTVSPropertyOp10
 70
     1
102
RTVSPropertyOp11
 70
     1
102
RTVSPropertyOp12
 70
     1
102
RTVSPropertyOp13
 70
     1
102
RTVSPropertyOp14
 70
     1
102
RTVSPropertyOp15
 70
     1
102
RTVSPropertyOp16
 70
     1
102
RTVSPropertyOp17
 70
     1
102
RTVSPropertyOp18
 70
     1
102
RTVSPropertyOp19
 70
     1
102
RTVSPropertyOp20
 70
     1
102
RTVSPropertyOp21
 70
     1
102
RTVSPropertyOp22
 70
     1
102
RTVSPropertyOp23
 70
     1
102
RTVSPropertyOp24
 70
     1
102
RTVSPropertyOp25
 70
     1
102
RTVSPropertyOp26
 70
     1
102
RTVSPropertyOp27
 70
     1
102
RTVSPropertyOp28
 70
     1
102
RTVSPropertyOp29
 70
     1
102
RTVSPropertyOp30
 70
     1
102
RTVSPropertyOp31
 70
     1
102
RTVSPropertyOp32
 70
     1
102
RTVSPropertyOp33
 70
     1
102
RTVSPropertyOp34
 70
     1
102
RTVSPropertyOp35
 70
     1
102
RTVSPropertyOp36
 70
     1
102
RTVSPropertyOp37
 70
     1
102
RTVSPropertyOp38
 70
     1
102
RTVSPropertyOp39
 70
     1
102
RTVSPropertyOp40
 70
     1
102
RTVSPropertyOp41
 70
     1
102
RTVSPropertyOp42
 70
     1
102
RTVSPropertyOp43
 70
     1
102
RTVSPropertyOp44
 70
     1
102
RTVSPropertyOp45
 70
     1
102
RTVSPropertyOp46
 70
     1
102
RTVSPropertyOp47
 70
     1
102
RTVSPropertyOp48
 70
     1
102
RTVSPropertyOp49
 70
     1
102
RTVSPropertyOp50
 70
     1
102
RTVSPropertyOp51
 70
     0
102
RTVSPropertyOp52
 70
     0
102
RTVSPropertyOp53
 70
     1
102
RTVSPropertyOp54
 70
     1
102
RTVSPropertyOp55
 70
     1
102
RTVSPropertyOp56
 70
     1
102
RTVSPropertyOp57
 70
     1
102
RTVSPropertyOp58
 70
     1
102
RTVSPropertyOp59
 70
     1
102
RTVSPropertyOp60
 70
     1
102
RTVSPropertyOp61
 70
     1
102
RTVSPropertyOp62
 70
     1
  0
XRECORD
  5
3881
102
{ACAD_REACTORS
330
3880
102
}
330
3880
100
AcDbXrecord
280
     1
102
RTVSPost2010Prop28
280
     0
102
RTVSPost2010PropOp28
 70
     1
102
RTVSPost2010Prop29
280
     1
102
RTVSPost2010PropOp29
 70
     1
102
RTVSPost2010Prop30
280
     1
102
RTVSPost2010PropOp30
 70
     1
102
RTVSPost2010Prop31
280
     0
102
RTVSPost2010PropOp31
 70
     1
102
RTVSPost2010Prop32
280
     0
102
RTVSPost2010PropOp32
 70
     1
102
RTVSPost2010Prop33
280
     0
102
RTVSPost2010PropOp33
 70
     1
102
RTVSPost2010Prop34
280
     0
102
RTVSPost2010PropOp34
 70
     1
102
RTVSPost2010Prop35
280
     0
102
RTVSPost2010PropOp35
 70
     1
102
RTVSPost2010Prop36
280
     0
102
RTVSPost2010PropOp36
 70
     1
102
RTVSPost2010Prop37
 90
       50
102
RTVSPost2010PropOp37
 70
     1
102
RTVSPost2010Prop38
140
0.0
102
RTVSPost2010PropOp38
 70
     1
102
RTVSPost2010Prop39
140
1.0
102
RTVSPost2010PropOp39
 70
     1
102
RTVSPost2010Prop40
 90
        0
102
RTVSPost2010PropOp40
 70
     1
102
RTVSPost2010Prop41ColorIndex
 90
       18
102
RTVSPost2010Prop41ColorRGB
 90
        0
102
RTVSPost2010PropOp41
 70
     1
102
RTVSPost2010Prop42
 90
       50
102
RTVSPost2010PropOp42
 70
     1
102
RTVSPost2010Prop43
 90
        3
102
RTVSPost2010PropOp43
 70
     1
102
RTVSPost2010Prop44ColorIndex
 90
        5
102
RTVSPost2010Prop44ColorRGB
 90
      255
102
RTVSPost2010PropOp44
 70
     1
102
RTVSPost2010Prop45
280
     0
102
RTVSPost2010PropOp45
 70
     1
102
RTVSPost2010Prop46
 90
       50
102
RTVSPost2010PropOp46
 70
     1
102
RTVSPost2010Prop47
 90
       50
102
RTVSPost2010PropOp47
 70
     1
102
RTVSPost2010Prop48
 90
       50
102
RTVSPost2010PropOp48
 70
     1
102
RTVSPost2010Prop49
280
     0
102
RTVSPost2010PropOp49
 70
     1
102
RTVSPost2010Prop50
 90
       50
102
RTVSPost2010PropOp50
 70
     1
102
RTVSPost2010Prop51ColorIndex
 90
      256
102
RTVSPost2010Prop51ColorRGB
 90
-16777216
102
RTVSPost2010PropOp51
 70
     0
102
RTVSPost2010Prop52
140
1.0
102
RTVSPost2010PropOp52
 70
     0
102
RTVSPost2010Prop53
 90
        2
102
RTVSPost2010PropOp53
 70
     1
102
RTVSPost2010Prop54
  1
strokes_ogs.tif
102
RTVSPost2010PropOp54
 70
     1
102
RTVSPost2010Prop55
280
     0
102
RTVSPost2010PropOp55
 70
     1
102
RTVSPost2010Prop56
140
1.0
102
RTVSPost2010PropOp56
 70
     1
102
RTVSPost2010Prop57
140
1.0
102
RTVSPost2010PropOp57
 70
     1
102
RTVSPropertyOp0
 70
     1
102
RTVSPropertyOp1
 70
     1
102
RTVSPropertyOp2
 70
     1
102
RTVSPropertyOp3
 70
     1
102
RTVSPropertyOp4
 70
     1
102
RTVSPropertyOp5
 70
     1
102
RTVSPropertyOp6
 70
     1
102
RTVSPropertyOp7
 70
     1
102
RTVSPropertyOp8
 70
     1
102
RTVSPropertyOp9
 70
     1
102
RTVSPropertyOp10
 70
     1
102
RTVSPropertyOp11
 70
     1
102
RTVSPropertyOp12
 70
     1
102
RTVSPropertyOp13
 70
     1
102
RTVSPropertyOp14
 70
     1
102
RTVSPropertyOp15
 70
     1
102
RTVSPropertyOp16
 70
     1
102
RTVSPropertyOp17
 70
     1
102
RTVSPropertyOp18
 70
     1
102
RTVSPropertyOp19
 70
     1
102
RTVSPropertyOp20
 70
     1
102
RTVSPropertyOp21
 70
     1
102
RTVSPropertyOp22
 70
     1
102
RTVSPropertyOp23
 70
     1
102
RTVSPropertyOp24
 70
     1
102
RTVSPropertyOp25
 70
     1
102
RTVSPropertyOp26
 70
     1
102
RTVSPropertyOp27
 70
     1
102
RTVSPropertyOp28
 70
     1
102
RTVSPropertyOp29
 70
     1
102
RTVSPropertyOp30
 70
     1
102
RTVSPropertyOp31
 70
     1
102
RTVSPropertyOp32
 70
     1
102
RTVSPropertyOp33
 70
     1
102
RTVSPropertyOp34
 70
     1
102
RTVSPropertyOp35
 70
     1
102
RTVSPropertyOp36
 70
     1
102
RTVSPropertyOp37
 70
     1
102
RTVSPropertyOp38
 70
     1
102
RTVSPropertyOp39
 70
     1
102
RTVSPropertyOp40
 70
     1
102
RTVSPropertyOp41
 70
     1
102
RTVSPropertyOp42
 70
     1
102
RTVSPropertyOp43
 70
     1
102
RTVSPropertyOp44
 70
     1
102
RTVSPropertyOp45
 70
     1
102
RTVSPropertyOp46
 70
     1
102
RTVSPropertyOp47
 70
     1
102
RTVSPropertyOp48
 70
     1
102
RTVSPropertyOp49
 70
     1
102
RTVSPropertyOp50
 70
     1
102
RTVSPropertyOp51
 70
     0
102
RTVSPropertyOp52
 70
     0
102
RTVSPropertyOp53
 70
     1
102
RTVSPropertyOp54
 70
     1
102
RTVSPropertyOp55
 70
     1
102
RTVSPropertyOp56
 70
     1
102
RTVSPropertyOp57
 70
     1
102
RTVSPropertyOp58
 70
     1
102
RTVSPropertyOp59
 70
     1
102
RTVSPropertyOp60
 70
     1
102
RTVSPropertyOp61
 70
     1
102
RTVSPropertyOp62
 70
     1
  0
XRECORD
  5
3873
102
{ACAD_REACTORS
330
3872
102
}
330
3872
100
AcDbXrecord
280
     1
102
RTVSPost2010Prop28
280
     0
102
RTVSPost2010PropOp28
 70
     1
102
RTVSPost2010Prop29
280
     1
102
RTVSPost2010PropOp29
 70
     1
102
RTVSPost2010Prop30
280
     1
102
RTVSPost2010PropOp30
 70
     1
102
RTVSPost2010Prop31
280
     0
102
RTVSPost2010PropOp31
 70
     1
102
RTVSPost2010Prop32
280
     0
102
RTVSPost2010PropOp32
 70
     1
102
RTVSPost2010Prop33
280
     0
102
RTVSPost2010PropOp33
 70
     1
102
RTVSPost2010Prop34
280
     0
102
RTVSPost2010PropOp34
 70
     1
102
RTVSPost2010Prop35
280
     0
102
RTVSPost2010PropOp35
 70
     1
102
RTVSPost2010Prop36
280
     0
102
RTVSPost2010PropOp36
 70
     1
102
RTVSPost2010Prop37
 90
       50
102
RTVSPost2010PropOp37
 70
     1
102
RTVSPost2010Prop38
140
0.0
102
RTVSPost2010PropOp38
 70
     1
102
RTVSPost2010Prop39
140
1.0
102
RTVSPost2010PropOp39
 70
     1
102
RTVSPost2010Prop40
 90
        0
102
RTVSPost2010PropOp40
 70
     1
102
RTVSPost2010Prop41ColorIndex
 90
       18
102
RTVSPost2010Prop41ColorRGB
 90
        0
102
RTVSPost2010PropOp41
 70
     1
102
RTVSPost2010Prop42
 90
       50
102
RTVSPost2010PropOp42
 70
     1
102
RTVSPost2010Prop43
 90
        3
102
RTVSPost2010PropOp43
 70
     1
102
RTVSPost2010Prop44ColorIndex
 90
        5
102
RTVSPost2010Prop44ColorRGB
 90
      255
102
RTVSPost2010PropOp44
 70
     1
102
RTVSPost2010Prop45
280
     0
102
RTVSPost2010PropOp45
 70
     1
102
RTVSPost2010Prop46
 90
       50
102
RTVSPost2010PropOp46
 70
     1
102
RTVSPost2010Prop47
 90
       50
102
RTVSPost2010PropOp47
 70
     1
102
RTVSPost2010Prop48
 90
       50
102
RTVSPost2010PropOp48
 70
     1
102
RTVSPost2010Prop49
280
     0
102
RTVSPost2010PropOp49
 70
     1
102
RTVSPost2010Prop50
 90
       50
102
RTVSPost2010PropOp50
 70
     1
102
RTVSPost2010Prop51ColorIndex
 90
      256
102
RTVSPost2010Prop51ColorRGB
 90
-16777216
102
RTVSPost2010PropOp51
 70
     0
102
RTVSPost2010Prop52
140
1.0
102
RTVSPost2010PropOp52
 70
     0
102
RTVSPost2010Prop53
 90
        2
102
RTVSPost2010PropOp53
 70
     1
102
RTVSPost2010Prop54
  1
strokes_ogs.tif
102
RTVSPost2010PropOp54
 70
     1
102
RTVSPost2010Prop55
280
     0
102
RTVSPost2010PropOp55
 70
     1
102
RTVSPost2010Prop56
140
1.0
102
RTVSPost2010PropOp56
 70
     1
102
RTVSPost2010Prop57
140
1.0
102
RTVSPost2010PropOp57
 70
     1
102
RTVSPropertyOp0
 70
     1
102
RTVSPropertyOp1
 70
     1
102
RTVSPropertyOp2
 70
     1
102
RTVSPropertyOp3
 70
     1
102
RTVSPropertyOp4
 70
     1
102
RTVSPropertyOp5
 70
     1
102
RTVSPropertyOp6
 70
     1
102
RTVSPropertyOp7
 70
     1
102
RTVSPropertyOp8
 70
     1
102
RTVSPropertyOp9
 70
     1
102
RTVSPropertyOp10
 70
     1
102
RTVSPropertyOp11
 70
     1
102
RTVSPropertyOp12
 70
     1
102
RTVSPropertyOp13
 70
     1
102
RTVSPropertyOp14
 70
     1
102
RTVSPropertyOp15
 70
     1
102
RTVSPropertyOp16
 70
     1
102
RTVSPropertyOp17
 70
     1
102
RTVSPropertyOp18
 70
     1
102
RTVSPropertyOp19
 70
     1
102
RTVSPropertyOp20
 70
     1
102
RTVSPropertyOp21
 70
     1
102
RTVSPropertyOp22
 70
     1
102
RTVSPropertyOp23
 70
     1
102
RTVSPropertyOp24
 70
     1
102
RTVSPropertyOp25
 70
     1
102
RTVSPropertyOp26
 70
     1
102
RTVSPropertyOp27
 70
     1
102
RTVSPropertyOp28
 70
     1
102
RTVSPropertyOp29
 70
     1
102
RTVSPropertyOp30
 70
     1
102
RTVSPropertyOp31
 70
     1
102
RTVSPropertyOp32
 70
     1
102
RTVSPropertyOp33
 70
     1
102
RTVSPropertyOp34
 70
     1
102
RTVSPropertyOp35
 70
     1
102
RTVSPropertyOp36
 70
     1
102
RTVSPropertyOp37
 70
     1
102
RTVSPropertyOp38
 70
     1
102
RTVSPropertyOp39
 70
     1
102
RTVSPropertyOp40
 70
     1
102
RTVSPropertyOp41
 70
     1
102
RTVSPropertyOp42
 70
     1
102
RTVSPropertyOp43
 70
     1
102
RTVSPropertyOp44
 70
     1
102
RTVSPropertyOp45
 70
     1
102
RTVSPropertyOp46
 70
     1
102
RTVSPropertyOp47
 70
     1
102
RTVSPropertyOp48
 70
     1
102
RTVSPropertyOp49
 70
     1
102
RTVSPropertyOp50
 70
     1
102
RTVSPropertyOp51
 70
     0
102
RTVSPropertyOp52
 70
     0
102
RTVSPropertyOp53
 70
     1
102
RTVSPropertyOp54
 70
     1
102
RTVSPropertyOp55
 70
     1
102
RTVSPropertyOp56
 70
     1
102
RTVSPropertyOp57
 70
     1
102
RTVSPropertyOp58
 70
     1
102
RTVSPropertyOp59
 70
     1
102
RTVSPropertyOp60
 70
     1
102
RTVSPropertyOp61
 70
     1
102
RTVSPropertyOp62
 70
     1
  0
XRECORD
  5
3877
102
{ACAD_REACTORS
330
3876
102
}
330
3876
100
AcDbXrecord
280
     1
102
RTVSPost2010Prop28
280
     0
102
RTVSPost2010PropOp28
 70
     1
102
RTVSPost2010Prop29
280
     1
102
RTVSPost2010PropOp29
 70
     1
102
RTVSPost2010Prop30
280
     1
102
RTVSPost2010PropOp30
 70
     1
102
RTVSPost2010Prop31
280
     0
102
RTVSPost2010PropOp31
 70
     1
102
RTVSPost2010Prop32
280
     0
102
RTVSPost2010PropOp32
 70
     1
102
RTVSPost2010Prop33
280
     0
102
RTVSPost2010PropOp33
 70
     1
102
RTVSPost2010Prop34
280
     0
102
RTVSPost2010PropOp34
 70
     1
102
RTVSPost2010Prop35
280
     0
102
RTVSPost2010PropOp35
 70
     1
102
RTVSPost2010Prop36
280
     0
102
RTVSPost2010PropOp36
 70
     1
102
RTVSPost2010Prop37
 90
       50
102
RTVSPost2010PropOp37
 70
     1
102
RTVSPost2010Prop38
140
0.0
102
RTVSPost2010PropOp38
 70
     1
102
RTVSPost2010Prop39
140
1.0
102
RTVSPost2010PropOp39
 70
     1
102
RTVSPost2010Prop40
 90
        0
102
RTVSPost2010PropOp40
 70
     1
102
RTVSPost2010Prop41ColorIndex
 90
       18
102
RTVSPost2010Prop41ColorRGB
 90
        0
102
RTVSPost2010PropOp41
 70
     1
102
RTVSPost2010Prop42
 90
       50
102
RTVSPost2010PropOp42
 70
     1
102
RTVSPost2010Prop43
 90
        3
102
RTVSPost2010PropOp43
 70
     1
102
RTVSPost2010Prop44ColorIndex
 90
        5
102
RTVSPost2010Prop44ColorRGB
 90
      255
102
RTVSPost2010PropOp44
 70
     1
102
RTVSPost2010Prop45
280
     0
102
RTVSPost2010PropOp45
 70
     1
102
RTVSPost2010Prop46
 90
       50
102
RTVSPost2010PropOp46
 70
     1
102
RTVSPost2010Prop47
 90
       50
102
RTVSPost2010PropOp47
 70
     1
102
RTVSPost2010Prop48
 90
       50
102
RTVSPost2010PropOp48
 70
     1
102
RTVSPost2010Prop49
280
     0
102
RTVSPost2010PropOp49
 70
     1
102
RTVSPost2010Prop50
 90
       50
102
RTVSPost2010PropOp50
 70
     1
102
RTVSPost2010Prop51ColorIndex
 90
      256
102
RTVSPost2010Prop51ColorRGB
 90
-16777216
102
RTVSPost2010PropOp51
 70
     0
102
RTVSPost2010Prop52
140
1.0
102
RTVSPost2010PropOp52
 70
     0
102
RTVSPost2010Prop53
 90
        2
102
RTVSPost2010PropOp53
 70
     1
102
RTVSPost2010Prop54
  1
strokes_ogs.tif
102
RTVSPost2010PropOp54
 70
     1
102
RTVSPost2010Prop55
280
     0
102
RTVSPost2010PropOp55
 70
     1
102
RTVSPost2010Prop56
140
1.0
102
RTVSPost2010PropOp56
 70
     1
102
RTVSPost2010Prop57
140
1.0
102
RTVSPost2010PropOp57
 70
     1
102
RTVSPropertyOp0
 70
     1
102
RTVSPropertyOp1
 70
     1
102
RTVSPropertyOp2
 70
     1
102
RTVSPropertyOp3
 70
     1
102
RTVSPropertyOp4
 70
     1
102
RTVSPropertyOp5
 70
     1
102
RTVSPropertyOp6
 70
     1
102
RTVSPropertyOp7
 70
     1
102
RTVSPropertyOp8
 70
     1
102
RTVSPropertyOp9
 70
     1
102
RTVSPropertyOp10
 70
     1
102
RTVSPropertyOp11
 70
     1
102
RTVSPropertyOp12
 70
     1
102
RTVSPropertyOp13
 70
     1
102
RTVSPropertyOp14
 70
     1
102
RTVSPropertyOp15
 70
     1
102
RTVSPropertyOp16
 70
     1
102
RTVSPropertyOp17
 70
     1
102
RTVSPropertyOp18
 70
     1
102
RTVSPropertyOp19
 70
     1
102
RTVSPropertyOp20
 70
     1
102
RTVSPropertyOp21
 70
     1
102
RTVSPropertyOp22
 70
     1
102
RTVSPropertyOp23
 70
     1
102
RTVSPropertyOp24
 70
     1
102
RTVSPropertyOp25
 70
     1
102
RTVSPropertyOp26
 70
     1
102
RTVSPropertyOp27
 70
     1
102
RTVSPropertyOp28
 70
     1
102
RTVSPropertyOp29
 70
     1
102
RTVSPropertyOp30
 70
     1
102
RTVSPropertyOp31
 70
     1
102
RTVSPropertyOp32
 70
     1
102
RTVSPropertyOp33
 70
     1
102
RTVSPropertyOp34
 70
     1
102
RTVSPropertyOp35
 70
     1
102
RTVSPropertyOp36
 70
     1
102
RTVSPropertyOp37
 70
     1
102
RTVSPropertyOp38
 70
     1
102
RTVSPropertyOp39
 70
     1
102
RTVSPropertyOp40
 70
     1
102
RTVSPropertyOp41
 70
     1
102
RTVSPropertyOp42
 70
     1
102
RTVSPropertyOp43
 70
     1
102
RTVSPropertyOp44
 70
     1
102
RTVSPropertyOp45
 70
     1
102
RTVSPropertyOp46
 70
     1
102
RTVSPropertyOp47
 70
     1
102
RTVSPropertyOp48
 70
     1
102
RTVSPropertyOp49
 70
     1
102
RTVSPropertyOp50
 70
     1
102
RTVSPropertyOp51
 70
     0
102
RTVSPropertyOp52
 70
     0
102
RTVSPropertyOp53
 70
     1
102
RTVSPropertyOp54
 70
     1
102
RTVSPropertyOp55
 70
     1
102
RTVSPropertyOp56
 70
     1
102
RTVSPropertyOp57
 70
     1
102
RTVSPropertyOp58
 70
     1
102
RTVSPropertyOp59
 70
     1
102
RTVSPropertyOp60
 70
     1
102
RTVSPropertyOp61
 70
     1
102
RTVSPropertyOp62
 70
     1
  0
XRECORD
  5
3891
102
{ACAD_REACTORS
330
3890
102
}
330
3890
100
AcDbXrecord
280
     1
102
RTVSPost2010Prop28
280
     0
102
RTVSPost2010PropOp28
 70
     0
102
RTVSPost2010Prop29
280
     1
102
RTVSPost2010PropOp29
 70
     0
102
RTVSPost2010Prop30
280
     1
102
RTVSPost2010PropOp30
 70
     0
102
RTVSPost2010Prop31
280
     0
102
RTVSPost2010PropOp31
 70
     0
102
RTVSPost2010Prop32
280
     0
102
RTVSPost2010PropOp32
 70
     0
102
RTVSPost2010Prop33
280
     0
102
RTVSPost2010PropOp33
 70
     0
102
RTVSPost2010Prop34
280
     0
102
RTVSPost2010PropOp34
 70
     0
102
RTVSPost2010Prop35
280
     0
102
RTVSPost2010PropOp35
 70
     0
102
RTVSPost2010Prop36
280
     0
102
RTVSPost2010PropOp36
 70
     0
102
RTVSPost2010Prop37
 90
       50
102
RTVSPost2010PropOp37
 70
     0
102
RTVSPost2010Prop38
140
0.0
102
RTVSPost2010PropOp38
 70
     0
102
RTVSPost2010Prop39
140
1.0
102
RTVSPost2010PropOp39
 70
     0
102
RTVSPost2010Prop40
 90
        0
102
RTVSPost2010PropOp40
 70
     0
102
RTVSPost2010Prop41ColorIndex
 90
       18
102
RTVSPost2010Prop41ColorRGB
 90
        0
102
RTVSPost2010PropOp41
 70
     0
102
RTVSPost2010Prop42
 90
       50
102
RTVSPost2010PropOp42
 70
     0
102
RTVSPost2010Prop43
 90
        3
102
RTVSPost2010PropOp43
 70
     0
102
RTVSPost2010Prop44ColorIndex
 90
        5
102
RTVSPost2010Prop44ColorRGB
 90
      255
102
RTVSPost2010PropOp44
 70
     0
102
RTVSPost2010Prop45
280
     0
102
RTVSPost2010PropOp45
 70
     0
102
RTVSPost2010Prop46
 90
       50
102
RTVSPost2010PropOp46
 70
     0
102
RTVSPost2010Prop47
 90
       50
102
RTVSPost2010PropOp47
 70
     0
102
RTVSPost2010Prop48
 90
       50
102
RTVSPost2010PropOp48
 70
     0
102
RTVSPost2010Prop49
280
     0
102
RTVSPost2010PropOp49
 70
     0
102
RTVSPost2010Prop50
 90
       50
102
RTVSPost2010PropOp50
 70
     0
102
RTVSPost2010Prop51ColorIndex
 90
      256
102
RTVSPost2010Prop51ColorRGB
 90
-16777216
102
RTVSPost2010PropOp51
 70
     0
102
RTVSPost2010Prop52
140
1.0
102
RTVSPost2010PropOp52
 70
     0
102
RTVSPost2010Prop53
 90
        2
102
RTVSPost2010PropOp53
 70
     0
102
RTVSPost2010Prop54
  1
strokes_ogs.tif
102
RTVSPost2010PropOp54
 70
     0
102
RTVSPost2010Prop55
280
     0
102
RTVSPost2010PropOp55
 70
     0
102
RTVSPost2010Prop56
140
1.0
102
RTVSPost2010PropOp56
 70
     0
102
RTVSPost2010Prop57
140
1.0
102
RTVSPost2010PropOp57
 70
     0
102
RTVSPropertyOp0
 70
     0
102
RTVSPropertyOp1
 70
     0
102
RTVSPropertyOp2
 70
     0
102
RTVSPropertyOp3
 70
     0
102
RTVSPropertyOp4
 70
     0
102
RTVSPropertyOp5
 70
     0
102
RTVSPropertyOp6
 70
     0
102
RTVSPropertyOp7
 70
     0
102
RTVSPropertyOp8
 70
     0
102
RTVSPropertyOp9
 70
     0
102
RTVSPropertyOp10
 70
     0
102
RTVSPropertyOp11
 70
     0
102
RTVSPropertyOp12
 70
     0
102
RTVSPropertyOp13
 70
     0
102
RTVSPropertyOp14
 70
     2
102
RTVSPropertyOp15
 70
     0
102
RTVSPropertyOp16
 70
     0
102
RTVSPropertyOp17
 70
     0
102
RTVSPropertyOp18
 70
     0
102
RTVSPropertyOp19
 70
     0
102
RTVSPropertyOp20
 70
     0
102
RTVSPropertyOp21
 70
     0
102
RTVSPropertyOp22
 70
     0
102
RTVSPropertyOp23
 70
     0
102
RTVSPropertyOp24
 70
     0
102
RTVSPropertyOp25
 70
     0
102
RTVSPropertyOp26
 70
     0
102
RTVSPropertyOp27
 70
     0
102
RTVSPropertyOp28
 70
     0
102
RTVSPropertyOp29
 70
     0
102
RTVSPropertyOp30
 70
     0
102
RTVSPropertyOp31
 70
     0
102
RTVSPropertyOp32
 70
     0
102
RTVSPropertyOp33
 70
     0
102
RTVSPropertyOp34
 70
     0
102
RTVSPropertyOp35
 70
     0
102
RTVSPropertyOp36
 70
     0
102
RTVSPropertyOp37
 70
     0
102
RTVSPropertyOp38
 70
     0
102
RTVSPropertyOp39
 70
     0
102
RTVSPropertyOp40
 70
     0
102
RTVSPropertyOp41
 70
     0
102
RTVSPropertyOp42
 70
     0
102
RTVSPropertyOp43
 70
     0
102
RTVSPropertyOp44
 70
     0
102
RTVSPropertyOp45
 70
     0
102
RTVSPropertyOp46
 70
     0
102
RTVSPropertyOp47
 70
     0
102
RTVSPropertyOp48
 70
     0
102
RTVSPropertyOp49
 70
     0
102
RTVSPropertyOp50
 70
     0
102
RTVSPropertyOp51
 70
     0
102
RTVSPropertyOp52
 70
     0
102
RTVSPropertyOp53
 70
     0
102
RTVSPropertyOp54
 70
     0
102
RTVSPropertyOp55
 70
     0
102
RTVSPropertyOp56
 70
     0
102
RTVSPropertyOp57
 70
     0
102
RTVSPropertyOp58
 70
     0
102
RTVSPropertyOp59
 70
     0
102
RTVSPropertyOp60
 70
     0
102
RTVSPropertyOp61
 70
     0
102
RTVSPropertyOp62
 70
     0
  0
XRECORD
  5
387F
102
{ACAD_REACTORS
330
387E
102
}
330
387E
100
AcDbXrecord
280
     1
102
RTVSPost2010Prop28
280
     0
102
RTVSPost2010PropOp28
 70
     1
102
RTVSPost2010Prop29
280
     1
102
RTVSPost2010PropOp29
 70
     1
102
RTVSPost2010Prop30
280
     1
102
RTVSPost2010PropOp30
 70
     1
102
RTVSPost2010Prop31
280
     0
102
RTVSPost2010PropOp31
 70
     1
102
RTVSPost2010Prop32
280
     0
102
RTVSPost2010PropOp32
 70
     1
102
RTVSPost2010Prop33
280
     0
102
RTVSPost2010PropOp33
 70
     1
102
RTVSPost2010Prop34
280
     0
102
RTVSPost2010PropOp34
 70
     1
102
RTVSPost2010Prop35
280
     0
102
RTVSPost2010PropOp35
 70
     1
102
RTVSPost2010Prop36
280
     0
102
RTVSPost2010PropOp36
 70
     1
102
RTVSPost2010Prop37
 90
       50
102
RTVSPost2010PropOp37
 70
     1
102
RTVSPost2010Prop38
140
0.0
102
RTVSPost2010PropOp38
 70
     1
102
RTVSPost2010Prop39
140
1.0
102
RTVSPost2010PropOp39
 70
     1
102
RTVSPost2010Prop40
 90
        0
102
RTVSPost2010PropOp40
 70
     1
102
RTVSPost2010Prop41ColorIndex
 90
       18
102
RTVSPost2010Prop41ColorRGB
 90
        0
102
RTVSPost2010PropOp41
 70
     1
102
RTVSPost2010Prop42
 90
       50
102
RTVSPost2010PropOp42
 70
     1
102
RTVSPost2010Prop43
 90
        3
102
RTVSPost2010PropOp43
 70
     1
102
RTVSPost2010Prop44ColorIndex
 90
        5
102
RTVSPost2010Prop44ColorRGB
 90
      255
102
RTVSPost2010PropOp44
 70
     1
102
RTVSPost2010Prop45
280
     0
102
RTVSPost2010PropOp45
 70
     1
102
RTVSPost2010Prop46
 90
       50
102
RTVSPost2010PropOp46
 70
     1
102
RTVSPost2010Prop47
 90
       50
102
RTVSPost2010PropOp47
 70
     1
102
RTVSPost2010Prop48
 90
       50
102
RTVSPost2010PropOp48
 70
     1
102
RTVSPost2010Prop49
280
     0
102
RTVSPost2010PropOp49
 70
     1
102
RTVSPost2010Prop50
 90
       50
102
RTVSPost2010PropOp50
 70
     1
102
RTVSPost2010Prop51ColorIndex
 90
      256
102
RTVSPost2010Prop51ColorRGB
 90
-16777216
102
RTVSPost2010PropOp51
 70
     0
102
RTVSPost2010Prop52
140
1.0
102
RTVSPost2010PropOp52
 70
     0
102
RTVSPost2010Prop53
 90
        2
102
RTVSPost2010PropOp53
 70
     1
102
RTVSPost2010Prop54
  1
strokes_ogs.tif
102
RTVSPost2010PropOp54
 70
     1
102
RTVSPost2010Prop55
280
     0
102
RTVSPost2010PropOp55
 70
     1
102
RTVSPost2010Prop56
140
1.0
102
RTVSPost2010PropOp56
 70
     1
102
RTVSPost2010Prop57
140
1.0
102
RTVSPost2010PropOp57
 70
     1
102
RTVSPropertyOp0
 70
     1
102
RTVSPropertyOp1
 70
     1
102
RTVSPropertyOp2
 70
     1
102
RTVSPropertyOp3
 70
     1
102
RTVSPropertyOp4
 70
     1
102
RTVSPropertyOp5
 70
     1
102
RTVSPropertyOp6
 70
     1
102
RTVSPropertyOp7
 70
     1
102
RTVSPropertyOp8
 70
     1
102
RTVSPropertyOp9
 70
     1
102
RTVSPropertyOp10
 70
     1
102
RTVSPropertyOp11
 70
     1
102
RTVSPropertyOp12
 70
     1
102
RTVSPropertyOp13
 70
     1
102
RTVSPropertyOp14
 70
     1
102
RTVSPropertyOp15
 70
     1
102
RTVSPropertyOp16
 70
     1
102
RTVSPropertyOp17
 70
     1
102
RTVSPropertyOp18
 70
     1
102
RTVSPropertyOp19
 70
     1
102
RTVSPropertyOp20
 70
     1
102
RTVSPropertyOp21
 70
     1
102
RTVSPropertyOp22
 70
     1
102
RTVSPropertyOp23
 70
     1
102
RTVSPropertyOp24
 70
     1
102
RTVSPropertyOp25
 70
     1
102
RTVSPropertyOp26
 70
     1
102
RTVSPropertyOp27
 70
     1
102
RTVSPropertyOp28
 70
     1
102
RTVSPropertyOp29
 70
     1
102
RTVSPropertyOp30
 70
     1
102
RTVSPropertyOp31
 70
     1
102
RTVSPropertyOp32
 70
     1
102
RTVSPropertyOp33
 70
     1
102
RTVSPropertyOp34
 70
     1
102
RTVSPropertyOp35
 70
     1
102
RTVSPropertyOp36
 70
     1
102
RTVSPropertyOp37
 70
     1
102
RTVSPropertyOp38
 70
     1
102
RTVSPropertyOp39
 70
     1
102
RTVSPropertyOp40
 70
     1
102
RTVSPropertyOp41
 70
     1
102
RTVSPropertyOp42
 70
     1
102
RTVSPropertyOp43
 70
     1
102
RTVSPropertyOp44
 70
     1
102
RTVSPropertyOp45
 70
     1
102
RTVSPropertyOp46
 70
     1
102
RTVSPropertyOp47
 70
     1
102
RTVSPropertyOp48
 70
     1
102
RTVSPropertyOp49
 70
     1
102
RTVSPropertyOp50
 70
     1
102
RTVSPropertyOp51
 70
     0
102
RTVSPropertyOp52
 70
     0
102
RTVSPropertyOp53
 70
     1
102
RTVSPropertyOp54
 70
     1
102
RTVSPropertyOp55
 70
     1
102
RTVSPropertyOp56
 70
     1
102
RTVSPropertyOp57
 70
     1
102
RTVSPropertyOp58
 70
     1
102
RTVSPropertyOp59
 70
     1
102
RTVSPropertyOp60
 70
     1
102
RTVSPropertyOp61
 70
     1
102
RTVSPropertyOp62
 70
     1
  0
XRECORD
  5
3863
102
{ACAD_REACTORS
330
3862
102
}
330
3862
100
AcDbXrecord
280
     1
102
RTVSPost2010Prop28
280
     0
102
RTVSPost2010PropOp28
 70
     1
102
RTVSPost2010Prop29
280
     1
102
RTVSPost2010PropOp29
 70
     1
102
RTVSPost2010Prop30
280
     1
102
RTVSPost2010PropOp30
 70
     1
102
RTVSPost2010Prop31
280
     0
102
RTVSPost2010PropOp31
 70
     1
102
RTVSPost2010Prop32
280
     0
102
RTVSPost2010PropOp32
 70
     1
102
RTVSPost2010Prop33
280
     0
102
RTVSPost2010PropOp33
 70
     1
102
RTVSPost2010Prop34
280
     0
102
RTVSPost2010PropOp34
 70
     1
102
RTVSPost2010Prop35
280
     0
102
RTVSPost2010PropOp35
 70
     1
102
RTVSPost2010Prop36
280
     0
102
RTVSPost2010PropOp36
 70
     1
102
RTVSPost2010Prop37
 90
       50
102
RTVSPost2010PropOp37
 70
     1
102
RTVSPost2010Prop38
140
0.0
102
RTVSPost2010PropOp38
 70
     1
102
RTVSPost2010Prop39
140
1.0
102
RTVSPost2010PropOp39
 70
     1
102
RTVSPost2010Prop40
 90
        0
102
RTVSPost2010PropOp40
 70
     1
102
RTVSPost2010Prop41ColorIndex
 90
       18
102
RTVSPost2010Prop41ColorRGB
 90
        0
102
RTVSPost2010PropOp41
 70
     1
102
RTVSPost2010Prop42
 90
       50
102
RTVSPost2010PropOp42
 70
     1
102
RTVSPost2010Prop43
 90
        3
102
RTVSPost2010PropOp43
 70
     1
102
RTVSPost2010Prop44ColorIndex
 90
        5
102
RTVSPost2010Prop44ColorRGB
 90
      255
102
RTVSPost2010PropOp44
 70
     1
102
RTVSPost2010Prop45
280
     0
102
RTVSPost2010PropOp45
 70
     1
102
RTVSPost2010Prop46
 90
       50
102
RTVSPost2010PropOp46
 70
     1
102
RTVSPost2010Prop47
 90
       50
102
RTVSPost2010PropOp47
 70
     1
102
RTVSPost2010Prop48
 90
       50
102
RTVSPost2010PropOp48
 70
     1
102
RTVSPost2010Prop49
280
     0
102
RTVSPost2010PropOp49
 70
     1
102
RTVSPost2010Prop50
 90
       50
102
RTVSPost2010PropOp50
 70
     1
102
RTVSPost2010Prop51ColorIndex
 90
      256
102
RTVSPost2010Prop51ColorRGB
 90
-16777216
102
RTVSPost2010PropOp51
 70
     0
102
RTVSPost2010Prop52
140
1.0
102
RTVSPost2010PropOp52
 70
     0
102
RTVSPost2010Prop53
 90
        2
102
RTVSPost2010PropOp53
 70
     1
102
RTVSPost2010Prop54
  1
strokes_ogs.tif
102
RTVSPost2010PropOp54
 70
     1
102
RTVSPost2010Prop55
280
     0
102
RTVSPost2010PropOp55
 70
     1
102
RTVSPost2010Prop56
140
1.0
102
RTVSPost2010PropOp56
 70
     1
102
RTVSPost2010Prop57
140
1.0
102
RTVSPost2010PropOp57
 70
     1
102
RTVSPropertyOp0
 70
     1
102
RTVSPropertyOp1
 70
     1
102
RTVSPropertyOp2
 70
     1
102
RTVSPropertyOp3
 70
     1
102
RTVSPropertyOp4
 70
     1
102
RTVSPropertyOp5
 70
     1
102
RTVSPropertyOp6
 70
     1
102
RTVSPropertyOp7
 70
     1
102
RTVSPropertyOp8
 70
     1
102
RTVSPropertyOp9
 70
     1
102
RTVSPropertyOp10
 70
     1
102
RTVSPropertyOp11
 70
     1
102
RTVSPropertyOp12
 70
     1
102
RTVSPropertyOp13
 70
     1
102
RTVSPropertyOp14
 70
     1
102
RTVSPropertyOp15
 70
     1
102
RTVSPropertyOp16
 70
     1
102
RTVSPropertyOp17
 70
     1
102
RTVSPropertyOp18
 70
     1
102
RTVSPropertyOp19
 70
     1
102
RTVSPropertyOp20
 70
     1
102
RTVSPropertyOp21
 70
     1
102
RTVSPropertyOp22
 70
     1
102
RTVSPropertyOp23
 70
     1
102
RTVSPropertyOp24
 70
     1
102
RTVSPropertyOp25
 70
     1
102
RTVSPropertyOp26
 70
     1
102
RTVSPropertyOp27
 70
     1
102
RTVSPropertyOp28
 70
     1
102
RTVSPropertyOp29
 70
     1
102
RTVSPropertyOp30
 70
     1
102
RTVSPropertyOp31
 70
     1
102
RTVSPropertyOp32
 70
     1
102
RTVSPropertyOp33
 70
     1
102
RTVSPropertyOp34
 70
     1
102
RTVSPropertyOp35
 70
     1
102
RTVSPropertyOp36
 70
     1
102
RTVSPropertyOp37
 70
     1
102
RTVSPropertyOp38
 70
     1
102
RTVSPropertyOp39
 70
     1
102
RTVSPropertyOp40
 70
     1
102
RTVSPropertyOp41
 70
     1
102
RTVSPropertyOp42
 70
     1
102
RTVSPropertyOp43
 70
     1
102
RTVSPropertyOp44
 70
     1
102
RTVSPropertyOp45
 70
     1
102
RTVSPropertyOp46
 70
     1
102
RTVSPropertyOp47
 70
     1
102
RTVSPropertyOp48
 70
     1
102
RTVSPropertyOp49
 70
     1
102
RTVSPropertyOp50
 70
     1
102
RTVSPropertyOp51
 70
     0
102
RTVSPropertyOp52
 70
     0
102
RTVSPropertyOp53
 70
     1
102
RTVSPropertyOp54
 70
     1
102
RTVSPropertyOp55
 70
     1
102
RTVSPropertyOp56
 70
     1
102
RTVSPropertyOp57
 70
     1
102
RTVSPropertyOp58
 70
     1
102
RTVSPropertyOp59
 70
     1
102
RTVSPropertyOp60
 70
     1
102
RTVSPropertyOp61
 70
     1
102
RTVSPropertyOp62
 70
     1
  0
XRECORD
  5
3865
102
{ACAD_REACTORS
330
3864
102
}
330
3864
100
AcDbXrecord
280
     1
102
RTVSPost2010Prop28
280
     0
102
RTVSPost2010PropOp28
 70
     1
102
RTVSPost2010Prop29
280
     1
102
RTVSPost2010PropOp29
 70
     1
102
RTVSPost2010Prop30
280
     1
102
RTVSPost2010PropOp30
 70
     1
102
RTVSPost2010Prop31
280
     0
102
RTVSPost2010PropOp31
 70
     1
102
RTVSPost2010Prop32
280
     0
102
RTVSPost2010PropOp32
 70
     1
102
RTVSPost2010Prop33
280
     0
102
RTVSPost2010PropOp33
 70
     1
102
RTVSPost2010Prop34
280
     0
102
RTVSPost2010PropOp34
 70
     1
102
RTVSPost2010Prop35
280
     0
102
RTVSPost2010PropOp35
 70
     1
102
RTVSPost2010Prop36
280
     0
102
RTVSPost2010PropOp36
 70
     1
102
RTVSPost2010Prop37
 90
       50
102
RTVSPost2010PropOp37
 70
     1
102
RTVSPost2010Prop38
140
0.0
102
RTVSPost2010PropOp38
 70
     1
102
RTVSPost2010Prop39
140
1.0
102
RTVSPost2010PropOp39
 70
     1
102
RTVSPost2010Prop40
 90
        0
102
RTVSPost2010PropOp40
 70
     1
102
RTVSPost2010Prop41ColorIndex
 90
       18
102
RTVSPost2010Prop41ColorRGB
 90
        0
102
RTVSPost2010PropOp41
 70
     1
102
RTVSPost2010Prop42
 90
       50
102
RTVSPost2010PropOp42
 70
     1
102
RTVSPost2010Prop43
 90
        3
102
RTVSPost2010PropOp43
 70
     1
102
RTVSPost2010Prop44ColorIndex
 90
        5
102
RTVSPost2010Prop44ColorRGB
 90
      255
102
RTVSPost2010PropOp44
 70
     1
102
RTVSPost2010Prop45
280
     0
102
RTVSPost2010PropOp45
 70
     1
102
RTVSPost2010Prop46
 90
       50
102
RTVSPost2010PropOp46
 70
     1
102
RTVSPost2010Prop47
 90
       50
102
RTVSPost2010PropOp47
 70
     1
102
RTVSPost2010Prop48
 90
       50
102
RTVSPost2010PropOp48
 70
     1
102
RTVSPost2010Prop49
280
     0
102
RTVSPost2010PropOp49
 70
     1
102
RTVSPost2010Prop50
 90
       50
102
RTVSPost2010PropOp50
 70
     1
102
RTVSPost2010Prop51ColorIndex
 90
      256
102
RTVSPost2010Prop51ColorRGB
 90
-16777216
102
RTVSPost2010PropOp51
 70
     0
102
RTVSPost2010Prop52
140
1.0
102
RTVSPost2010PropOp52
 70
     0
102
RTVSPost2010Prop53
 90
        2
102
RTVSPost2010PropOp53
 70
     1
102
RTVSPost2010Prop54
  1
strokes_ogs.tif
102
RTVSPost2010PropOp54
 70
     1
102
RTVSPost2010Prop55
280
     0
102
RTVSPost2010PropOp55
 70
     1
102
RTVSPost2010Prop56
140
1.0
102
RTVSPost2010PropOp56
 70
     1
102
RTVSPost2010Prop57
140
1.0
102
RTVSPost2010PropOp57
 70
     1
102
RTVSPropertyOp0
 70
     1
102
RTVSPropertyOp1
 70
     1
102
RTVSPropertyOp2
 70
     1
102
RTVSPropertyOp3
 70
     1
102
RTVSPropertyOp4
 70
     1
102
RTVSPropertyOp5
 70
     1
102
RTVSPropertyOp6
 70
     1
102
RTVSPropertyOp7
 70
     1
102
RTVSPropertyOp8
 70
     1
102
RTVSPropertyOp9
 70
     1
102
RTVSPropertyOp10
 70
     1
102
RTVSPropertyOp11
 70
     1
102
RTVSPropertyOp12
 70
     1
102
RTVSPropertyOp13
 70
     1
102
RTVSPropertyOp14
 70
     1
102
RTVSPropertyOp15
 70
     1
102
RTVSPropertyOp16
 70
     1
102
RTVSPropertyOp17
 70
     1
102
RTVSPropertyOp18
 70
     1
102
RTVSPropertyOp19
 70
     1
102
RTVSPropertyOp20
 70
     1
102
RTVSPropertyOp21
 70
     1
102
RTVSPropertyOp22
 70
     1
102
RTVSPropertyOp23
 70
     1
102
RTVSPropertyOp24
 70
     1
102
RTVSPropertyOp25
 70
     1
102
RTVSPropertyOp26
 70
     1
102
RTVSPropertyOp27
 70
     1
102
RTVSPropertyOp28
 70
     1
102
RTVSPropertyOp29
 70
     1
102
RTVSPropertyOp30
 70
     1
102
RTVSPropertyOp31
 70
     1
102
RTVSPropertyOp32
 70
     1
102
RTVSPropertyOp33
 70
     1
102
RTVSPropertyOp34
 70
     1
102
RTVSPropertyOp35
 70
     1
102
RTVSPropertyOp36
 70
     1
102
RTVSPropertyOp37
 70
     1
102
RTVSPropertyOp38
 70
     1
102
RTVSPropertyOp39
 70
     1
102
RTVSPropertyOp40
 70
     1
102
RTVSPropertyOp41
 70
     1
102
RTVSPropertyOp42
 70
     1
102
RTVSPropertyOp43
 70
     1
102
RTVSPropertyOp44
 70
     1
102
RTVSPropertyOp45
 70
     1
102
RTVSPropertyOp46
 70
     1
102
RTVSPropertyOp47
 70
     1
102
RTVSPropertyOp48
 70
     1
102
RTVSPropertyOp49
 70
     1
102
RTVSPropertyOp50
 70
     1
102
RTVSPropertyOp51
 70
     0
102
RTVSPropertyOp52
 70
     0
102
RTVSPropertyOp53
 70
     1
102
RTVSPropertyOp54
 70
     1
102
RTVSPropertyOp55
 70
     1
102
RTVSPropertyOp56
 70
     1
102
RTVSPropertyOp57
 70
     1
102
RTVSPropertyOp58
 70
     1
102
RTVSPropertyOp59
 70
     1
102
RTVSPropertyOp60
 70
     1
102
RTVSPropertyOp61
 70
     1
102
RTVSPropertyOp62
 70
     1
  0
XRECORD
  5
3867
102
{ACAD_REACTORS
330
3866
102
}
330
3866
100
AcDbXrecord
280
     1
102
RTVSPost2010Prop28
280
     0
102
RTVSPost2010PropOp28
 70
     1
102
RTVSPost2010Prop29
280
     1
102
RTVSPost2010PropOp29
 70
     1
102
RTVSPost2010Prop30
280
     1
102
RTVSPost2010PropOp30
 70
     1
102
RTVSPost2010Prop31
280
     0
102
RTVSPost2010PropOp31
 70
     1
102
RTVSPost2010Prop32
280
     0
102
RTVSPost2010PropOp32
 70
     1
102
RTVSPost2010Prop33
280
     0
102
RTVSPost2010PropOp33
 70
     1
102
RTVSPost2010Prop34
280
     0
102
RTVSPost2010PropOp34
 70
     1
102
RTVSPost2010Prop35
280
     0
102
RTVSPost2010PropOp35
 70
     1
102
RTVSPost2010Prop36
280
     0
102
RTVSPost2010PropOp36
 70
     1
102
RTVSPost2010Prop37
 90
       50
102
RTVSPost2010PropOp37
 70
     1
102
RTVSPost2010Prop38
140
0.0
102
RTVSPost2010PropOp38
 70
     1
102
RTVSPost2010Prop39
140
1.0
102
RTVSPost2010PropOp39
 70
     1
102
RTVSPost2010Prop40
 90
        0
102
RTVSPost2010PropOp40
 70
     1
102
RTVSPost2010Prop41ColorIndex
 90
       18
102
RTVSPost2010Prop41ColorRGB
 90
        0
102
RTVSPost2010PropOp41
 70
     1
102
RTVSPost2010Prop42
 90
       50
102
RTVSPost2010PropOp42
 70
     1
102
RTVSPost2010Prop43
 90
        3
102
RTVSPost2010PropOp43
 70
     1
102
RTVSPost2010Prop44ColorIndex
 90
        5
102
RTVSPost2010Prop44ColorRGB
 90
      255
102
RTVSPost2010PropOp44
 70
     1
102
RTVSPost2010Prop45
280
     0
102
RTVSPost2010PropOp45
 70
     1
102
RTVSPost2010Prop46
 90
       50
102
RTVSPost2010PropOp46
 70
     1
102
RTVSPost2010Prop47
 90
       50
102
RTVSPost2010PropOp47
 70
     1
102
RTVSPost2010Prop48
 90
       50
102
RTVSPost2010PropOp48
 70
     1
102
RTVSPost2010Prop49
280
     0
102
RTVSPost2010PropOp49
 70
     1
102
RTVSPost2010Prop50
 90
       50
102
RTVSPost2010PropOp50
 70
     1
102
RTVSPost2010Prop51ColorIndex
 90
      256
102
RTVSPost2010Prop51ColorRGB
 90
-16777216
102
RTVSPost2010PropOp51
 70
     0
102
RTVSPost2010Prop52
140
1.0
102
RTVSPost2010PropOp52
 70
     0
102
RTVSPost2010Prop53
 90
        2
102
RTVSPost2010PropOp53
 70
     1
102
RTVSPost2010Prop54
  1
strokes_ogs.tif
102
RTVSPost2010PropOp54
 70
     1
102
RTVSPost2010Prop55
280
     0
102
RTVSPost2010PropOp55
 70
     1
102
RTVSPost2010Prop56
140
1.0
102
RTVSPost2010PropOp56
 70
     1
102
RTVSPost2010Prop57
140
1.0
102
RTVSPost2010PropOp57
 70
     1
102
RTVSPropertyOp0
 70
     1
102
RTVSPropertyOp1
 70
     1
102
RTVSPropertyOp2
 70
     1
102
RTVSPropertyOp3
 70
     1
102
RTVSPropertyOp4
 70
     1
102
RTVSPropertyOp5
 70
     1
102
RTVSPropertyOp6
 70
     1
102
RTVSPropertyOp7
 70
     1
102
RTVSPropertyOp8
 70
     1
102
RTVSPropertyOp9
 70
     1
102
RTVSPropertyOp10
 70
     1
102
RTVSPropertyOp11
 70
     1
102
RTVSPropertyOp12
 70
     1
102
RTVSPropertyOp13
 70
     1
102
RTVSPropertyOp14
 70
     1
102
RTVSPropertyOp15
 70
     1
102
RTVSPropertyOp16
 70
     1
102
RTVSPropertyOp17
 70
     1
102
RTVSPropertyOp18
 70
     1
102
RTVSPropertyOp19
 70
     1
102
RTVSPropertyOp20
 70
     1
102
RTVSPropertyOp21
 70
     1
102
RTVSPropertyOp22
 70
     1
102
RTVSPropertyOp23
 70
     1
102
RTVSPropertyOp24
 70
     1
102
RTVSPropertyOp25
 70
     1
102
RTVSPropertyOp26
 70
     1
102
RTVSPropertyOp27
 70
     1
102
RTVSPropertyOp28
 70
     1
102
RTVSPropertyOp29
 70
     1
102
RTVSPropertyOp30
 70
     1
102
RTVSPropertyOp31
 70
     1
102
RTVSPropertyOp32
 70
     1
102
RTVSPropertyOp33
 70
     1
102
RTVSPropertyOp34
 70
     1
102
RTVSPropertyOp35
 70
     1
102
RTVSPropertyOp36
 70
     1
102
RTVSPropertyOp37
 70
     1
102
RTVSPropertyOp38
 70
     1
102
RTVSPropertyOp39
 70
     1
102
RTVSPropertyOp40
 70
     1
102
RTVSPropertyOp41
 70
     1
102
RTVSPropertyOp42
 70
     1
102
RTVSPropertyOp43
 70
     1
102
RTVSPropertyOp44
 70
     1
102
RTVSPropertyOp45
 70
     1
102
RTVSPropertyOp46
 70
     1
102
RTVSPropertyOp47
 70
     1
102
RTVSPropertyOp48
 70
     1
102
RTVSPropertyOp49
 70
     1
102
RTVSPropertyOp50
 70
     1
102
RTVSPropertyOp51
 70
     0
102
RTVSPropertyOp52
 70
     0
102
RTVSPropertyOp53
 70
     1
102
RTVSPropertyOp54
 70
     1
102
RTVSPropertyOp55
 70
     1
102
RTVSPropertyOp56
 70
     1
102
RTVSPropertyOp57
 70
     1
102
RTVSPropertyOp58
 70
     1
102
RTVSPropertyOp59
 70
     1
102
RTVSPropertyOp60
 70
     1
102
RTVSPropertyOp61
 70
     1
102
RTVSPropertyOp62
 70
     1
  0
XRECORD
  5
3869
102
{ACAD_REACTORS
330
3868
102
}
330
3868
100
AcDbXrecord
280
     1
102
RTVSPost2010Prop28
280
     0
102
RTVSPost2010PropOp28
 70
     1
102
RTVSPost2010Prop29
280
     1
102
RTVSPost2010PropOp29
 70
     1
102
RTVSPost2010Prop30
280
     1
102
RTVSPost2010PropOp30
 70
     1
102
RTVSPost2010Prop31
280
     0
102
RTVSPost2010PropOp31
 70
     1
102
RTVSPost2010Prop32
280
     0
102
RTVSPost2010PropOp32
 70
     1
102
RTVSPost2010Prop33
280
     0
102
RTVSPost2010PropOp33
 70
     1
102
RTVSPost2010Prop34
280
     0
102
RTVSPost2010PropOp34
 70
     1
102
RTVSPost2010Prop35
280
     0
102
RTVSPost2010PropOp35
 70
     1
102
RTVSPost2010Prop36
280
     0
102
RTVSPost2010PropOp36
 70
     1
102
RTVSPost2010Prop37
 90
       50
102
RTVSPost2010PropOp37
 70
     1
102
RTVSPost2010Prop38
140
0.0
102
RTVSPost2010PropOp38
 70
     1
102
RTVSPost2010Prop39
140
1.0
102
RTVSPost2010PropOp39
 70
     1
102
RTVSPost2010Prop40
 90
        0
102
RTVSPost2010PropOp40
 70
     1
102
RTVSPost2010Prop41ColorIndex
 90
       18
102
RTVSPost2010Prop41ColorRGB
 90
        0
102
RTVSPost2010PropOp41
 70
     1
102
RTVSPost2010Prop42
 90
       50
102
RTVSPost2010PropOp42
 70
     1
102
RTVSPost2010Prop43
 90
        3
102
RTVSPost2010PropOp43
 70
     1
102
RTVSPost2010Prop44ColorIndex
 90
        5
102
RTVSPost2010Prop44ColorRGB
 90
      255
102
RTVSPost2010PropOp44
 70
     1
102
RTVSPost2010Prop45
280
     0
102
RTVSPost2010PropOp45
 70
     1
102
RTVSPost2010Prop46
 90
       50
102
RTVSPost2010PropOp46
 70
     1
102
RTVSPost2010Prop47
 90
       50
102
RTVSPost2010PropOp47
 70
     1
102
RTVSPost2010Prop48
 90
       50
102
RTVSPost2010PropOp48
 70
     1
102
RTVSPost2010Prop49
280
     0
102
RTVSPost2010PropOp49
 70
     1
102
RTVSPost2010Prop50
 90
       50
102
RTVSPost2010PropOp50
 70
     1
102
RTVSPost2010Prop51ColorIndex
 90
      256
102
RTVSPost2010Prop51ColorRGB
 90
-16777216
102
RTVSPost2010PropOp51
 70
     0
102
RTVSPost2010Prop52
140
1.0
102
RTVSPost2010PropOp52
 70
     0
102
RTVSPost2010Prop53
 90
        2
102
RTVSPost2010PropOp53
 70
     1
102
RTVSPost2010Prop54
  1
strokes_ogs.tif
102
RTVSPost2010PropOp54
 70
     1
102
RTVSPost2010Prop55
280
     0
102
RTVSPost2010PropOp55
 70
     1
102
RTVSPost2010Prop56
140
1.0
102
RTVSPost2010PropOp56
 70
     1
102
RTVSPost2010Prop57
140
1.0
102
RTVSPost2010PropOp57
 70
     1
102
RTVSPropertyOp0
 70
     1
102
RTVSPropertyOp1
 70
     1
102
RTVSPropertyOp2
 70
     1
102
RTVSPropertyOp3
 70
     1
102
RTVSPropertyOp4
 70
     1
102
RTVSPropertyOp5
 70
     1
102
RTVSPropertyOp6
 70
     1
102
RTVSPropertyOp7
 70
     1
102
RTVSPropertyOp8
 70
     1
102
RTVSPropertyOp9
 70
     1
102
RTVSPropertyOp10
 70
     1
102
RTVSPropertyOp11
 70
     1
102
RTVSPropertyOp12
 70
     1
102
RTVSPropertyOp13
 70
     1
102
RTVSPropertyOp14
 70
     1
102
RTVSPropertyOp15
 70
     1
102
RTVSPropertyOp16
 70
     1
102
RTVSPropertyOp17
 70
     1
102
RTVSPropertyOp18
 70
     1
102
RTVSPropertyOp19
 70
     1
102
RTVSPropertyOp20
 70
     1
102
RTVSPropertyOp21
 70
     1
102
RTVSPropertyOp22
 70
     1
102
RTVSPropertyOp23
 70
     1
102
RTVSPropertyOp24
 70
     1
102
RTVSPropertyOp25
 70
     1
102
RTVSPropertyOp26
 70
     1
102
RTVSPropertyOp27
 70
     1
102
RTVSPropertyOp28
 70
     1
102
RTVSPropertyOp29
 70
     1
102
RTVSPropertyOp30
 70
     1
102
RTVSPropertyOp31
 70
     1
102
RTVSPropertyOp32
 70
     1
102
RTVSPropertyOp33
 70
     1
102
RTVSPropertyOp34
 70
     1
102
RTVSPropertyOp35
 70
     1
102
RTVSPropertyOp36
 70
     1
102
RTVSPropertyOp37
 70
     1
102
RTVSPropertyOp38
 70
     1
102
RTVSPropertyOp39
 70
     1
102
RTVSPropertyOp40
 70
     1
102
RTVSPropertyOp41
 70
     1
102
RTVSPropertyOp42
 70
     1
102
RTVSPropertyOp43
 70
     1
102
RTVSPropertyOp44
 70
     1
102
RTVSPropertyOp45
 70
     1
102
RTVSPropertyOp46
 70
     1
102
RTVSPropertyOp47
 70
     1
102
RTVSPropertyOp48
 70
     1
102
RTVSPropertyOp49
 70
     1
102
RTVSPropertyOp50
 70
     1
102
RTVSPropertyOp51
 70
     0
102
RTVSPropertyOp52
 70
     0
102
RTVSPropertyOp53
 70
     1
102
RTVSPropertyOp54
 70
     1
102
RTVSPropertyOp55
 70
     1
102
RTVSPropertyOp56
 70
     1
102
RTVSPropertyOp57
 70
     1
102
RTVSPropertyOp58
 70
     1
102
RTVSPropertyOp59
 70
     1
102
RTVSPropertyOp60
 70
     1
102
RTVSPropertyOp61
 70
     1
102
RTVSPropertyOp62
 70
     1
  0
XRECORD
  5
3871
102
{ACAD_REACTORS
330
3870
102
}
330
3870
100
AcDbXrecord
280
     1
102
RTVSPost2010Prop28
280
     0
102
RTVSPost2010PropOp28
 70
     1
102
RTVSPost2010Prop29
280
     1
102
RTVSPost2010PropOp29
 70
     1
102
RTVSPost2010Prop30
280
     1
102
RTVSPost2010PropOp30
 70
     1
102
RTVSPost2010Prop31
280
     0
102
RTVSPost2010PropOp31
 70
     1
102
RTVSPost2010Prop32
280
     0
102
RTVSPost2010PropOp32
 70
     1
102
RTVSPost2010Prop33
280
     0
102
RTVSPost2010PropOp33
 70
     1
102
RTVSPost2010Prop34
280
     0
102
RTVSPost2010PropOp34
 70
     1
102
RTVSPost2010Prop35
280
     0
102
RTVSPost2010PropOp35
 70
     1
102
RTVSPost2010Prop36
280
     0
102
RTVSPost2010PropOp36
 70
     1
102
RTVSPost2010Prop37
 90
       50
102
RTVSPost2010PropOp37
 70
     1
102
RTVSPost2010Prop38
140
0.0
102
RTVSPost2010PropOp38
 70
     1
102
RTVSPost2010Prop39
140
1.0
102
RTVSPost2010PropOp39
 70
     1
102
RTVSPost2010Prop40
 90
        0
102
RTVSPost2010PropOp40
 70
     1
102
RTVSPost2010Prop41ColorIndex
 90
       18
102
RTVSPost2010Prop41ColorRGB
 90
        0
102
RTVSPost2010PropOp41
 70
     1
102
RTVSPost2010Prop42
 90
       50
102
RTVSPost2010PropOp42
 70
     1
102
RTVSPost2010Prop43
 90
        3
102
RTVSPost2010PropOp43
 70
     1
102
RTVSPost2010Prop44ColorIndex
 90
        5
102
RTVSPost2010Prop44ColorRGB
 90
      255
102
RTVSPost2010PropOp44
 70
     1
102
RTVSPost2010Prop45
280
     0
102
RTVSPost2010PropOp45
 70
     1
102
RTVSPost2010Prop46
 90
       50
102
RTVSPost2010PropOp46
 70
     1
102
RTVSPost2010Prop47
 90
       50
102
RTVSPost2010PropOp47
 70
     1
102
RTVSPost2010Prop48
 90
       50
102
RTVSPost2010PropOp48
 70
     1
102
RTVSPost2010Prop49
280
     0
102
RTVSPost2010PropOp49
 70
     1
102
RTVSPost2010Prop50
 90
       50
102
RTVSPost2010PropOp50
 70
     1
102
RTVSPost2010Prop51ColorIndex
 90
      256
102
RTVSPost2010Prop51ColorRGB
 90
-16777216
102
RTVSPost2010PropOp51
 70
     0
102
RTVSPost2010Prop52
140
1.0
102
RTVSPost2010PropOp52
 70
     0
102
RTVSPost2010Prop53
 90
        2
102
RTVSPost2010PropOp53
 70
     1
102
RTVSPost2010Prop54
  1
strokes_ogs.tif
102
RTVSPost2010PropOp54
 70
     1
102
RTVSPost2010Prop55
280
     0
102
RTVSPost2010PropOp55
 70
     1
102
RTVSPost2010Prop56
140
1.0
102
RTVSPost2010PropOp56
 70
     1
102
RTVSPost2010Prop57
140
1.0
102
RTVSPost2010PropOp57
 70
     1
102
RTVSPropertyOp0
 70
     1
102
RTVSPropertyOp1
 70
     1
102
RTVSPropertyOp2
 70
     1
102
RTVSPropertyOp3
 70
     1
102
RTVSPropertyOp4
 70
     1
102
RTVSPropertyOp5
 70
     1
102
RTVSPropertyOp6
 70
     1
102
RTVSPropertyOp7
 70
     1
102
RTVSPropertyOp8
 70
     1
102
RTVSPropertyOp9
 70
     1
102
RTVSPropertyOp10
 70
     1
102
RTVSPropertyOp11
 70
     1
102
RTVSPropertyOp12
 70
     1
102
RTVSPropertyOp13
 70
     1
102
RTVSPropertyOp14
 70
     1
102
RTVSPropertyOp15
 70
     1
102
RTVSPropertyOp16
 70
     1
102
RTVSPropertyOp17
 70
     1
102
RTVSPropertyOp18
 70
     1
102
RTVSPropertyOp19
 70
     1
102
RTVSPropertyOp20
 70
     1
102
RTVSPropertyOp21
 70
     1
102
RTVSPropertyOp22
 70
     1
102
RTVSPropertyOp23
 70
     1
102
RTVSPropertyOp24
 70
     1
102
RTVSPropertyOp25
 70
     1
102
RTVSPropertyOp26
 70
     1
102
RTVSPropertyOp27
 70
     1
102
RTVSPropertyOp28
 70
     1
102
RTVSPropertyOp29
 70
     1
102
RTVSPropertyOp30
 70
     1
102
RTVSPropertyOp31
 70
     1
102
RTVSPropertyOp32
 70
     1
102
RTVSPropertyOp33
 70
     1
102
RTVSPropertyOp34
 70
     1
102
RTVSPropertyOp35
 70
     1
102
RTVSPropertyOp36
 70
     1
102
RTVSPropertyOp37
 70
     1
102
RTVSPropertyOp38
 70
     1
102
RTVSPropertyOp39
 70
     1
102
RTVSPropertyOp40
 70
     1
102
RTVSPropertyOp41
 70
     1
102
RTVSPropertyOp42
 70
     1
102
RTVSPropertyOp43
 70
     1
102
RTVSPropertyOp44
 70
     1
102
RTVSPropertyOp45
 70
     1
102
RTVSPropertyOp46
 70
     1
102
RTVSPropertyOp47
 70
     1
102
RTVSPropertyOp48
 70
     1
102
RTVSPropertyOp49
 70
     1
102
RTVSPropertyOp50
 70
     1
102
RTVSPropertyOp51
 70
     0
102
RTVSPropertyOp52
 70
     0
102
RTVSPropertyOp53
 70
     1
102
RTVSPropertyOp54
 70
     1
102
RTVSPropertyOp55
 70
     1
102
RTVSPropertyOp56
 70
     1
102
RTVSPropertyOp57
 70
     1
102
RTVSPropertyOp58
 70
     1
102
RTVSPropertyOp59
 70
     1
102
RTVSPropertyOp60
 70
     1
102
RTVSPropertyOp61
 70
     1
102
RTVSPropertyOp62
 70
     1
  0
XRECORD
  5
388D
102
{ACAD_REACTORS
330
388C
102
}
330
388C
100
AcDbXrecord
280
     1
102
RTVSPost2010Prop28
280
     0
102
RTVSPost2010PropOp28
 70
     0
102
RTVSPost2010Prop29
280
     1
102
RTVSPost2010PropOp29
 70
     0
102
RTVSPost2010Prop30
280
     1
102
RTVSPost2010PropOp30
 70
     0
102
RTVSPost2010Prop31
280
     0
102
RTVSPost2010PropOp31
 70
     0
102
RTVSPost2010Prop32
280
     0
102
RTVSPost2010PropOp32
 70
     0
102
RTVSPost2010Prop33
280
     0
102
RTVSPost2010PropOp33
 70
     0
102
RTVSPost2010Prop34
280
     0
102
RTVSPost2010PropOp34
 70
     0
102
RTVSPost2010Prop35
280
     0
102
RTVSPost2010PropOp35
 70
     0
102
RTVSPost2010Prop36
280
     0
102
RTVSPost2010PropOp36
 70
     0
102
RTVSPost2010Prop37
 90
       50
102
RTVSPost2010PropOp37
 70
     0
102
RTVSPost2010Prop38
140
0.0
102
RTVSPost2010PropOp38
 70
     0
102
RTVSPost2010Prop39
140
1.0
102
RTVSPost2010PropOp39
 70
     0
102
RTVSPost2010Prop40
 90
        0
102
RTVSPost2010PropOp40
 70
     0
102
RTVSPost2010Prop41ColorIndex
 90
       18
102
RTVSPost2010Prop41ColorRGB
 90
        0
102
RTVSPost2010PropOp41
 70
     0
102
RTVSPost2010Prop42
 90
       50
102
RTVSPost2010PropOp42
 70
     0
102
RTVSPost2010Prop43
 90
        3
102
RTVSPost2010PropOp43
 70
     0
102
RTVSPost2010Prop44ColorIndex
 90
        5
102
RTVSPost2010Prop44ColorRGB
 90
      255
102
RTVSPost2010PropOp44
 70
     0
102
RTVSPost2010Prop45
280
     0
102
RTVSPost2010PropOp45
 70
     0
102
RTVSPost2010Prop46
 90
       50
102
RTVSPost2010PropOp46
 70
     0
102
RTVSPost2010Prop47
 90
       50
102
RTVSPost2010PropOp47
 70
     0
102
RTVSPost2010Prop48
 90
       50
102
RTVSPost2010PropOp48
 70
     0
102
RTVSPost2010Prop49
280
     0
102
RTVSPost2010PropOp49
 70
     0
102
RTVSPost2010Prop50
 90
       50
102
RTVSPost2010PropOp50
 70
     0
102
RTVSPost2010Prop51ColorIndex
 90
      256
102
RTVSPost2010Prop51ColorRGB
 90
-16777216
102
RTVSPost2010PropOp51
 70
     0
102
RTVSPost2010Prop52
140
1.0
102
RTVSPost2010PropOp52
 70
     0
102
RTVSPost2010Prop53
 90
        2
102
RTVSPost2010PropOp53
 70
     0
102
RTVSPost2010Prop54
  1
strokes_ogs.tif
102
RTVSPost2010PropOp54
 70
     0
102
RTVSPost2010Prop55
280
     0
102
RTVSPost2010PropOp55
 70
     0
102
RTVSPost2010Prop56
140
1.0
102
RTVSPost2010PropOp56
 70
     0
102
RTVSPost2010Prop57
140
1.0
102
RTVSPost2010PropOp57
 70
     0
102
RTVSPropertyOp0
 70
     0
102
RTVSPropertyOp1
 70
     0
102
RTVSPropertyOp2
 70
     0
102
RTVSPropertyOp3
 70
     0
102
RTVSPropertyOp4
 70
     0
102
RTVSPropertyOp5
 70
     0
102
RTVSPropertyOp6
 70
     0
102
RTVSPropertyOp7
 70
     0
102
RTVSPropertyOp8
 70
     0
102
RTVSPropertyOp9
 70
     0
102
RTVSPropertyOp10
 70
     0
102
RTVSPropertyOp11
 70
     0
102
RTVSPropertyOp12
 70
     0
102
RTVSPropertyOp13
 70
     0
102
RTVSPropertyOp14
 70
     2
102
RTVSPropertyOp15
 70
     0
102
RTVSPropertyOp16
 70
     0
102
RTVSPropertyOp17
 70
     0
102
RTVSPropertyOp18
 70
     0
102
RTVSPropertyOp19
 70
     0
102
RTVSPropertyOp20
 70
     0
102
RTVSPropertyOp21
 70
     0
102
RTVSPropertyOp22
 70
     0
102
RTVSPropertyOp23
 70
     0
102
RTVSPropertyOp24
 70
     0
102
RTVSPropertyOp25
 70
     0
102
RTVSPropertyOp26
 70
     0
102
RTVSPropertyOp27
 70
     0
102
RTVSPropertyOp28
 70
     0
102
RTVSPropertyOp29
 70
     0
102
RTVSPropertyOp30
 70
     0
102
RTVSPropertyOp31
 70
     0
102
RTVSPropertyOp32
 70
     0
102
RTVSPropertyOp33
 70
     0
102
RTVSPropertyOp34
 70
     0
102
RTVSPropertyOp35
 70
     0
102
RTVSPropertyOp36
 70
     0
102
RTVSPropertyOp37
 70
     0
102
RTVSPropertyOp38
 70
     0
102
RTVSPropertyOp39
 70
     0
102
RTVSPropertyOp40
 70
     0
102
RTVSPropertyOp41
 70
     0
102
RTVSPropertyOp42
 70
     0
102
RTVSPropertyOp43
 70
     0
102
RTVSPropertyOp44
 70
     0
102
RTVSPropertyOp45
 70
     0
102
RTVSPropertyOp46
 70
     0
102
RTVSPropertyOp47
 70
     0
102
RTVSPropertyOp48
 70
     0
102
RTVSPropertyOp49
 70
     0
102
RTVSPropertyOp50
 70
     0
102
RTVSPropertyOp51
 70
     0
102
RTVSPropertyOp52
 70
     0
102
RTVSPropertyOp53
 70
     0
102
RTVSPropertyOp54
 70
     0
102
RTVSPropertyOp55
 70
     0
102
RTVSPropertyOp56
 70
     0
102
RTVSPropertyOp57
 70
     0
102
RTVSPropertyOp58
 70
     0
102
RTVSPropertyOp59
 70
     0
102
RTVSPropertyOp60
 70
     0
102
RTVSPropertyOp61
 70
     0
102
RTVSPropertyOp62
 70
     0
  0
XRECORD
  5
387D
102
{ACAD_REACTORS
330
387C
102
}
330
387C
100
AcDbXrecord
280
     1
102
RTVSPost2010Prop28
280
     0
102
RTVSPost2010PropOp28
 70
     1
102
RTVSPost2010Prop29
280
     1
102
RTVSPost2010PropOp29
 70
     1
102
RTVSPost2010Prop30
280
     1
102
RTVSPost2010PropOp30
 70
     1
102
RTVSPost2010Prop31
280
     0
102
RTVSPost2010PropOp31
 70
     1
102
RTVSPost2010Prop32
280
     0
102
RTVSPost2010PropOp32
 70
     1
102
RTVSPost2010Prop33
280
     0
102
RTVSPost2010PropOp33
 70
     1
102
RTVSPost2010Prop34
280
     0
102
RTVSPost2010PropOp34
 70
     1
102
RTVSPost2010Prop35
280
     0
102
RTVSPost2010PropOp35
 70
     1
102
RTVSPost2010Prop36
280
     0
102
RTVSPost2010PropOp36
 70
     1
102
RTVSPost2010Prop37
 90
       50
102
RTVSPost2010PropOp37
 70
     1
102
RTVSPost2010Prop38
140
0.0
102
RTVSPost2010PropOp38
 70
     1
102
RTVSPost2010Prop39
140
1.0
102
RTVSPost2010PropOp39
 70
     1
102
RTVSPost2010Prop40
 90
        0
102
RTVSPost2010PropOp40
 70
     1
102
RTVSPost2010Prop41ColorIndex
 90
       18
102
RTVSPost2010Prop41ColorRGB
 90
        0
102
RTVSPost2010PropOp41
 70
     1
102
RTVSPost2010Prop42
 90
       50
102
RTVSPost2010PropOp42
 70
     1
102
RTVSPost2010Prop43
 90
        3
102
RTVSPost2010PropOp43
 70
     1
102
RTVSPost2010Prop44ColorIndex
 90
        5
102
RTVSPost2010Prop44ColorRGB
 90
      255
102
RTVSPost2010PropOp44
 70
     1
102
RTVSPost2010Prop45
280
     0
102
RTVSPost2010PropOp45
 70
     1
102
RTVSPost2010Prop46
 90
       50
102
RTVSPost2010PropOp46
 70
     1
102
RTVSPost2010Prop47
 90
       50
102
RTVSPost2010PropOp47
 70
     1
102
RTVSPost2010Prop48
 90
       50
102
RTVSPost2010PropOp48
 70
     1
102
RTVSPost2010Prop49
280
     0
102
RTVSPost2010PropOp49
 70
     1
102
RTVSPost2010Prop50
 90
       50
102
RTVSPost2010PropOp50
 70
     1
102
RTVSPost2010Prop51ColorIndex
 90
      256
102
RTVSPost2010Prop51ColorRGB
 90
-16777216
102
RTVSPost2010PropOp51
 70
     0
102
RTVSPost2010Prop52
140
1.0
102
RTVSPost2010PropOp52
 70
     0
102
RTVSPost2010Prop53
 90
        2
102
RTVSPost2010PropOp53
 70
     1
102
RTVSPost2010Prop54
  1
strokes_ogs.tif
102
RTVSPost2010PropOp54
 70
     1
102
RTVSPost2010Prop55
280
     0
102
RTVSPost2010PropOp55
 70
     1
102
RTVSPost2010Prop56
140
1.0
102
RTVSPost2010PropOp56
 70
     1
102
RTVSPost2010Prop57
140
1.0
102
RTVSPost2010PropOp57
 70
     1
102
RTVSPropertyOp0
 70
     1
102
RTVSPropertyOp1
 70
     1
102
RTVSPropertyOp2
 70
     1
102
RTVSPropertyOp3
 70
     1
102
RTVSPropertyOp4
 70
     1
102
RTVSPropertyOp5
 70
     1
102
RTVSPropertyOp6
 70
     1
102
RTVSPropertyOp7
 70
     1
102
RTVSPropertyOp8
 70
     1
102
RTVSPropertyOp9
 70
     1
102
RTVSPropertyOp10
 70
     1
102
RTVSPropertyOp11
 70
     1
102
RTVSPropertyOp12
 70
     1
102
RTVSPropertyOp13
 70
     1
102
RTVSPropertyOp14
 70
     1
102
RTVSPropertyOp15
 70
     1
102
RTVSPropertyOp16
 70
     1
102
RTVSPropertyOp17
 70
     1
102
RTVSPropertyOp18
 70
     1
102
RTVSPropertyOp19
 70
     1
102
RTVSPropertyOp20
 70
     1
102
RTVSPropertyOp21
 70
     1
102
RTVSPropertyOp22
 70
     1
102
RTVSPropertyOp23
 70
     1
102
RTVSPropertyOp24
 70
     1
102
RTVSPropertyOp25
 70
     1
102
RTVSPropertyOp26
 70
     1
102
RTVSPropertyOp27
 70
     1
102
RTVSPropertyOp28
 70
     1
102
RTVSPropertyOp29
 70
     1
102
RTVSPropertyOp30
 70
     1
102
RTVSPropertyOp31
 70
     1
102
RTVSPropertyOp32
 70
     1
102
RTVSPropertyOp33
 70
     1
102
RTVSPropertyOp34
 70
     1
102
RTVSPropertyOp35
 70
     1
102
RTVSPropertyOp36
 70
     1
102
RTVSPropertyOp37
 70
     1
102
RTVSPropertyOp38
 70
     1
102
RTVSPropertyOp39
 70
     1
102
RTVSPropertyOp40
 70
     1
102
RTVSPropertyOp41
 70
     1
102
RTVSPropertyOp42
 70
     1
102
RTVSPropertyOp43
 70
     1
102
RTVSPropertyOp44
 70
     1
102
RTVSPropertyOp45
 70
     1
102
RTVSPropertyOp46
 70
     1
102
RTVSPropertyOp47
 70
     1
102
RTVSPropertyOp48
 70
     1
102
RTVSPropertyOp49
 70
     1
102
RTVSPropertyOp50
 70
     1
102
RTVSPropertyOp51
 70
     0
102
RTVSPropertyOp52
 70
     0
102
RTVSPropertyOp53
 70
     1
102
RTVSPropertyOp54
 70
     1
102
RTVSPropertyOp55
 70
     1
102
RTVSPropertyOp56
 70
     1
102
RTVSPropertyOp57
 70
     1
102
RTVSPropertyOp58
 70
     1
102
RTVSPropertyOp59
 70
     1
102
RTVSPropertyOp60
 70
     1
102
RTVSPropertyOp61
 70
     1
102
RTVSPropertyOp62
 70
     1
  0
XRECORD
  5
388F
102
{ACAD_REACTORS
330
388E
102
}
330
388E
100
AcDbXrecord
280
     1
102
RTVSPost2010Prop28
280
     0
102
RTVSPost2010PropOp28
 70
     0
102
RTVSPost2010Prop29
280
     1
102
RTVSPost2010PropOp29
 70
     0
102
RTVSPost2010Prop30
280
     1
102
RTVSPost2010PropOp30
 70
     0
102
RTVSPost2010Prop31
280
     0
102
RTVSPost2010PropOp31
 70
     0
102
RTVSPost2010Prop32
280
     0
102
RTVSPost2010PropOp32
 70
     0
102
RTVSPost2010Prop33
280
     0
102
RTVSPost2010PropOp33
 70
     0
102
RTVSPost2010Prop34
280
     0
102
RTVSPost2010PropOp34
 70
     0
102
RTVSPost2010Prop35
280
     0
102
RTVSPost2010PropOp35
 70
     0
102
RTVSPost2010Prop36
280
     0
102
RTVSPost2010PropOp36
 70
     0
102
RTVSPost2010Prop37
 90
       50
102
RTVSPost2010PropOp37
 70
     0
102
RTVSPost2010Prop38
140
0.0
102
RTVSPost2010PropOp38
 70
     0
102
RTVSPost2010Prop39
140
1.0
102
RTVSPost2010PropOp39
 70
     0
102
RTVSPost2010Prop40
 90
        0
102
RTVSPost2010PropOp40
 70
     0
102
RTVSPost2010Prop41ColorIndex
 90
       18
102
RTVSPost2010Prop41ColorRGB
 90
        0
102
RTVSPost2010PropOp41
 70
     0
102
RTVSPost2010Prop42
 90
       50
102
RTVSPost2010PropOp42
 70
     0
102
RTVSPost2010Prop43
 90
        3
102
RTVSPost2010PropOp43
 70
     0
102
RTVSPost2010Prop44ColorIndex
 90
        5
102
RTVSPost2010Prop44ColorRGB
 90
      255
102
RTVSPost2010PropOp44
 70
     0
102
RTVSPost2010Prop45
280
     0
102
RTVSPost2010PropOp45
 70
     0
102
RTVSPost2010Prop46
 90
       50
102
RTVSPost2010PropOp46
 70
     0
102
RTVSPost2010Prop47
 90
       50
102
RTVSPost2010PropOp47
 70
     0
102
RTVSPost2010Prop48
 90
       50
102
RTVSPost2010PropOp48
 70
     0
102
RTVSPost2010Prop49
280
     0
102
RTVSPost2010PropOp49
 70
     0
102
RTVSPost2010Prop50
 90
       50
102
RTVSPost2010PropOp50
 70
     0
102
RTVSPost2010Prop51ColorIndex
 90
      256
102
RTVSPost2010Prop51ColorRGB
 90
-16777216
102
RTVSPost2010PropOp51
 70
     0
102
RTVSPost2010Prop52
140
1.0
102
RTVSPost2010PropOp52
 70
     0
102
RTVSPost2010Prop53
 90
        2
102
RTVSPost2010PropOp53
 70
     0
102
RTVSPost2010Prop54
  1
strokes_ogs.tif
102
RTVSPost2010PropOp54
 70
     0
102
RTVSPost2010Prop55
280
     0
102
RTVSPost2010PropOp55
 70
     0
102
RTVSPost2010Prop56
140
1.0
102
RTVSPost2010PropOp56
 70
     0
102
RTVSPost2010Prop57
140
1.0
102
RTVSPost2010PropOp57
 70
     0
102
RTVSPropertyOp0
 70
     0
102
RTVSPropertyOp1
 70
     0
102
RTVSPropertyOp2
 70
     0
102
RTVSPropertyOp3
 70
     0
102
RTVSPropertyOp4
 70
     0
102
RTVSPropertyOp5
 70
     0
102
RTVSPropertyOp6
 70
     0
102
RTVSPropertyOp7
 70
     0
102
RTVSPropertyOp8
 70
     0
102
RTVSPropertyOp9
 70
     0
102
RTVSPropertyOp10
 70
     0
102
RTVSPropertyOp11
 70
     0
102
RTVSPropertyOp12
 70
     0
102
RTVSPropertyOp13
 70
     0
102
RTVSPropertyOp14
 70
     2
102
RTVSPropertyOp15
 70
     0
102
RTVSPropertyOp16
 70
     0
102
RTVSPropertyOp17
 70
     0
102
RTVSPropertyOp18
 70
     0
102
RTVSPropertyOp19
 70
     0
102
RTVSPropertyOp20
 70
     0
102
RTVSPropertyOp21
 70
     0
102
RTVSPropertyOp22
 70
     0
102
RTVSPropertyOp23
 70
     0
102
RTVSPropertyOp24
 70
     0
102
RTVSPropertyOp25
 70
     0
102
RTVSPropertyOp26
 70
     0
102
RTVSPropertyOp27
 70
     0
102
RTVSPropertyOp28
 70
     0
102
RTVSPropertyOp29
 70
     0
102
RTVSPropertyOp30
 70
     0
102
RTVSPropertyOp31
 70
     0
102
RTVSPropertyOp32
 70
     0
102
RTVSPropertyOp33
 70
     0
102
RTVSPropertyOp34
 70
     0
102
RTVSPropertyOp35
 70
     0
102
RTVSPropertyOp36
 70
     0
102
RTVSPropertyOp37
 70
     0
102
RTVSPropertyOp38
 70
     0
102
RTVSPropertyOp39
 70
     0
102
RTVSPropertyOp40
 70
     0
102
RTVSPropertyOp41
 70
     0
102
RTVSPropertyOp42
 70
     0
102
RTVSPropertyOp43
 70
     0
102
RTVSPropertyOp44
 70
     0
102
RTVSPropertyOp45
 70
     0
102
RTVSPropertyOp46
 70
     0
102
RTVSPropertyOp47
 70
     0
102
RTVSPropertyOp48
 70
     0
102
RTVSPropertyOp49
 70
     0
102
RTVSPropertyOp50
 70
     0
102
RTVSPropertyOp51
 70
     0
102
RTVSPropertyOp52
 70
     0
102
RTVSPropertyOp53
 70
     0
102
RTVSPropertyOp54
 70
     0
102
RTVSPropertyOp55
 70
     0
102
RTVSPropertyOp56
 70
     0
102
RTVSPropertyOp57
 70
     0
102
RTVSPropertyOp58
 70
     0
102
RTVSPropertyOp59
 70
     0
102
RTVSPropertyOp60
 70
     0
102
RTVSPropertyOp61
 70
     0
102
RTVSPropertyOp62
 70
     0
  0
XRECORD
  5
3875
102
{ACAD_REACTORS
330
3874
102
}
330
3874
100
AcDbXrecord
280
     1
102
RTVSPost2010Prop28
280
     0
102
RTVSPost2010PropOp28
 70
     1
102
RTVSPost2010Prop29
280
     1
102
RTVSPost2010PropOp29
 70
     1
102
RTVSPost2010Prop30
280
     1
102
RTVSPost2010PropOp30
 70
     1
102
RTVSPost2010Prop31
280
     0
102
RTVSPost2010PropOp31
 70
     1
102
RTVSPost2010Prop32
280
     0
102
RTVSPost2010PropOp32
 70
     1
102
RTVSPost2010Prop33
280
     0
102
RTVSPost2010PropOp33
 70
     1
102
RTVSPost2010Prop34
280
     0
102
RTVSPost2010PropOp34
 70
     1
102
RTVSPost2010Prop35
280
     0
102
RTVSPost2010PropOp35
 70
     1
102
RTVSPost2010Prop36
280
     0
102
RTVSPost2010PropOp36
 70
     1
102
RTVSPost2010Prop37
 90
       50
102
RTVSPost2010PropOp37
 70
     1
102
RTVSPost2010Prop38
140
0.0
102
RTVSPost2010PropOp38
 70
     1
102
RTVSPost2010Prop39
140
1.0
102
RTVSPost2010PropOp39
 70
     1
102
RTVSPost2010Prop40
 90
        0
102
RTVSPost2010PropOp40
 70
     1
102
RTVSPost2010Prop41ColorIndex
 90
       18
102
RTVSPost2010Prop41ColorRGB
 90
        0
102
RTVSPost2010PropOp41
 70
     1
102
RTVSPost2010Prop42
 90
       50
102
RTVSPost2010PropOp42
 70
     1
102
RTVSPost2010Prop43
 90
        3
102
RTVSPost2010PropOp43
 70
     1
102
RTVSPost2010Prop44ColorIndex
 90
        5
102
RTVSPost2010Prop44ColorRGB
 90
      255
102
RTVSPost2010PropOp44
 70
     1
102
RTVSPost2010Prop45
280
     0
102
RTVSPost2010PropOp45
 70
     1
102
RTVSPost2010Prop46
 90
       50
102
RTVSPost2010PropOp46
 70
     1
102
RTVSPost2010Prop47
 90
       50
102
RTVSPost2010PropOp47
 70
     1
102
RTVSPost2010Prop48
 90
       50
102
RTVSPost2010PropOp48
 70
     1
102
RTVSPost2010Prop49
280
     0
102
RTVSPost2010PropOp49
 70
     1
102
RTVSPost2010Prop50
 90
       50
102
RTVSPost2010PropOp50
 70
     1
102
RTVSPost2010Prop51ColorIndex
 90
      256
102
RTVSPost2010Prop51ColorRGB
 90
-16777216
102
RTVSPost2010PropOp51
 70
     0
102
RTVSPost2010Prop52
140
1.0
102
RTVSPost2010PropOp52
 70
     0
102
RTVSPost2010Prop53
 90
        2
102
RTVSPost2010PropOp53
 70
     1
102
RTVSPost2010Prop54
  1
strokes_ogs.tif
102
RTVSPost2010PropOp54
 70
     1
102
RTVSPost2010Prop55
280
     0
102
RTVSPost2010PropOp55
 70
     1
102
RTVSPost2010Prop56
140
1.0
102
RTVSPost2010PropOp56
 70
     1
102
RTVSPost2010Prop57
140
1.0
102
RTVSPost2010PropOp57
 70
     1
102
RTVSPropertyOp0
 70
     1
102
RTVSPropertyOp1
 70
     1
102
RTVSPropertyOp2
 70
     1
102
RTVSPropertyOp3
 70
     1
102
RTVSPropertyOp4
 70
     1
102
RTVSPropertyOp5
 70
     1
102
RTVSPropertyOp6
 70
     1
102
RTVSPropertyOp7
 70
     1
102
RTVSPropertyOp8
 70
     1
102
RTVSPropertyOp9
 70
     1
102
RTVSPropertyOp10
 70
     1
102
RTVSPropertyOp11
 70
     1
102
RTVSPropertyOp12
 70
     1
102
RTVSPropertyOp13
 70
     1
102
RTVSPropertyOp14
 70
     1
102
RTVSPropertyOp15
 70
     1
102
RTVSPropertyOp16
 70
     1
102
RTVSPropertyOp17
 70
     1
102
RTVSPropertyOp18
 70
     1
102
RTVSPropertyOp19
 70
     1
102
RTVSPropertyOp20
 70
     1
102
RTVSPropertyOp21
 70
     1
102
RTVSPropertyOp22
 70
     1
102
RTVSPropertyOp23
 70
     1
102
RTVSPropertyOp24
 70
     1
102
RTVSPropertyOp25
 70
     1
102
RTVSPropertyOp26
 70
     1
102
RTVSPropertyOp27
 70
     1
102
RTVSPropertyOp28
 70
     1
102
RTVSPropertyOp29
 70
     1
102
RTVSPropertyOp30
 70
     1
102
RTVSPropertyOp31
 70
     1
102
RTVSPropertyOp32
 70
     1
102
RTVSPropertyOp33
 70
     1
102
RTVSPropertyOp34
 70
     1
102
RTVSPropertyOp35
 70
     1
102
RTVSPropertyOp36
 70
     1
102
RTVSPropertyOp37
 70
     1
102
RTVSPropertyOp38
 70
     1
102
RTVSPropertyOp39
 70
     1
102
RTVSPropertyOp40
 70
     1
102
RTVSPropertyOp41
 70
     1
102
RTVSPropertyOp42
 70
     1
102
RTVSPropertyOp43
 70
     1
102
RTVSPropertyOp44
 70
     1
102
RTVSPropertyOp45
 70
     1
102
RTVSPropertyOp46
 70
     1
102
RTVSPropertyOp47
 70
     1
102
RTVSPropertyOp48
 70
     1
102
RTVSPropertyOp49
 70
     1
102
RTVSPropertyOp50
 70
     1
102
RTVSPropertyOp51
 70
     0
102
RTVSPropertyOp52
 70
     0
102
RTVSPropertyOp53
 70
     1
102
RTVSPropertyOp54
 70
     1
102
RTVSPropertyOp55
 70
     1
102
RTVSPropertyOp56
 70
     1
102
RTVSPropertyOp57
 70
     1
102
RTVSPropertyOp58
 70
     1
102
RTVSPropertyOp59
 70
     1
102
RTVSPropertyOp60
 70
     1
102
RTVSPropertyOp61
 70
     1
102
RTVSPropertyOp62
 70
     1
  0
XRECORD
  5
388B
102
{ACAD_REACTORS
330
388A
102
}
330
388A
100
AcDbXrecord
280
     1
102
RTVSPost2010Prop28
280
     0
102
RTVSPost2010PropOp28
 70
     1
102
RTVSPost2010Prop29
280
     1
102
RTVSPost2010PropOp29
 70
     1
102
RTVSPost2010Prop30
280
     1
102
RTVSPost2010PropOp30
 70
     1
102
RTVSPost2010Prop31
280
     0
102
RTVSPost2010PropOp31
 70
     1
102
RTVSPost2010Prop32
280
     0
102
RTVSPost2010PropOp32
 70
     1
102
RTVSPost2010Prop33
280
     0
102
RTVSPost2010PropOp33
 70
     1
102
RTVSPost2010Prop34
280
     0
102
RTVSPost2010PropOp34
 70
     1
102
RTVSPost2010Prop35
280
     0
102
RTVSPost2010PropOp35
 70
     1
102
RTVSPost2010Prop36
280
     0
102
RTVSPost2010PropOp36
 70
     1
102
RTVSPost2010Prop37
 90
       50
102
RTVSPost2010PropOp37
 70
     1
102
RTVSPost2010Prop38
140
0.0
102
RTVSPost2010PropOp38
 70
     1
102
RTVSPost2010Prop39
140
1.0
102
RTVSPost2010PropOp39
 70
     1
102
RTVSPost2010Prop40
 90
        0
102
RTVSPost2010PropOp40
 70
     1
102
RTVSPost2010Prop41ColorIndex
 90
       18
102
RTVSPost2010Prop41ColorRGB
 90
        0
102
RTVSPost2010PropOp41
 70
     1
102
RTVSPost2010Prop42
 90
       50
102
RTVSPost2010PropOp42
 70
     1
102
RTVSPost2010Prop43
 90
        3
102
RTVSPost2010PropOp43
 70
     1
102
RTVSPost2010Prop44ColorIndex
 90
        5
102
RTVSPost2010Prop44ColorRGB
 90
      255
102
RTVSPost2010PropOp44
 70
     1
102
RTVSPost2010Prop45
280
     0
102
RTVSPost2010PropOp45
 70
     1
102
RTVSPost2010Prop46
 90
       50
102
RTVSPost2010PropOp46
 70
     1
102
RTVSPost2010Prop47
 90
       50
102
RTVSPost2010PropOp47
 70
     1
102
RTVSPost2010Prop48
 90
       50
102
RTVSPost2010PropOp48
 70
     1
102
RTVSPost2010Prop49
280
     0
102
RTVSPost2010PropOp49
 70
     1
102
RTVSPost2010Prop50
 90
       50
102
RTVSPost2010PropOp50
 70
     1
102
RTVSPost2010Prop51ColorIndex
 90
      256
102
RTVSPost2010Prop51ColorRGB
 90
-16777216
102
RTVSPost2010PropOp51
 70
     0
102
RTVSPost2010Prop52
140
1.0
102
RTVSPost2010PropOp52
 70
     0
102
RTVSPost2010Prop53
 90
        2
102
RTVSPost2010PropOp53
 70
     1
102
RTVSPost2010Prop54
  1
strokes_ogs.tif
102
RTVSPost2010PropOp54
 70
     1
102
RTVSPost2010Prop55
280
     0
102
RTVSPost2010PropOp55
 70
     1
102
RTVSPost2010Prop56
140
1.0
102
RTVSPost2010PropOp56
 70
     1
102
RTVSPost2010Prop57
140
1.0
102
RTVSPost2010PropOp57
 70
     1
102
RTVSPropertyOp0
 70
     1
102
RTVSPropertyOp1
 70
     1
102
RTVSPropertyOp2
 70
     1
102
RTVSPropertyOp3
 70
     1
102
RTVSPropertyOp4
 70
     1
102
RTVSPropertyOp5
 70
     1
102
RTVSPropertyOp6
 70
     1
102
RTVSPropertyOp7
 70
     1
102
RTVSPropertyOp8
 70
     1
102
RTVSPropertyOp9
 70
     1
102
RTVSPropertyOp10
 70
     1
102
RTVSPropertyOp11
 70
     1
102
RTVSPropertyOp12
 70
     1
102
RTVSPropertyOp13
 70
     1
102
RTVSPropertyOp14
 70
     1
102
RTVSPropertyOp15
 70
     1
102
RTVSPropertyOp16
 70
     1
102
RTVSPropertyOp17
 70
     1
102
RTVSPropertyOp18
 70
     1
102
RTVSPropertyOp19
 70
     1
102
RTVSPropertyOp20
 70
     1
102
RTVSPropertyOp21
 70
     1
102
RTVSPropertyOp22
 70
     1
102
RTVSPropertyOp23
 70
     1
102
RTVSPropertyOp24
 70
     1
102
RTVSPropertyOp25
 70
     1
102
RTVSPropertyOp26
 70
     1
102
RTVSPropertyOp27
 70
     1
102
RTVSPropertyOp28
 70
     1
102
RTVSPropertyOp29
 70
     1
102
RTVSPropertyOp30
 70
     1
102
RTVSPropertyOp31
 70
     1
102
RTVSPropertyOp32
 70
     1
102
RTVSPropertyOp33
 70
     1
102
RTVSPropertyOp34
 70
     1
102
RTVSPropertyOp35
 70
     1
102
RTVSPropertyOp36
 70
     1
102
RTVSPropertyOp37
 70
     1
102
RTVSPropertyOp38
 70
     1
102
RTVSPropertyOp39
 70
     1
102
RTVSPropertyOp40
 70
     1
102
RTVSPropertyOp41
 70
     1
102
RTVSPropertyOp42
 70
     1
102
RTVSPropertyOp43
 70
     1
102
RTVSPropertyOp44
 70
     1
102
RTVSPropertyOp45
 70
     1
102
RTVSPropertyOp46
 70
     1
102
RTVSPropertyOp47
 70
     1
102
RTVSPropertyOp48
 70
     1
102
RTVSPropertyOp49
 70
     1
102
RTVSPropertyOp50
 70
     1
102
RTVSPropertyOp51
 70
     0
102
RTVSPropertyOp52
 70
     0
102
RTVSPropertyOp53
 70
     1
102
RTVSPropertyOp54
 70
     1
102
RTVSPropertyOp55
 70
     1
102
RTVSPropertyOp56
 70
     1
102
RTVSPropertyOp57
 70
     1
102
RTVSPropertyOp58
 70
     1
102
RTVSPropertyOp59
 70
     1
102
RTVSPropertyOp60
 70
     1
102
RTVSPropertyOp61
 70
     1
102
RTVSPropertyOp62
 70
     1
  0
XRECORD
  5
3889
102
{ACAD_REACTORS
330
3888
102
}
330
3888
100
AcDbXrecord
280
     1
102
RTVSPost2010Prop28
280
     0
102
RTVSPost2010PropOp28
 70
     1
102
RTVSPost2010Prop29
280
     1
102
RTVSPost2010PropOp29
 70
     1
102
RTVSPost2010Prop30
280
     1
102
RTVSPost2010PropOp30
 70
     1
102
RTVSPost2010Prop31
280
     0
102
RTVSPost2010PropOp31
 70
     1
102
RTVSPost2010Prop32
280
     0
102
RTVSPost2010PropOp32
 70
     1
102
RTVSPost2010Prop33
280
     0
102
RTVSPost2010PropOp33
 70
     1
102
RTVSPost2010Prop34
280
     0
102
RTVSPost2010PropOp34
 70
     1
102
RTVSPost2010Prop35
280
     0
102
RTVSPost2010PropOp35
 70
     1
102
RTVSPost2010Prop36
280
     0
102
RTVSPost2010PropOp36
 70
     1
102
RTVSPost2010Prop37
 90
       50
102
RTVSPost2010PropOp37
 70
     1
102
RTVSPost2010Prop38
140
0.0
102
RTVSPost2010PropOp38
 70
     1
102
RTVSPost2010Prop39
140
1.0
102
RTVSPost2010PropOp39
 70
     1
102
RTVSPost2010Prop40
 90
        0
102
RTVSPost2010PropOp40
 70
     1
102
RTVSPost2010Prop41ColorIndex
 90
       18
102
RTVSPost2010Prop41ColorRGB
 90
        0
102
RTVSPost2010PropOp41
 70
     1
102
RTVSPost2010Prop42
 90
       50
102
RTVSPost2010PropOp42
 70
     1
102
RTVSPost2010Prop43
 90
        3
102
RTVSPost2010PropOp43
 70
     1
102
RTVSPost2010Prop44ColorIndex
 90
        5
102
RTVSPost2010Prop44ColorRGB
 90
      255
102
RTVSPost2010PropOp44
 70
     1
102
RTVSPost2010Prop45
280
     0
102
RTVSPost2010PropOp45
 70
     1
102
RTVSPost2010Prop46
 90
       50
102
RTVSPost2010PropOp46
 70
     1
102
RTVSPost2010Prop47
 90
       50
102
RTVSPost2010PropOp47
 70
     1
102
RTVSPost2010Prop48
 90
       50
102
RTVSPost2010PropOp48
 70
     1
102
RTVSPost2010Prop49
280
     0
102
RTVSPost2010PropOp49
 70
     1
102
RTVSPost2010Prop50
 90
       50
102
RTVSPost2010PropOp50
 70
     1
102
RTVSPost2010Prop51ColorIndex
 90
      256
102
RTVSPost2010Prop51ColorRGB
 90
-16777216
102
RTVSPost2010PropOp51
 70
     0
102
RTVSPost2010Prop52
140
1.0
102
RTVSPost2010PropOp52
 70
     0
102
RTVSPost2010Prop53
 90
        2
102
RTVSPost2010PropOp53
 70
     1
102
RTVSPost2010Prop54
  1
strokes_ogs.tif
102
RTVSPost2010PropOp54
 70
     1
102
RTVSPost2010Prop55
280
     0
102
RTVSPost2010PropOp55
 70
     1
102
RTVSPost2010Prop56
140
1.0
102
RTVSPost2010PropOp56
 70
     1
102
RTVSPost2010Prop57
140
1.0
102
RTVSPost2010PropOp57
 70
     1
102
RTVSPropertyOp0
 70
     1
102
RTVSPropertyOp1
 70
     1
102
RTVSPropertyOp2
 70
     1
102
RTVSPropertyOp3
 70
     1
102
RTVSPropertyOp4
 70
     1
102
RTVSPropertyOp5
 70
     1
102
RTVSPropertyOp6
 70
     1
102
RTVSPropertyOp7
 70
     1
102
RTVSPropertyOp8
 70
     1
102
RTVSPropertyOp9
 70
     1
102
RTVSPropertyOp10
 70
     1
102
RTVSPropertyOp11
 70
     1
102
RTVSPropertyOp12
 70
     1
102
RTVSPropertyOp13
 70
     1
102
RTVSPropertyOp14
 70
     1
102
RTVSPropertyOp15
 70
     1
102
RTVSPropertyOp16
 70
     1
102
RTVSPropertyOp17
 70
     1
102
RTVSPropertyOp18
 70
     1
102
RTVSPropertyOp19
 70
     1
102
RTVSPropertyOp20
 70
     1
102
RTVSPropertyOp21
 70
     1
102
RTVSPropertyOp22
 70
     1
102
RTVSPropertyOp23
 70
     1
102
RTVSPropertyOp24
 70
     1
102
RTVSPropertyOp25
 70
     1
102
RTVSPropertyOp26
 70
     1
102
RTVSPropertyOp27
 70
     1
102
RTVSPropertyOp28
 70
     1
102
RTVSPropertyOp29
 70
     1
102
RTVSPropertyOp30
 70
     1
102
RTVSPropertyOp31
 70
     1
102
RTVSPropertyOp32
 70
     1
102
RTVSPropertyOp33
 70
     1
102
RTVSPropertyOp34
 70
     1
102
RTVSPropertyOp35
 70
     1
102
RTVSPropertyOp36
 70
     1
102
RTVSPropertyOp37
 70
     1
102
RTVSPropertyOp38
 70
     1
102
RTVSPropertyOp39
 70
     1
102
RTVSPropertyOp40
 70
     1
102
RTVSPropertyOp41
 70
     1
102
RTVSPropertyOp42
 70
     1
102
RTVSPropertyOp43
 70
     1
102
RTVSPropertyOp44
 70
     1
102
RTVSPropertyOp45
 70
     1
102
RTVSPropertyOp46
 70
     1
102
RTVSPropertyOp47
 70
     1
102
RTVSPropertyOp48
 70
     1
102
RTVSPropertyOp49
 70
     1
102
RTVSPropertyOp50
 70
     1
102
RTVSPropertyOp51
 70
     0
102
RTVSPropertyOp52
 70
     0
102
RTVSPropertyOp53
 70
     1
102
RTVSPropertyOp54
 70
     1
102
RTVSPropertyOp55
 70
     1
102
RTVSPropertyOp56
 70
     1
102
RTVSPropertyOp57
 70
     1
102
RTVSPropertyOp58
 70
     1
102
RTVSPropertyOp59
 70
     1
102
RTVSPropertyOp60
 70
     1
102
RTVSPropertyOp61
 70
     1
102
RTVSPropertyOp62
 70
     1
  0
XRECORD
  5
3883
102
{ACAD_REACTORS
330
3882
102
}
330
3882
100
AcDbXrecord
280
     1
102
RTVSPost2010Prop28
280
     0
102
RTVSPost2010PropOp28
 70
     1
102
RTVSPost2010Prop29
280
     1
102
RTVSPost2010PropOp29
 70
     1
102
RTVSPost2010Prop30
280
     1
102
RTVSPost2010PropOp30
 70
     1
102
RTVSPost2010Prop31
280
     0
102
RTVSPost2010PropOp31
 70
     1
102
RTVSPost2010Prop32
280
     0
102
RTVSPost2010PropOp32
 70
     1
102
RTVSPost2010Prop33
280
     0
102
RTVSPost2010PropOp33
 70
     1
102
RTVSPost2010Prop34
280
     0
102
RTVSPost2010PropOp34
 70
     1
102
RTVSPost2010Prop35
280
     0
102
RTVSPost2010PropOp35
 70
     1
102
RTVSPost2010Prop36
280
     0
102
RTVSPost2010PropOp36
 70
     1
102
RTVSPost2010Prop37
 90
       50
102
RTVSPost2010PropOp37
 70
     1
102
RTVSPost2010Prop38
140
0.0
102
RTVSPost2010PropOp38
 70
     1
102
RTVSPost2010Prop39
140
1.0
102
RTVSPost2010PropOp39
 70
     1
102
RTVSPost2010Prop40
 90
        0
102
RTVSPost2010PropOp40
 70
     1
102
RTVSPost2010Prop41ColorIndex
 90
       18
102
RTVSPost2010Prop41ColorRGB
 90
        0
102
RTVSPost2010PropOp41
 70
     1
102
RTVSPost2010Prop42
 90
       50
102
RTVSPost2010PropOp42
 70
     1
102
RTVSPost2010Prop43
 90
        3
102
RTVSPost2010PropOp43
 70
     1
102
RTVSPost2010Prop44ColorIndex
 90
        5
102
RTVSPost2010Prop44ColorRGB
 90
      255
102
RTVSPost2010PropOp44
 70
     1
102
RTVSPost2010Prop45
280
     0
102
RTVSPost2010PropOp45
 70
     1
102
RTVSPost2010Prop46
 90
       50
102
RTVSPost2010PropOp46
 70
     1
102
RTVSPost2010Prop47
 90
       50
102
RTVSPost2010PropOp47
 70
     1
102
RTVSPost2010Prop48
 90
       50
102
RTVSPost2010PropOp48
 70
     1
102
RTVSPost2010Prop49
280
     0
102
RTVSPost2010PropOp49
 70
     1
102
RTVSPost2010Prop50
 90
       50
102
RTVSPost2010PropOp50
 70
     1
102
RTVSPost2010Prop51ColorIndex
 90
      256
102
RTVSPost2010Prop51ColorRGB
 90
-16777216
102
RTVSPost2010PropOp51
 70
     0
102
RTVSPost2010Prop52
140
1.0
102
RTVSPost2010PropOp52
 70
     0
102
RTVSPost2010Prop53
 90
        2
102
RTVSPost2010PropOp53
 70
     1
102
RTVSPost2010Prop54
  1
strokes_ogs.tif
102
RTVSPost2010PropOp54
 70
     1
102
RTVSPost2010Prop55
280
     0
102
RTVSPost2010PropOp55
 70
     1
102
RTVSPost2010Prop56
140
1.0
102
RTVSPost2010PropOp56
 70
     1
102
RTVSPost2010Prop57
140
1.0
102
RTVSPost2010PropOp57
 70
     1
102
RTVSPropertyOp0
 70
     1
102
RTVSPropertyOp1
 70
     1
102
RTVSPropertyOp2
 70
     1
102
RTVSPropertyOp3
 70
     1
102
RTVSPropertyOp4
 70
     1
102
RTVSPropertyOp5
 70
     1
102
RTVSPropertyOp6
 70
     1
102
RTVSPropertyOp7
 70
     1
102
RTVSPropertyOp8
 70
     1
102
RTVSPropertyOp9
 70
     1
102
RTVSPropertyOp10
 70
     1
102
RTVSPropertyOp11
 70
     1
102
RTVSPropertyOp12
 70
     1
102
RTVSPropertyOp13
 70
     1
102
RTVSPropertyOp14
 70
     1
102
RTVSPropertyOp15
 70
     1
102
RTVSPropertyOp16
 70
     1
102
RTVSPropertyOp17
 70
     1
102
RTVSPropertyOp18
 70
     1
102
RTVSPropertyOp19
 70
     1
102
RTVSPropertyOp20
 70
     1
102
RTVSPropertyOp21
 70
     1
102
RTVSPropertyOp22
 70
     1
102
RTVSPropertyOp23
 70
     1
102
RTVSPropertyOp24
 70
     1
102
RTVSPropertyOp25
 70
     1
102
RTVSPropertyOp26
 70
     1
102
RTVSPropertyOp27
 70
     1
102
RTVSPropertyOp28
 70
     1
102
RTVSPropertyOp29
 70
     1
102
RTVSPropertyOp30
 70
     1
102
RTVSPropertyOp31
 70
     1
102
RTVSPropertyOp32
 70
     1
102
RTVSPropertyOp33
 70
     1
102
RTVSPropertyOp34
 70
     1
102
RTVSPropertyOp35
 70
     1
102
RTVSPropertyOp36
 70
     1
102
RTVSPropertyOp37
 70
     1
102
RTVSPropertyOp38
 70
     1
102
RTVSPropertyOp39
 70
     1
102
RTVSPropertyOp40
 70
     1
102
RTVSPropertyOp41
 70
     1
102
RTVSPropertyOp42
 70
     1
102
RTVSPropertyOp43
 70
     1
102
RTVSPropertyOp44
 70
     1
102
RTVSPropertyOp45
 70
     1
102
RTVSPropertyOp46
 70
     1
102
RTVSPropertyOp47
 70
     1
102
RTVSPropertyOp48
 70
     1
102
RTVSPropertyOp49
 70
     1
102
RTVSPropertyOp50
 70
     1
102
RTVSPropertyOp51
 70
     0
102
RTVSPropertyOp52
 70
     0
102
RTVSPropertyOp53
 70
     1
102
RTVSPropertyOp54
 70
     1
102
RTVSPropertyOp55
 70
     1
102
RTVSPropertyOp56
 70
     1
102
RTVSPropertyOp57
 70
     1
102
RTVSPropertyOp58
 70
     1
102
RTVSPropertyOp59
 70
     1
102
RTVSPropertyOp60
 70
     1
102
RTVSPropertyOp61
 70
     1
102
RTVSPropertyOp62
 70
     1
  0
XRECORD
  5
3885
102
{ACAD_REACTORS
330
3884
102
}
330
3884
100
AcDbXrecord
280
     1
102
RTVSPost2010Prop28
280
     0
102
RTVSPost2010PropOp28
 70
     1
102
RTVSPost2010Prop29
280
     1
102
RTVSPost2010PropOp29
 70
     1
102
RTVSPost2010Prop30
280
     1
102
RTVSPost2010PropOp30
 70
     1
102
RTVSPost2010Prop31
280
     0
102
RTVSPost2010PropOp31
 70
     1
102
RTVSPost2010Prop32
280
     0
102
RTVSPost2010PropOp32
 70
     1
102
RTVSPost2010Prop33
280
     0
102
RTVSPost2010PropOp33
 70
     1
102
RTVSPost2010Prop34
280
     0
102
RTVSPost2010PropOp34
 70
     1
102
RTVSPost2010Prop35
280
     0
102
RTVSPost2010PropOp35
 70
     1
102
RTVSPost2010Prop36
280
     0
102
RTVSPost2010PropOp36
 70
     1
102
RTVSPost2010Prop37
 90
       50
102
RTVSPost2010PropOp37
 70
     1
102
RTVSPost2010Prop38
140
0.0
102
RTVSPost2010PropOp38
 70
     1
102
RTVSPost2010Prop39
140
1.0
102
RTVSPost2010PropOp39
 70
     1
102
RTVSPost2010Prop40
 90
        0
102
RTVSPost2010PropOp40
 70
     1
102
RTVSPost2010Prop41ColorIndex
 90
       18
102
RTVSPost2010Prop41ColorRGB
 90
        0
102
RTVSPost2010PropOp41
 70
     1
102
RTVSPost2010Prop42
 90
       50
102
RTVSPost2010PropOp42
 70
     1
102
RTVSPost2010Prop43
 90
        3
102
RTVSPost2010PropOp43
 70
     1
102
RTVSPost2010Prop44ColorIndex
 90
        5
102
RTVSPost2010Prop44ColorRGB
 90
      255
102
RTVSPost2010PropOp44
 70
     1
102
RTVSPost2010Prop45
280
     0
102
RTVSPost2010PropOp45
 70
     1
102
RTVSPost2010Prop46
 90
       50
102
RTVSPost2010PropOp46
 70
     1
102
RTVSPost2010Prop47
 90
       50
102
RTVSPost2010PropOp47
 70
     1
102
RTVSPost2010Prop48
 90
       50
102
RTVSPost2010PropOp48
 70
     1
102
RTVSPost2010Prop49
280
     0
102
RTVSPost2010PropOp49
 70
     1
102
RTVSPost2010Prop50
 90
       50
102
RTVSPost2010PropOp50
 70
     1
102
RTVSPost2010Prop51ColorIndex
 90
      256
102
RTVSPost2010Prop51ColorRGB
 90
-16777216
102
RTVSPost2010PropOp51
 70
     0
102
RTVSPost2010Prop52
140
1.0
102
RTVSPost2010PropOp52
 70
     0
102
RTVSPost2010Prop53
 90
        2
102
RTVSPost2010PropOp53
 70
     1
102
RTVSPost2010Prop54
  1
strokes_ogs.tif
102
RTVSPost2010PropOp54
 70
     1
102
RTVSPost2010Prop55
280
     0
102
RTVSPost2010PropOp55
 70
     1
102
RTVSPost2010Prop56
140
1.0
102
RTVSPost2010PropOp56
 70
     1
102
RTVSPost2010Prop57
140
1.0
102
RTVSPost2010PropOp57
 70
     1
102
RTVSPropertyOp0
 70
     1
102
RTVSPropertyOp1
 70
     1
102
RTVSPropertyOp2
 70
     1
102
RTVSPropertyOp3
 70
     1
102
RTVSPropertyOp4
 70
     1
102
RTVSPropertyOp5
 70
     1
102
RTVSPropertyOp6
 70
     1
102
RTVSPropertyOp7
 70
     1
102
RTVSPropertyOp8
 70
     1
102
RTVSPropertyOp9
 70
     1
102
RTVSPropertyOp10
 70
     1
102
RTVSPropertyOp11
 70
     1
102
RTVSPropertyOp12
 70
     1
102
RTVSPropertyOp13
 70
     1
102
RTVSPropertyOp14
 70
     1
102
RTVSPropertyOp15
 70
     1
102
RTVSPropertyOp16
 70
     1
102
RTVSPropertyOp17
 70
     1
102
RTVSPropertyOp18
 70
     1
102
RTVSPropertyOp19
 70
     1
102
RTVSPropertyOp20
 70
     1
102
RTVSPropertyOp21
 70
     1
102
RTVSPropertyOp22
 70
     1
102
RTVSPropertyOp23
 70
     1
102
RTVSPropertyOp24
 70
     1
102
RTVSPropertyOp25
 70
     1
102
RTVSPropertyOp26
 70
     1
102
RTVSPropertyOp27
 70
     1
102
RTVSPropertyOp28
 70
     1
102
RTVSPropertyOp29
 70
     1
102
RTVSPropertyOp30
 70
     1
102
RTVSPropertyOp31
 70
     1
102
RTVSPropertyOp32
 70
     1
102
RTVSPropertyOp33
 70
     1
102
RTVSPropertyOp34
 70
     1
102
RTVSPropertyOp35
 70
     1
102
RTVSPropertyOp36
 70
     1
102
RTVSPropertyOp37
 70
     1
102
RTVSPropertyOp38
 70
     1
102
RTVSPropertyOp39
 70
     1
102
RTVSPropertyOp40
 70
     1
102
RTVSPropertyOp41
 70
     1
102
RTVSPropertyOp42
 70
     1
102
RTVSPropertyOp43
 70
     1
102
RTVSPropertyOp44
 70
     1
102
RTVSPropertyOp45
 70
     1
102
RTVSPropertyOp46
 70
     1
102
RTVSPropertyOp47
 70
     1
102
RTVSPropertyOp48
 70
     1
102
RTVSPropertyOp49
 70
     1
102
RTVSPropertyOp50
 70
     1
102
RTVSPropertyOp51
 70
     0
102
RTVSPropertyOp52
 70
     0
102
RTVSPropertyOp53
 70
     1
102
RTVSPropertyOp54
 70
     1
102
RTVSPropertyOp55
 70
     1
102
RTVSPropertyOp56
 70
     1
102
RTVSPropertyOp57
 70
     1
102
RTVSPropertyOp58
 70
     1
102
RTVSPropertyOp59
 70
     1
102
RTVSPropertyOp60
 70
     1
102
RTVSPropertyOp61
 70
     1
102
RTVSPropertyOp62
 70
     1
  0
XRECORD
  5
387B
102
{ACAD_REACTORS
330
387A
102
}
330
387A
100
AcDbXrecord
280
     1
102
RTVSPost2010Prop28
280
     0
102
RTVSPost2010PropOp28
 70
     1
102
RTVSPost2010Prop29
280
     1
102
RTVSPost2010PropOp29
 70
     1
102
RTVSPost2010Prop30
280
     1
102
RTVSPost2010PropOp30
 70
     1
102
RTVSPost2010Prop31
280
     0
102
RTVSPost2010PropOp31
 70
     1
102
RTVSPost2010Prop32
280
     0
102
RTVSPost2010PropOp32
 70
     1
102
RTVSPost2010Prop33
280
     0
102
RTVSPost2010PropOp33
 70
     1
102
RTVSPost2010Prop34
280
     0
102
RTVSPost2010PropOp34
 70
     1
102
RTVSPost2010Prop35
280
     0
102
RTVSPost2010PropOp35
 70
     1
102
RTVSPost2010Prop36
280
     0
102
RTVSPost2010PropOp36
 70
     1
102
RTVSPost2010Prop37
 90
       50
102
RTVSPost2010PropOp37
 70
     1
102
RTVSPost2010Prop38
140
0.0
102
RTVSPost2010PropOp38
 70
     1
102
RTVSPost2010Prop39
140
1.0
102
RTVSPost2010PropOp39
 70
     1
102
RTVSPost2010Prop40
 90
        0
102
RTVSPost2010PropOp40
 70
     1
102
RTVSPost2010Prop41ColorIndex
 90
       18
102
RTVSPost2010Prop41ColorRGB
 90
        0
102
RTVSPost2010PropOp41
 70
     1
102
RTVSPost2010Prop42
 90
       50
102
RTVSPost2010PropOp42
 70
     1
102
RTVSPost2010Prop43
 90
        3
102
RTVSPost2010PropOp43
 70
     1
102
RTVSPost2010Prop44ColorIndex
 90
        5
102
RTVSPost2010Prop44ColorRGB
 90
      255
102
RTVSPost2010PropOp44
 70
     1
102
RTVSPost2010Prop45
280
     0
102
RTVSPost2010PropOp45
 70
     1
102
RTVSPost2010Prop46
 90
       50
102
RTVSPost2010PropOp46
 70
     1
102
RTVSPost2010Prop47
 90
       50
102
RTVSPost2010PropOp47
 70
     1
102
RTVSPost2010Prop48
 90
       50
102
RTVSPost2010PropOp48
 70
     1
102
RTVSPost2010Prop49
280
     0
102
RTVSPost2010PropOp49
 70
     1
102
RTVSPost2010Prop50
 90
       50
102
RTVSPost2010PropOp50
 70
     1
102
RTVSPost2010Prop51ColorIndex
 90
      256
102
RTVSPost2010Prop51ColorRGB
 90
-16777216
102
RTVSPost2010PropOp51
 70
     0
102
RTVSPost2010Prop52
140
1.0
102
RTVSPost2010PropOp52
 70
     0
102
RTVSPost2010Prop53
 90
        2
102
RTVSPost2010PropOp53
 70
     1
102
RTVSPost2010Prop54
  1
strokes_ogs.tif
102
RTVSPost2010PropOp54
 70
     1
102
RTVSPost2010Prop55
280
     0
102
RTVSPost2010PropOp55
 70
     1
102
RTVSPost2010Prop56
140
1.0
102
RTVSPost2010PropOp56
 70
     1
102
RTVSPost2010Prop57
140
1.0
102
RTVSPost2010PropOp57
 70
     1
102
RTVSPropertyOp0
 70
     1
102
RTVSPropertyOp1
 70
     1
102
RTVSPropertyOp2
 70
     1
102
RTVSPropertyOp3
 70
     1
102
RTVSPropertyOp4
 70
     1
102
RTVSPropertyOp5
 70
     1
102
RTVSPropertyOp6
 70
     1
102
RTVSPropertyOp7
 70
     1
102
RTVSPropertyOp8
 70
     1
102
RTVSPropertyOp9
 70
     1
102
RTVSPropertyOp10
 70
     1
102
RTVSPropertyOp11
 70
     1
102
RTVSPropertyOp12
 70
     1
102
RTVSPropertyOp13
 70
     1
102
RTVSPropertyOp14
 70
     1
102
RTVSPropertyOp15
 70
     1
102
RTVSPropertyOp16
 70
     1
102
RTVSPropertyOp17
 70
     1
102
RTVSPropertyOp18
 70
     1
102
RTVSPropertyOp19
 70
     1
102
RTVSPropertyOp20
 70
     1
102
RTVSPropertyOp21
 70
     1
102
RTVSPropertyOp22
 70
     1
102
RTVSPropertyOp23
 70
     1
102
RTVSPropertyOp24
 70
     1
102
RTVSPropertyOp25
 70
     1
102
RTVSPropertyOp26
 70
     1
102
RTVSPropertyOp27
 70
     1
102
RTVSPropertyOp28
 70
     1
102
RTVSPropertyOp29
 70
     1
102
RTVSPropertyOp30
 70
     1
102
RTVSPropertyOp31
 70
     1
102
RTVSPropertyOp32
 70
     1
102
RTVSPropertyOp33
 70
     1
102
RTVSPropertyOp34
 70
     1
102
RTVSPropertyOp35
 70
     1
102
RTVSPropertyOp36
 70
     1
102
RTVSPropertyOp37
 70
     1
102
RTVSPropertyOp38
 70
     1
102
RTVSPropertyOp39
 70
     1
102
RTVSPropertyOp40
 70
     1
102
RTVSPropertyOp41
 70
     1
102
RTVSPropertyOp42
 70
     1
102
RTVSPropertyOp43
 70
     1
102
RTVSPropertyOp44
 70
     1
102
RTVSPropertyOp45
 70
     1
102
RTVSPropertyOp46
 70
     1
102
RTVSPropertyOp47
 70
     1
102
RTVSPropertyOp48
 70
     1
102
RTVSPropertyOp49
 70
     1
102
RTVSPropertyOp50
 70
     1
102
RTVSPropertyOp51
 70
     0
102
RTVSPropertyOp52
 70
     0
102
RTVSPropertyOp53
 70
     1
102
RTVSPropertyOp54
 70
     1
102
RTVSPropertyOp55
 70
     1
102
RTVSPropertyOp56
 70
     1
102
RTVSPropertyOp57
 70
     1
102
RTVSPropertyOp58
 70
     1
102
RTVSPropertyOp59
 70
     1
102
RTVSPropertyOp60
 70
     1
102
RTVSPropertyOp61
 70
     1
102
RTVSPropertyOp62
 70
     1
  0
XRECORD
  5
386F
102
{ACAD_REACTORS
330
386E
102
}
330
386E
100
AcDbXrecord
280
     1
102
RTVSPost2010Prop28
280
     0
102
RTVSPost2010PropOp28
 70
     1
102
RTVSPost2010Prop29
280
     1
102
RTVSPost2010PropOp29
 70
     1
102
RTVSPost2010Prop30
280
     1
102
RTVSPost2010PropOp30
 70
     1
102
RTVSPost2010Prop31
280
     0
102
RTVSPost2010PropOp31
 70
     1
102
RTVSPost2010Prop32
280
     0
102
RTVSPost2010PropOp32
 70
     1
102
RTVSPost2010Prop33
280
     0
102
RTVSPost2010PropOp33
 70
     1
102
RTVSPost2010Prop34
280
     0
102
RTVSPost2010PropOp34
 70
     1
102
RTVSPost2010Prop35
280
     0
102
RTVSPost2010PropOp35
 70
     1
102
RTVSPost2010Prop36
280
     0
102
RTVSPost2010PropOp36
 70
     1
102
RTVSPost2010Prop37
 90
       50
102
RTVSPost2010PropOp37
 70
     1
102
RTVSPost2010Prop38
140
0.0
102
RTVSPost2010PropOp38
 70
     1
102
RTVSPost2010Prop39
140
1.0
102
RTVSPost2010PropOp39
 70
     1
102
RTVSPost2010Prop40
 90
        0
102
RTVSPost2010PropOp40
 70
     1
102
RTVSPost2010Prop41ColorIndex
 90
       18
102
RTVSPost2010Prop41ColorRGB
 90
        0
102
RTVSPost2010PropOp41
 70
     1
102
RTVSPost2010Prop42
 90
       50
102
RTVSPost2010PropOp42
 70
     1
102
RTVSPost2010Prop43
 90
        3
102
RTVSPost2010PropOp43
 70
     1
102
RTVSPost2010Prop44ColorIndex
 90
        5
102
RTVSPost2010Prop44ColorRGB
 90
      255
102
RTVSPost2010PropOp44
 70
     1
102
RTVSPost2010Prop45
280
     0
102
RTVSPost2010PropOp45
 70
     1
102
RTVSPost2010Prop46
 90
       50
102
RTVSPost2010PropOp46
 70
     1
102
RTVSPost2010Prop47
 90
       50
102
RTVSPost2010PropOp47
 70
     1
102
RTVSPost2010Prop48
 90
       50
102
RTVSPost2010PropOp48
 70
     1
102
RTVSPost2010Prop49
280
     0
102
RTVSPost2010PropOp49
 70
     1
102
RTVSPost2010Prop50
 90
       50
102
RTVSPost2010PropOp50
 70
     1
102
RTVSPost2010Prop51ColorIndex
 90
      256
102
RTVSPost2010Prop51ColorRGB
 90
-16777216
102
RTVSPost2010PropOp51
 70
     0
102
RTVSPost2010Prop52
140
1.0
102
RTVSPost2010PropOp52
 70
     0
102
RTVSPost2010Prop53
 90
        2
102
RTVSPost2010PropOp53
 70
     1
102
RTVSPost2010Prop54
  1
strokes_ogs.tif
102
RTVSPost2010PropOp54
 70
     1
102
RTVSPost2010Prop55
280
     0
102
RTVSPost2010PropOp55
 70
     1
102
RTVSPost2010Prop56
140
1.0
102
RTVSPost2010PropOp56
 70
     1
102
RTVSPost2010Prop57
140
1.0
102
RTVSPost2010PropOp57
 70
     1
102
RTVSPropertyOp0
 70
     1
102
RTVSPropertyOp1
 70
     1
102
RTVSPropertyOp2
 70
     1
102
RTVSPropertyOp3
 70
     1
102
RTVSPropertyOp4
 70
     1
102
RTVSPropertyOp5
 70
     1
102
RTVSPropertyOp6
 70
     1
102
RTVSPropertyOp7
 70
     1
102
RTVSPropertyOp8
 70
     1
102
RTVSPropertyOp9
 70
     1
102
RTVSPropertyOp10
 70
     1
102
RTVSPropertyOp11
 70
     1
102
RTVSPropertyOp12
 70
     1
102
RTVSPropertyOp13
 70
     1
102
RTVSPropertyOp14
 70
     1
102
RTVSPropertyOp15
 70
     1
102
RTVSPropertyOp16
 70
     1
102
RTVSPropertyOp17
 70
     1
102
RTVSPropertyOp18
 70
     1
102
RTVSPropertyOp19
 70
     1
102
RTVSPropertyOp20
 70
     1
102
RTVSPropertyOp21
 70
     1
102
RTVSPropertyOp22
 70
     1
102
RTVSPropertyOp23
 70
     1
102
RTVSPropertyOp24
 70
     1
102
RTVSPropertyOp25
 70
     1
102
RTVSPropertyOp26
 70
     1
102
RTVSPropertyOp27
 70
     1
102
RTVSPropertyOp28
 70
     1
102
RTVSPropertyOp29
 70
     1
102
RTVSPropertyOp30
 70
     1
102
RTVSPropertyOp31
 70
     1
102
RTVSPropertyOp32
 70
     1
102
RTVSPropertyOp33
 70
     1
102
RTVSPropertyOp34
 70
     1
102
RTVSPropertyOp35
 70
     1
102
RTVSPropertyOp36
 70
     1
102
RTVSPropertyOp37
 70
     1
102
RTVSPropertyOp38
 70
     1
102
RTVSPropertyOp39
 70
     1
102
RTVSPropertyOp40
 70
     1
102
RTVSPropertyOp41
 70
     1
102
RTVSPropertyOp42
 70
     1
102
RTVSPropertyOp43
 70
     1
102
RTVSPropertyOp44
 70
     1
102
RTVSPropertyOp45
 70
     1
102
RTVSPropertyOp46
 70
     1
102
RTVSPropertyOp47
 70
     1
102
RTVSPropertyOp48
 70
     1
102
RTVSPropertyOp49
 70
     1
102
RTVSPropertyOp50
 70
     1
102
RTVSPropertyOp51
 70
     0
102
RTVSPropertyOp52
 70
     0
102
RTVSPropertyOp53
 70
     1
102
RTVSPropertyOp54
 70
     1
102
RTVSPropertyOp55
 70
     1
102
RTVSPropertyOp56
 70
     1
102
RTVSPropertyOp57
 70
     1
102
RTVSPropertyOp58
 70
     1
102
RTVSPropertyOp59
 70
     1
102
RTVSPropertyOp60
 70
     1
102
RTVSPropertyOp61
 70
     1
102
RTVSPropertyOp62
 70
     1
  0
XRECORD
  5
3887
102
{ACAD_REACTORS
330
3886
102
}
330
3886
100
AcDbXrecord
280
     1
102
RTVSPost2010Prop28
280
     0
102
RTVSPost2010PropOp28
 70
     1
102
RTVSPost2010Prop29
280
     1
102
RTVSPost2010PropOp29
 70
     1
102
RTVSPost2010Prop30
280
     1
102
RTVSPost2010PropOp30
 70
     1
102
RTVSPost2010Prop31
280
     0
102
RTVSPost2010PropOp31
 70
     1
102
RTVSPost2010Prop32
280
     0
102
RTVSPost2010PropOp32
 70
     1
102
RTVSPost2010Prop33
280
     0
102
RTVSPost2010PropOp33
 70
     1
102
RTVSPost2010Prop34
280
     0
102
RTVSPost2010PropOp34
 70
     1
102
RTVSPost2010Prop35
280
     0
102
RTVSPost2010PropOp35
 70
     1
102
RTVSPost2010Prop36
280
     0
102
RTVSPost2010PropOp36
 70
     1
102
RTVSPost2010Prop37
 90
       50
102
RTVSPost2010PropOp37
 70
     1
102
RTVSPost2010Prop38
140
0.0
102
RTVSPost2010PropOp38
 70
     1
102
RTVSPost2010Prop39
140
1.0
102
RTVSPost2010PropOp39
 70
     1
102
RTVSPost2010Prop40
 90
        0
102
RTVSPost2010PropOp40
 70
     1
102
RTVSPost2010Prop41ColorIndex
 90
       18
102
RTVSPost2010Prop41ColorRGB
 90
        0
102
RTVSPost2010PropOp41
 70
     1
102
RTVSPost2010Prop42
 90
       50
102
RTVSPost2010PropOp42
 70
     1
102
RTVSPost2010Prop43
 90
        3
102
RTVSPost2010PropOp43
 70
     1
102
RTVSPost2010Prop44ColorIndex
 90
        5
102
RTVSPost2010Prop44ColorRGB
 90
      255
102
RTVSPost2010PropOp44
 70
     1
102
RTVSPost2010Prop45
280
     0
102
RTVSPost2010PropOp45
 70
     1
102
RTVSPost2010Prop46
 90
       50
102
RTVSPost2010PropOp46
 70
     1
102
RTVSPost2010Prop47
 90
       50
102
RTVSPost2010PropOp47
 70
     1
102
RTVSPost2010Prop48
 90
       50
102
RTVSPost2010PropOp48
 70
     1
102
RTVSPost2010Prop49
280
     0
102
RTVSPost2010PropOp49
 70
     1
102
RTVSPost2010Prop50
 90
       50
102
RTVSPost2010PropOp50
 70
     1
102
RTVSPost2010Prop51ColorIndex
 90
      256
102
RTVSPost2010Prop51ColorRGB
 90
-16777216
102
RTVSPost2010PropOp51
 70
     0
102
RTVSPost2010Prop52
140
1.0
102
RTVSPost2010PropOp52
 70
     0
102
RTVSPost2010Prop53
 90
        2
102
RTVSPost2010PropOp53
 70
     1
102
RTVSPost2010Prop54
  1
strokes_ogs.tif
102
RTVSPost2010PropOp54
 70
     1
102
RTVSPost2010Prop55
280
     0
102
RTVSPost2010PropOp55
 70
     1
102
RTVSPost2010Prop56
140
1.0
102
RTVSPost2010PropOp56
 70
     1
102
RTVSPost2010Prop57
140
1.0
102
RTVSPost2010PropOp57
 70
     1
102
RTVSPropertyOp0
 70
     1
102
RTVSPropertyOp1
 70
     1
102
RTVSPropertyOp2
 70
     1
102
RTVSPropertyOp3
 70
     1
102
RTVSPropertyOp4
 70
     1
102
RTVSPropertyOp5
 70
     1
102
RTVSPropertyOp6
 70
     1
102
RTVSPropertyOp7
 70
     1
102
RTVSPropertyOp8
 70
     1
102
RTVSPropertyOp9
 70
     1
102
RTVSPropertyOp10
 70
     1
102
RTVSPropertyOp11
 70
     1
102
RTVSPropertyOp12
 70
     1
102
RTVSPropertyOp13
 70
     1
102
RTVSPropertyOp14
 70
     1
102
RTVSPropertyOp15
 70
     1
102
RTVSPropertyOp16
 70
     1
102
RTVSPropertyOp17
 70
     1
102
RTVSPropertyOp18
 70
     1
102
RTVSPropertyOp19
 70
     1
102
RTVSPropertyOp20
 70
     1
102
RTVSPropertyOp21
 70
     1
102
RTVSPropertyOp22
 70
     1
102
RTVSPropertyOp23
 70
     1
102
RTVSPropertyOp24
 70
     1
102
RTVSPropertyOp25
 70
     1
102
RTVSPropertyOp26
 70
     1
102
RTVSPropertyOp27
 70
     1
102
RTVSPropertyOp28
 70
     1
102
RTVSPropertyOp29
 70
     1
102
RTVSPropertyOp30
 70
     1
102
RTVSPropertyOp31
 70
     1
102
RTVSPropertyOp32
 70
     1
102
RTVSPropertyOp33
 70
     1
102
RTVSPropertyOp34
 70
     1
102
RTVSPropertyOp35
 70
     1
102
RTVSPropertyOp36
 70
     1
102
RTVSPropertyOp37
 70
     1
102
RTVSPropertyOp38
 70
     1
102
RTVSPropertyOp39
 70
     1
102
RTVSPropertyOp40
 70
     1
102
RTVSPropertyOp41
 70
     1
102
RTVSPropertyOp42
 70
     1
102
RTVSPropertyOp43
 70
     1
102
RTVSPropertyOp44
 70
     1
102
RTVSPropertyOp45
 70
     1
102
RTVSPropertyOp46
 70
     1
102
RTVSPropertyOp47
 70
     1
102
RTVSPropertyOp48
 70
     1
102
RTVSPropertyOp49
 70
     1
102
RTVSPropertyOp50
 70
     1
102
RTVSPropertyOp51
 70
     0
102
RTVSPropertyOp52
 70
     0
102
RTVSPropertyOp53
 70
     1
102
RTVSPropertyOp54
 70
     1
102
RTVSPropertyOp55
 70
     1
102
RTVSPropertyOp56
 70
     1
102
RTVSPropertyOp57
 70
     1
102
RTVSPropertyOp58
 70
     1
102
RTVSPropertyOp59
 70
     1
102
RTVSPropertyOp60
 70
     1
102
RTVSPropertyOp61
 70
     1
102
RTVSPropertyOp62
 70
     1
  0
ENDSEC
  0
EOF
