  0
SECTION
  2
HEADER
  9
$ACADVER
  1
AC1015
  9
$ACADMAINTVER
 70
    20
  9
$DWGCODEPAGE
  3
ANSI_932
  9
$INSBASE
 10
0.0
 20
0.0
 30
0.0
  9
$EXTMIN
 10
9.997561163656143
 20
7.48962687867322
 30
-0.0000000000000053
  9
$EXTMAX
 10
107.5048472416343
 20
145.0036601097989
 30
0.0000000000000099
  9
$LIMMIN
 10
19.99999999999997
 20
15.0
  9
$LIMMAX
 10
117.5
 20
152.5
  9
$ORTHOMODE
 70
     0
  9
$REGENMODE
 70
     1
  9
$FILLMODE
 70
     1
  9
$QTEXTMODE
 70
     0
  9
$MIRRTEXT
 70
     1
  9
$LTSCALE
 40
0.5
  9
$ATTMODE
 70
     1
  9
$TEXTSIZE
 40
73.98571745357912
  9
$TRACEWID
 40
1.0
  9
$TEXTSTYLE
  7
STANDARD
  9
$CLAYER
  8
0
  9
$CELTYPE
  6
ByLayer
  9
$CECOLOR
 62
   256
  9
$CELTSCALE
 40
1.0
  9
$DISPSILH
 70
     0
  9
$DIMSCALE
 40
0.5
  9
$DIMASZ
 40
2.5
  9
$DIMEXO
 40
1.0
  9
$DIMDLI
 40
10.0
  9
$DIMRND
 40
0.0
  9
$DIMDLE
 40
0.0
  9
$DIMEXE
 40
1.0
  9
$DIMTP
 40
0.1
  9
$DIMTM
 40
0.1
  9
$DIMTXT
 40
3.5
  9
$DIMCEN
 40
0.0
  9
$DIMTSZ
 40
0.0
  9
$DIMTOL
 70
     0
  9
$DIMLIM
 70
     0
  9
$DIMTIH
 70
     0
  9
$DIMTOH
 70
     0
  9
$DIMSE1
 70
     0
  9
$DIMSE2
 70
     0
  9
$DIMTAD
 70
     1
  9
$DIMZIN
 70
     8
  9
$DIMBLK
  1
Open30
  9
$DIMASO
 70
     1
  9
$DIMSHO
 70
     1
  9
$DIMPOST
  1

  9
$DIMAPOST
  1
"
  9
$DIMALT
 70
     0
  9
$DIMALTD
 70
     2
  9
$DIMALTF
 40
0.0393701
  9
$DIMLFAC
 40
1.0
  9
$DIMTOFL
 70
     1
  9
$DIMTVP
 40
0.0
  9
$DIMTIX
 70
     0
  9
$DIMSOXD
 70
     0
  9
$DIMSAH
 70
     0
  9
$DIMBLK1
  1

  9
$DIMBLK2
  1

  9
$DIMSTYLE
  2
AM_ISO
  9
$DIMCLRD
 70
   256
  9
$DIMCLRE
 70
   256
  9
$DIMCLRT
 70
     2
  9
$DIMTFAC
 40
0.71
  9
$DIMGAP
 40
1.5
  9
$DIMJUST
 70
     0
  9
$DIMSD1
 70
     0
  9
$DIMSD2
 70
     0
  9
$DIMTOLJ
 70
     0
  9
$DIMTZIN
 70
     8
  9
$DIMALTZ
 70
     0
  9
$DIMALTTZ
 70
     0
  9
$DIMUPT
 70
     0
  9
$DIMDEC
 70
     2
  9
$DIMTDEC
 70
     2
  9
$DIMALTU
 70
     2
  9
$DIMALTTD
 70
     2
  9
$DIMTXSTY
  7
STANDARD
  9
$DIMAUNIT
 70
     0
  9
$DIMADEC
 70
     0
  9
$DIMALTRND
 40
0.0
  9
$DIMAZIN
 70
     2
  9
$DIMDSEP
 70
    46
  9
$DIMATFIT
 70
     3
  9
$DIMFRAC
 70
     0
  9
$DIMLDRBLK
  1
Open30
  9
$DIMLUNIT
 70
     2
  9
$DIMLWD
 70
    -1
  9
$DIMLWE
 70
    -1
  9
$DIMTMOVE
 70
     1
  9
$LUNITS
 70
     2
  9
$LUPREC
 70
     2
  9
$SKETCHINC
 40
1.0
  9
$FILLETRAD
 40
1.25
  9
$AUNITS
 70
     0
  9
$AUPREC
 70
     0
  9
$MENU
  1
.
  9
$ELEVATION
 40
0.0
  9
$PELEVATION
 40
0.0
  9
$THICKNESS
 40
0.0
  9
$LIMCHECK
 70
     0
  9
$CHAMFERA
 40
1.25
  9
$CHAMFERB
 40
1.25
  9
$CHAMFERC
 40
20.0
  9
$CHAMFERD
 40
0.0
  9
$SKPOLY
 70
     0
  9
$TDCREATE
 40
2453795.581804826
  9
$TDUCREATE
 40
2453795.206804826
  9
$TDUPDATE
 40
2457008.414253669
  9
$TDUUPDATE
 40
2457008.039253669
  9
$TDINDWG
 40
0.0521206944
  9
$TDUSRTIMER
 40
0.0521205093
  9
$USRTIMER
 70
     1
  9
$ANGBASE
 50
0.0
  9
$ANGDIR
 70
     0
  9
$PDMODE
 70
     0
  9
$PDSIZE
 40
0.0
  9
$PLINEWID
 40
0.0
  9
$SPLFRAME
 70
     0
  9
$SPLINETYPE
 70
     6
  9
$SPLINESEGS
 70
     8
  9
$HANDSEED
  5
416E
  9
$SURFTAB1
 70
     6
  9
$SURFTAB2
 70
     6
  9
$SURFTYPE
 70
     6
  9
$SURFU
 70
     6
  9
$SURFV
 70
     6
  9
$UCSBASE
  2

  9
$UCSNAME
  2

  9
$UCSORG
 10
0.0
 20
0.0
 30
0.0
  9
$UCSXDIR
 10
1.0
 20
0.0
 30
0.0
  9
$UCSYDIR
 10
0.0
 20
1.0
 30
0.0
  9
$UCSORTHOREF
  2

  9
$UCSORTHOVIEW
 70
     0
  9
$UCSORGTOP
 10
0.0
 20
0.0
 30
0.0
  9
$UCSORGBOTTOM
 10
0.0
 20
0.0
 30
0.0
  9
$UCSORGLEFT
 10
0.0
 20
0.0
 30
0.0
  9
$UCSORGRIGHT
 10
0.0
 20
0.0
 30
0.0
  9
$UCSORGFRONT
 10
0.0
 20
0.0
 30
0.0
  9
$UCSORGBACK
 10
0.0
 20
0.0
 30
0.0
  9
$PUCSBASE
  2

  9
$PUCSNAME
  2

  9
$PUCSORG
 10
0.0
 20
0.0
 30
0.0
  9
$PUCSXDIR
 10
1.0
 20
0.0
 30
0.0
  9
$PUCSYDIR
 10
0.0
 20
1.0
 30
0.0
  9
$PUCSORTHOREF
  2

  9
$PUCSORTHOVIEW
 70
     0
  9
$PUCSORGTOP
 10
0.0
 20
0.0
 30
0.0
  9
$PUCSORGBOTTOM
 10
0.0
 20
0.0
 30
0.0
  9
$PUCSORGLEFT
 10
0.0
 20
0.0
 30
0.0
  9
$PUCSORGRIGHT
 10
0.0
 20
0.0
 30
0.0
  9
$PUCSORGFRONT
 10
0.0
 20
0.0
 30
0.0
  9
$PUCSORGBACK
 10
0.0
 20
0.0
 30
0.0
  9
$USERI1
 70
     0
  9
$USERI2
 70
     0
  9
$USERI3
 70
     0
  9
$USERI4
 70
     0
  9
$USERI5
 70
     0
  9
$USERR1
 40
0.0
  9
$USERR2
 40
0.0
  9
$USERR3
 40
0.0
  9
$USERR4
 40
0.0
  9
$USERR5
 40
0.0
  9
$WORLDVIEW
 70
     1
  9
$SHADEDGE
 70
     3
  9
$SHADEDIF
 70
    70
  9
$TILEMODE
 70
     1
  9
$MAXACTVP
 70
    64
  9
$PINSBASE
 10
0.0
 20
0.0
 30
0.0
  9
$PLIMCHECK
 70
     0
  9
$PEXTMIN
 10
1.000000000000000E+20
 20
1.000000000000000E+20
 30
1.000000000000000E+20
  9
$PEXTMAX
 10
-1.000000000000000E+20
 20
-1.000000000000000E+20
 30
-1.000000000000000E+20
  9
$PLIMMIN
 10
-6.350006103515625
 20
-6.349999904632568
  9
$PLIMMAX
 10
273.0499877929688
 20
209.5499939918518
  9
$UNITMODE
 70
     0
  9
$VISRETAIN
 70
     1
  9
$PLINEGEN
 70
     0
  9
$PSLTSCALE
 70
     1
  9
$TREEDEPTH
 70
  3020
  9
$CMLSTYLE
  2
Standard
  9
$CMLJUST
 70
     0
  9
$CMLSCALE
 40
20.0
  9
$PROXYGRAPHICS
 70
     1
  9
$MEASUREMENT
 70
     1
  9
$CELWEIGHT
370
    -1
  9
$ENDCAPS
280
     0
  9
$JOINSTYLE
280
     0
  9
$LWDISPLAY
290
     0
  9
$INSUNITS
 70
     4
  9
$HYPERLINKBASE
  1

  9
$STYLESHEET
  1
takachi-1.ctb
  9
$XEDIT
290
     1
  9
$CEPSNTYPE
380
     0
  9
$PSTYLEMODE
290
     1
  9
$FINGERPRINTGUID
  2
{AA9C3603-BD81-4C6F-989B-38ED18725190}
  9
$VERSIONGUID
  2
{0BC7A0A9-3BF6-48B5-BF90-42A24F59CAE5}
  9
$EXTNAMES
290
     1
  9
$PSVPSCALE
 40
0.0
  9
$OLESTARTUP
290
     0
  0
ENDSEC
  0
SECTION
  2
CLASSES
  0
CLASS
  1
ACDBDICTIONARYWDFLT
  2
AcDbDictionaryWithDefault
  3
ObjectDBX Classes
 90
        0
280
     0
281
     0
  0
CLASS
  1
ACDBPLACEHOLDER
  2
AcDbPlaceHolder
  3
ObjectDBX Classes
 90
        0
280
     0
281
     0
  0
CLASS
  1
LAYOUT
  2
AcDbLayout
  3
ObjectDBX Classes
 90
        0
280
     0
281
     0
  0
CLASS
  1
ACME_DOCUMENT
  2
AcMeDbDoc
  3
AcMeServices
 90
     1024
280
     0
281
     0
  0
CLASS
  1
AMGSETTINGSOBJ
  2
AmgSettingsObj
  3
"AcadM|Product Description: AutoCAD Mechanical|Company: Autodesk, Inc."
 90
     1024
280
     0
281
     0
  0
CLASS
  1
ACMESCOPE
  2
AcMeScope
  3
AcMeServices
 90
     1024
280
     0
281
     0
  0
CLASS
  1
ACMECOMMANDHISTORY
  2
AcMeCommandHistory
  3
AcMeServices
 90
     1024
280
     0
281
     0
  0
CLASS
  1
ACIMSYSVARMAN
  2
AcImSysVarManager
  3
AcMeServices
 90
     1024
280
     0
281
     0
  0
CLASS
  1
ACIMREALSYSVAR
  2
AcImRealSysVar
  3
AcMeServices
 90
     1024
280
     0
281
     0
  0
CLASS
  1
ACIMINTSYSVAR
  2
AcImIntSysVar
  3
AcMeServices
 90
     1024
280
     0
281
     0
  0
CLASS
  1
ACMEDRAWINGMAN
  2
AcMeDrawingMan
  3
AcMeServices
 90
     1024
280
     0
281
     0
  0
CLASS
  1
ACMEVIEW
  2
AcMeView
  3
AcMeServices
 90
     1024
280
     0
281
     0
  0
CLASS
  1
ACDBENTITYCACHE
  2
AcMeEntityCache
  3
AcMeServices
 90
     1024
280
     0
281
     0
  0
CLASS
  1
GSMANAGER
  2
AcMeGSManager
  3
AcMeServices
 90
    32768
280
     0
281
     0
  0
CLASS
  1
AMDTINTERNALREACTOR
  2
AmdtInternalReactor
  3
AcMeServices
 90
     1024
280
     0
281
     0
  0
CLASS
  1
ACMESTATEMGR
  2
AcMeStateMgr
  3
AcMeServices
 90
     1024
280
     0
281
     0
  0
CLASS
  1
ACGREFMASTER
  2
AcGrefMaster
  3
AcAttribServices
 90
     1024
280
     0
281
     0
  0
CLASS
  1
ACME_DATABASE
  2
AcMeDbDatabase
  3
AcMeServices
 90
     1024
280
     0
281
     0
  0
CLASS
  1
ACRFINSADJUSTERMGR
  2
AcRfInsAdjusterMgr
  3
AcMeServices
 90
     1024
280
     0
281
     0
  0
CLASS
  1
ACGREFACADMASTER
  2
AcGrefacadMaster
  3
AcGrefServices
 90
     1024
280
     0
281
     0
  0
CLASS
  1
AMIMASTER
  2
AmiMaster
  3
AmiServices
 90
     1024
280
     0
281
     0
  0
CLASS
  1
ACMDATADICTIONARY
  2
AcmDataDictionary
  3
"AcmSymBB|Product Description: AutoCAD Mechanical|Company: Autodesk, Inc."
 90
     1024
280
     0
281
     0
  0
CLASS
  1
ACMDATAENTRYBLOCK
  2
AcmDataEntryBlock
  3
AcmSymBB|Product Description: AutoCAD Mechanical|Company: Autodesk, Inc.
 90
     1024
280
     0
281
     0
  0
CLASS
  1
ACIMSTRSYSVAR
  2
AcImStrSysVar
  3
AcMeServices
 90
     1024
280
     0
281
     0
  0
CLASS
  1
ACMSTANDARDISO
  2
AcmStandardISO
  3
"Amdt_StdImp|Product Description: AutoCAD Mechanical|Company: Autodesk, Inc."
 90
     1024
280
     0
281
     0
  0
CLASS
  1
AMGOBJPROPCFG
  2
AmgObjPropCfg
  3
"AmgLay|Product Description: AutoCAD Mechanical|Company: Autodesk, Inc."
 90
     1024
280
     0
281
     0
  0
CLASS
  1
AMDTEDGESTANDARDISO
  2
AmdtEdgeStdISO
  3
"Amdt_StdImp|Product Description: AutoCAD Mechanical|Company: Autodesk, Inc."
 90
     1024
280
     0
281
     0
  0
CLASS
  1
ACMSURFSTANDARDISO
  2
AcmSurfTextStdISO
  3
"Amdt_StdImp|Product Description: AutoCAD Mechanical|Company: Autodesk, Inc."
 90
     1024
280
     0
281
     0
  0
CLASS
  1
ACMFCFSTANDARDISO
  2
AcmFCFStdISO
  3
"Amdt_StdImp|Product Description: AutoCAD Mechanical|Company: Autodesk, Inc."
 90
     1024
280
     0
281
     0
  0
CLASS
  1
ACMWELDSTANDARDISO
  2
AcmWeldingStdISO
  3
"Amdt_StdImp|Product Description: AutoCAD Mechanical|Company: Autodesk, Inc."
 90
     1024
280
     0
281
     0
  0
CLASS
  1
ACMIDSTANDARDISO
  2
AcmIdStdISO
  3
"Amdt_StdImp|Product Description: AutoCAD Mechanical|Company: Autodesk, Inc."
 90
     1024
280
     0
281
     0
  0
CLASS
  1
ACMDATUMSTANDARDISO
  2
AcmDatumStdISO
  3
"Amdt_StdImp|Product Description: AutoCAD Mechanical|Company: Autodesk, Inc."
 90
     1024
280
     0
281
     0
  0
CLASS
  1
ACMBOMSTANDARDISO
  2
AcmBOMStdISO
  3
"Amdt_StdImp|Product Description: AutoCAD Mechanical|Company: Autodesk, Inc."
 90
     1024
280
     0
281
     0
  0
CLASS
  1
ACMDETAILSTANDARDISO
  2
AmdtDetailSymStdISO
  3
"Amdt_StdImp|Product Description: AutoCAD Mechanical|Company: Autodesk, Inc."
 90
     1024
280
     0
281
     0
  0
CLASS
  1
ACMSECTIONSTANDARDISO
  2
AmdtSectionSymStdISO
  3
"Amdt_StdImp|Product Description: AutoCAD Mechanical|Company: Autodesk, Inc."
 90
     1024
280
     0
281
     0
  0
CLASS
  1
ACMCENTERLINESTANDARDISO
  2
AmdtCenterLineStdISO
  3
"Amdt_StdImp|Product Description: AutoCAD Mechanical|Company: Autodesk, Inc."
 90
     1024
280
     0
281
     0
  0
CLASS
  1
ACMNOTESTANDARDISO
  2
AmdtNoteStdISO
  3
"Amdt_StdImp|Product Description: AutoCAD Mechanical|Company: Autodesk, Inc."
 90
     1024
280
     0
281
     0
  0
CLASS
  1
ACAMGLAYSTD
  2
AcAmgLayStd
  3
"AmgLay|Product Description: AutoCAD Mechanical|Company: Autodesk, Inc."
 90
     1024
280
     0
281
     0
  0
CLASS
  1
ACAMGDIMSTD
  2
AcAmgDimStd
  3
"AmgDim|Product Description: AutoCAD Mechanical|Company: Autodesk, Inc."
 90
     1024
280
     0
281
     0
  0
CLASS
  1
ACAMGHOLECHARTSTDISO
  2
AcAmgHoleChartStdISO
  3
AmgDim|Product Description: AutoCAD Mechanical|Company: Autodesk, Inc.
 90
     1024
280
     0
281
     0
  0
CLASS
  1
ACAMGTITLESTD
  2
AcAmgTitleStd
  3
"AmgTitle|Product Description: AutoCAD Mechanical|Company: Autodesk, Inc."
 90
     1024
280
     0
281
     0
  0
CLASS
  1
LAYER_INDEX
  2
AcDbLayerIndex
  3
ObjectDBX Classes
 90
    32768
280
     0
281
     0
  0
CLASS
  1
IDBUFFER
  2
AcDbIdBuffer
  3
ObjectDBX Classes
 90
    32768
280
     0
281
     0
  0
CLASS
  1
DICTIONARYVAR
  2
AcDbDictionaryVar
  3
ObjectDBX Classes
 90
        0
280
     0
281
     0
  0
CLASS
  1
AM_DRAWING_MGR
  2
AcDmDwgMgr
  3
AcMechDwgViewMgmt
 90
     1024
280
     0
281
     0
  0
CLASS
  1
AM_DWG_DOCUMENT
  2
AcDmDwgDocument
  3
AcMechDwgViewMgmt
 90
     1024
280
     0
281
     0
  0
CLASS
  1
AM_DWG_SHEET
  2
AcDmSheet
  3
AcMechDwgViewMgmt
 90
     1024
280
     0
281
     0
  0
CLASS
  1
AM_VIEWDIMPARMAP
  2
AcDmViewDimParMap
  3
AcMechDwgViewMgmt
 90
     1024
280
     0
281
     0
  0
CLASS
  1
AM_DWGMGR_NAME
  2
AcDmDwgMgrName
  3
AcMechDwgViewMgmt
 90
     1024
280
     0
281
     0
  0
CLASS
  1
AMDTMENUSTATEMGR
  2
AmdtMenuStateMgr
  3
McadcomServices
 90
     1024
280
     0
281
     0
  0
CLASS
  1
AMDTMCOMMENUSTATE
  2
AmdtMcomMenuState
  3
McadcomServices
 90
     1024
280
     0
281
     0
  0
CLASS
  1
MAPIAMMOUDLE
  2
MApiAmModule
  3
MApiAmServices
 90
     1024
280
     0
281
     0
  0
CLASS
  1
AMDTADMENUSTATE
  2
AmdtAdMenuState
  3
DesignerServices
 90
    32768
280
     0
281
     0
  0
CLASS
  1
ADAPPL
  2
AcAdAppl
  3
DesignerAssemblies
 90
     1024
280
     0
281
     0
  0
CLASS
  1
DEPMGR
  2
AcAdDepMgr
  3
DesignerAssemblies
 90
     1024
280
     0
281
     0
  0
CLASS
  1
PARAMMGR
  2
AcAdParamMgr
  3
DesignerAssemblies
 90
     1024
280
     0
281
     0
  0
CLASS
  1
PARAMSCOPE
  2
AcAdParamScope
  3
DesignerAssemblies
 90
     1024
280
     0
281
     0
  0
CLASS
  1
NAMEDAPPL
  2
AcAdNamedAppl
  3
DesignerAssemblies
 90
     1024
280
     0
281
     0
  0
CLASS
  1
AMDTDMMENUSTATE
  2
AmdtDmMenuState
  3
AcMechDwgViewMgmt
 90
    32768
280
     0
281
     0
  0
CLASS
  1
AMDTAMMENUSTATE
  2
AmdtAmMenuState
  3
DesignerAssemblies
 90
     1024
280
     0
281
     0
  0
CLASS
  1
ACAMPROJECT
  2
AcAmProject
  3
DesignerAssemblies
 90
     1024
280
     0
281
     0
  0
CLASS
  1
ACAMGRCOMPDEF
  2
AcAmGrCompDef
  3
DesignerAssemblies
 90
     1024
280
     0
281
     0
  0
CLASS
  1
ACCMCONTEXT
  2
AcCmContext
  3
DesignerAssemblies
 90
     1024
280
     0
281
     0
  0
CLASS
  1
ACAMCOMPDEF
  2
AcAmCompDef
  3
DesignerAssemblies
 90
     1024
280
     0
281
     0
  0
CLASS
  1
ACAMCOMPDEFMGR
  2
AcAmCompDefMgr
  3
DesignerAssemblies
 90
     1024
280
     0
281
     0
  0
CLASS
  1
AMCONTEXTMGR
  2
AcAmContextMgr
  3
DesignerAssemblies
 90
     1024
280
     0
281
     0
  0
CLASS
  1
ACAMCONTEXTMODELER
  2
AcAmContextModeler
  3
DesignerAssemblies
 90
     1024
280
     0
281
     0
  0
CLASS
  1
ACMTHREADLINESTANDARDISO
  2
AmdtThreadLineStdISO
  3
"Amdt_StdImp|Product Description: AutoCAD Mechanical|Company: Autodesk, Inc."
 90
     1024
280
     0
281
     0
  0
CLASS
  1
CATALOGSTATE
  2
AcAmCatalogState
  3
DesignerAssemblies
 90
     1024
280
     0
281
     0
  0
CLASS
  1
ACAMGRCOMPDEFSET
  2
AcAmGrCompDefSet
  3
DesignerAssemblies
 90
     1024
280
     0
281
     0
  0
CLASS
  1
AMDTBROWSERDBTAB
  2
AmdtBrowserDbTab
  3
McadcomServices
 90
     1024
280
     0
281
     0
  0
CLASS
  1
CBROWSERAPPOBJECT
  2
CBrowserAppObject
  3
McadcomServices
 90
     1024
280
     0
281
     0
  0
CLASS
  1
DM_PLACEHOLDER
  2
AcDmSelsetPlaceholder
  3
McadcomServices
 90
     1024
280
     0
281
     0
  0
CLASS
  1
AMDTNOTETEMPLATEDB
  2
AmdtNoteTemplateDB
  3
AcmSymBB|Product Description: AutoCAD Mechanical|Company: Autodesk, Inc.
 90
     1024
280
     0
281
     0
  0
CLASS
  1
ACAMGFILTERDAT
  2
AcAmgFilterDat
  3
"AcadM|Product Description: AutoCAD Mechanical|Company: Autodesk, Inc."
 90
     1024
280
     0
281
     0
  0
CLASS
  1
AMDTNOTE
  2
AmdtNote
  3
"AcmSymBB|Product Description: AutoCAD Mechanical|Company: Autodesk, Inc."
 90
    33792
280
     0
281
     1
  0
CLASS
  1
AMDTFORMULAUPDATEDISPATCHER
  2
AmdtFormulaUpdateDispatcher
  3
AcMeServices
 90
     1024
280
     0
281
     0
  0
CLASS
  1
AMDTSECTIONSYM
  2
AmdtSectionSym
  3
"AcmSymBB|Product Description: AutoCAD Mechanical|Company: Autodesk, Inc."
 90
    33792
280
     0
281
     1
  0
CLASS
  1
AMDTSECTIONSYMLABEL
  2
AmdtSectionSymLabel
  3
"AcmSymBB|Product Description: AutoCAD Mechanical|Company: Autodesk, Inc."
 90
    33792
280
     0
281
     1
  0
CLASS
  1
AMDTDETAILSYM
  2
AmdtDetailSym
  3
"AcmSymBB|Product Description: AutoCAD Mechanical|Company: Autodesk, Inc."
 90
    33792
280
     0
281
     1
  0
CLASS
  1
AMDTDETAILSYMLABEL
  2
AmdtDetailSymLabel
  3
"AcmSymBB|Product Description: AutoCAD Mechanical|Company: Autodesk, Inc."
 90
    33792
280
     0
281
     1
  0
CLASS
  1
TABLESTYLE
  2
AcDbTableStyle
  3
ObjectDBX Classes
 90
     4095
280
     0
281
     0
  0
CLASS
  1
DIMASSOC
  2
AcDbDimAssoc
  3
"AcDbDimAssoc|Product Desc:     AcDim ARX App For Dimension|Company:          Autodesk, Inc.|WEB Address:      www.autodesk.com"
 90
        0
280
     0
281
     0
  0
CLASS
  1
ACMBOM
  2
AcmBom
  3
"AcmSymBB|Product Description: AutoCAD Mechanical|Company: Autodesk, Inc."
 90
     1024
280
     0
281
     0
  0
CLASS
  1
ACMDATAENTRYPART
  2
AcmDataEntryPart
  3
AcmSymBB|Product Description: AutoCAD Mechanical|Company: Autodesk, Inc.
 90
     1024
280
     0
281
     0
  0
CLASS
  1
ACMPARTREF
  2
AcmPartRef
  3
"AcmSymBB|Product Description: AutoCAD Mechanical|Company: Autodesk, Inc."
 90
     1024
280
     0
281
     1
  0
CLASS
  1
ACMBOMROW
  2
AcmBomRow
  3
"AcmSymBB|Product Description: AutoCAD Mechanical|Company: Autodesk, Inc."
 90
     1024
280
     0
281
     0
  0
CLASS
  1
ACMDATAENTRY
  2
AcmDataEntry
  3
AcmSymBB|Product Description: AutoCAD Mechanical|Company: Autodesk, Inc.
 90
     1024
280
     0
281
     0
  0
CLASS
  1
ACMBALLOON
  2
AcmBalloon
  3
"AcmSymBB|Product Description: AutoCAD Mechanical|Company: Autodesk, Inc."
 90
     1024
280
     0
281
     1
  0
CLASS
  1
ACMPARTLIST
  2
AcmPartList
  3
"AcmSymBB|Product Description: AutoCAD Mechanical|Company: Autodesk, Inc."
 90
     1024
280
     0
281
     1
  0
CLASS
  1
ACDBLINERES
  2
AcDbLineRes
  3
AcGrefServices
 90
     1024
280
     0
281
     0
  0
CLASS
  1
ACRFINSADJ
  2
AcRfInsAdjuster
  3
AcMeServices
 90
     1024
280
     0
281
     0
  0
CLASS
  1
ACRFATTGENMGR
  2
AcRfAttGeneralMgr
  3
AcAttribServices
 90
     1024
280
     0
281
     0
  0
CLASS
  1
ACRFOBJATTMGR
  2
AcRfObjAttGroupMgr
  3
AcAttribServices
 90
     1024
280
     0
281
     0
  0
CLASS
  1
ACRFMCADAPIATTHOLDER
  2
AcRfMCADAPIAttHolder
  3
AcAttribServices
 90
     1024
280
     0
281
     0
  0
CLASS
  1
AMDTSYSATTR
  2
AmdtSystemAttribute
  3
AcAttribServices
 90
     1024
280
     0
281
     0
  0
CLASS
  1
MATERIAL
  2
AcDbMaterial
  3
ObjectDBX Classes
 90
     1153
280
     0
281
     0
  0
CLASS
  1
VISUALSTYLE
  2
AcDbVisualStyle
  3
ObjectDBX Classes
 90
     4095
280
     0
281
     0
  0
CLASS
  1
SCALE
  2
AcDbScale
  3
ObjectDBX Classes
 90
     1153
280
     0
281
     0
  0
CLASS
  1
MLEADERSTYLE
  2
AcDbMLeaderStyle
  3
ACDB_MLEADERSTYLE_CLASS
 90
     4095
280
     0
281
     0
  0
CLASS
  1
ACDBSECTIONVIEWSTYLE
  2
AcDbSectionViewStyle
  3
ObjectDBX Classes
 90
     1025
280
     0
281
     0
  0
CLASS
  1
ACDBDETAILVIEWSTYLE
  2
AcDbDetailViewStyle
  3
ObjectDBX Classes
 90
     1025
280
     0
281
     0
  0
CLASS
  1
ACMTAPERSTANDARDISO
  2
AcmTaperStdISO
  3
"Amdt_StdImp|Product Description: AutoCAD Mechanical|Company: Autodesk, Inc."
 90
     1024
280
     0
281
     0
  0
CLASS
  1
ACMANOOTATIONVIEWSTANDARDISO
  2
AmdtAnViewStdISO
  3
"Amdt_StdImp|Product Description: AutoCAD Mechanical|Company: Autodesk, Inc."
 90
     1024
280
     0
281
     0
  0
CLASS
  1
CELLSTYLEMAP
  2
AcDbCellStyleMap
  3
ObjectDBX Classes
 90
     1152
280
     0
281
     0
  0
ENDSEC
  0
SECTION
  2
TABLES
  0
TABLE
  2
VPORT
  5
8
330
0
100
AcDbSymbolTable
 70
     1
  0
VPORT
  5
4063
330
8
100
AcDbSymbolTableRecord
100
AcDbViewportTableRecord
  2
*Active
 70
     0
 10
0.0
 20
0.0
 11
1.0
 21
1.0
 12
58.75120420264522
 22
76.24664349423607
 13
0.0
 23
0.0
 14
1.25
 24
1.25
 15
5.0
 25
5.0
 16
0.0
 26
0.0
 36
1.0
 17
0.0
 27
0.0
 37
0.0
 40
138.5518749913606
 41
1.249370277078085
 42
50.0
 43
0.0
 44
0.0
 50
0.0
 51
0.0
 71
    16
 72
   100
 73
     1
 74
     3
 75
     0
 76
     0
 77
     0
 78
     0
281
     0
 65
     1
110
0.0
120
0.0
130
0.0
111
1.0
121
0.0
131
0.0
112
0.0
122
1.0
132
0.0
 79
     0
146
0.0
1001
ACAD_NAV_VCDISPLAY
1070
     3
  0
ENDTAB
  0
TABLE
  2
LTYPE
  5
5
330
0
100
AcDbSymbolTable
 70
    20
  0
LTYPE
  5
14
330
5
100
AcDbSymbolTableRecord
100
AcDbLinetypeTableRecord
  2
ByBlock
 70
     0
  3

 72
    65
 73
     0
 40
0.0
  0
LTYPE
  5
15
330
5
100
AcDbSymbolTableRecord
100
AcDbLinetypeTableRecord
  2
ByLayer
 70
     0
  3

 72
    65
 73
     0
 40
0.0
  0
LTYPE
  5
16
330
5
100
AcDbSymbolTableRecord
100
AcDbLinetypeTableRecord
  2
Continuous
 70
     0
  3
Solid line
 72
    65
 73
     0
 40
0.0
  0
LTYPE
  5
64
330
5
100
AcDbSymbolTableRecord
100
AcDbLinetypeTableRecord
  2
AM_ISO02W050
 70
     0
  3
__ __ __ __ __ __ __ __ __ __ __ __ __ __ __
 72
    65
 73
     2
 40
7.5
 49
6.0
 74
     0
 49
-1.5
 74
     0
  0
LTYPE
  5
65
330
5
100
AcDbSymbolTableRecord
100
AcDbLinetypeTableRecord
  2
AM_ISO08W050
 70
     0
  3
____ . ____ . ____ . ____ . ____ . ____ . ____
 72
    65
 73
     4
 40
18.0
 49
12.0
 74
     0
 49
-1.5
 74
     0
 49
3.0
 74
     0
 49
-1.5
 74
     0
  0
LTYPE
  5
66
330
5
100
AcDbSymbolTableRecord
100
AcDbLinetypeTableRecord
  2
AM_ISO09W050
 70
     0
  3
_____ . . _____ . . _____ . . ____ .. ____
 72
    65
 73
     6
 40
22.5
 49
12.0
 74
     0
 49
-1.5
 74
     0
 49
3.0
 74
     0
 49
-1.5
 74
     0
 49
3.0
 74
     0
 49
-1.5
 74
     0
  0
LTYPE
  5
67
330
5
100
AcDbSymbolTableRecord
100
AcDbLinetypeTableRecord
  2
Amconstr
 70
     0
  3
_______________________
 72
    65
 73
     2
 40
9999.0
 49
9999.0
 74
     0
 49
0.0
 74
     0
  0
LTYPE
  5
68
330
5
100
AcDbSymbolTableRecord
100
AcDbLinetypeTableRecord
  2
AM_ISO08W050x2
 70
     0
  3
__ . __ . __ . __ . __ . __
 72
    65
 73
     4
 40
9.0
 49
6.0
 74
     0
 49
-0.75
 74
     0
 49
1.5
 74
     0
 49
-0.75
 74
     0
  0
LTYPE
  5
69
330
5
100
AcDbSymbolTableRecord
100
AcDbLinetypeTableRecord
  2
AM_ISO02W050x2
 70
     0
  3
 _ _ _ _ _ _ _ _ _ _ _ _
 72
    65
 73
     2
 40
3.75
 49
3.0
 74
     0
 49
-0.75
 74
     0
  0
LTYPE
  5
6C
330
5
100
AcDbSymbolTableRecord
100
AcDbLinetypeTableRecord
  2
Amzigzag
 70
     0
  3
/\/-/\/-/\/-/\/-/\/-/\/
 72
    65
 73
     2
 40
11.0001
 49
0.0001
 74
     4
 75
   135
340
6B
 46
0.04
 50
0.0
 44
0.0
 45
0.0
 49
-11.0
 74
     0
  0
LTYPE
  5
7A
330
5
100
AcDbSymbolTableRecord
100
AcDbLinetypeTableRecord
  2
ACISOWELD
 70
     0
  3
_ _ _ _ _
 72
    65
 73
     2
 40
2.0
 49
2.0
 74
     0
 49
-1.0
 74
     0
  0
LTYPE
  5
7B
330
5
100
AcDbSymbolTableRecord
100
AcDbLinetypeTableRecord
  2
ACISOTGB
 70
     0
  3
__ . . __ . .
 72
    65
 73
     6
 40
9.0
 49
4.0
 74
     0
 49
-1.0
 74
     0
 49
1.0
 74
     0
 49
-1.0
 74
     0
 49
1.0
 74
     0
 49
-1.0
 74
     0
  0
LTYPE
  5
7C
330
5
100
AcDbSymbolTableRecord
100
AcDbLinetypeTableRecord
  2
ACISOTGL
 70
     0
  3
_ _ _ _ _
 72
    65
 73
     2
 40
3.0
 49
2.0
 74
     0
 49
-1.0
 74
     0
  0
LTYPE
  5
7E
330
5
100
AcDbSymbolTableRecord
100
AcDbLinetypeTableRecord
  2
CENTER
 70
     0
  3
__ . __
 72
    65
 73
     4
 40
7.0
 49
4.0
 74
     0
 49
-1.0
 74
     0
 49
1.0
 74
     0
 49
-1.0
 74
     0
  0
LTYPE
  5
D8
330
5
100
AcDbSymbolTableRecord
100
AcDbLinetypeTableRecord
  2
HIDDEN
 70
     0
  3
Hidden __ __ __ __ __ __ __ __ __ __ __ __ __ _
 72
    65
 73
     2
 40
9.524999999999998
 49
6.349999999999999
 74
     0
 49
-3.174999999999999
 74
     0
  0
LTYPE
  5
D9
330
5
100
AcDbSymbolTableRecord
100
AcDbLinetypeTableRecord
  2
PHANTOM2
 70
     0
  3
Phantom (.5x) ___ _ _ ___ _ _ ___ _ _ ___ _ _
 72
    65
 73
     6
 40
31.75
 49
15.875
 74
     0
 49
-3.174999999999999
 74
     0
 49
3.174999999999999
 74
     0
 49
-3.174999999999999
 74
     0
 49
3.174999999999999
 74
     0
 49
-3.174999999999999
 74
     0
  0
LTYPE
  5
5BD
330
5
100
AcDbSymbolTableRecord
100
AcDbLinetypeTableRecord
  2
gen3
 70
     0
  3
-- -- -- -- -- -- -- -- -- -- -- -- -- -- --
 72
    65
 73
     2
 40
6.25
 49
4.75
 74
     0
 49
-1.5
 74
     0
  0
LTYPE
  5
5BE
330
5
100
AcDbSymbolTableRecord
100
AcDbLinetypeTableRecord
  2
gen7
 70
     0
  3
____ . ____ . ____ . ____ . ____ . ____ . ____
 72
    65
 73
     4
 40
13.75
 49
9.75
 74
     0
 49
-1.5
 74
     0
 49
1.0
 74
     0
 49
-1.5
 74
     0
  0
LTYPE
  5
5BF
330
5
100
AcDbSymbolTableRecord
100
AcDbLinetypeTableRecord
  2
gen3a
 70
     0
  3
 - - - - -
 72
    65
 73
     2
 40
3.125
 49
2.25
 74
     0
 49
-0.875
 74
     0
  0
LTYPE
  5
5C0
330
5
100
AcDbSymbolTableRecord
100
AcDbLinetypeTableRecord
  2
gen7a
 70
     0
  3
__ . __ . __
 72
    65
 73
     4
 40
6.875
 49
4.75
 74
     0
 49
-0.875
 74
     0
 49
0.375
 74
     0
 49
-0.875
 74
     0
  0
LTYPE
  5
5C1
330
5
100
AcDbSymbolTableRecord
100
AcDbLinetypeTableRecord
  2
gen4a
 70
     0
  3
_____ . . _____ . . _____ . . ____ .. ____
 72
    65
 73
     6
 40
16.25
 49
9.75
 74
     0
 49
-1.5
 74
     0
 49
1.0
 74
     0
 49
-1.5
 74
     0
 49
1.0
 74
     0
 49
-1.5
 74
     0
  0
LTYPE
  5
5C2
330
5
100
AcDbSymbolTableRecord
100
AcDbLinetypeTableRecord
  2
genzigzag
 70
     0
  3
/\/-/\/-/\/-/\/-/\/-/\/
 72
    65
 73
     2
 40
12.0001
 49
0.0001
 74
     4
 75
   135
340
6B
 46
2.0
 50
0.0
 44
0.0
 45
0.0
 49
-12.0
 74
     0
  0
ENDTAB
  0
TABLE
  2
LAYER
  5
2
102
{ACAD_XDICTIONARY
360
35D
102
}
330
0
100
AcDbSymbolTable
 70
    18
  0
LAYER
  5
10
102
{ACAD_XDICTIONARY
360
40FC
102
}
330
2
100
AcDbSymbolTableRecord
100
AcDbLayerTableRecord
  2
0
 70
     0
 62
     7
  6
Continuous
370
    -3
390
F
  0
LAYER
  5
1E1
330
2
100
AcDbSymbolTableRecord
100
AcDbLayerTableRecord
  2
Defpoints
 70
     0
 62
     7
  6
Continuous
290
     0
370
    -3
390
F
  0
LAYER
  5
518
102
{ACAD_XDICTIONARY
360
40FE
102
}
330
2
100
AcDbSymbolTableRecord
100
AcDbLayerTableRecord
  2
TK1
 70
     0
 62
     7
  6
Continuous
370
    25
390
F
  0
LAYER
  5
519
102
{ACAD_XDICTIONARY
360
4100
102
}
330
2
100
AcDbSymbolTableRecord
100
AcDbLayerTableRecord
  2
TK10
 70
     0
 62
     7
  6
AM_ISO02W050x2
370
    13
390
F
  0
LAYER
  5
51A
102
{ACAD_XDICTIONARY
360
4102
102
}
330
2
100
AcDbSymbolTableRecord
100
AcDbLayerTableRecord
  2
TK2
 70
     0
 62
    51
  6
Continuous
370
    25
390
F
  0
LAYER
  5
51B
102
{ACAD_XDICTIONARY
360
4104
102
}
330
2
100
AcDbSymbolTableRecord
100
AcDbLayerTableRecord
  2
TK3
 70
     0
 62
    91
  6
Continuous
370
    25
390
F
  0
LAYER
  5
51C
102
{ACAD_XDICTIONARY
360
4106
102
}
330
2
100
AcDbSymbolTableRecord
100
AcDbLayerTableRecord
  2
TK20
 70
     0
 62
    51
  6
AM_ISO02W050x2
370
    13
390
F
  0
LAYER
  5
51D
102
{ACAD_XDICTIONARY
360
4108
102
}
330
2
100
AcDbSymbolTableRecord
100
AcDbLayerTableRecord
  2
TK30
 70
     0
 62
    91
  6
AM_ISO02W050x2
370
    13
390
F
  0
LAYER
  5
5E5
102
{ACAD_XDICTIONARY
360
410A
102
}
330
2
100
AcDbSymbolTableRecord
100
AcDbLayerTableRecord
  2
7A
 70
     0
 62
     4
  6
gen7a
370
    -3
390
F
  0
LAYER
  5
5E6
102
{ACAD_XDICTIONARY
360
410C
102
}
330
2
100
AcDbSymbolTableRecord
100
AcDbLayerTableRecord
  2
RAHM2
 70
     0
 62
     1
  6
Continuous
370
    -3
390
F
  0
LAYER
  5
5E7
102
{ACAD_XDICTIONARY
360
410E
102
}
330
2
100
AcDbSymbolTableRecord
100
AcDbLayerTableRecord
  2
KLIN
 70
     0
 62
     1
  6
Continuous
370
    -3
390
F
  0
LAYER
  5
6CF
102
{ACAD_XDICTIONARY
360
4110
102
}
330
2
100
AcDbSymbolTableRecord
100
AcDbLayerTableRecord
  2
AM_5
 70
     0
 62
     3
  6
Continuous
370
    25
390
F
  0
LAYER
  5
6D0
102
{ACAD_XDICTIONARY
360
4112
102
}
330
2
100
AcDbSymbolTableRecord
100
AcDbLayerTableRecord
  2
AM_7
 70
     0
 62
     4
  6
AM_ISO08W050
370
    25
390
F
  0
LAYER
  5
AFF
102
{ACAD_XDICTIONARY
360
4114
102
}
330
2
100
AcDbSymbolTableRecord
100
AcDbLayerTableRecord
  2
AM_0
 70
     0
 62
     7
  6
Continuous
370
    50
390
F
  0
LAYER
  5
B76
102
{ACAD_XDICTIONARY
360
4116
102
}
330
2
100
AcDbSymbolTableRecord
100
AcDbLayerTableRecord
  2
AM_12
 70
     0
 62
     7
  6
Continuous
290
     0
370
    50
390
F
  0
LAYER
  5
B77
102
{ACAD_XDICTIONARY
360
4118
102
}
330
2
100
AcDbSymbolTableRecord
100
AcDbLayerTableRecord
  2
AM_PAREF
 70
     0
 62
     4
  6
Continuous
290
     0
370
    25
390
F
  0
LAYER
  5
B9B
102
{ACAD_XDICTIONARY
360
411A
102
}
330
2
100
AcDbSymbolTableRecord
100
AcDbLayerTableRecord
  2
AM_CL
 70
     0
 62
     1
  6
Amconstr
370
    25
390
F
  0
LAYER
  5
188B
102
{ACAD_XDICTIONARY
360
411C
102
}
330
2
100
AcDbSymbolTableRecord
100
AcDbLayerTableRecord
  2
AM_6
 70
     0
 62
     2
  6
Continuous
370
    35
390
F
  0
ENDTAB
  0
TABLE
  2
STYLE
  5
3
330
0
100
AcDbSymbolTable
 70
     5
  0
STYLE
  5
11
330
3
100
AcDbSymbolTableRecord
100
AcDbTextStyleTableRecord
  2
STANDARD
 70
     0
 40
0.0
 41
1.0
 50
0.0
 71
     0
 42
73.98571745357912
  3
ISOCP.SHX
  4
bigfont.shx
  0
STYLE
  5
6B
330
3
100
AcDbSymbolTableRecord
100
AcDbTextStyleTableRecord
  2

 70
     1
 40
0.0
 41
1.0
 50
0.0
 71
     0
 42
2.5
  3
ltypeshp.shx
  4

  0
STYLE
  5
6D
330
3
100
AcDbSymbolTableRecord
100
AcDbTextStyleTableRecord
  2
ACISOTS
 70
     0
 40
1.0
 41
1.0
 50
0.0
 71
     0
 42
2.5
  3
isocp.shx
  4
extfont.shx
  0
STYLE
  5
79
330
3
100
AcDbSymbolTableRecord
100
AcDbTextStyleTableRecord
  2
ACISOGDT
 70
     0
 40
0.0
 41
1.0
 50
0.0
 71
     0
 42
2.5
  3
amgdt.shx
  4

  0
STYLE
  5
5E8
330
3
100
AcDbSymbolTableRecord
100
AcDbTextStyleTableRecord
  2

 70
     1
 40
0.0
 41
1.0
 50
0.0
 71
     0
 42
3.0
  3
genltshp.shx
  4

  0
ENDTAB
  0
TABLE
  2
VIEW
  5
6
330
0
100
AcDbSymbolTable
 70
     6
  0
VIEW
  5
291
330
6
100
AcDbSymbolTableRecord
100
AcDbViewTableRecord
  2
AM_VIEW1
 70
     0
 40
68.75000000000001
 10
72.10028160200249
 20
118.125
 41
104.200563204005
 11
0.0
 21
0.0
 31
1.0
 12
0.0
 22
0.0
 32
0.0
 42
50.0
 43
0.0
 44
0.0
 50
0.0
 71
    16
281
     0
 72
     0
  0
VIEW
  5
292
330
6
100
AcDbSymbolTableRecord
100
AcDbViewTableRecord
  2
AM_VIEW2
 70
     0
 40
68.75000000000001
 10
65.39971839799751
 20
118.125
 41
104.200563204005
 11
0.0
 21
0.0
 31
1.0
 12
0.0
 22
0.0
 32
0.0
 42
50.0
 43
0.0
 44
0.0
 50
0.0
 71
    16
281
     0
 72
     0
  0
VIEW
  5
293
330
6
100
AcDbSymbolTableRecord
100
AcDbViewTableRecord
  2
AM_VIEW3
 70
     0
 40
68.75000000000001
 10
72.10028160200249
 20
49.375
 41
104.200563204005
 11
0.0
 21
0.0
 31
1.0
 12
0.0
 22
0.0
 32
0.0
 42
50.0
 43
0.0
 44
0.0
 50
0.0
 71
    16
281
     0
 72
     0
  0
VIEW
  5
294
330
6
100
AcDbSymbolTableRecord
100
AcDbViewTableRecord
  2
AM_VIEW4
 70
     0
 40
68.75000000000001
 10
65.39971839799751
 20
49.375
 41
104.200563204005
 11
0.0
 21
0.0
 31
1.0
 12
0.0
 22
0.0
 32
0.0
 42
50.0
 43
0.0
 44
0.0
 50
0.0
 71
    16
281
     0
 72
     0
  0
VIEW
  5
295
330
6
100
AcDbSymbolTableRecord
100
AcDbViewTableRecord
  2
AM_VIEW5
 70
     0
 40
68.75000000000003
 10
68.75
 20
83.75000000000001
 41
104.200563204005
 11
0.0
 21
0.0
 31
1.0
 12
0.0
 22
0.0
 32
0.0
 42
50.0
 43
0.0
 44
0.0
 50
0.0
 71
    16
281
     0
 72
     0
  0
VIEW
  5
296
330
6
100
AcDbSymbolTableRecord
100
AcDbViewTableRecord
  2
AM_VIEW6
 70
     0
 40
137.498625
 10
68.75
 20
83.75000000000001
 41
208.399042396746
 11
0.0
 21
0.0
 31
1.0
 12
0.0
 22
0.0
 32
0.0
 42
50.0
 43
0.0
 44
0.0
 50
0.0
 71
    16
281
     0
 72
     0
  0
ENDTAB
  0
TABLE
  2
UCS
  5
7
330
0
100
AcDbSymbolTable
 70
     0
  0
ENDTAB
  0
TABLE
  2
APPID
  5
9
330
0
100
AcDbSymbolTable
 70
    38
  0
APPID
  5
12
330
9
100
AcDbSymbolTableRecord
100
AcDbRegAppTableRecord
  2
ACAD
 70
     0
  0
APPID
  5
46
330
9
100
AcDbSymbolTableRecord
100
AcDbRegAppTableRecord
  2
MCAD_NO_VIS
 70
     0
  0
APPID
  5
47
330
9
100
AcDbSymbolTableRecord
100
AcDbRegAppTableRecord
  2
ACAD_TEMP_GRAPHIC
 70
     0
  0
APPID
  5
58
330
9
100
AcDbSymbolTableRecord
100
AcDbRegAppTableRecord
  2
ACATTRIBSERVICES
 70
     0
  0
APPID
  5
EE
330
9
100
AcDbSymbolTableRecord
100
AcDbRegAppTableRecord
  2
AD_DRAW
 70
     0
  0
APPID
  5
10C
330
9
100
AcDbSymbolTableRecord
100
AcDbRegAppTableRecord
  2
DESIGNERASSEMBLIES
 70
     0
  0
APPID
  5
111
330
9
100
AcDbSymbolTableRecord
100
AcDbRegAppTableRecord
  2
ACADM_DIM_EDIT
 70
     0
  0
APPID
  5
112
330
9
100
AcDbSymbolTableRecord
100
AcDbRegAppTableRecord
  2
AMDT_DM_ADJ
 70
     0
  0
APPID
  5
1E2
330
9
100
AcDbSymbolTableRecord
100
AcDbRegAppTableRecord
  2
GENIUS_GENREC_14
 70
     0
  0
APPID
  5
1E3
330
9
100
AcDbSymbolTableRecord
100
AcDbRegAppTableRecord
  2
GENIUS_GENODEF_13
 70
     0
  0
APPID
  5
1E4
330
9
100
AcDbSymbolTableRecord
100
AcDbRegAppTableRecord
  2
GENIUS_GENOBJ-N-REC_13
 70
     0
  0
APPID
  5
1E5
330
9
100
AcDbSymbolTableRecord
100
AcDbRegAppTableRecord
  2
GENIUS_GENDIMSH_14
 70
     0
  0
APPID
  5
1E6
330
9
100
AcDbSymbolTableRecord
100
AcDbRegAppTableRecord
  2
GENIUS_GENCFG_13
 70
     0
  0
APPID
  5
1E7
330
9
100
AcDbSymbolTableRecord
100
AcDbRegAppTableRecord
  2
GENIUS_GENCFG0_13
 70
     0
  0
APPID
  5
1E8
330
9
100
AcDbSymbolTableRecord
100
AcDbRegAppTableRecord
  2
GENIUS_GENCFG1_13
 70
     0
  0
APPID
  5
1E9
330
9
100
AcDbSymbolTableRecord
100
AcDbRegAppTableRecord
  2
GENIUS_GENCFG2_13
 70
     0
  0
APPID
  5
1EA
330
9
100
AcDbSymbolTableRecord
100
AcDbRegAppTableRecord
  2
GENIUS_GENCFG3_13
 70
     0
  0
APPID
  5
1EB
330
9
100
AcDbSymbolTableRecord
100
AcDbRegAppTableRecord
  2
GENIUS_GENCFG4_13
 70
     0
  0
APPID
  5
1EC
330
9
100
AcDbSymbolTableRecord
100
AcDbRegAppTableRecord
  2
GENIUS_GEVCFG0_13
 70
     0
  0
APPID
  5
1ED
330
9
100
AcDbSymbolTableRecord
100
AcDbRegAppTableRecord
  2
GENIUS_GENOENT_13
 70
     0
  0
APPID
  5
1EE
330
9
100
AcDbSymbolTableRecord
100
AcDbRegAppTableRecord
  2
GENIUS_GENOBJ-N-CRS_13
 70
     0
  0
APPID
  5
1EF
330
9
100
AcDbSymbolTableRecord
100
AcDbRegAppTableRecord
  2
GENIUS_GENOREF_13
 70
     0
  0
APPID
  5
1F0
330
9
100
AcDbSymbolTableRecord
100
AcDbRegAppTableRecord
  2
GENIUS_GENOLIS_13
 70
     0
  0
APPID
  5
1F1
330
9
100
AcDbSymbolTableRecord
100
AcDbRegAppTableRecord
  2
GENIUS_GENOBJ-N-TIT_13
 70
     0
  0
APPID
  5
1F2
330
9
100
AcDbSymbolTableRecord
100
AcDbRegAppTableRecord
  2
GENIUS_GENTITLE_13
 70
     0
  0
APPID
  5
1F3
330
9
100
AcDbSymbolTableRecord
100
AcDbRegAppTableRecord
  2
GENIUS_GENSCREG_15
 70
     0
  0
APPID
  5
1F4
330
9
100
AcDbSymbolTableRecord
100
AcDbRegAppTableRecord
  2
GENIUS_GENOBJ-N-SDF_13
 70
     0
  0
APPID
  5
1F5
330
9
100
AcDbSymbolTableRecord
100
AcDbRegAppTableRecord
  2
GENIUS_GENOBJ-N-CEN_13
 70
     0
  0
APPID
  5
1F6
330
9
100
AcDbSymbolTableRecord
100
AcDbRegAppTableRecord
  2
GENIUS_GENOBJ-N-HTC_13
 70
     0
  0
APPID
  5
1F7
330
9
100
AcDbSymbolTableRecord
100
AcDbRegAppTableRecord
  2
GENIUS_GENHATCH_13
 70
     0
  0
APPID
  5
484
330
9
100
AcDbSymbolTableRecord
100
AcDbRegAppTableRecord
  2
GENIUS_GENOBJ-N-ZOO_13
 70
     0
  0
APPID
  5
485
330
9
100
AcDbSymbolTableRecord
100
AcDbRegAppTableRecord
  2
GENIUS_GENZOO_17
 70
     0
  0
APPID
  5
5CB
330
9
100
AcDbSymbolTableRecord
100
AcDbRegAppTableRecord
  2
GEV_VCCNULL_SWITCH_OFF
 70
     0
  0
APPID
  5
5CC
330
9
100
AcDbSymbolTableRecord
100
AcDbRegAppTableRecord
  2
GENIUS_GENDTOL_13
 70
     0
  0
APPID
  5
C87
330
9
100
AcDbSymbolTableRecord
100
AcDbRegAppTableRecord
  2
GENIUS_GENOBJ-N-FIL_13
 70
     0
  0
APPID
  5
188C
330
9
100
AcDbSymbolTableRecord
100
AcDbRegAppTableRecord
  2
GENIUS_AMGTXT_16
 70
     0
  0
APPID
  5
40CF
330
9
100
AcDbSymbolTableRecord
100
AcDbRegAppTableRecord
  2
ACAD_NAV_VCDISPLAY
 70
     0
  0
APPID
  5
416B
330
9
100
AcDbSymbolTableRecord
100
AcDbRegAppTableRecord
  2
ACAD_MLEADERVER
 70
     0
  0
ENDTAB
  0
TABLE
  2
DIMSTYLE
  5
A
330
0
100
AcDbSymbolTable
 70
    16
100
AcDbDimStyleTable
 71
     1
340
81
  0
DIMSTYLE
105
81
330
A
100
AcDbSymbolTableRecord
100
AcDbDimStyleTableRecord
  2
AM_ISO
 70
     0
  4
"
 41
2.5
 42
1.0
 43
10.0
 44
1.0
 47
0.1
 48
0.1
 73
     0
 74
     0
 77
     1
 78
     8
 79
     2
140
3.5
141
0.0
143
0.0393701
146
0.71
147
1.5
172
     1
176
   256
177
   256
178
     2
271
     2
272
     2
283
     0
284
     8
340
11
341
407
342
407
371
    -1
372
    -1
  0
DIMSTYLE
105
82
102
{ACAD_REACTORS
330
3E17
102
}
330
A
100
AcDbSymbolTableRecord
100
AcDbDimStyleTableRecord
  2
AM_ISO$3
 70
     0
  4
"
 41
2.5
 42
1.0
 43
10.0
 44
1.0
 47
0.1
 48
0.1
 73
     0
 77
     1
 78
     8
 79
     2
140
3.5
141
0.0
143
0.0393701
146
0.71
147
1.5
176
   256
177
   256
178
     2
271
     2
272
     2
283
     0
284
     8
288
     1
289
     0
340
11
341
407
342
407
371
    -1
372
    -1
  0
DIMSTYLE
105
83
102
{ACAD_REACTORS
330
3E27
102
}
330
A
100
AcDbSymbolTableRecord
100
AcDbDimStyleTableRecord
  2
AM_ISO$4
 70
     0
  4
"
 41
2.5
 42
1.0
 43
10.0
 44
1.0
 47
0.1
 48
0.1
 73
     0
 77
     1
 78
     8
 79
     2
140
3.5
141
0.0
143
0.0393701
146
0.71
147
1.5
176
   256
177
   256
178
     2
271
     2
272
     2
283
     0
284
     8
288
     1
289
     0
340
11
341
407
342
407
371
    -1
372
    -1
  0
DIMSTYLE
105
84
330
A
100
AcDbSymbolTableRecord
100
AcDbDimStyleTableRecord
  2
AM_ISO$6
 70
     0
  4
"
 41
2.5
 42
1.0
 43
10.0
 44
1.0
 47
0.1
 48
0.1
 73
     0
 74
     0
 78
     8
 79
     2
140
3.5
141
0.0
143
0.0393701
146
0.71
147
1.5
172
     1
176
   256
177
   256
178
     2
271
     2
272
     2
283
     0
284
     8
340
11
341
407
342
407
371
    -1
372
    -1
  0
DIMSTYLE
105
85
330
A
100
AcDbSymbolTableRecord
100
AcDbDimStyleTableRecord
  2
AM_ISO$7
 70
     0
  4
"
 41
2.5
 42
1.0
 43
10.0
 44
1.0
 47
0.1
 48
0.1
 73
     0
 74
     0
 77
     1
 78
     8
 79
     2
140
5.0
141
0.0
143
0.0393701
146
0.71
147
1.5
172
     1
176
   256
177
   256
178
     2
271
     2
272
     2
283
     0
284
     8
340
11
341
407
342
407
371
    -1
372
    -1
  0
DIMSTYLE
105
86
330
A
100
AcDbSymbolTableRecord
100
AcDbDimStyleTableRecord
  2
AM_ISO$SF
 70
     0
  4
"
 41
2.5
 42
1.0
 43
10.0
 44
1.0
 47
0.1
 48
0.1
 73
     0
 74
     0
 75
     1
 76
     1
 77
     1
 78
     8
 79
     2
140
3.5
141
0.0
143
0.0393701
146
0.71
147
1.5
172
     1
176
   256
177
   256
178
     2
271
     2
272
     2
283
     0
284
     8
340
11
341
407
342
407
371
    -1
372
    -1
  0
DIMSTYLE
105
8B
330
A
100
AcDbSymbolTableRecord
100
AcDbDimStyleTableRecord
  2
AM_ISO$SH
 70
     0
  4
"
 41
2.5
 42
1.0
 43
10.0
 44
1.0
 47
0.1
 48
0.1
 73
     0
 74
     0
 75
     1
 76
     1
 77
     1
 78
     8
 79
     2
140
3.5
141
0.0
143
0.0393701
144
2.0
146
0.71
147
1.5
172
     1
173
     1
176
   256
177
   256
178
     2
271
     2
272
     2
283
     0
284
     8
340
11
341
407
343
87
344
407
371
    -1
372
    -1
  0
DIMSTYLE
105
5C3
330
A
100
AcDbSymbolTableRecord
100
AcDbDimStyleTableRecord
  2
GEN-ISO
 70
     0
  4
"
 41
2.5
 42
1.0
 43
10.0
 44
1.0
 47
0.1
 48
0.1
 73
     0
 74
     0
 77
     1
 78
     8
140
3.5
141
0.0
143
0.0393701
146
0.71
147
1.5
172
     1
176
   256
177
   256
178
     2
271
     2
272
     3
274
     4
283
     0
340
11
  0
DIMSTYLE
105
5C4
330
A
100
AcDbSymbolTableRecord
100
AcDbDimStyleTableRecord
  2
GEN-ISO$4
 70
     0
  4
"
 41
2.5
 42
1.0
 43
10.0
 44
1.0
 47
0.1
 48
0.1
 73
     0
 77
     1
 78
     8
140
3.5
141
0.0
143
0.0393701
146
0.71
147
1.5
176
   256
177
   256
178
     2
271
     2
272
     3
274
     4
283
     0
288
     1
289
     0
340
11
  0
DIMSTYLE
105
5C5
330
A
100
AcDbSymbolTableRecord
100
AcDbDimStyleTableRecord
  2
GEN-ISO$3
 70
     0
  4
"
 41
2.5
 42
1.0
 43
10.0
 44
1.0
 47
0.1
 48
0.1
 73
     0
 77
     1
 78
     8
140
3.5
141
0.0
143
0.0393701
146
0.71
147
1.5
176
   256
177
   256
178
     2
271
     2
272
     3
274
     4
283
     0
288
     1
289
     0
340
11
  0
DIMSTYLE
105
5C6
330
A
100
AcDbSymbolTableRecord
100
AcDbDimStyleTableRecord
  2
ISO-25
 70
     0
 41
2.5
 42
0.625
 43
3.75
 44
1.25
 74
     0
 77
     1
 78
     8
140
2.5
141
2.5
143
0.0394
145
1.0
147
0.625
172
     1
340
11
  0
DIMSTYLE
105
5C7
330
A
100
AcDbSymbolTableRecord
100
AcDbDimStyleTableRecord
  2
GEN-ISO$6
 70
     0
  4
"
 41
2.5
 42
1.0
 43
10.0
 44
1.0
 47
0.1
 48
0.1
 73
     0
 74
     0
 78
     8
140
3.5
141
0.0
143
0.0393701
146
0.71
147
1.5
176
   256
177
   256
178
     2
271
     2
272
     3
274
     4
283
     0
340
11
  0
DIMSTYLE
105
5C8
330
A
100
AcDbSymbolTableRecord
100
AcDbDimStyleTableRecord
  2
GEN-ISO-POS
 70
     0
  4
"
 41
2.5
 42
1.0
 43
10.0
 44
1.0
 47
0.1
 48
0.1
 73
     0
 74
     0
 78
     8
140
5.0
141
0.0
143
0.0393701
146
0.71
147
1.5
176
   256
177
   256
178
     2
271
     2
272
     3
274
     4
283
     0
340
11
  0
DIMSTYLE
105
5C9
330
A
100
AcDbSymbolTableRecord
100
AcDbDimStyleTableRecord
  2
GEN-ISO-AXE-F
 70
     0
  4
"
 41
2.5
 42
1.0
 43
10.0
 44
1.0
 47
0.1
 48
0.1
 73
     0
 74
     0
 75
     1
 76
     1
 77
     1
 78
     8
140
3.5
141
0.0
143
0.0393701
146
0.71
147
1.5
172
     1
176
   256
177
   256
178
     2
271
     2
272
     3
274
     4
283
     0
340
11
  0
DIMSTYLE
105
5CA
330
A
100
AcDbSymbolTableRecord
100
AcDbDimStyleTableRecord
  2
GEN-ISO-AXE-H
 70
     0
  4
"
 41
2.5
 42
1.0
 43
10.0
 44
1.0
 47
0.1
 48
0.1
 73
     0
 74
     0
 75
     1
 76
     1
 77
     1
 78
     8
140
3.5
141
0.0
143
0.0393701
144
2.0
146
0.71
147
1.5
172
     1
173
     1
176
   256
177
   256
178
     2
271
     2
272
     3
274
     4
283
     0
340
11
  0
DIMSTYLE
105
98C
102
{ACAD_REACTORS
330
3E44
330
3E6E
330
3E9C
330
3EC0
330
3F40
330
3F91
102
}
330
A
100
AcDbSymbolTableRecord
100
AcDbDimStyleTableRecord
  2
AM_ISO$0
 70
     0
  4
"
 41
2.5
 42
1.0
 43
10.0
 44
1.0
 47
0.1
 48
0.1
 73
     0
 74
     0
 77
     1
 78
     8
 79
     2
140
3.5
141
0.0
143
0.0393701
146
0.71
147
1.5
172
     1
176
   256
177
   256
178
     2
271
     2
272
     2
283
     0
284
     8
340
11
341
407
342
407
371
    -1
372
    -1
  0
ENDTAB
  0
TABLE
  2
BLOCK_RECORD
  5
1
330
0
100
AcDbSymbolTable
 70
    50
  0
BLOCK_RECORD
  5
1F
102
{ACAD_XDICTIONARY
360
8F
102
}
330
1
100
AcDbSymbolTableRecord
100
AcDbBlockTableRecord
  2
*Model_Space
340
22
  0
BLOCK_RECORD
  5
23
330
1
100
AcDbSymbolTableRecord
100
AcDbBlockTableRecord
  2
*Paper_Space
340
26
  0
BLOCK_RECORD
  5
1B
330
1
100
AcDbSymbolTableRecord
100
AcDbBlockTableRecord
  2
*Paper_Space0
340
1E
  0
BLOCK_RECORD
  5
87
330
1
100
AcDbSymbolTableRecord
100
AcDbBlockTableRecord
  2
GENAXEH
340
0
  0
BLOCK_RECORD
  5
407
330
1
100
AcDbSymbolTableRecord
100
AcDbBlockTableRecord
  2
_Open30
340
0
102
{BLKREFS
331
401F
331
4024
331
402A
331
402B
331
4035
331
4036
331
403E
331
403F
331
4049
331
404A
331
4052
331
4053
331
405B
331
405C
102
}
  0
BLOCK_RECORD
  5
5A7
330
1
100
AcDbSymbolTableRecord
100
AcDbBlockTableRecord
  2
GEVCON
340
0
  0
BLOCK_RECORD
  5
5AA
330
1
100
AcDbSymbolTableRecord
100
AcDbBlockTableRecord
  2
GEVEP
340
0
  0
BLOCK_RECORD
  5
5B3
330
1
100
AcDbSymbolTableRecord
100
AcDbBlockTableRecord
  2
GEVFRAME
340
0
  0
BLOCK_RECORD
  5
5CD
102
{ACAD_XDICTIONARY
360
5D9
102
}
330
1
100
AcDbSymbolTableRecord
100
AcDbBlockTableRecord
  2
TAKACHI-A4
340
0
102
{BLKREFS
331
5E3
102
}
  0
BLOCK_RECORD
  5
5E9
102
{ACAD_XDICTIONARY
360
63E
102
}
330
1
100
AcDbSymbolTableRecord
100
AcDbBlockTableRecord
  2
TAKACHI-TITLE
340
0
102
{BLKREFS
331
642
102
}
  0
BLOCK_RECORD
  5
6A0
330
1
100
AcDbSymbolTableRecord
100
AcDbBlockTableRecord
  2
GENDOT
340
0
  0
BLOCK_RECORD
  5
3E18
330
1
100
AcDbSymbolTableRecord
100
AcDbBlockTableRecord
  2
*D38
340
0
  0
BLOCK_RECORD
  5
3E28
330
1
100
AcDbSymbolTableRecord
100
AcDbBlockTableRecord
  2
*D39
340
0
  0
BLOCK_RECORD
  5
3E45
330
1
100
AcDbSymbolTableRecord
100
AcDbBlockTableRecord
  2
*D40
340
0
  0
BLOCK_RECORD
  5
3E6F
330
1
100
AcDbSymbolTableRecord
100
AcDbBlockTableRecord
  2
*D41
340
0
  0
BLOCK_RECORD
  5
3E9D
330
1
100
AcDbSymbolTableRecord
100
AcDbBlockTableRecord
  2
*D42
340
0
  0
BLOCK_RECORD
  5
3EC1
330
1
100
AcDbSymbolTableRecord
100
AcDbBlockTableRecord
  2
*D43
340
0
  0
BLOCK_RECORD
  5
3F41
330
1
100
AcDbSymbolTableRecord
100
AcDbBlockTableRecord
  2
*D44
340
0
  0
BLOCK_RECORD
  5
3F92
330
1
100
AcDbSymbolTableRecord
100
AcDbBlockTableRecord
  2
*D46
340
0
  0
BLOCK_RECORD
  5
40D0
330
1
100
AcDbSymbolTableRecord
100
AcDbBlockTableRecord
  2
*S47
340
0
  0
BLOCK_RECORD
  5
40D7
330
1
100
AcDbSymbolTableRecord
100
AcDbBlockTableRecord
  2
*S48
340
0
  0
BLOCK_RECORD
  5
40DF
330
1
100
AcDbSymbolTableRecord
100
AcDbBlockTableRecord
  2
*S49
340
0
  0
ENDTAB
  0
ENDSEC
  0
SECTION
  2
BLOCKS
  0
BLOCK
  5
20
330
1F
100
AcDbEntity
  8
0
100
AcDbBlockBegin
  2
*Model_Space
 70
     0
 10
0.0
 20
0.0
 30
0.0
  3
*Model_Space
  1

  0
ENDBLK
  5
21
330
1F
100
AcDbEntity
  8
0
100
AcDbBlockEnd
  0
BLOCK
  5
24
330
23
100
AcDbEntity
 67
     1
  8
0
100
AcDbBlockBegin
  2
*Paper_Space
 70
     0
 10
0.0
 20
0.0
 30
0.0
  3
*Paper_Space
  1

  0
ENDBLK
  5
25
330
23
100
AcDbEntity
 67
     1
  8
0
100
AcDbBlockEnd
  0
BLOCK
  5
1C
330
1B
100
AcDbEntity
 67
     1
  8
0
100
AcDbBlockBegin
  2
*Paper_Space0
 70
     0
 10
0.0
 20
0.0
 30
0.0
  3
*Paper_Space0
  1

  0
VIEWPORT
  5
178
102
{ACAD_XDICTIONARY
360
412E
102
}
330
1B
100
AcDbEntity
 67
     1
  8
0
100
AcDbViewport
 10
133.3499908447265
 20
101.5999970436096
 30
0.0
 40
370.2266912936524
 41
228.4221935424805
 68
     0
 69
     0
 12
133.3499908447265
 22
101.5999970436096
 13
0.0
 23
0.0
 14
10.0
 24
10.0
 15
10.0
 25
10.0
 16
0.0
 26
0.0
 36
1.0
 17
0.0
 27
0.0
 37
0.0
 42
50.0
 43
0.0
 44
0.0
 45
228.4221935424805
 50
0.0
 51
0.0
 72
   100
 90
    32800
  1

281
     0
 71
     1
 74
     0
110
0.0
120
0.0
130
0.0
111
1.0
121
0.0
131
0.0
112
0.0
122
1.0
132
0.0
 79
     0
146
0.0
  0
ENDBLK
  5
1D
330
1B
100
AcDbEntity
 67
     1
  8
0
100
AcDbBlockEnd
  0
BLOCK
  5
89
330
87
100
AcDbEntity
  8
0
100
AcDbBlockBegin
  2
GENAXEH
 70
     0
 10
0.0
 20
0.0
 30
0.0
  3
GENAXEH
  1

  0
LINE
  5
88
330
87
100
AcDbEntity
  8
0
100
AcDbLine
 10
-1.0
 20
0.0
 30
0.0
 11
1.0
 21
0.0
 31
0.0
  0
ENDBLK
  5
8A
330
87
100
AcDbEntity
  8
0
100
AcDbBlockEnd
  0
BLOCK
  5
40B
330
407
100
AcDbEntity
  8
0
100
AcDbBlockBegin
  2
_Open30
 70
     0
 10
0.0
 20
0.0
 30
0.0
  3
_Open30
  1

  0
LINE
  5
408
330
407
100
AcDbEntity
  8
0
  6
ByBlock
 62
     0
370
    -2
100
AcDbLine
 10
-1.0
 20
0.26794919
 30
0.0
 11
0.0
 21
0.0
 31
0.0
  0
LINE
  5
409
330
407
100
AcDbEntity
  8
0
  6
ByBlock
 62
     0
370
    -2
100
AcDbLine
 10
0.0
 20
0.0
 30
0.0
 11
-1.0
 21
-0.26794919
 31
0.0
  0
LINE
  5
40A
330
407
100
AcDbEntity
  8
0
  6
ByBlock
 62
     0
370
    -2
100
AcDbLine
 10
0.0
 20
0.0
 30
0.0
 11
-1.0
 21
0.0
 31
0.0
  0
ENDBLK
  5
40C
330
407
100
AcDbEntity
  8
0
100
AcDbBlockEnd
  0
BLOCK
  5
5A8
330
5A7
100
AcDbEntity
  8
0
100
AcDbBlockBegin
  2
GEVCON
 70
     0
 10
0.0
 20
0.0
 30
0.0
  3
GEVCON
  1
GEVCON
  0
ENDBLK
  5
5A9
330
5A7
100
AcDbEntity
  8
0
100
AcDbBlockEnd
  0
BLOCK
  5
5AB
330
5AA
100
AcDbEntity
  8
0
100
AcDbBlockBegin
  2
GEVEP
 70
     0
 10
0.0
 20
0.0
 30
0.0
  3
GEVEP
  1

  0
LINE
  5
5AC
330
5AA
100
AcDbEntity
  8
0
100
AcDbLine
 10
2.0
 20
-2.0
 30
0.0
 11
-2.0
 21
-2.0
 31
0.0
  0
LINE
  5
5AD
330
5AA
100
AcDbEntity
  8
0
100
AcDbLine
 10
-2.0
 20
2.0
 30
0.0
 11
2.0
 21
2.0
 31
0.0
  0
LINE
  5
5AE
330
5AA
100
AcDbEntity
  8
0
100
AcDbLine
 10
2.0
 20
-2.0
 30
0.0
 11
-2.0
 21
2.0
 31
0.0
  0
LINE
  5
5AF
330
5AA
100
AcDbEntity
  8
0
100
AcDbLine
 10
-2.0
 20
-2.0
 30
0.0
 11
2.0
 21
2.0
 31
0.0
  0
LINE
  5
5B0
330
5AA
100
AcDbEntity
  8
0
100
AcDbLine
 10
-2.0
 20
-2.0
 30
0.0
 11
-2.0
 21
2.0
 31
0.0
  0
LINE
  5
5B1
330
5AA
100
AcDbEntity
  8
0
100
AcDbLine
 10
2.0
 20
2.0
 30
0.0
 11
2.0
 21
-2.0
 31
0.0
  0
ENDBLK
  5
5B2
330
5AA
100
AcDbEntity
  8
0
100
AcDbBlockEnd
  0
BLOCK
  5
5B4
330
5B3
100
AcDbEntity
  8
0
100
AcDbBlockBegin
  2
GEVFRAME
 70
     0
 10
0.0
 20
0.0
 30
0.0
  3
GEVFRAME
  1
GEVFRAME
  0
LINE
  5
5B5
330
5B3
100
AcDbEntity
  8
0
100
AcDbLine
 10
0.0
 20
0.0
 30
0.0
 11
1.0
 21
0.0
 31
0.0
  0
LINE
  5
5B6
330
5B3
100
AcDbEntity
  8
0
100
AcDbLine
 10
1.0
 20
0.0
 30
0.0
 11
1.0
 21
1.0
 31
0.0
  0
LINE
  5
5B7
330
5B3
100
AcDbEntity
  8
0
100
AcDbLine
 10
1.0
 20
1.0
 30
0.0
 11
0.0
 21
1.0
 31
0.0
  0
LINE
  5
5B8
330
5B3
100
AcDbEntity
  8
0
100
AcDbLine
 10
0.0
 20
1.0
 30
0.0
 11
0.0
 21
0.0
 31
0.0
  0
ENDBLK
  5
5B9
330
5B3
100
AcDbEntity
  8
0
100
AcDbBlockEnd
  0
BLOCK
  5
5DA
330
5CD
100
AcDbEntity
  8
0
100
AcDbBlockBegin
  2
TAKACHI-A4
 70
     0
 10
0.0
 20
0.0
 30
0.0
  3
TAKACHI-A4
  1

  0
TEXT
  5
5CE
330
5CD
100
AcDbEntity
  8
0
 60
     1
100
AcDbText
 10
10.0
 20
54.99999999999994
 30
0.0
 40
2.5
  1
!GENTITLE-LL
100
AcDbText
  0
TEXT
  5
5CF
330
5CD
100
AcDbEntity
  8
0
 60
     1
100
AcDbText
 10
215.0
 20
15.0
 30
0.0
 40
2.5
  1
!GENTITLE-INSERT
100
AcDbText
  0
TEXT
  5
5D0
330
5CD
100
AcDbEntity
  8
0
 60
     1
100
AcDbText
 10
215.0
 20
285.0000000000001
 30
0.0
 40
2.5
  1
!GENTITLE-RU
100
AcDbText
  0
TEXT
  5
5D1
330
5CD
100
AcDbEntity
  8
0
 60
     1
100
AcDbText
 10
215.0000000000001
 20
290.0
 30
0.0
 40
2.5
  1
!GENTITLE-MAX
100
AcDbText
  0
LINE
  5
5D2
330
5CD
100
AcDbEntity
  8
0
100
AcDbLine
 10
215.0
 20
290.0000000000001
 30
0.0
 11
20.00000000000003
 21
290.0
 31
0.0
1001
GENIUS_GENREC_14
1002
{
1000
PYDIR
1011
15.00000000000003
1021
295.0
1031
0.0
1002
}
1002
{
1000
PXDIR
1011
215.0
1021
15.0
1031
0.0
1002
}
1002
{
1000
PORI
1011
15.0
1021
15.0
1031
0.0
1002
}
1002
{
1000
PINS
1011
115.0
1021
155.0
1031
0.0
1002
}
1002
{
1000
HVAL
1000
280
1002
}
1002
{
1000
H
1070
     2
1002
}
1002
{
1000
WVAL
1000
200
1002
}
1002
{
1000
W
1070
     2
1002
}
1002
{
1000
C
1070
     4
1002
}
  0
LINE
  5
5D3
330
5CD
100
AcDbEntity
  8
0
100
AcDbLine
 10
20.00000000000003
 20
290.0
 30
0.0
 11
19.99999999999997
 21
15.0
 31
0.0
1001
GENIUS_GENREC_14
1002
{
1000
PYDIR
1011
15.00000000000003
1021
295.0
1031
0.0
1002
}
1002
{
1000
PXDIR
1011
215.0
1021
15.0
1031
0.0
1002
}
1002
{
1000
PORI
1011
15.0
1021
15.0
1031
0.0
1002
}
1002
{
1000
PINS
1011
115.0
1021
155.0
1031
0.0
1002
}
1002
{
1000
HVAL
1000
280
1002
}
1002
{
1000
H
1070
     2
1002
}
1002
{
1000
WVAL
1000
200
1002
}
1002
{
1000
W
1070
     2
1002
}
1002
{
1000
C
1070
     4
1002
}
  0
LINE
  5
5D4
330
5CD
100
AcDbEntity
  8
0
100
AcDbLine
 10
19.99999999999997
 20
15.0
 30
0.0
 11
215.0
 21
15.0
 31
0.0
1001
GENIUS_GENREC_14
1002
{
1000
PYDIR
1011
15.00000000000003
1021
295.0
1031
0.0
1002
}
1002
{
1000
PXDIR
1011
215.0
1021
15.0
1031
0.0
1002
}
1002
{
1000
PORI
1011
15.0
1021
15.0
1031
0.0
1002
}
1002
{
1000
PINS
1011
115.0
1021
155.0
1031
0.0
1002
}
1002
{
1000
HVAL
1000
280
1002
}
1002
{
1000
H
1070
     2
1002
}
1002
{
1000
WVAL
1000
200
1002
}
1002
{
1000
W
1070
     2
1002
}
1002
{
1000
C
1070
     4
1002
}
  0
LINE
  5
5D5
330
5CD
100
AcDbEntity
  8
0
100
AcDbLine
 10
215.0
 20
15.0
 30
0.0
 11
215.0000000000001
 21
290.0000000000001
 31
0.0
1001
GENIUS_GENREC_14
1002
{
1000
PYDIR
1011
15.00000000000003
1021
295.0
1031
0.0
1002
}
1002
{
1000
PXDIR
1011
215.0
1021
15.0
1031
0.0
1002
}
1002
{
1000
PORI
1011
15.0
1021
15.0
1031
0.0
1002
}
1002
{
1000
PINS
1011
115.0
1021
155.0
1031
0.0
1002
}
1002
{
1000
HVAL
1000
280
1002
}
1002
{
1000
H
1070
     2
1002
}
1002
{
1000
WVAL
1000
200
1002
}
1002
{
1000
W
1070
     2
1002
}
1002
{
1000
C
1070
     4
1002
}
  0
LINE
  5
5D6
330
5CD
100
AcDbEntity
  8
0
100
AcDbLine
 10
171.0000000000001
 20
285.0000000000001
 30
0.0
 11
215.0000000000001
 21
285.0000000000001
 31
0.0
  0
LINE
  5
5D7
330
5CD
100
AcDbEntity
  8
0
100
AcDbLine
 10
171.0000000000001
 20
290.0000000000001
 30
0.0
 11
171.0000000000001
 21
285.0000000000001
 31
0.0
  0
MTEXT
  5
5D8
330
5CD
100
AcDbEntity
  8
0
100
AcDbMText
 10
214.3592953827349
 20
286.1085429872271
 30
0.0
 40
2.5
 41
43.07840397728298
 71
     9
 72
     5
  1
(文書番号：TY-34)2004.10.29
 73
     1
 44
1.0
1001
ACAD
1000
MTEXTBEGIN
1070
    73
1070
     1
1070
    44
1040
1.0
1070
    74
1070
     0
1000
MTEXTEND
  0
ENDBLK
  5
5DB
330
5CD
100
AcDbEntity
  8
0
100
AcDbBlockEnd
  0
BLOCK
  5
63F
330
5E9
100
AcDbEntity
  8
0
100
AcDbBlockBegin
  2
TAKACHI-TITLE
 70
     2
 10
0.0
 20
0.0
 30
0.0
  3
TAKACHI-TITLE
  1

  0
LINE
  5
5EA
330
5E9
100
AcDbEntity
  8
RAHM2
100
AcDbLine
 10
-195.0
 20
30.00000000000003
 30
0.0
 11
-94.0
 21
30.00000000000003
 31
0.0
  0
LINE
  5
5EB
330
5E9
100
AcDbEntity
  8
RAHM2
100
AcDbLine
 10
-195.0
 20
35.00000000000003
 30
0.0
 11
-94.0
 21
35.00000000000003
 31
0.0
  0
LINE
  5
5EC
330
5E9
100
AcDbEntity
  8
RAHM2
100
AcDbLine
 10
-195.0
 20
40.00000000000002
 30
0.0
 11
-94.0
 21
40.00000000000002
 31
0.0
  0
LINE
  5
5ED
330
5E9
100
AcDbEntity
  8
RAHM2
100
AcDbLine
 10
-195.0
 20
45.00000000000002
 30
0.0
 11
-94.0
 21
45.00000000000002
 31
0.0
  0
LINE
  5
5EE
330
5E9
100
AcDbEntity
  8
0
100
AcDbLine
 10
-195.0
 20
7.0
 30
0.0
 11
-94.0
 21
7.0
 31
0.0
  0
LINE
  5
5EF
330
5E9
100
AcDbEntity
  8
0
100
AcDbLine
 10
-195.0
 20
19.99999999999997
 30
0.0
 11
-94.0
 21
19.99999999999997
 31
0.0
  0
ATTDEF
  5
5F0
330
5E9
100
AcDbEntity
  8
0
100
AcDbText
 10
-183.2438527145607
 20
8.950850524428082
 30
0.0
 40
2.5
  1

 11
-183.2438527145607
 21
8.617517191094748
 31
0.0
100
AcDbAttributeDefinition
  3
サブタイトル
  2
GEN-TITLE-DES2
 70
     0
 74
     1
  0
ATTDEF
  5
5F1
330
5E9
100
AcDbEntity
  8
0
100
AcDbText
 10
-183.2438527145607
 20
2.017517191094748
 30
0.0
 40
3.0
  1

 11
-183.2438527145607
 21
1.617517191094748
 31
0.0
100
AcDbAttributeDefinition
  3
図番
  2
GEN-TITLE-NR
 70
     0
 74
     1
  0
MTEXT
  5
5F2
330
5E9
100
AcDbEntity
  8
RAHM2
100
AcDbMText
 10
-193.8002551371314
 20
5.801035407279641
 30
0.0
 40
2.5
 41
90.0
 71
     1
 72
     5
  1
図番
 73
     1
 44
1.0
1001
ACAD
1000
MTEXTBEGIN
1070
    73
1070
     1
1070
    44
1040
1.0
1070
    74
1070
     0
1000
MTEXTEND
  0
ATTDEF
  5
5F3
330
5E9
100
AcDbEntity
  8
0
100
AcDbText
 10
-183.2438527145607
 20
14.40728619501834
 30
0.0
 40
4.0
  1

 11
-183.2438527145607
 21
13.87395286168501
 31
0.0
100
AcDbAttributeDefinition
  3
品名
  2
GEN-TITLE-DES1
 70
     0
 74
     1
  0
LINE
  5
5F4
330
5E9
100
AcDbEntity
  8
RAHM2
100
AcDbLine
 10
-187.5751288694036
 20
30.40000000000004
 30
0.0
 11
-190.0
 21
34.60000000000003
 31
0.0
  0
LINE
  5
5F5
330
5E9
100
AcDbEntity
  8
RAHM2
100
AcDbLine
 10
-190.0
 20
34.60000000000003
 30
0.0
 11
-192.4248711305964
 21
30.40000000000004
 31
0.0
  0
LINE
  5
5F6
330
5E9
100
AcDbEntity
  8
RAHM2
100
AcDbLine
 10
-185.0
 20
50.00000000000003
 30
0.0
 11
-185.0
 21
19.99999999999994
 31
0.0
  0
LINE
  5
5F7
330
5E9
100
AcDbEntity
  8
RAHM2
100
AcDbLine
 10
-192.4248711305964
 20
30.40000000000004
 30
0.0
 11
-187.5751288694036
 21
30.40000000000004
 31
0.0
  0
MTEXT
  5
5F8
330
5E9
100
AcDbEntity
  8
RAHM2
100
AcDbMText
 10
-190.0
 20
22.49999999999997
 30
0.0
 40
2.5
 41
10.0
 71
     5
 72
     5
  1
符号
 73
     1
 44
1.0
1001
ACAD
1000
MTEXTBEGIN
1070
    73
1070
     1
1070
    44
1040
1.0
1070
    74
1070
     0
1000
MTEXTEND
  0
MTEXT
  5
5F9
330
5E9
100
AcDbEntity
  8
RAHM2
100
AcDbMText
 10
-193.8002551371314
 20
18.80103540727961
 30
0.0
 40
2.5
 41
90.0
 71
     1
 72
     5
  1
品名
 73
     1
 44
1.0
1001
ACAD
1000
MTEXTBEGIN
1070
    73
1070
     1
1070
    44
1040
1.0
1070
    74
1070
     0
1000
MTEXTEND
  0
LINE
  5
5FA
330
5E9
100
AcDbEntity
  8
RAHM2
100
AcDbLine
 10
-192.4248711305964
 20
45.40000000000003
 30
0.0
 11
-187.5751288694036
 21
45.40000000000003
 31
0.0
  0
LINE
  5
5FB
330
5E9
100
AcDbEntity
  8
RAHM2
100
AcDbLine
 10
-187.5751288694036
 20
45.40000000000003
 30
0.0
 11
-190.0
 21
49.60000000000002
 31
0.0
  0
LINE
  5
5FC
330
5E9
100
AcDbEntity
  8
RAHM2
100
AcDbLine
 10
-192.4248711305964
 20
40.40000000000003
 30
0.0
 11
-187.5751288694036
 21
40.40000000000003
 31
0.0
  0
LINE
  5
5FD
330
5E9
100
AcDbEntity
  8
RAHM2
100
AcDbLine
 10
-187.5751288694036
 20
40.40000000000003
 30
0.0
 11
-190.0
 21
44.60000000000002
 31
0.0
  0
LINE
  5
5FE
330
5E9
100
AcDbEntity
  8
RAHM2
100
AcDbLine
 10
-192.4248711305964
 20
35.40000000000004
 30
0.0
 11
-187.5751288694036
 21
35.40000000000004
 31
0.0
  0
LINE
  5
5FF
330
5E9
100
AcDbEntity
  8
RAHM2
100
AcDbLine
 10
-187.5751288694036
 20
35.40000000000004
 30
0.0
 11
-190.0
 21
39.60000000000002
 31
0.0
  0
LINE
  5
600
330
5E9
100
AcDbEntity
  8
RAHM2
100
AcDbLine
 10
-190.0
 20
39.60000000000002
 30
0.0
 11
-192.4248711305964
 21
35.40000000000004
 31
0.0
  0
LINE
  5
601
330
5E9
100
AcDbEntity
  8
RAHM2
100
AcDbLine
 10
-190.0
 20
44.60000000000002
 30
0.0
 11
-192.4248711305964
 21
40.40000000000003
 31
0.0
  0
LINE
  5
602
330
5E9
100
AcDbEntity
  8
RAHM2
100
AcDbLine
 10
-190.0
 20
49.60000000000002
 30
0.0
 11
-192.4248711305964
 21
45.40000000000003
 31
0.0
  0
LINE
  5
603
330
5E9
100
AcDbEntity
  8
RAHM2
100
AcDbLine
 10
-129.0
 20
50.00000000000003
 30
0.0
 11
-129.0
 21
19.99999999999994
 31
0.0
  0
MTEXT
  5
604
330
5E9
100
AcDbEntity
  8
RAHM2
100
AcDbMText
 10
-157.1448171868856
 20
22.49999999999997
 30
0.0
 40
2.5
 41
45.0
 71
     5
 72
     5
  1
変更記事
 73
     1
 44
1.0
1001
ACAD
1000
MTEXTBEGIN
1070
    73
1070
     1
1070
    44
1040
1.0
1070
    74
1070
     0
1000
MTEXTEND
  0
LINE
  5
605
330
5E9
100
AcDbEntity
  8
0
100
AcDbLine
 10
-34.0
 20
50.0
 30
0.0
 11
-34.0
 21
0.0
 31
0.0
  0
LINE
  5
606
330
5E9
100
AcDbEntity
  8
0
100
AcDbLine
 10
-94.0
 20
50.0
 30
0.0
 11
-94.0
 21
0.0
 31
0.0
  0
MTEXT
  5
607
330
5E9
100
AcDbEntity
  8
0
100
AcDbMText
 10
-64.0
 20
5.0
 30
0.0
 40
3.5
 41
60.0
 71
     5
 72
     5
  1
\fＭＳ ゴシック|b0|i0|c128|p49;株式会社タカチ電機工業
 73
     1
 44
1.0
1001
ACAD
1000
MTEXTBEGIN
1070
    73
1070
     1
1070
    44
1040
1.0
1070
    74
1070
     0
1000
MTEXTEND
  0
LINE
  5
608
330
5E9
100
AcDbEntity
  8
0
100
AcDbLine
 10
-94.0
 20
10.0
 30
0.0
 11
-34.0
 21
10.0
 31
0.0
  0
ATTDEF
  5
609
330
5E9
100
AcDbEntity
  8
0
100
AcDbText
 10
-58.01405119799745
 20
39.25500556178349
 30
0.0
 40
3.0
  1

 72
     2
 11
-58.01405119799745
 21
39.25500556178349
 31
0.0
100
AcDbAttributeDefinition
  3
尺度
  2
GEN-TITLE-SCA
 70
     0
  0
ATTDEF
  5
60A
330
5E9
100
AcDbEntity
  8
0
100
AcDbText
 10
-77.00284966649007
 20
31.02180787943475
 30
0.0
 40
3.0
  1

 11
-77.00284966649007
 21
30.62180787943475
 31
0.0
100
AcDbAttributeDefinition
  3
材質
  2
GEN-TITLE-MAT1
 70
     0
 74
     1
  0
ATTDEF
  5
60B
330
5E9
100
AcDbEntity
  8
0
100
AcDbText
 10
-77.00284966649007
 20
21.02180787943475
 30
0.0
 40
3.0
  1

 11
-77.00284966649007
 21
20.62180787943475
 31
0.0
100
AcDbAttributeDefinition
  3
表面処理
  2
GEN-TITLE-MAT2
 70
     0
 74
     1
  0
ATTDEF
  5
60C
330
5E9
100
AcDbEntity
  8
0
100
AcDbText
 10
-77.00284966649007
 20
12.01751719109475
 30
0.0
 40
3.0
  1

 11
-77.00284966649007
 21
11.61751719109475
 31
0.0
100
AcDbAttributeDefinition
  3
日付
  2
GEN-TITLE-DAT
 70
     0
 74
     1
  0
LINE
  5
60D
330
5E9
100
AcDbEntity
  8
0
100
AcDbLine
 10
-94.0
 20
37.5
 30
0.0
 11
-34.0
 21
37.5
 31
0.0
  0
LINE
  5
60E
330
5E9
100
AcDbEntity
  8
0
100
AcDbLine
 10
-94.0
 20
27.5
 30
0.0
 11
-34.0
 21
27.5
 31
0.0
  0
LINE
  5
60F
330
5E9
100
AcDbEntity
  8
0
100
AcDbLine
 10
-94.0
 20
17.5
 30
0.0
 11
-34.0
 21
17.5
 31
0.0
  0
LINE
  5
610
330
5E9
100
AcDbEntity
  8
RAHM2
100
AcDbLine
 10
-109.0
 20
50.00000000000003
 30
0.0
 11
-109.0
 21
19.99999999999994
 31
0.0
  0
MTEXT
  5
611
330
5E9
100
AcDbEntity
  8
RAHM2
100
AcDbMText
 10
-119.4582894723942
 20
32.50000000000003
 30
0.0
 40
2.5
 41
20.0
 71
     5
 72
     5
  1
・  ・   
 73
     1
 44
1.0
1001
ACAD
1000
MTEXTBEGIN
1070
    73
1070
     1
1070
    44
1040
1.0
1070
    74
1070
     0
1000
MTEXTEND
  0
MTEXT
  5
612
330
5E9
100
AcDbEntity
  8
RAHM2
100
AcDbMText
 10
-118.738119805002
 20
22.49999999999997
 30
0.0
 40
2.5
 41
20.0
 71
     5
 72
     5
  1
年・月・日
 73
     1
 44
1.0
1001
ACAD
1000
MTEXTBEGIN
1070
    73
1070
     1
1070
    44
1040
1.0
1070
    74
1070
     0
1000
MTEXTEND
  0
MTEXT
  5
613
330
5E9
100
AcDbEntity
  8
RAHM2
100
AcDbMText
 10
-101.5
 20
22.49999999999997
 30
0.0
 40
2.5
 41
15.0
 71
     5
 72
     5
  1
担当
 73
     1
 44
1.0
1001
ACAD
1000
MTEXTBEGIN
1070
    73
1070
     1
1070
    44
1040
1.0
1070
    74
1070
     0
1000
MTEXTEND
  0
MTEXT
  5
614
330
5E9
100
AcDbEntity
  8
RAHM2
100
AcDbMText
 10
-119.4582894723942
 20
42.50000000000002
 30
0.0
 40
2.5
 41
20.0
 71
     5
 72
     5
  1
・  ・   
 73
     1
 44
1.0
1001
ACAD
1000
MTEXTBEGIN
1070
    73
1070
     1
1070
    44
1040
1.0
1070
    74
1070
     0
1000
MTEXTEND
  0
MTEXT
  5
615
330
5E9
100
AcDbEntity
  8
RAHM2
100
AcDbMText
 10
-119.4582894723942
 20
37.50000000000003
 30
0.0
 40
2.5
 41
20.0
 71
     5
 72
     5
  1
・  ・   
 73
     1
 44
1.0
1001
ACAD
1000
MTEXTBEGIN
1070
    73
1070
     1
1070
    44
1040
1.0
1070
    74
1070
     0
1000
MTEXTEND
  0
MTEXT
  5
616
330
5E9
100
AcDbEntity
  8
RAHM2
100
AcDbMText
 10
-119.4582894723942
 20
47.50000000000002
 30
0.0
 40
2.5
 41
20.0
 71
     5
 72
     5
  1
・  ・   
 73
     1
 44
1.0
1001
ACAD
1000
MTEXTBEGIN
1070
    73
1070
     1
1070
    44
1040
1.0
1070
    74
1070
     0
1000
MTEXTEND
  0
MTEXT
  5
617
330
5E9
100
AcDbEntity
  8
RAHM2
100
AcDbMText
 10
-92.80025513713145
 20
16.30103540727964
 30
0.0
 40
2.5
 41
60.0
 71
     1
 72
     5
  1
日付
 73
     1
 44
1.0
1001
ACAD
1000
MTEXTBEGIN
1070
    73
1070
     1
1070
    44
1040
1.0
1070
    74
1070
     0
1000
MTEXTEND
  0
MTEXT
  5
618
330
5E9
100
AcDbEntity
  8
RAHM2
100
AcDbMText
 10
-92.80025513713145
 20
26.30103540727964
 30
0.0
 40
2.5
 41
60.0
 71
     1
 72
     5
  1
表面処理
 73
     1
 44
1.0
1001
ACAD
1000
MTEXTBEGIN
1070
    73
1070
     1
1070
    44
1040
1.0
1070
    74
1070
     0
1000
MTEXTEND
  0
LINE
  5
619
330
5E9
100
AcDbEntity
  8
7A
100
AcDbLine
 10
-89.0
 20
43.75
 30
0.0
 11
-75.2186915997147
 21
43.75
 31
0.0
1001
GENIUS_GENOREF_13
1005
62C
  0
LINE
  5
61A
330
5E9
100
AcDbEntity
  8
0
100
AcDbLine
 10
-84.0
 20
45.75
 30
0.0
 11
-76.0
 21
46.74999999999999
 31
0.0
  0
LINE
  5
61B
330
5E9
100
AcDbEntity
  8
0
100
AcDbLine
 10
-76.0
 20
40.75
 30
0.0
 11
-84.0
 21
41.74999999999999
 31
0.0
  0
LINE
  5
61C
330
5E9
100
AcDbEntity
  8
7A
100
AcDbLine
 10
-89.0
 20
43.75
 30
0.0
 11
-89.0
 21
47.32478664473148
 31
0.0
1001
GENIUS_GENOREF_13
1005
62C
  0
CIRCLE
  5
61D
330
5E9
100
AcDbEntity
  8
0
100
AcDbCircle
 10
-89.0
 20
43.75
 30
0.0
 40
2.0
  0
CIRCLE
  5
61E
330
5E9
100
AcDbEntity
  8
0
100
AcDbCircle
 10
-89.0
 20
43.75
 30
0.0
 40
3.0
  0
LINE
  5
61F
330
5E9
100
AcDbEntity
  8
0
100
AcDbLine
 10
-84.0
 20
41.74999999999999
 30
0.0
 11
-84.0
 21
45.75
 31
0.0
  0
MTEXT
  5
620
330
5E9
100
AcDbEntity
  8
RAHM2
100
AcDbMText
 10
-92.80025513713145
 20
36.30103540727964
 30
0.0
 40
2.5
 41
60.0
 71
     1
 72
     5
  1
材質
 73
     1
 44
1.0
1001
ACAD
1000
MTEXTBEGIN
1070
    73
1070
     1
1070
    44
1040
1.0
1070
    74
1070
     0
1000
MTEXTEND
  0
LINE
  5
621
330
5E9
100
AcDbEntity
  8
7A
100
AcDbLine
 10
-89.0
 20
43.75
 30
0.0
 11
-92.72303737125117
 21
43.75
 31
0.0
1001
GENIUS_GENOREF_13
1005
62C
  0
LINE
  5
622
330
5E9
100
AcDbEntity
  8
7A
100
AcDbLine
 10
-89.0
 20
43.75
 30
0.0
 11
-89.0
 21
40.03991724228479
 31
0.0
1001
GENIUS_GENOREF_13
1005
62C
  0
LINE
  5
623
330
5E9
100
AcDbEntity
  8
0
100
AcDbLine
 10
-76.0
 20
46.74999999999999
 30
0.0
 11
-76.0
 21
40.75
 31
0.0
  0
LINE
  5
624
330
5E9
100
AcDbEntity
  8
0
100
AcDbLine
 10
-74.0
 20
50.0
 30
0.0
 11
-74.0
 21
37.5
 31
0.0
  0
MTEXT
  5
625
330
5E9
100
AcDbEntity
  8
RAHM2
100
AcDbMText
 10
-72.80025513713145
 20
48.80103540727964
 30
0.0
 40
2.5
 41
20.0
 71
     1
 72
     5
  1
尺度
 73
     1
 44
1.0
1001
ACAD
1000
MTEXTBEGIN
1070
    73
1070
     1
1070
    44
1040
1.0
1070
    74
1070
     0
1000
MTEXTEND
  0
ATTDEF
  5
626
330
5E9
100
AcDbEntity
  8
0
100
AcDbText
 10
-37.76317379391503
 20
39.25500556178349
 30
0.0
 40
3.0
  1

 72
     2
 11
-37.76317379391503
 21
39.25500556178349
 31
0.0
100
AcDbAttributeDefinition
  3
数量
  2
GEN-TITLE-QTY
 70
     0
  0
LINE
  5
627
330
5E9
100
AcDbEntity
  8
0
100
AcDbLine
 10
-34.0
 20
25.0
 30
0.0
 11
0.0
 21
25.0
 31
0.0
  0
LINE
  5
628
330
5E9
100
AcDbEntity
  8
0
100
AcDbLine
 10
-54.0
 20
50.0
 30
0.0
 11
-54.0
 21
37.5
 31
0.0
  0
MTEXT
  5
629
330
5E9
100
AcDbEntity
  8
RAHM2
100
AcDbMText
 10
-52.80025513713145
 20
48.80103540727964
 30
0.0
 40
2.5
 41
20.0
 71
     1
 72
     5
  1
数量
 73
     1
 44
1.0
1001
ACAD
1000
MTEXTBEGIN
1070
    73
1070
     1
1070
    44
1040
1.0
1070
    74
1070
     0
1000
MTEXTEND
  0
MTEXT
  5
62A
330
5E9
100
AcDbEntity
  8
RAHM2
100
AcDbMText
 10
-25.5
 20
23.80103540727964
 30
0.0
 40
2.5
 41
17.0
 71
     2
 72
     5
  1
承認
 73
     1
 44
1.0
1001
ACAD
1000
MTEXTBEGIN
1070
    73
1070
     1
1070
    44
1040
1.0
1070
    74
1070
     0
1000
MTEXTEND
  0
MTEXT
  5
62B
330
5E9
100
AcDbEntity
  8
RAHM2
100
AcDbMText
 10
-25.5
 20
48.80103540727964
 30
0.0
 40
2.5
 41
17.0
 71
     2
 72
     5
  1
承認
 73
     1
 44
1.0
1001
ACAD
1000
MTEXTBEGIN
1070
    73
1070
     1
1070
    44
1040
1.0
1070
    74
1070
     0
1000
MTEXTEND
  0
POINT
  5
62C
330
5E9
100
AcDbEntity
  8
0
 60
     1
100
AcDbPoint
 10
-320.5355579819676
 20
-138.1104841268254
 30
0.0
1001
GENIUS_GENODEF_13
1002
{
1000
HIER
1070
    10
1002
}
1002
{
1000
MANEDIT
1070
     0
1002
}
1002
{
1000
NOSEL
1070
     0
1002
}
1002
{
1000
BEHIND
1070
     0
1002
}
1002
{
1000
REACTOR
1002
}
1001
GENIUS_GENOBJ-N-CRS_13
1002
{
1000
OWNER
1000
GEN
1002
}
1001
GENIUS_GENOENT_13
1002
{
1000
MYREF
1005
62C
1002
}
1002
{
1000
GRP
1005
0
1002
}
1001
GENIUS_GENOLIS_13
1002
{
1000
ENT
1005
622
1005
621
1005
61C
1005
619
1002
}
  0
LINE
  5
62D
330
5E9
100
AcDbEntity
  8
RAHM2
100
AcDbLine
 10
-190.0
 20
29.60000000000002
 30
0.0
 11
-192.4248711305964
 21
25.40000000000004
 31
0.0
  0
LINE
  5
62E
330
5E9
100
AcDbEntity
  8
RAHM2
100
AcDbLine
 10
-187.5751288694036
 20
25.40000000000004
 30
0.0
 11
-190.0
 21
29.60000000000002
 31
0.0
  0
LINE
  5
62F
330
5E9
100
AcDbEntity
  8
RAHM2
100
AcDbLine
 10
-192.4248711305964
 20
25.40000000000004
 30
0.0
 11
-187.5751288694036
 21
25.40000000000004
 31
0.0
  0
LINE
  5
630
330
5E9
100
AcDbEntity
  8
RAHM2
100
AcDbLine
 10
-195.0
 20
25.00000000000003
 30
0.0
 11
-94.0
 21
25.00000000000003
 31
0.0
  0
MTEXT
  5
631
330
5E9
100
AcDbEntity
  8
RAHM2
100
AcDbMText
 10
-119.4582894723942
 20
27.50000000000003
 30
0.0
 40
2.5
 41
20.0
 71
     5
 72
     5
  1
・  ・   
 73
     1
 44
1.0
1001
ACAD
1000
MTEXTBEGIN
1070
    73
1070
     1
1070
    44
1040
1.0
1070
    74
1070
     0
1000
MTEXTEND
  0
TEXT
  5
632
330
5E9
100
AcDbEntity
  8
RAHM2
100
AcDbText
 10
-190.8155863565801
 20
25.98333333333337
 30
0.0
 40
2.5
  1
1
 72
     1
 11
-190.1905863565802
 21
25.65000000000003
 31
0.0
100
AcDbText
 73
     1
  0
TEXT
  5
633
330
5E9
100
AcDbEntity
  8
RAHM2
100
AcDbText
 10
-190.9183316929134
 20
30.98333333333337
 30
0.0
 40
2.5
  1
2
 72
     1
 11
-190.0
 21
30.65000000000003
 31
0.0
100
AcDbText
 73
     1
  0
TEXT
  5
634
330
5E9
100
AcDbEntity
  8
RAHM2
100
AcDbText
 10
-190.9267766952966
 20
35.98333333333334
 30
0.0
 40
2.5
  1
3
 72
     1
 11
-190.0
 21
35.65000000000001
 31
0.0
100
AcDbText
 73
     1
  0
TEXT
  5
635
330
5E9
100
AcDbEntity
  8
RAHM2
100
AcDbText
 10
-191.0
 20
40.98333333333337
 30
0.0
 40
2.5
  1
4
 72
     1
 11
-190.0
 21
40.65000000000003
 31
0.0
100
AcDbText
 73
     1
  0
TEXT
  5
636
330
5E9
100
AcDbEntity
  8
RAHM2
100
AcDbText
 10
-190.9267766952966
 20
45.98333333333337
 30
0.0
 40
2.5
  1
5
 72
     1
 11
-190.0
 21
45.65000000000003
 31
0.0
100
AcDbText
 73
     1
  0
LINE
  5
637
330
5E9
100
AcDbEntity
  8
0
100
AcDbLine
 10
-17.0
 20
50.0
 30
0.0
 11
-17.0
 21
0.0
 31
0.0
  0
LINE
  5
638
330
5E9
100
AcDbEntity
  8
0
100
AcDbLine
 10
-195.0
 20
0.0
 30
0.0
 11
0.0
 21
0.0
 31
0.0
1001
GENIUS_GENREC_14
1002
{
1000
PYDIR
1011
-184.0
1021
50.0
1031
0.0
1002
}
1002
{
1000
PXDIR
1011
0.0
1021
0.0
1031
0.0
1002
}
1002
{
1000
PORI
1011
-184.0
1021
0.0
1031
0.0
1002
}
1002
{
1000
PINS
1011
-100.5
1021
25.0
1031
0.0
1002
}
1002
{
1000
HVAL
1000
50
1002
}
1002
{
1000
H
1070
     2
1002
}
1002
{
1000
WVAL
1000
167
1002
}
1002
{
1000
W
1070
     2
1002
}
1002
{
1000
C
1070
     4
1002
}
1001
GENIUS_GENODEF_13
1002
{
1000
HIER
1070
     0
1002
}
1002
{
1000
MANEDIT
1070
     0
1002
}
1002
{
1000
NOSEL
1070
     0
1002
}
1002
{
1000
BEHIND
1070
     0
1002
}
1002
{
1000
REACTOR
1002
}
1001
GENIUS_GENOBJ-N-REC_13
1002
{
1000
OWNER
1000
GEN
1002
}
  0
LINE
  5
639
330
5E9
100
AcDbEntity
  8
0
100
AcDbLine
 10
0.0
 20
0.0
 30
0.0
 11
0.0
 21
50.0
 31
0.0
1001
GENIUS_GENREC_14
1002
{
1000
PYDIR
1011
-184.0
1021
50.0
1031
0.0
1002
}
1002
{
1000
PXDIR
1011
0.0
1021
0.0
1031
0.0
1002
}
1002
{
1000
PORI
1011
-184.0
1021
0.0
1031
0.0
1002
}
1002
{
1000
PINS
1011
-100.5
1021
25.0
1031
0.0
1002
}
1002
{
1000
HVAL
1000
50
1002
}
1002
{
1000
H
1070
     2
1002
}
1002
{
1000
WVAL
1000
167
1002
}
1002
{
1000
W
1070
     2
1002
}
1002
{
1000
C
1070
     4
1002
}
1001
GENIUS_GENODEF_13
1002
{
1000
HIER
1070
     0
1002
}
1002
{
1000
MANEDIT
1070
     0
1002
}
1002
{
1000
NOSEL
1070
     0
1002
}
1002
{
1000
BEHIND
1070
     0
1002
}
1002
{
1000
REACTOR
1002
}
1001
GENIUS_GENOBJ-N-REC_13
1002
{
1000
OWNER
1000
GEN
1002
}
  0
LINE
  5
63A
330
5E9
100
AcDbEntity
  8
0
100
AcDbLine
 10
0.0
 20
50.0
 30
0.0
 11
-195.0
 21
50.00000000000003
 31
0.0
1001
GENIUS_GENREC_14
1002
{
1000
PYDIR
1011
-184.0
1021
50.0
1031
0.0
1002
}
1002
{
1000
PXDIR
1011
0.0
1021
0.0
1031
0.0
1002
}
1002
{
1000
PORI
1011
-184.0
1021
0.0
1031
0.0
1002
}
1002
{
1000
PINS
1011
-100.5
1021
25.0
1031
0.0
1002
}
1002
{
1000
HVAL
1000
50
1002
}
1002
{
1000
H
1070
     2
1002
}
1002
{
1000
WVAL
1000
167
1002
}
1002
{
1000
W
1070
     2
1002
}
1002
{
1000
C
1070
     4
1002
}
1001
GENIUS_GENODEF_13
1002
{
1000
HIER
1070
     0
1002
}
1002
{
1000
MANEDIT
1070
     0
1002
}
1002
{
1000
NOSEL
1070
     0
1002
}
1002
{
1000
BEHIND
1070
     0
1002
}
1002
{
1000
REACTOR
1002
}
1001
GENIUS_GENOBJ-N-REC_13
1002
{
1000
OWNER
1000
GEN
1002
}
  0
LINE
  5
63B
330
5E9
100
AcDbEntity
  8
0
100
AcDbLine
 10
-195.0
 20
50.00000000000003
 30
0.0
 11
-195.0
 21
0.0
 31
0.0
1001
GENIUS_GENREC_14
1002
{
1000
PYDIR
1011
-195.0
1021
50.0
1031
0.0
1002
}
1002
{
1000
PXDIR
1011
-11.0
1021
0.0
1031
0.0
1002
}
1002
{
1000
PORI
1011
-195.0
1021
0.0
1031
0.0
1002
}
1002
{
1000
PINS
1011
-111.5
1021
25.0
1031
0.0
1002
}
1002
{
1000
HVAL
1000
50
1002
}
1002
{
1000
H
1070
     2
1002
}
1002
{
1000
WVAL
1000
167
1002
}
1002
{
1000
W
1070
     2
1002
}
1002
{
1000
C
1070
     4
1002
}
1001
GENIUS_GENODEF_13
1002
{
1000
HIER
1070
     0
1002
}
1002
{
1000
MANEDIT
1070
     0
1002
}
1002
{
1000
NOSEL
1070
     0
1002
}
1002
{
1000
BEHIND
1070
     0
1002
}
1002
{
1000
REACTOR
1002
}
1001
GENIUS_GENOBJ-N-REC_13
1002
{
1000
OWNER
1000
GEN
1002
}
  0
MTEXT
  5
63C
330
5E9
100
AcDbEntity
  8
RAHM2
100
AcDbMText
 10
-8.5
 20
48.80103540727964
 30
0.0
 40
2.5
 41
17.0
 71
     2
 72
     5
  1
検図
 73
     1
 44
1.0
1001
ACAD
1000
MTEXTBEGIN
1070
    73
1070
     1
1070
    44
1040
1.0
1070
    74
1070
     0
1000
MTEXTEND
  0
MTEXT
  5
63D
330
5E9
100
AcDbEntity
  8
RAHM2
100
AcDbMText
 10
-8.5
 20
23.80103540727964
 30
0.0
 40
2.5
 41
17.0
 71
     2
 72
     5
  1
製図
 73
     1
 44
1.0
1001
ACAD
1000
MTEXTBEGIN
1070
    73
1070
     1
1070
    44
1040
1.0
1070
    74
1070
     0
1000
MTEXTEND
  0
ENDBLK
  5
640
330
5E9
100
AcDbEntity
  8
0
100
AcDbBlockEnd
  0
BLOCK
  5
6A1
330
6A0
100
AcDbEntity
  8
0
100
AcDbBlockBegin
  2
GENDOT
 70
     0
 10
0.0
 20
0.0
 30
0.0
  3
GENDOT
  1

  0
LINE
  5
6A2
330
6A0
100
AcDbEntity
  8
0
100
AcDbLine
 10
0.0
 20
0.0
 30
0.0
 11
-1.0
 21
0.0
 31
0.0
  0
LWPOLYLINE
  5
6A3
330
6A0
100
AcDbEntity
  8
0
100
AcDbPolyline
 90
        2
 70
     1
 43
0.25
 10
-0.125
 20
0.0
 42
1.0
 10
0.125
 20
0.0
 42
1.0
  0
ENDBLK
  5
6A4
330
6A0
100
AcDbEntity
  8
0
100
AcDbBlockEnd
  0
BLOCK
  5
3E25
330
3E18
100
AcDbEntity
  8
0
100
AcDbBlockBegin
  2
*D38
 70
     1
 10
0.0
 20
0.0
 30
0.0
  3
*D38
  1

  0
LINE
  5
401C
330
3E18
100
AcDbEntity
  8
AM_5
100
AcDbLine
 10
90.18970730801575
 20
139.5004966466497
 30
0.0
 11
87.51470730801571
 21
139.5004966466497
 31
0.0
  0
LINE
  5
401D
330
3E18
100
AcDbEntity
  8
AM_5
100
AcDbLine
 10
87.51470730801571
 20
139.5004966466497
 30
0.0
 11
84.33983332856573
 21
135.0731482127547
 31
0.0
  0
MTEXT
  5
401E
102
{ACAD_XDICTIONARY
360
4136
102
}
330
3E18
100
AcDbEntity
  8
AM_5
 62
     2
100
AcDbMText
 10
89.22720730801575
 20
141.1254966466497
 30
0.0
 40
1.75
 41
0.0
 71
     5
 72
     1
  1
\U+22051
 73
     1
 44
1.0
1001
ACAD
1000
MTEXTBEGIN
1070
    73
1070
     1
1070
    44
1040
1.0
1070
    74
1070
     0
1000
MTEXTEND
  0
INSERT
  5
401F
330
3E18
100
AcDbEntity
  8
AM_5
100
AcDbBlockReference
  2
_Open30
 10
83.61139046669368
 20
134.0573377004111
 30
0.0
 41
1.25
 42
1.25
 43
1.25
 50
234.3555012143862
  0
POINT
  5
4020
330
3E18
100
AcDbEntity
  8
Defpoints
 62
     0
100
AcDbPoint
 10
83.61139046669368
 20
134.0573377004111
 30
0.0
  0
POINT
  5
4021
330
3E18
100
AcDbEntity
  8
Defpoints
 62
     0
100
AcDbPoint
 10
83.02863617719607
 20
133.2446892905363
 30
0.0
  0
ENDBLK
  5
3E26
330
3E18
100
AcDbEntity
  8
0
100
AcDbBlockEnd
  0
BLOCK
  5
3E33
330
3E28
100
AcDbEntity
  8
0
100
AcDbBlockBegin
  2
*D39
 70
     1
 10
0.0
 20
0.0
 30
0.0
  3
*D39
  1

  0
LINE
  5
4022
330
3E28
100
AcDbEntity
  8
AM_5
100
AcDbLine
 10
92.15718609505609
 20
42.95063988971782
 30
0.0
 11
87.06733478749171
 21
47.93652383009241
 31
0.0
  0
MTEXT
  5
4023
330
3E28
100
AcDbEntity
  8
AM_5
 62
     2
100
AcDbMText
 10
91.19587005114567
 20
46.16706690019397
 30
0.0
 40
1.75
 41
0.0
 71
     5
 72
     1
  1
4-R1
 11
0.7143650957985085
 21
-0.6997731846139775
 31
0.0
 73
     1
 44
1.0
1001
ACAD
1000
MTEXTBEGIN
1070
    73
1070
     1
1070
    44
1040
1.0
1070
    74
1070
     0
1000
MTEXTEND
  0
INSERT
  5
4024
330
3E28
100
AcDbEntity
  8
AM_5
100
AcDbBlockReference
  2
_Open30
 10
86.17437841774359
 20
48.81124031085988
 30
0.0
 41
1.25
 42
1.25
 43
1.25
 50
135.5911905977497
  0
POINT
  5
4025
330
3E28
100
AcDbEntity
  8
Defpoints
 62
     0
100
AcDbPoint
 10
86.17437841774359
 20
48.81124031085988
 30
0.0
  0
POINT
  5
4026
330
3E28
100
AcDbEntity
  8
Defpoints
 62
     0
100
AcDbPoint
 10
85.46001332194505
 20
49.51101349547389
 30
0.0
  0
ENDBLK
  5
3E34
330
3E28
100
AcDbEntity
  8
0
100
AcDbBlockEnd
  0
BLOCK
  5
3E5D
330
3E45
100
AcDbEntity
  8
0
100
AcDbBlockBegin
  2
*D40
 70
     1
 10
0.0
 20
0.0
 30
0.0
  3
*D40
  1

  0
LINE
  5
4027
330
3E45
100
AcDbEntity
  8
AM_5
100
AcDbLine
 10
37.6000133219452
 20
137.6510134954739
 30
0.0
 11
37.6000133219452
 21
140.9623417612438
 31
0.0
  0
LINE
  5
4028
330
3E45
100
AcDbEntity
  8
AM_5
100
AcDbLine
 10
83.32001332194497
 20
137.6510134954738
 30
0.0
 11
83.32001332194497
 21
140.9623417612438
 31
0.0
  0
LINE
  5
4029
330
3E45
100
AcDbEntity
  8
AM_5
100
AcDbLine
 10
38.8500133219452
 20
140.4623417612438
 30
0.0
 11
82.07001332194497
 21
140.4623417612438
 31
0.0
  0
INSERT
  5
402A
330
3E45
100
AcDbEntity
  8
AM_5
100
AcDbBlockReference
  2
_Open30
 10
37.6000133219452
 20
140.4623417612438
 30
0.0
 41
1.25
 42
1.25
 43
1.25
 50
180.0
  0
INSERT
  5
402B
330
3E45
100
AcDbEntity
  8
AM_5
100
AcDbBlockReference
  2
_Open30
 10
83.32001332194497
 20
140.4623417612438
 30
0.0
 41
1.25
 42
1.25
 43
1.25
  0
MTEXT
  5
402C
330
3E45
100
AcDbEntity
  8
AM_5
 62
     2
100
AcDbMText
 10
60.46001332194508
 20
142.0875140053383
 30
0.0
 40
1.75
 41
0.0
 71
     5
 72
     1
  1
45.72
 73
     1
 44
1.0
1001
ACAD
1000
MTEXTBEGIN
1070
    73
1070
     1
1070
    44
1040
1.0
1070
    74
1070
     0
1000
MTEXTEND
  0
POINT
  5
402D
330
3E45
100
AcDbEntity
  8
Defpoints
 62
     0
100
AcDbPoint
 10
37.6000133219452
 20
137.1510134954738
 30
0.0
  0
POINT
  5
402E
330
3E45
100
AcDbEntity
  8
Defpoints
 62
     0
100
AcDbPoint
 10
83.32001332194497
 20
137.1510134954738
 30
0.0
  0
POINT
  5
402F
330
3E45
100
AcDbEntity
  8
Defpoints
 62
     0
100
AcDbPoint
 10
83.32001332194497
 20
140.4623417612438
 30
0.0
  0
ENDBLK
  5
3E5E
330
3E45
100
AcDbEntity
  8
0
100
AcDbBlockEnd
  0
BLOCK
  5
3EE3
330
3E6F
100
AcDbEntity
  8
0
100
AcDbBlockBegin
  2
*D41
 70
     1
 10
0.0
 20
0.0
 30
0.0
  3
*D41
  1

  0
LINE
  5
4030
330
3E6F
100
AcDbEntity
  8
AM_5
100
AcDbLine
 10
34.9600133219451
 20
137.511013495474
 30
0.0
 11
27.60001332194514
 21
137.511013495474
 31
0.0
  0
LINE
  5
4031
330
3E6F
100
AcDbEntity
  8
AM_5
100
AcDbLine
 10
33.6000133219452
 20
133.6510134954739
 30
0.0
 11
27.60001332194514
 21
133.6510134954739
 31
0.0
  0
LINE
  5
4032
330
3E6F
100
AcDbEntity
  8
AM_5
100
AcDbLine
 10
28.10001332194514
 20
138.761013495474
 30
0.0
 11
28.10001332194514
 21
140.011013495474
 31
0.0
  0
LINE
  5
4033
330
3E6F
100
AcDbEntity
  8
AM_5
100
AcDbLine
 10
28.10001332194513
 20
132.4010134954739
 30
0.0
 11
28.10001332194513
 21
131.1510134954739
 31
0.0
  0
LINE
  5
4034
330
3E6F
100
AcDbEntity
  8
AM_5
100
AcDbLine
 10
28.10001332194514
 20
137.511013495474
 30
0.0
 11
28.10001332194513
 21
133.6510134954739
 31
0.0
  0
INSERT
  5
4035
330
3E6F
100
AcDbEntity
  8
AM_5
100
AcDbBlockReference
  2
_Open30
 10
28.10001332194514
 20
137.511013495474
 30
0.0
 41
1.25
 42
1.25
 43
1.25
 50
270.0
  0
INSERT
  5
4036
330
3E6F
100
AcDbEntity
  8
AM_5
100
AcDbBlockReference
  2
_Open30
 10
28.10001332194513
 20
133.6510134954739
 30
0.0
 41
1.25
 42
1.25
 43
1.25
 50
90.0
  0
MTEXT
  5
4037
330
3E6F
100
AcDbEntity
  8
AM_5
 62
     2
100
AcDbMText
 10
26.47501332194512
 20
135.5810134954739
 30
0.0
 40
1.75
 41
0.0
 71
     5
 72
     1
  1
3.86
 11
0.0000000000000001
 21
1.0
 31
0.0
 73
     1
 44
1.0
1001
ACAD
1000
MTEXTBEGIN
1070
    73
1070
     1
1070
    44
1040
1.0
1070
    74
1070
     0
1000
MTEXTEND
  0
POINT
  5
4038
330
3E6F
100
AcDbEntity
  8
Defpoints
 62
     0
100
AcDbPoint
 10
35.4600133219451
 20
137.511013495474
 30
0.0
  0
POINT
  5
4039
330
3E6F
100
AcDbEntity
  8
Defpoints
 62
     0
100
AcDbPoint
 10
34.1000133219452
 20
133.6510134954739
 30
0.0
  0
POINT
  5
403A
330
3E6F
100
AcDbEntity
  8
Defpoints
 62
     0
100
AcDbPoint
 10
28.10001332194513
 20
133.6510134954739
 30
0.0
  0
ENDBLK
  5
3EE4
330
3E6F
100
AcDbEntity
  8
0
100
AcDbBlockEnd
  0
BLOCK
  5
3EE5
330
3E9D
100
AcDbEntity
  8
0
100
AcDbBlockBegin
  2
*D42
 70
     1
 10
0.0
 20
0.0
 30
0.0
  3
*D42
  1

  0
LINE
  5
403B
330
3E9D
100
AcDbEntity
  8
AM_5
100
AcDbLine
 10
33.6000133219452
 20
133.6510134954739
 30
0.0
 11
27.60001332194519
 21
133.6510134954739
 31
0.0
  0
LINE
  5
403C
330
3E9D
100
AcDbEntity
  8
AM_5
100
AcDbLine
 10
33.60001332194517
 20
52.37101349547391
 30
0.0
 11
27.60001332194517
 21
52.37101349547391
 31
0.0
  0
LINE
  5
403D
330
3E9D
100
AcDbEntity
  8
AM_5
100
AcDbLine
 10
28.10001332194519
 20
132.4010134954739
 30
0.0
 11
28.10001332194517
 21
53.62101349547391
 31
0.0
  0
INSERT
  5
403E
330
3E9D
100
AcDbEntity
  8
AM_5
100
AcDbBlockReference
  2
_Open30
 10
28.10001332194519
 20
133.6510134954739
 30
0.0
 41
1.25
 42
1.25
 43
1.25
 50
90.0
  0
INSERT
  5
403F
330
3E9D
100
AcDbEntity
  8
AM_5
100
AcDbBlockReference
  2
_Open30
 10
28.10001332194517
 20
52.37101349547391
 30
0.0
 41
1.25
 42
1.25
 43
1.25
 50
270.0
  0
MTEXT
  5
4040
330
3E9D
100
AcDbEntity
  8
AM_5
 62
     2
100
AcDbMText
 10
26.47484107785068
 20
93.01101349547391
 30
0.0
 40
1.75
 41
0.0
 71
     5
 72
     1
  1
81.28
 11
0.0000000000000001
 21
1.0
 31
0.0
 73
     1
 44
1.0
1001
ACAD
1000
MTEXTBEGIN
1070
    73
1070
     1
1070
    44
1040
1.0
1070
    74
1070
     0
1000
MTEXTEND
  0
POINT
  5
4041
330
3E9D
100
AcDbEntity
  8
Defpoints
 62
     0
100
AcDbPoint
 10
34.1000133219452
 20
133.6510134954739
 30
0.0
  0
POINT
  5
4042
330
3E9D
100
AcDbEntity
  8
Defpoints
 62
     0
100
AcDbPoint
 10
34.10001332194517
 20
52.37101349547391
 30
0.0
  0
POINT
  5
4043
330
3E9D
100
AcDbEntity
  8
Defpoints
 62
     0
100
AcDbPoint
 10
28.10001332194517
 20
52.37101349547391
 30
0.0
  0
ENDBLK
  5
3EE6
330
3E9D
100
AcDbEntity
  8
0
100
AcDbBlockEnd
  0
BLOCK
  5
3EE7
330
3EC1
100
AcDbEntity
  8
0
100
AcDbBlockBegin
  2
*D43
 70
     1
 10
0.0
 20
0.0
 30
0.0
  3
*D43
  1

  0
LINE
  5
4044
330
3EC1
100
AcDbEntity
  8
AM_5
100
AcDbLine
 10
33.6000133219452
 20
52.37101349547393
 30
0.0
 11
27.60001332194515
 21
52.37101349547393
 31
0.0
  0
LINE
  5
4045
330
3EC1
100
AcDbEntity
  8
AM_5
100
AcDbLine
 10
34.9600133219451
 20
48.51101349547391
 30
0.0
 11
27.60001332194515
 21
48.51101349547391
 31
0.0
  0
LINE
  5
4046
330
3EC1
100
AcDbEntity
  8
AM_5
100
AcDbLine
 10
28.10001332194515
 20
53.62101349547393
 30
0.0
 11
28.10001332194515
 21
54.87101349547393
 31
0.0
  0
LINE
  5
4047
330
3EC1
100
AcDbEntity
  8
AM_5
100
AcDbLine
 10
28.10001332194515
 20
47.26101349547391
 30
0.0
 11
28.10001332194515
 21
46.01101349547391
 31
0.0
  0
LINE
  5
4048
330
3EC1
100
AcDbEntity
  8
AM_5
100
AcDbLine
 10
28.10001332194515
 20
52.37101349547393
 30
0.0
 11
28.10001332194515
 21
48.51101349547391
 31
0.0
  0
INSERT
  5
4049
330
3EC1
100
AcDbEntity
  8
AM_5
100
AcDbBlockReference
  2
_Open30
 10
28.10001332194515
 20
52.37101349547393
 30
0.0
 41
1.25
 42
1.25
 43
1.25
 50
270.0
  0
INSERT
  5
404A
330
3EC1
100
AcDbEntity
  8
AM_5
100
AcDbBlockReference
  2
_Open30
 10
28.10001332194515
 20
48.51101349547391
 30
0.0
 41
1.25
 42
1.25
 43
1.25
 50
90.0
  0
MTEXT
  5
404B
330
3EC1
100
AcDbEntity
  8
AM_5
 62
     2
100
AcDbMText
 10
26.47501332194514
 20
50.44101349547393
 30
0.0
 40
1.75
 41
0.0
 71
     5
 72
     1
  1
3.86
 11
0.0000000000000001
 21
1.0
 31
0.0
 73
     1
 44
1.0
1001
ACAD
1000
MTEXTBEGIN
1070
    73
1070
     1
1070
    44
1040
1.0
1070
    74
1070
     0
1000
MTEXTEND
  0
POINT
  5
404C
330
3EC1
100
AcDbEntity
  8
Defpoints
 62
     0
100
AcDbPoint
 10
34.1000133219452
 20
52.37101349547393
 30
0.0
  0
POINT
  5
404D
330
3EC1
100
AcDbEntity
  8
Defpoints
 62
     0
100
AcDbPoint
 10
35.4600133219451
 20
48.51101349547391
 30
0.0
  0
POINT
  5
404E
330
3EC1
100
AcDbEntity
  8
Defpoints
 62
     0
100
AcDbPoint
 10
28.10001332194515
 20
48.51101349547391
 30
0.0
  0
ENDBLK
  5
3EE8
330
3EC1
100
AcDbEntity
  8
0
100
AcDbBlockEnd
  0
BLOCK
  5
3F7D
330
3F41
100
AcDbEntity
  8
0
100
AcDbBlockBegin
  2
*D44
 70
     1
 10
0.0
 20
0.0
 30
0.0
  3
*D44
  1

  0
LINE
  5
404F
330
3F41
100
AcDbEntity
  8
AM_5
100
AcDbLine
 10
34.4600133219451
 20
49.01101349547392
 30
0.0
 11
34.4600133219451
 21
44.61344171374439
 31
0.0
  0
LINE
  5
4050
330
3F41
100
AcDbEntity
  8
AM_5
100
AcDbLine
 10
86.4600133219451
 20
49.01101349547392
 30
0.0
 11
86.4600133219451
 21
44.61344171374439
 31
0.0
  0
LINE
  5
4051
330
3F41
100
AcDbEntity
  8
AM_5
100
AcDbLine
 10
35.7100133219451
 20
45.11344171374439
 30
0.0
 11
85.2100133219451
 21
45.11344171374439
 31
0.0
  0
INSERT
  5
4052
330
3F41
100
AcDbEntity
  8
AM_5
100
AcDbBlockReference
  2
_Open30
 10
34.4600133219451
 20
45.11344171374439
 30
0.0
 41
1.25
 42
1.25
 43
1.25
 50
180.0
  0
INSERT
  5
4053
330
3F41
100
AcDbEntity
  8
AM_5
100
AcDbBlockReference
  2
_Open30
 10
86.4600133219451
 20
45.11344171374439
 30
0.0
 41
1.25
 42
1.25
 43
1.25
  0
MTEXT
  5
4054
330
3F41
100
AcDbEntity
  8
AM_5
 62
     2
100
AcDbMText
 10
60.4600133219451
 20
46.73861395783887
 30
0.0
 40
1.75
 41
0.0
 71
     5
 72
     1
  1
52
 73
     1
 44
1.0
1001
ACAD
1000
MTEXTBEGIN
1070
    73
1070
     1
1070
    44
1040
1.0
1070
    74
1070
     0
1000
MTEXTEND
  0
POINT
  5
4055
330
3F41
100
AcDbEntity
  8
Defpoints
 62
     0
100
AcDbPoint
 10
34.4600133219451
 20
49.51101349547392
 30
0.0
  0
POINT
  5
4056
330
3F41
100
AcDbEntity
  8
Defpoints
 62
     0
100
AcDbPoint
 10
86.4600133219451
 20
49.51101349547392
 30
0.0
  0
POINT
  5
4057
330
3F41
100
AcDbEntity
  8
Defpoints
 62
     0
100
AcDbPoint
 10
86.4600133219451
 20
45.11344171374439
 30
0.0
  0
ENDBLK
  5
3F7E
330
3F41
100
AcDbEntity
  8
0
100
AcDbBlockEnd
  0
BLOCK
  5
3FAA
330
3F92
100
AcDbEntity
  8
0
100
AcDbBlockBegin
  2
*D46
 70
     1
 10
0.0
 20
0.0
 30
0.0
  3
*D46
  1

  0
LINE
  5
4058
330
3F92
100
AcDbEntity
  8
AM_5
100
AcDbLine
 10
85.96001332194509
 20
137.511013495474
 30
0.0
 11
91.9600133219451
 21
137.511013495474
 31
0.0
  0
LINE
  5
4059
330
3F92
100
AcDbEntity
  8
AM_5
100
AcDbLine
 10
85.96001332194509
 20
48.51101349547391
 30
0.0
 11
91.9600133219451
 21
48.51101349547391
 31
0.0
  0
LINE
  5
405A
330
3F92
100
AcDbEntity
  8
AM_5
100
AcDbLine
 10
91.46001332194511
 20
136.261013495474
 30
0.0
 11
91.4600133219451
 21
49.76101349547391
 31
0.0
  0
INSERT
  5
405B
330
3F92
100
AcDbEntity
  8
AM_5
100
AcDbBlockReference
  2
_Open30
 10
91.46001332194511
 20
137.511013495474
 30
0.0
 41
1.25
 42
1.25
 43
1.25
 50
90.0
  0
INSERT
  5
405C
330
3F92
100
AcDbEntity
  8
AM_5
100
AcDbBlockReference
  2
_Open30
 10
91.4600133219451
 20
48.51101349547391
 30
0.0
 41
1.25
 42
1.25
 43
1.25
 50
270.0
  0
MTEXT
  5
405D
330
3F92
100
AcDbEntity
  8
AM_5
 62
     2
100
AcDbMText
 10
89.83501332194508
 20
93.01101349547399
 30
0.0
 40
1.75
 41
0.0
 71
     5
 72
     1
  1
89
 11
0.0000000000000001
 21
1.0
 31
0.0
 73
     1
 44
1.0
1001
ACAD
1000
MTEXTBEGIN
1070
    73
1070
     1
1070
    44
1040
1.0
1070
    74
1070
     0
1000
MTEXTEND
  0
POINT
  5
405E
330
3F92
100
AcDbEntity
  8
Defpoints
 62
     0
100
AcDbPoint
 10
85.4600133219451
 20
137.511013495474
 30
0.0
  0
POINT
  5
405F
330
3F92
100
AcDbEntity
  8
Defpoints
 62
     0
100
AcDbPoint
 10
85.4600133219451
 20
48.51101349547391
 30
0.0
  0
POINT
  5
4060
330
3F92
100
AcDbEntity
  8
Defpoints
 62
     0
100
AcDbPoint
 10
91.4600133219451
 20
48.51101349547391
 30
0.0
  0
ENDBLK
  5
3FAB
330
3F92
100
AcDbEntity
  8
0
100
AcDbBlockEnd
  0
BLOCK
  5
40D4
330
40D0
100
AcDbEntity
  8
0
100
AcDbBlockBegin
  2
*S47
 70
     1
 10
0.0
 20
0.0
 30
0.0
  3
*S47
  1

  0
CIRCLE
  5
40D1
330
40D0
100
AcDbEntity
  8
AM_12
 62
     4
100
AcDbCircle
 10
39.21124798826824
 20
121.5933572280604
 30
0.0
 40
0.875
  0
LINE
  5
40D2
330
40D0
100
AcDbEntity
  8
AM_12
 62
     4
100
AcDbLine
 10
38.33624798826824
 20
120.7183572280604
 30
0.0
 11
40.08624798826824
 21
122.4683572280603
 31
0.0
  0
LINE
  5
40D3
330
40D0
100
AcDbEntity
  8
AM_12
 62
     4
100
AcDbLine
 10
38.33624798826824
 20
122.4683572280603
 30
0.0
 11
40.08624798826824
 21
120.7183572280604
 31
0.0
  0
ENDBLK
  5
40D5
330
40D0
100
AcDbEntity
  8
0
100
AcDbBlockEnd
  0
BLOCK
  5
40DC
330
40D7
100
AcDbEntity
  8
0
100
AcDbBlockBegin
  2
*S48
 70
     1
 10
0.0
 20
0.0
 30
0.0
  3
*S48
  1

  0
LINE
  5
40D8
330
40D7
100
AcDbEntity
  8
AM_5
100
AcDbLine
 10
24.27974713286126
 20
118.6193769043303
 30
0.0
 11
36.28193881656873
 21
127.0758815540799
 31
0.0
  0
TRACE
  5
40D9
330
40D7
100
AcDbEntity
  8
AM_5
  6
Continuous
100
AcDbTrace
 10
36.41463818027032
 20
126.887543314415
 30
0.0
 11
36.14923945286715
 21
127.2642197937449
 31
0.0
 12
37.71250978147008
 22
128.0838332961694
 32
0.0
 13
37.71250978147008
 23
128.0838332961694
 33
0.0
  0
MTEXT
  5
40DA
330
40D7
100
AcDbEntity
  8
AM_5
 62
     7
100
AcDbMText
 10
20.19240151885743
 20
115.7395147840746
 30
0.0
 40
2.5
 41
0.0
 71
     5
 72
     5
  1
1
  7
ACISOTS
 73
     1
 44
1.0
1001
ACAD
1000
MTEXTBEGIN
1070
    73
1070
     1
1070
    44
1040
1.0
1070
    74
1070
     0
1000
MTEXTEND
  0
CIRCLE
  5
40DB
330
40D7
100
AcDbEntity
  8
AM_5
 62
     3
100
AcDbCircle
 10
20.19240151885743
 20
115.7395147840746
 30
0.0
 40
5.0
  0
ENDBLK
  5
40DD
330
40D7
100
AcDbEntity
  8
0
100
AcDbBlockEnd
  0
BLOCK
  5
40F9
330
40DF
100
AcDbEntity
  8
0
100
AcDbBlockBegin
  2
*S49
 70
     1
 10
0.0
 20
0.0
 30
0.0
  3
*S49
  1

  0
MTEXT
  5
40E0
330
40DF
100
AcDbEntity
  8
0
 62
     2
100
AcDbMText
 10
13.36146606701861
 20
34.91250000000002
 30
0.0
 40
1.75
 41
5.822932134037257
 71
     2
 72
     5
  1
1
  7
ACISOTS
 73
     1
 44
1.0
1001
ACAD
1000
MTEXTBEGIN
1070
    73
1070
     1
1070
    44
1040
1.0
1070
    74
1070
     0
1000
MTEXTEND
  0
LINE
  5
40E1
330
40DF
100
AcDbEntity
  8
0
 62
     1
100
AcDbLine
 10
16.72293213403725
 20
35.58750000000002
 30
0.0
 11
16.72293213403725
 21
32.50000000000002
 31
0.0
  0
MTEXT
  5
40E2
330
40DF
100
AcDbEntity
  8
0
 62
     2
100
AcDbMText
 10
17.17293213403724
 20
34.91250000000002
 30
0.0
 40
1.75
 41
17.73910368902454
 71
     1
 72
     5
  1
基板
  7
ACISOTS
 73
     1
 44
1.0
1001
ACAD
1000
MTEXTBEGIN
1070
    73
1070
     1
1070
    44
1040
1.0
1070
    74
1070
     0
1000
MTEXTEND
  0
LINE
  5
40E3
330
40DF
100
AcDbEntity
  8
0
 62
     1
100
AcDbLine
 10
35.36203582306179
 20
35.58750000000002
 30
0.0
 11
35.36203582306179
 21
32.50000000000002
 31
0.0
  0
MTEXT
  5
40E4
330
40DF
100
AcDbEntity
  8
0
 62
     2
100
AcDbMText
 10
35.81203582306179
 20
34.91250000000002
 30
0.0
 40
1.75
 41
8.084652801219093
 71
     1
 72
     5
  1
1
  7
ACISOTS
 73
     1
 44
1.0
1001
ACAD
1000
MTEXTBEGIN
1070
    73
1070
     1
1070
    44
1040
1.0
1070
    74
1070
     0
1000
MTEXTEND
  0
LINE
  5
40E5
330
40DF
100
AcDbEntity
  8
0
 62
     1
100
AcDbLine
 10
44.34668862428088
 20
35.58750000000002
 30
0.0
 11
44.34668862428088
 21
32.50000000000002
 31
0.0
  0
MTEXT
  5
40E6
330
40DF
100
AcDbEntity
  8
0
 62
     2
100
AcDbMText
 10
44.79668862428087
 20
34.91250000000002
 30
0.0
 40
1.75
 41
30.29070922755976
 71
     1
 72
     5
  1
ガラスエポキシ1.6ｔ（FR-4)
  7
ACISOTS
 73
     1
 44
1.0
1001
ACAD
1000
MTEXTBEGIN
1070
    73
1070
     1
1070
    44
1040
1.0
1070
    74
1070
     0
1000
MTEXTEND
  0
LINE
  5
40E7
330
40DF
100
AcDbEntity
  8
0
 62
     1
100
AcDbLine
 10
75.53739785184063
 20
35.58750000000002
 30
0.0
 11
75.53739785184063
 21
32.50000000000002
 31
0.0
  0
MTEXT
  5
40E8
330
40DF
100
AcDbEntity
  8
0
 62
     2
100
AcDbMText
 10
75.98739785184064
 20
34.91250000000002
 30
0.0
 40
1.75
 41
31.06260214815939
 71
     1
 72
     5
  1
ｽﾙｰﾎｰﾙ  鉛ﾌﾘｰﾊﾝﾀﾞ  ﾚｼﾞｽﾄ
  7
ACISOTS
 73
     1
 44
1.0
1001
ACAD
1000
MTEXTBEGIN
1070
    73
1070
     1
1070
    44
1040
1.0
1070
    74
1070
     0
1000
MTEXTEND
  0
LINE
  5
40E9
330
40DF
100
AcDbEntity
  8
0
 62
     1
100
AcDbLine
 10
9.999999999999985
 20
35.58750000000002
 30
0.0
 11
107.5
 21
35.58750000000002
 31
0.0
  0
MTEXT
  5
40EA
330
40DF
100
AcDbEntity
  8
0
 62
     2
100
AcDbMText
 10
13.36146606701861
 20
38.00000000000002
 30
0.0
 40
1.75
 41
5.822932134037257
 71
     2
 72
     5
  1
照番
  7
ACISOTS
 73
     1
 44
1.0
1001
ACAD
1000
MTEXTBEGIN
1070
    73
1070
     1
1070
    44
1040
1.0
1070
    74
1070
     0
1000
MTEXTEND
  0
LINE
  5
40EB
330
40DF
100
AcDbEntity
  8
0
 62
     1
100
AcDbLine
 10
16.72293213403725
 20
38.67500000000002
 30
0.0
 11
16.72293213403725
 21
35.58750000000002
 31
0.0
  0
MTEXT
  5
40EC
330
40DF
100
AcDbEntity
  8
0
 62
     2
100
AcDbMText
 10
26.04248397854951
 20
38.00000000000002
 30
0.0
 40
1.75
 41
17.73910368902454
 71
     2
 72
     5
  1
名称
  7
ACISOTS
 73
     1
 44
1.0
1001
ACAD
1000
MTEXTBEGIN
1070
    73
1070
     1
1070
    44
1040
1.0
1070
    74
1070
     0
1000
MTEXTEND
  0
LINE
  5
40ED
330
40DF
100
AcDbEntity
  8
0
 62
     1
100
AcDbLine
 10
35.36203582306179
 20
38.67500000000002
 30
0.0
 11
35.36203582306179
 21
35.58750000000002
 31
0.0
  0
MTEXT
  5
40EE
330
40DF
100
AcDbEntity
  8
0
 62
     2
100
AcDbMText
 10
39.85436222367133
 20
38.00000000000002
 30
0.0
 40
1.75
 41
8.084652801219093
 71
     2
 72
     5
  1
個数
  7
ACISOTS
 73
     1
 44
1.0
1001
ACAD
1000
MTEXTBEGIN
1070
    73
1070
     1
1070
    44
1040
1.0
1070
    74
1070
     0
1000
MTEXTEND
  0
LINE
  5
40EF
330
40DF
100
AcDbEntity
  8
0
 62
     1
100
AcDbLine
 10
44.34668862428088
 20
38.67500000000002
 30
0.0
 11
44.34668862428088
 21
35.58750000000002
 31
0.0
  0
MTEXT
  5
40F0
330
40DF
100
AcDbEntity
  8
0
 62
     2
100
AcDbMText
 10
59.94204323806076
 20
38.00000000000002
 30
0.0
 40
1.75
 41
30.29070922755976
 71
     2
 72
     5
  1
材質
  7
ACISOTS
 73
     1
 44
1.0
1001
ACAD
1000
MTEXTBEGIN
1070
    73
1070
     1
1070
    44
1040
1.0
1070
    74
1070
     0
1000
MTEXTEND
  0
LINE
  5
40F1
330
40DF
100
AcDbEntity
  8
0
 62
     1
100
AcDbLine
 10
75.53739785184063
 20
38.67500000000002
 30
0.0
 11
75.53739785184063
 21
35.58750000000002
 31
0.0
  0
MTEXT
  5
40F2
330
40DF
100
AcDbEntity
  8
0
 62
     2
100
AcDbMText
 10
91.51869892592033
 20
38.00000000000002
 30
0.0
 40
1.75
 41
31.06260214815939
 71
     2
 72
     5
  1
色・表面処理
  7
ACISOTS
 73
     1
 44
1.0
1001
ACAD
1000
MTEXTBEGIN
1070
    73
1070
     1
1070
    44
1040
1.0
1070
    74
1070
     0
1000
MTEXTEND
  0
MTEXT
  5
40F3
330
40DF
100
AcDbEntity
  8
0
 62
     2
100
AcDbMText
 10
58.75
 20
40.21875000000001
 30
0.0
 40
1.75
 41
0.0
 71
     5
 72
     5
  1
構成内容
  7
ACISOTS
 73
     1
 44
1.0
1001
ACAD
1000
MTEXTBEGIN
1070
    73
1070
     1
1070
    44
1040
1.0
1070
    74
1070
     0
1000
MTEXTEND
  0
LINE
  5
40F4
330
40DF
100
AcDbEntity
  8
0
 62
     1
100
AcDbLine
 10
9.999999999999985
 20
38.67500000000002
 30
0.0
 11
107.5
 21
38.67500000000002
 31
0.0
  0
LINE
  5
40F5
330
40DF
100
AcDbEntity
  8
0
 62
     7
100
AcDbLine
 10
9.999999999999985
 20
41.76250000000002
 30
0.0
 11
107.5
 21
41.76250000000002
 31
0.0
  0
LINE
  5
40F6
330
40DF
100
AcDbEntity
  8
0
 62
     7
100
AcDbLine
 10
107.5
 20
41.76250000000002
 30
0.0
 11
107.5
 21
32.50000000000002
 31
0.0
  0
LINE
  5
40F7
330
40DF
100
AcDbEntity
  8
0
 62
     7
100
AcDbLine
 10
107.5
 20
32.50000000000002
 30
0.0
 11
9.999999999999985
 21
32.50000000000002
 31
0.0
  0
LINE
  5
40F8
330
40DF
100
AcDbEntity
  8
0
 62
     7
100
AcDbLine
 10
9.999999999999985
 20
32.50000000000002
 30
0.0
 11
9.999999999999985
 21
41.76250000000002
 31
0.0
  0
ENDBLK
  5
40FA
330
40DF
100
AcDbEntity
  8
0
100
AcDbBlockEnd
  0
ENDSEC
  0
SECTION
  2
ENTITIES
  0
INSERT
  5
5E3
330
1F
100
AcDbEntity
  8
0
370
     0
100
AcDbBlockReference
  2
TAKACHI-A4
 10
0.0
 20
0.0
 30
0.0
 41
0.5
 42
0.5
 43
0.5
1001
GENIUS_GENOREF_13
1005
64C
1001
GENIUS_GENODEF_13
1002
{
1000
HIER
1070
     0
1002
}
1002
{
1000
MANEDIT
1070
     0
1002
}
1002
{
1000
NOSEL
1070
     0
1002
}
1002
{
1000
BEHIND
1070
     0
1002
}
1002
{
1000
OTHER
1070
     0
1002
}
1002
{
1000
REACTOR
1002
}
1001
GENIUS_GENOBJ-N-SDF_13
1002
{
1000
OWNER
1000
GEN
1002
}
1001
GENIUS_GENSCREG_15
1040
0.5
1040
1.0
1011
19.99999999999997
1021
15.0
1031
0.0
1011
117.5
1021
152.5
1031
0.0
1070
     3
  0
INSERT
  5
642
330
1F
100
AcDbEntity
  8
0
370
     0
100
AcDbBlockReference
 66
     1
  2
TAKACHI-TITLE
 10
107.5
 20
7.5
 30
0.0
 41
0.5
 42
0.5
 43
0.5
1001
GENIUS_GENOREF_13
1005
64C
  0
ATTRIB
  5
830
330
642
100
AcDbEntity
  8
0
100
AcDbText
 10
15.87807364271965
 20
11.97542526221404
 30
0.0
 40
1.25
  1

 11
15.87807364271965
 21
11.80875859554737
 31
0.0
100
AcDbAttribute
  2
GEN-TITLE-DES2
 70
     0
 74
     1
  0
ATTRIB
  5
831
330
642
100
AcDbEntity
  8
0
100
AcDbText
 10
15.87807364271965
 20
8.508758595547373
 30
0.0
 40
1.5
  1

 11
15.87807364271965
 21
8.308758595547374
 31
0.0
100
AcDbAttribute
  2
GEN-TITLE-NR
 70
     0
 74
     1
  0
ATTRIB
  5
832
330
642
100
AcDbEntity
  8
0
100
AcDbText
 10
15.87807364271965
 20
14.70364309750917
 30
0.0
 40
2.0
  1
TNF52-89
 11
15.87807364271965
 21
14.4369764308425
 31
0.0
100
AcDbAttribute
  2
GEN-TITLE-DES1
 70
     0
 74
     1
  0
ATTRIB
  5
833
330
642
100
AcDbEntity
  8
0
100
AcDbText
 10
76.46797440100129
 20
27.12750278089175
 30
0.0
 40
1.5
  1
2:1
 72
     2
 11
78.49297440100129
 21
27.12750278089175
 31
0.0
100
AcDbAttribute
  2
GEN-TITLE-SCA
 70
     0
  0
ATTRIB
  5
834
330
642
100
AcDbEntity
  8
0
100
AcDbText
 10
68.99857516675497
 20
23.01090393971738
 30
0.0
 40
1.5
  1

 11
68.99857516675497
 21
22.81090393971738
 31
0.0
100
AcDbAttribute
  2
GEN-TITLE-MAT1
 70
     0
 74
     1
  0
ATTRIB
  5
835
330
642
100
AcDbEntity
  8
0
100
AcDbText
 10
68.99857516675497
 20
18.01090393971738
 30
0.0
 40
1.5
  1

 11
68.99857516675497
 21
17.81090393971737
 31
0.0
100
AcDbAttribute
  2
GEN-TITLE-MAT2
 70
     0
 74
     1
  0
ATTRIB
  5
836
330
642
100
AcDbEntity
  8
0
100
AcDbText
 10
68.99857516675497
 20
13.50875859554737
 30
0.0
 40
1.5
  1
2006/02/28
 11
68.99857516675497
 21
13.30875859554737
 31
0.0
100
AcDbAttribute
  2
GEN-TITLE-DAT
 70
     0
 74
     1
  0
ATTRIB
  5
837
330
642
100
AcDbEntity
  8
0
100
AcDbText
 10
88.61841310304249
 20
27.12750278089175
 30
0.0
 40
1.5
  1

 72
     2
 11
88.61841310304249
 21
27.12750278089175
 31
0.0
100
AcDbAttribute
  2
GEN-TITLE-QTY
 70
     0
  0
SEQEND
  5
82F
330
642
100
AcDbEntity
  8
0
370
     0
  0
POINT
  5
64C
330
1F
100
AcDbEntity
  8
0
 60
     1
100
AcDbPoint
 10
0.0
 20
0.0
 30
0.0
1001
GENIUS_GENOENT_13
1002
{
1000
MYREF
1005
64C
1002
}
1002
{
1000
GRP
1005
0
1002
}
1001
GENIUS_GENOBJ-N-TIT_13
1002
{
1000
OWNER
1000
GEN
1002
}
1001
GENIUS_GENODEF_13
1002
{
1000
HIER
1070
     1
1002
}
1002
{
1000
MANEDIT
1070
     0
1002
}
1002
{
1000
NOSEL
1070
     0
1002
}
1002
{
1000
BEHIND
1070
     0
1002
}
1002
{
1000
OTHER
1070
     0
1002
}
1002
{
1000
REACTOR
1002
}
1001
GENIUS_GENOLIS_13
1002
{
1000
ENT
1005
642
1005
5E3
1005
82E
1002
}
1001
GENIUS_GENTITLE_13
1002
{
1000
BORDER
1000
TAKACHI-A4
1002
}
1002
{
1000
TITLE
1000
TAKACHI-TITLE
1002
}
1002
{
1000
SCALE
1000
2:1
1002
}
1002
{
1000
TITLESTD
1000
ISO
1002
}
1002
{
1000
HRA
1005
5E3
1002
}
1002
{
1000
HTIT
1005
642
1002
}
1002
{
1000
GENIUSID
1005
64C
1002
}
1002
{
1000
INVTXTID
1005
0
1002
}
1002
{
1000
UNCHG
1002
{
1000
GEN-TITLE-SIZ
1000
GEN-TITLE-SCA
1002
}
1002
}
  0
INSERT
  5
B78
102
{ACAD_REACTORS
330
B75
102
}
330
1F
100
AcDbEntity
  8
AM_12
100
AcDbBlockReference
  2
*S47
 10
0.0
 20
0.0
 30
0.0
  0
INSERT
  5
B7D
102
{ACAD_REACTORS
330
B7C
102
}
330
1F
100
AcDbEntity
  8
AM_5
100
AcDbBlockReference
  2
*S48
 10
0.0
 20
0.0
 30
0.0
  0
INSERT
  5
BAA
102
{ACAD_REACTORS
330
B74
102
}
330
1F
100
AcDbEntity
  8
0
100
AcDbBlockReference
  2
*S49
 10
0.0
 20
0.0
 30
0.0
  0
LINE
  5
3ACB
330
1F
100
AcDbEntity
  8
AM_7
  6
AM_ISO08W050x2
100
AcDbLine
 10
37.6000133219452
 20
52.37101349547393
 30
0.0
 11
37.6000133219452
 21
48.87101349547393
 31
0.0
1001
GENIUS_GENOREF_13
1005
3D6A
  0
LINE
  5
3ACC
102
{ACAD_REACTORS
330
3EA8
330
3ED1
102
}
330
1F
100
AcDbEntity
  8
AM_7
  6
AM_ISO08W050x2
100
AcDbLine
 10
37.6000133219452
 20
52.37101349547393
 30
0.0
 11
34.1000133219452
 21
52.37101349547393
 31
0.0
1001
GENIUS_GENOREF_13
1005
3D6A
  0
LINE
  5
3ACD
330
1F
100
AcDbEntity
  8
AM_7
  6
AM_ISO08W050x2
100
AcDbLine
 10
37.6000133219452
 20
52.37101349547393
 30
0.0
 11
37.6000133219452
 21
55.87101349547393
 31
0.0
1001
GENIUS_GENOREF_13
1005
3D6A
  0
LINE
  5
3ACE
330
1F
100
AcDbEntity
  8
AM_7
  6
AM_ISO08W050x2
100
AcDbLine
 10
37.6000133219452
 20
52.37101349547393
 30
0.0
 11
41.1000133219452
 21
52.37101349547393
 31
0.0
1001
GENIUS_GENOREF_13
1005
3D6A
  0
CIRCLE
  5
3ACF
330
1F
100
AcDbEntity
  8
TK1
100
AcDbCircle
 10
83.32001332194499
 20
52.37101349547393
 30
0.0
 40
0.5
  0
LINE
  5
3AD0
330
1F
100
AcDbEntity
  8
AM_7
  6
AM_ISO08W050x2
100
AcDbLine
 10
83.32001332194499
 20
52.37101349547393
 30
0.0
 11
83.32001332194499
 21
48.87101349547393
 31
0.0
1001
GENIUS_GENOREF_13
1005
3D69
  0
LINE
  5
3AD1
330
1F
100
AcDbEntity
  8
AM_7
  6
AM_ISO08W050x2
100
AcDbLine
 10
83.32001332194499
 20
52.37101349547393
 30
0.0
 11
79.82001332194499
 21
52.37101349547393
 31
0.0
1001
GENIUS_GENOREF_13
1005
3D69
  0
LINE
  5
3AD2
330
1F
100
AcDbEntity
  8
AM_7
  6
AM_ISO08W050x2
100
AcDbLine
 10
83.32001332194499
 20
52.37101349547393
 30
0.0
 11
83.32001332194499
 21
55.87101349547393
 31
0.0
1001
GENIUS_GENOREF_13
1005
3D69
  0
LINE
  5
3AD3
330
1F
100
AcDbEntity
  8
AM_7
  6
AM_ISO08W050x2
100
AcDbLine
 10
83.32001332194499
 20
52.37101349547393
 30
0.0
 11
86.820013321945
 21
52.37101349547393
 31
0.0
1001
GENIUS_GENOREF_13
1005
3D69
  0
LINE
  5
3AD4
330
1F
100
AcDbEntity
  8
AM_7
  6
AM_ISO08W050x2
100
AcDbLine
 10
83.32001332194499
 20
133.6510134954739
 30
0.0
 11
83.32001332194499
 21
130.1510134954739
 31
0.0
1001
GENIUS_GENOREF_13
1005
3D68
  0
LINE
  5
3AD5
330
1F
100
AcDbEntity
  8
AM_7
  6
AM_ISO08W050x2
100
AcDbLine
 10
83.32001332194499
 20
133.6510134954739
 30
0.0
 11
79.82001332194499
 21
133.6510134954739
 31
0.0
1001
GENIUS_GENOREF_13
1005
3D68
  0
LINE
  5
3AD6
102
{ACAD_REACTORS
330
3E50
102
}
330
1F
100
AcDbEntity
  8
AM_7
  6
AM_ISO08W050x2
100
AcDbLine
 10
83.32001332194499
 20
133.6510134954739
 30
0.0
 11
83.32001332194499
 21
137.1510134954738
 31
0.0
1001
GENIUS_GENOREF_13
1005
3D68
  0
LINE
  5
3AD7
330
1F
100
AcDbEntity
  8
AM_7
  6
AM_ISO08W050x2
100
AcDbLine
 10
83.32001332194499
 20
133.6510134954739
 30
0.0
 11
86.820013321945
 21
133.6510134954739
 31
0.0
1001
GENIUS_GENOREF_13
1005
3D68
  0
LINE
  5
3AD8
330
1F
100
AcDbEntity
  8
AM_7
  6
AM_ISO08W050x2
100
AcDbLine
 10
37.6000133219452
 20
133.6510134954739
 30
0.0
 11
37.6000133219452
 21
130.1510134954739
 31
0.0
1001
GENIUS_GENOREF_13
1005
3D67
  0
LINE
  5
3AD9
102
{ACAD_REACTORS
330
3E7F
330
3EA8
102
}
330
1F
100
AcDbEntity
  8
AM_7
  6
AM_ISO08W050x2
100
AcDbLine
 10
37.6000133219452
 20
133.6510134954739
 30
0.0
 11
34.1000133219452
 21
133.6510134954739
 31
0.0
1001
GENIUS_GENOREF_13
1005
3D67
  0
LINE
  5
3ADA
102
{ACAD_REACTORS
330
3E50
102
}
330
1F
100
AcDbEntity
  8
AM_7
  6
AM_ISO08W050x2
100
AcDbLine
 10
37.6000133219452
 20
133.6510134954739
 30
0.0
 11
37.6000133219452
 21
137.1510134954738
 31
0.0
1001
GENIUS_GENOREF_13
1005
3D67
  0
LINE
  5
3ADB
330
1F
100
AcDbEntity
  8
AM_7
  6
AM_ISO08W050x2
100
AcDbLine
 10
37.6000133219452
 20
133.6510134954739
 30
0.0
 11
41.1000133219452
 21
133.6510134954739
 31
0.0
1001
GENIUS_GENOREF_13
1005
3D67
  0
CIRCLE
  5
3ADC
330
1F
100
AcDbEntity
  8
TK1
100
AcDbCircle
 10
60.4600133219451
 20
90.47101349547395
 30
0.0
 40
0.5
  0
CIRCLE
  5
3ADD
330
1F
100
AcDbEntity
  8
TK1
100
AcDbCircle
 10
57.92001332194513
 20
90.47101349547395
 30
0.0
 40
0.5
  0
CIRCLE
  5
3ADE
330
1F
100
AcDbEntity
  8
TK1
100
AcDbCircle
 10
55.38001332194494
 20
90.47101349547395
 30
0.0
 40
0.5
  0
CIRCLE
  5
3ADF
330
1F
100
AcDbEntity
  8
TK1
100
AcDbCircle
 10
52.84001332194498
 20
90.47101349547395
 30
0.0
 40
0.5
  0
CIRCLE
  5
3AE0
330
1F
100
AcDbEntity
  8
TK1
100
AcDbCircle
 10
50.30001332194501
 20
90.47101349547395
 30
0.0
 40
0.5
  0
CIRCLE
  5
3AE1
330
1F
100
AcDbEntity
  8
TK1
100
AcDbCircle
 10
47.76001332194505
 20
90.47101349547395
 30
0.0
 40
0.5
  0
CIRCLE
  5
3AE2
330
1F
100
AcDbEntity
  8
TK1
100
AcDbCircle
 10
45.22001332194508
 20
90.47101349547395
 30
0.0
 40
0.5
  0
CIRCLE
  5
3AE3
330
1F
100
AcDbEntity
  8
TK1
100
AcDbCircle
 10
42.68001332194512
 20
90.47101349547395
 30
0.0
 40
0.5
  0
CIRCLE
  5
3AE4
330
1F
100
AcDbEntity
  8
TK1
100
AcDbCircle
 10
40.14001332194516
 20
90.47101349547395
 30
0.0
 40
0.5
  0
CIRCLE
  5
3AE5
330
1F
100
AcDbEntity
  8
TK1
100
AcDbCircle
 10
37.6000133219452
 20
90.47101349547395
 30
0.0
 40
0.5
  0
CIRCLE
  5
3AE6
330
1F
100
AcDbEntity
  8
TK1
100
AcDbCircle
 10
60.4600133219451
 20
87.93101349547388
 30
0.0
 40
0.5
  0
CIRCLE
  5
3AE7
330
1F
100
AcDbEntity
  8
TK1
100
AcDbCircle
 10
57.92001332194513
 20
87.93101349547388
 30
0.0
 40
0.5
  0
CIRCLE
  5
3AE8
330
1F
100
AcDbEntity
  8
TK1
100
AcDbCircle
 10
55.38001332194494
 20
87.93101349547388
 30
0.0
 40
0.5
  0
CIRCLE
  5
3AE9
330
1F
100
AcDbEntity
  8
TK1
100
AcDbCircle
 10
52.84001332194498
 20
87.93101349547388
 30
0.0
 40
0.5
  0
CIRCLE
  5
3AEA
330
1F
100
AcDbEntity
  8
TK1
100
AcDbCircle
 10
50.30001332194501
 20
87.93101349547388
 30
0.0
 40
0.5
  0
CIRCLE
  5
3AEB
330
1F
100
AcDbEntity
  8
TK1
100
AcDbCircle
 10
47.76001332194505
 20
87.93101349547388
 30
0.0
 40
0.5
  0
CIRCLE
  5
3AEC
330
1F
100
AcDbEntity
  8
TK1
100
AcDbCircle
 10
45.22001332194508
 20
87.93101349547388
 30
0.0
 40
0.5
  0
CIRCLE
  5
3AED
330
1F
100
AcDbEntity
  8
TK1
100
AcDbCircle
 10
42.68001332194512
 20
87.93101349547388
 30
0.0
 40
0.5
  0
CIRCLE
  5
3AEE
330
1F
100
AcDbEntity
  8
TK1
100
AcDbCircle
 10
40.14001332194516
 20
87.93101349547388
 30
0.0
 40
0.5
  0
CIRCLE
  5
3AEF
330
1F
100
AcDbEntity
  8
TK1
100
AcDbCircle
 10
37.6000133219452
 20
87.93101349547388
 30
0.0
 40
0.5
  0
CIRCLE
  5
3AF0
330
1F
100
AcDbEntity
  8
TK1
100
AcDbCircle
 10
60.4600133219451
 20
85.39101349547392
 30
0.0
 40
0.5
  0
CIRCLE
  5
3AF1
330
1F
100
AcDbEntity
  8
TK1
100
AcDbCircle
 10
57.92001332194513
 20
85.39101349547392
 30
0.0
 40
0.5
  0
CIRCLE
  5
3AF2
330
1F
100
AcDbEntity
  8
TK1
100
AcDbCircle
 10
55.38001332194494
 20
85.39101349547392
 30
0.0
 40
0.5
  0
CIRCLE
  5
3AF3
330
1F
100
AcDbEntity
  8
TK1
100
AcDbCircle
 10
52.84001332194498
 20
85.39101349547392
 30
0.0
 40
0.5
  0
CIRCLE
  5
3AF4
330
1F
100
AcDbEntity
  8
TK1
100
AcDbCircle
 10
50.30001332194501
 20
85.39101349547392
 30
0.0
 40
0.5
  0
CIRCLE
  5
3AF5
330
1F
100
AcDbEntity
  8
TK1
100
AcDbCircle
 10
47.76001332194505
 20
85.39101349547392
 30
0.0
 40
0.5
  0
CIRCLE
  5
3AF6
330
1F
100
AcDbEntity
  8
TK1
100
AcDbCircle
 10
45.22001332194508
 20
85.39101349547392
 30
0.0
 40
0.5
  0
CIRCLE
  5
3AF7
330
1F
100
AcDbEntity
  8
TK1
100
AcDbCircle
 10
42.68001332194512
 20
85.39101349547392
 30
0.0
 40
0.5
  0
CIRCLE
  5
3AF8
330
1F
100
AcDbEntity
  8
TK1
100
AcDbCircle
 10
40.14001332194516
 20
85.39101349547392
 30
0.0
 40
0.5
  0
CIRCLE
  5
3AF9
330
1F
100
AcDbEntity
  8
TK1
100
AcDbCircle
 10
37.6000133219452
 20
85.39101349547392
 30
0.0
 40
0.5
  0
CIRCLE
  5
3AFA
330
1F
100
AcDbEntity
  8
TK1
100
AcDbCircle
 10
60.4600133219451
 20
82.85101349547394
 30
0.0
 40
0.5
  0
CIRCLE
  5
3AFB
330
1F
100
AcDbEntity
  8
TK1
100
AcDbCircle
 10
57.92001332194513
 20
82.85101349547394
 30
0.0
 40
0.5
  0
CIRCLE
  5
3AFC
330
1F
100
AcDbEntity
  8
TK1
100
AcDbCircle
 10
55.38001332194494
 20
82.85101349547394
 30
0.0
 40
0.5
  0
CIRCLE
  5
3AFD
330
1F
100
AcDbEntity
  8
TK1
100
AcDbCircle
 10
52.84001332194498
 20
82.85101349547394
 30
0.0
 40
0.5
  0
CIRCLE
  5
3AFE
330
1F
100
AcDbEntity
  8
TK1
100
AcDbCircle
 10
50.30001332194501
 20
82.85101349547394
 30
0.0
 40
0.5
  0
CIRCLE
  5
3AFF
330
1F
100
AcDbEntity
  8
TK1
100
AcDbCircle
 10
47.76001332194505
 20
82.85101349547394
 30
0.0
 40
0.5
  0
CIRCLE
  5
3B00
330
1F
100
AcDbEntity
  8
TK1
100
AcDbCircle
 10
45.22001332194508
 20
82.85101349547394
 30
0.0
 40
0.5
  0
CIRCLE
  5
3B01
330
1F
100
AcDbEntity
  8
TK1
100
AcDbCircle
 10
42.68001332194512
 20
82.85101349547394
 30
0.0
 40
0.5
  0
CIRCLE
  5
3B02
330
1F
100
AcDbEntity
  8
TK1
100
AcDbCircle
 10
40.14001332194516
 20
82.85101349547394
 30
0.0
 40
0.5
  0
CIRCLE
  5
3B03
330
1F
100
AcDbEntity
  8
TK1
100
AcDbCircle
 10
37.6000133219452
 20
82.85101349547394
 30
0.0
 40
0.5
  0
CIRCLE
  5
3B04
330
1F
100
AcDbEntity
  8
TK1
100
AcDbCircle
 10
60.4600133219451
 20
80.31101349547387
 30
0.0
 40
0.5
  0
CIRCLE
  5
3B05
330
1F
100
AcDbEntity
  8
TK1
100
AcDbCircle
 10
57.92001332194513
 20
80.31101349547387
 30
0.0
 40
0.5
  0
CIRCLE
  5
3B06
330
1F
100
AcDbEntity
  8
TK1
100
AcDbCircle
 10
55.38001332194494
 20
80.31101349547387
 30
0.0
 40
0.5
  0
CIRCLE
  5
3B07
330
1F
100
AcDbEntity
  8
TK1
100
AcDbCircle
 10
52.84001332194498
 20
80.31101349547387
 30
0.0
 40
0.5
  0
CIRCLE
  5
3B08
330
1F
100
AcDbEntity
  8
TK1
100
AcDbCircle
 10
50.30001332194501
 20
80.31101349547387
 30
0.0
 40
0.5
  0
CIRCLE
  5
3B09
330
1F
100
AcDbEntity
  8
TK1
100
AcDbCircle
 10
47.76001332194505
 20
80.31101349547387
 30
0.0
 40
0.5
  0
CIRCLE
  5
3B0A
330
1F
100
AcDbEntity
  8
TK1
100
AcDbCircle
 10
45.22001332194508
 20
80.31101349547387
 30
0.0
 40
0.5
  0
CIRCLE
  5
3B0B
330
1F
100
AcDbEntity
  8
TK1
100
AcDbCircle
 10
42.68001332194512
 20
80.31101349547387
 30
0.0
 40
0.5
  0
CIRCLE
  5
3B0C
330
1F
100
AcDbEntity
  8
TK1
100
AcDbCircle
 10
40.14001332194516
 20
80.31101349547387
 30
0.0
 40
0.5
  0
CIRCLE
  5
3B0D
330
1F
100
AcDbEntity
  8
TK1
100
AcDbCircle
 10
37.6000133219452
 20
80.31101349547387
 30
0.0
 40
0.5
  0
CIRCLE
  5
3B0E
330
1F
100
AcDbEntity
  8
TK1
100
AcDbCircle
 10
60.4600133219451
 20
77.77101349547391
 30
0.0
 40
0.5
  0
CIRCLE
  5
3B0F
330
1F
100
AcDbEntity
  8
TK1
100
AcDbCircle
 10
57.92001332194513
 20
77.77101349547391
 30
0.0
 40
0.5
  0
CIRCLE
  5
3B10
330
1F
100
AcDbEntity
  8
TK1
100
AcDbCircle
 10
55.38001332194494
 20
77.77101349547391
 30
0.0
 40
0.5
  0
CIRCLE
  5
3B11
330
1F
100
AcDbEntity
  8
TK1
100
AcDbCircle
 10
52.84001332194498
 20
77.77101349547391
 30
0.0
 40
0.5
  0
CIRCLE
  5
3B12
330
1F
100
AcDbEntity
  8
TK1
100
AcDbCircle
 10
50.30001332194501
 20
77.77101349547391
 30
0.0
 40
0.5
  0
CIRCLE
  5
3B13
330
1F
100
AcDbEntity
  8
TK1
100
AcDbCircle
 10
47.76001332194505
 20
77.77101349547391
 30
0.0
 40
0.5
  0
CIRCLE
  5
3B14
330
1F
100
AcDbEntity
  8
TK1
100
AcDbCircle
 10
45.22001332194508
 20
77.77101349547391
 30
0.0
 40
0.5
  0
CIRCLE
  5
3B15
330
1F
100
AcDbEntity
  8
TK1
100
AcDbCircle
 10
42.68001332194512
 20
77.77101349547391
 30
0.0
 40
0.5
  0
CIRCLE
  5
3B16
330
1F
100
AcDbEntity
  8
TK1
100
AcDbCircle
 10
40.14001332194516
 20
77.77101349547391
 30
0.0
 40
0.5
  0
CIRCLE
  5
3B17
330
1F
100
AcDbEntity
  8
TK1
100
AcDbCircle
 10
37.6000133219452
 20
77.77101349547391
 30
0.0
 40
0.5
  0
CIRCLE
  5
3B18
330
1F
100
AcDbEntity
  8
TK1
100
AcDbCircle
 10
60.4600133219451
 20
75.23101349547395
 30
0.0
 40
0.5
  0
CIRCLE
  5
3B19
330
1F
100
AcDbEntity
  8
TK1
100
AcDbCircle
 10
57.92001332194513
 20
75.23101349547395
 30
0.0
 40
0.5
  0
CIRCLE
  5
3B1A
330
1F
100
AcDbEntity
  8
TK1
100
AcDbCircle
 10
55.38001332194494
 20
75.23101349547395
 30
0.0
 40
0.5
  0
CIRCLE
  5
3B1B
330
1F
100
AcDbEntity
  8
TK1
100
AcDbCircle
 10
52.84001332194498
 20
75.23101349547395
 30
0.0
 40
0.5
  0
CIRCLE
  5
3B1C
330
1F
100
AcDbEntity
  8
TK1
100
AcDbCircle
 10
50.30001332194501
 20
75.23101349547395
 30
0.0
 40
0.5
  0
CIRCLE
  5
3B1D
330
1F
100
AcDbEntity
  8
TK1
100
AcDbCircle
 10
47.76001332194505
 20
75.23101349547395
 30
0.0
 40
0.5
  0
CIRCLE
  5
3B1E
330
1F
100
AcDbEntity
  8
TK1
100
AcDbCircle
 10
45.22001332194508
 20
75.23101349547395
 30
0.0
 40
0.5
  0
CIRCLE
  5
3B1F
330
1F
100
AcDbEntity
  8
TK1
100
AcDbCircle
 10
42.68001332194512
 20
75.23101349547395
 30
0.0
 40
0.5
  0
CIRCLE
  5
3B20
330
1F
100
AcDbEntity
  8
TK1
100
AcDbCircle
 10
40.14001332194516
 20
75.23101349547395
 30
0.0
 40
0.5
  0
CIRCLE
  5
3B21
330
1F
100
AcDbEntity
  8
TK1
100
AcDbCircle
 10
37.6000133219452
 20
75.23101349547395
 30
0.0
 40
0.5
  0
CIRCLE
  5
3B22
330
1F
100
AcDbEntity
  8
TK1
100
AcDbCircle
 10
60.4600133219451
 20
72.69101349547398
 30
0.0
 40
0.5
  0
CIRCLE
  5
3B23
330
1F
100
AcDbEntity
  8
TK1
100
AcDbCircle
 10
57.92001332194513
 20
72.69101349547398
 30
0.0
 40
0.5
  0
CIRCLE
  5
3B24
330
1F
100
AcDbEntity
  8
TK1
100
AcDbCircle
 10
55.38001332194494
 20
72.69101349547398
 30
0.0
 40
0.5
  0
CIRCLE
  5
3B25
330
1F
100
AcDbEntity
  8
TK1
100
AcDbCircle
 10
52.84001332194498
 20
72.69101349547398
 30
0.0
 40
0.5
  0
CIRCLE
  5
3B26
330
1F
100
AcDbEntity
  8
TK1
100
AcDbCircle
 10
50.30001332194501
 20
72.69101349547398
 30
0.0
 40
0.5
  0
CIRCLE
  5
3B27
330
1F
100
AcDbEntity
  8
TK1
100
AcDbCircle
 10
47.76001332194505
 20
72.69101349547398
 30
0.0
 40
0.5
  0
CIRCLE
  5
3B28
330
1F
100
AcDbEntity
  8
TK1
100
AcDbCircle
 10
45.22001332194508
 20
72.69101349547398
 30
0.0
 40
0.5
  0
CIRCLE
  5
3B29
330
1F
100
AcDbEntity
  8
TK1
100
AcDbCircle
 10
42.68001332194512
 20
72.69101349547398
 30
0.0
 40
0.5
  0
CIRCLE
  5
3B2A
330
1F
100
AcDbEntity
  8
TK1
100
AcDbCircle
 10
40.14001332194516
 20
72.69101349547398
 30
0.0
 40
0.5
  0
CIRCLE
  5
3B2B
330
1F
100
AcDbEntity
  8
TK1
100
AcDbCircle
 10
37.6000133219452
 20
72.69101349547398
 30
0.0
 40
0.5
  0
CIRCLE
  5
3B2C
330
1F
100
AcDbEntity
  8
TK1
100
AcDbCircle
 10
60.4600133219451
 20
70.1510134954739
 30
0.0
 40
0.5
  0
CIRCLE
  5
3B2D
330
1F
100
AcDbEntity
  8
TK1
100
AcDbCircle
 10
57.92001332194513
 20
70.1510134954739
 30
0.0
 40
0.5
  0
CIRCLE
  5
3B2E
330
1F
100
AcDbEntity
  8
TK1
100
AcDbCircle
 10
55.38001332194494
 20
70.1510134954739
 30
0.0
 40
0.5
  0
CIRCLE
  5
3B2F
330
1F
100
AcDbEntity
  8
TK1
100
AcDbCircle
 10
52.84001332194498
 20
70.1510134954739
 30
0.0
 40
0.5
  0
CIRCLE
  5
3B30
330
1F
100
AcDbEntity
  8
TK1
100
AcDbCircle
 10
50.30001332194501
 20
70.1510134954739
 30
0.0
 40
0.5
  0
CIRCLE
  5
3B31
330
1F
100
AcDbEntity
  8
TK1
100
AcDbCircle
 10
47.76001332194505
 20
70.1510134954739
 30
0.0
 40
0.5
  0
CIRCLE
  5
3B32
330
1F
100
AcDbEntity
  8
TK1
100
AcDbCircle
 10
45.22001332194508
 20
70.1510134954739
 30
0.0
 40
0.5
  0
CIRCLE
  5
3B33
330
1F
100
AcDbEntity
  8
TK1
100
AcDbCircle
 10
42.68001332194512
 20
70.1510134954739
 30
0.0
 40
0.5
  0
CIRCLE
  5
3B34
330
1F
100
AcDbEntity
  8
TK1
100
AcDbCircle
 10
40.14001332194516
 20
70.1510134954739
 30
0.0
 40
0.5
  0
CIRCLE
  5
3B35
330
1F
100
AcDbEntity
  8
TK1
100
AcDbCircle
 10
37.6000133219452
 20
70.1510134954739
 30
0.0
 40
0.5
  0
CIRCLE
  5
3B36
330
1F
100
AcDbEntity
  8
TK1
100
AcDbCircle
 10
60.4600133219451
 20
67.61101349547394
 30
0.0
 40
0.5
  0
CIRCLE
  5
3B37
330
1F
100
AcDbEntity
  8
TK1
100
AcDbCircle
 10
57.92001332194513
 20
67.61101349547394
 30
0.0
 40
0.5
  0
CIRCLE
  5
3B38
330
1F
100
AcDbEntity
  8
TK1
100
AcDbCircle
 10
55.38001332194494
 20
67.61101349547394
 30
0.0
 40
0.5
  0
CIRCLE
  5
3B39
330
1F
100
AcDbEntity
  8
TK1
100
AcDbCircle
 10
52.84001332194498
 20
67.61101349547394
 30
0.0
 40
0.5
  0
CIRCLE
  5
3B3A
330
1F
100
AcDbEntity
  8
TK1
100
AcDbCircle
 10
50.30001332194501
 20
67.61101349547394
 30
0.0
 40
0.5
  0
CIRCLE
  5
3B3B
330
1F
100
AcDbEntity
  8
TK1
100
AcDbCircle
 10
47.76001332194505
 20
67.61101349547394
 30
0.0
 40
0.5
  0
CIRCLE
  5
3B3C
330
1F
100
AcDbEntity
  8
TK1
100
AcDbCircle
 10
45.22001332194508
 20
67.61101349547394
 30
0.0
 40
0.5
  0
CIRCLE
  5
3B3D
330
1F
100
AcDbEntity
  8
TK1
100
AcDbCircle
 10
42.68001332194512
 20
67.61101349547394
 30
0.0
 40
0.5
  0
CIRCLE
  5
3B3E
330
1F
100
AcDbEntity
  8
TK1
100
AcDbCircle
 10
40.14001332194516
 20
67.61101349547394
 30
0.0
 40
0.5
  0
CIRCLE
  5
3B3F
330
1F
100
AcDbEntity
  8
TK1
100
AcDbCircle
 10
37.6000133219452
 20
67.61101349547394
 30
0.0
 40
0.5
  0
CIRCLE
  5
3B40
330
1F
100
AcDbEntity
  8
TK1
100
AcDbCircle
 10
60.4600133219451
 20
65.07101349547387
 30
0.0
 40
0.5
  0
CIRCLE
  5
3B41
330
1F
100
AcDbEntity
  8
TK1
100
AcDbCircle
 10
57.92001332194513
 20
65.07101349547387
 30
0.0
 40
0.5
  0
CIRCLE
  5
3B42
330
1F
100
AcDbEntity
  8
TK1
100
AcDbCircle
 10
55.38001332194494
 20
65.07101349547387
 30
0.0
 40
0.5
  0
CIRCLE
  5
3B43
330
1F
100
AcDbEntity
  8
TK1
100
AcDbCircle
 10
52.84001332194498
 20
65.07101349547387
 30
0.0
 40
0.5
  0
CIRCLE
  5
3B44
330
1F
100
AcDbEntity
  8
TK1
100
AcDbCircle
 10
50.30001332194501
 20
65.07101349547387
 30
0.0
 40
0.5
  0
CIRCLE
  5
3B45
330
1F
100
AcDbEntity
  8
TK1
100
AcDbCircle
 10
47.76001332194505
 20
65.07101349547387
 30
0.0
 40
0.5
  0
CIRCLE
  5
3B46
330
1F
100
AcDbEntity
  8
TK1
100
AcDbCircle
 10
45.22001332194508
 20
65.07101349547387
 30
0.0
 40
0.5
  0
CIRCLE
  5
3B47
330
1F
100
AcDbEntity
  8
TK1
100
AcDbCircle
 10
42.68001332194512
 20
65.07101349547387
 30
0.0
 40
0.5
  0
CIRCLE
  5
3B48
330
1F
100
AcDbEntity
  8
TK1
100
AcDbCircle
 10
40.14001332194516
 20
65.07101349547387
 30
0.0
 40
0.5
  0
CIRCLE
  5
3B49
330
1F
100
AcDbEntity
  8
TK1
100
AcDbCircle
 10
37.6000133219452
 20
65.07101349547387
 30
0.0
 40
0.5
  0
CIRCLE
  5
3B4A
330
1F
100
AcDbEntity
  8
TK1
100
AcDbCircle
 10
60.4600133219451
 20
62.5310134954739
 30
0.0
 40
0.5
  0
CIRCLE
  5
3B4B
330
1F
100
AcDbEntity
  8
TK1
100
AcDbCircle
 10
57.92001332194513
 20
62.5310134954739
 30
0.0
 40
0.5
  0
CIRCLE
  5
3B4C
330
1F
100
AcDbEntity
  8
TK1
100
AcDbCircle
 10
55.38001332194494
 20
62.5310134954739
 30
0.0
 40
0.5
  0
CIRCLE
  5
3B4D
330
1F
100
AcDbEntity
  8
TK1
100
AcDbCircle
 10
52.84001332194498
 20
62.5310134954739
 30
0.0
 40
0.5
  0
CIRCLE
  5
3B4E
330
1F
100
AcDbEntity
  8
TK1
100
AcDbCircle
 10
50.30001332194501
 20
62.5310134954739
 30
0.0
 40
0.5
  0
CIRCLE
  5
3B4F
330
1F
100
AcDbEntity
  8
TK1
100
AcDbCircle
 10
47.76001332194505
 20
62.5310134954739
 30
0.0
 40
0.5
  0
CIRCLE
  5
3B50
330
1F
100
AcDbEntity
  8
TK1
100
AcDbCircle
 10
45.22001332194508
 20
62.5310134954739
 30
0.0
 40
0.5
  0
CIRCLE
  5
3B51
330
1F
100
AcDbEntity
  8
TK1
100
AcDbCircle
 10
42.68001332194512
 20
62.5310134954739
 30
0.0
 40
0.5
  0
CIRCLE
  5
3B52
330
1F
100
AcDbEntity
  8
TK1
100
AcDbCircle
 10
40.14001332194516
 20
62.5310134954739
 30
0.0
 40
0.5
  0
CIRCLE
  5
3B53
330
1F
100
AcDbEntity
  8
TK1
100
AcDbCircle
 10
37.6000133219452
 20
62.5310134954739
 30
0.0
 40
0.5
  0
CIRCLE
  5
3B54
330
1F
100
AcDbEntity
  8
TK1
100
AcDbCircle
 10
60.4600133219451
 20
59.99101349547394
 30
0.0
 40
0.5
  0
CIRCLE
  5
3B55
330
1F
100
AcDbEntity
  8
TK1
100
AcDbCircle
 10
57.92001332194513
 20
59.99101349547394
 30
0.0
 40
0.5
  0
CIRCLE
  5
3B56
330
1F
100
AcDbEntity
  8
TK1
100
AcDbCircle
 10
55.38001332194494
 20
59.99101349547394
 30
0.0
 40
0.5
  0
CIRCLE
  5
3B57
330
1F
100
AcDbEntity
  8
TK1
100
AcDbCircle
 10
52.84001332194498
 20
59.99101349547394
 30
0.0
 40
0.5
  0
CIRCLE
  5
3B58
330
1F
100
AcDbEntity
  8
TK1
100
AcDbCircle
 10
50.30001332194501
 20
59.99101349547394
 30
0.0
 40
0.5
  0
CIRCLE
  5
3B59
330
1F
100
AcDbEntity
  8
TK1
100
AcDbCircle
 10
47.76001332194505
 20
59.99101349547394
 30
0.0
 40
0.5
  0
CIRCLE
  5
3B5A
330
1F
100
AcDbEntity
  8
TK1
100
AcDbCircle
 10
45.22001332194508
 20
59.99101349547394
 30
0.0
 40
0.5
  0
CIRCLE
  5
3B5B
330
1F
100
AcDbEntity
  8
TK1
100
AcDbCircle
 10
42.68001332194512
 20
59.99101349547394
 30
0.0
 40
0.5
  0
CIRCLE
  5
3B5C
330
1F
100
AcDbEntity
  8
TK1
100
AcDbCircle
 10
40.14001332194516
 20
59.99101349547394
 30
0.0
 40
0.5
  0
CIRCLE
  5
3B5D
330
1F
100
AcDbEntity
  8
TK1
100
AcDbCircle
 10
37.6000133219452
 20
59.99101349547394
 30
0.0
 40
0.5
  0
CIRCLE
  5
3B5E
330
1F
100
AcDbEntity
  8
TK1
100
AcDbCircle
 10
60.4600133219451
 20
57.45101349547397
 30
0.0
 40
0.5
  0
CIRCLE
  5
3B5F
330
1F
100
AcDbEntity
  8
TK1
100
AcDbCircle
 10
57.92001332194513
 20
57.45101349547397
 30
0.0
 40
0.5
  0
CIRCLE
  5
3B60
330
1F
100
AcDbEntity
  8
TK1
100
AcDbCircle
 10
55.38001332194494
 20
57.45101349547397
 30
0.0
 40
0.5
  0
CIRCLE
  5
3B61
330
1F
100
AcDbEntity
  8
TK1
100
AcDbCircle
 10
52.84001332194498
 20
57.45101349547397
 30
0.0
 40
0.5
  0
CIRCLE
  5
3B62
330
1F
100
AcDbEntity
  8
TK1
100
AcDbCircle
 10
50.30001332194501
 20
57.45101349547397
 30
0.0
 40
0.5
  0
CIRCLE
  5
3B63
330
1F
100
AcDbEntity
  8
TK1
100
AcDbCircle
 10
47.76001332194505
 20
57.45101349547397
 30
0.0
 40
0.5
  0
CIRCLE
  5
3B64
330
1F
100
AcDbEntity
  8
TK1
100
AcDbCircle
 10
45.22001332194508
 20
57.45101349547397
 30
0.0
 40
0.5
  0
CIRCLE
  5
3B65
330
1F
100
AcDbEntity
  8
TK1
100
AcDbCircle
 10
42.68001332194512
 20
57.45101349547397
 30
0.0
 40
0.5
  0
CIRCLE
  5
3B66
330
1F
100
AcDbEntity
  8
TK1
100
AcDbCircle
 10
40.14001332194516
 20
57.45101349547397
 30
0.0
 40
0.5
  0
CIRCLE
  5
3B67
330
1F
100
AcDbEntity
  8
TK1
100
AcDbCircle
 10
37.6000133219452
 20
57.45101349547397
 30
0.0
 40
0.5
  0
CIRCLE
  5
3B68
330
1F
100
AcDbEntity
  8
TK1
100
AcDbCircle
 10
60.4600133219451
 20
54.91101349547389
 30
0.0
 40
0.5
  0
CIRCLE
  5
3B69
330
1F
100
AcDbEntity
  8
TK1
100
AcDbCircle
 10
57.92001332194513
 20
54.91101349547389
 30
0.0
 40
0.5
  0
CIRCLE
  5
3B6A
330
1F
100
AcDbEntity
  8
TK1
100
AcDbCircle
 10
55.38001332194494
 20
54.91101349547389
 30
0.0
 40
0.5
  0
CIRCLE
  5
3B6B
330
1F
100
AcDbEntity
  8
TK1
100
AcDbCircle
 10
52.84001332194498
 20
54.91101349547389
 30
0.0
 40
0.5
  0
CIRCLE
  5
3B6C
330
1F
100
AcDbEntity
  8
TK1
100
AcDbCircle
 10
50.30001332194501
 20
54.91101349547389
 30
0.0
 40
0.5
  0
CIRCLE
  5
3B6D
330
1F
100
AcDbEntity
  8
TK1
100
AcDbCircle
 10
47.76001332194505
 20
54.91101349547389
 30
0.0
 40
0.5
  0
CIRCLE
  5
3B6E
330
1F
100
AcDbEntity
  8
TK1
100
AcDbCircle
 10
45.22001332194508
 20
54.91101349547389
 30
0.0
 40
0.5
  0
CIRCLE
  5
3B6F
330
1F
100
AcDbEntity
  8
TK1
100
AcDbCircle
 10
42.68001332194512
 20
54.91101349547389
 30
0.0
 40
0.5
  0
CIRCLE
  5
3B70
330
1F
100
AcDbEntity
  8
TK1
100
AcDbCircle
 10
40.14001332194516
 20
54.91101349547389
 30
0.0
 40
0.5
  0
CIRCLE
  5
3B71
330
1F
100
AcDbEntity
  8
TK1
100
AcDbCircle
 10
37.6000133219452
 20
54.91101349547389
 30
0.0
 40
0.5
  0
CIRCLE
  5
3B72
330
1F
100
AcDbEntity
  8
TK1
100
AcDbCircle
 10
60.4600133219451
 20
52.37101349547393
 30
0.0
 40
0.5
  0
CIRCLE
  5
3B73
330
1F
100
AcDbEntity
  8
TK1
100
AcDbCircle
 10
57.92001332194513
 20
52.37101349547393
 30
0.0
 40
0.5
  0
CIRCLE
  5
3B74
330
1F
100
AcDbEntity
  8
TK1
100
AcDbCircle
 10
55.38001332194494
 20
52.37101349547393
 30
0.0
 40
0.5
  0
CIRCLE
  5
3B75
330
1F
100
AcDbEntity
  8
TK1
100
AcDbCircle
 10
52.84001332194498
 20
52.37101349547393
 30
0.0
 40
0.5
  0
CIRCLE
  5
3B76
330
1F
100
AcDbEntity
  8
TK1
100
AcDbCircle
 10
50.30001332194501
 20
52.37101349547393
 30
0.0
 40
0.5
  0
CIRCLE
  5
3B77
330
1F
100
AcDbEntity
  8
TK1
100
AcDbCircle
 10
47.76001332194505
 20
52.37101349547393
 30
0.0
 40
0.5
  0
CIRCLE
  5
3B78
330
1F
100
AcDbEntity
  8
TK1
100
AcDbCircle
 10
45.22001332194508
 20
52.37101349547393
 30
0.0
 40
0.5
  0
CIRCLE
  5
3B79
330
1F
100
AcDbEntity
  8
TK1
100
AcDbCircle
 10
42.68001332194512
 20
52.37101349547393
 30
0.0
 40
0.5
  0
CIRCLE
  5
3B7A
330
1F
100
AcDbEntity
  8
TK1
100
AcDbCircle
 10
40.14001332194516
 20
52.37101349547393
 30
0.0
 40
0.5
  0
CIRCLE
  5
3B7B
330
1F
100
AcDbEntity
  8
TK1
100
AcDbCircle
 10
37.6000133219452
 20
52.37101349547393
 30
0.0
 40
0.5
  0
CIRCLE
  5
3B7C
330
1F
100
AcDbEntity
  8
TK1
100
AcDbCircle
 10
83.32001332194499
 20
52.37101349547393
 30
0.0
 40
0.5
  0
CIRCLE
  5
3B7D
330
1F
100
AcDbEntity
  8
TK1
100
AcDbCircle
 10
80.78001332194503
 20
52.37101349547393
 30
0.0
 40
0.5
  0
CIRCLE
  5
3B7E
330
1F
100
AcDbEntity
  8
TK1
100
AcDbCircle
 10
78.24001332194507
 20
52.37101349547393
 30
0.0
 40
0.5
  0
CIRCLE
  5
3B7F
330
1F
100
AcDbEntity
  8
TK1
100
AcDbCircle
 10
75.70001332194511
 20
52.37101349547393
 30
0.0
 40
0.5
  0
CIRCLE
  5
3B80
330
1F
100
AcDbEntity
  8
TK1
100
AcDbCircle
 10
73.16001332194514
 20
52.37101349547393
 30
0.0
 40
0.5
  0
CIRCLE
  5
3B81
330
1F
100
AcDbEntity
  8
TK1
100
AcDbCircle
 10
70.62001332194518
 20
52.37101349547393
 30
0.0
 40
0.5
  0
CIRCLE
  5
3B82
330
1F
100
AcDbEntity
  8
TK1
100
AcDbCircle
 10
68.08001332194499
 20
52.37101349547393
 30
0.0
 40
0.5
  0
CIRCLE
  5
3B83
330
1F
100
AcDbEntity
  8
TK1
100
AcDbCircle
 10
65.54001332194502
 20
52.37101349547393
 30
0.0
 40
0.5
  0
CIRCLE
  5
3B84
330
1F
100
AcDbEntity
  8
TK1
100
AcDbCircle
 10
63.00001332194506
 20
52.37101349547393
 30
0.0
 40
0.5
  0
CIRCLE
  5
3B85
330
1F
100
AcDbEntity
  8
TK1
100
AcDbCircle
 10
83.32001332194499
 20
54.91101349547389
 30
0.0
 40
0.5
  0
CIRCLE
  5
3B86
330
1F
100
AcDbEntity
  8
TK1
100
AcDbCircle
 10
80.78001332194503
 20
54.91101349547389
 30
0.0
 40
0.5
  0
CIRCLE
  5
3B87
330
1F
100
AcDbEntity
  8
TK1
100
AcDbCircle
 10
78.24001332194507
 20
54.91101349547389
 30
0.0
 40
0.5
  0
CIRCLE
  5
3B88
330
1F
100
AcDbEntity
  8
TK1
100
AcDbCircle
 10
75.70001332194511
 20
54.91101349547389
 30
0.0
 40
0.5
  0
CIRCLE
  5
3B89
330
1F
100
AcDbEntity
  8
TK1
100
AcDbCircle
 10
73.16001332194514
 20
54.91101349547389
 30
0.0
 40
0.5
  0
CIRCLE
  5
3B8A
330
1F
100
AcDbEntity
  8
TK1
100
AcDbCircle
 10
70.62001332194518
 20
54.91101349547389
 30
0.0
 40
0.5
  0
CIRCLE
  5
3B8B
330
1F
100
AcDbEntity
  8
TK1
100
AcDbCircle
 10
68.08001332194499
 20
54.91101349547389
 30
0.0
 40
0.5
  0
CIRCLE
  5
3B8C
330
1F
100
AcDbEntity
  8
TK1
100
AcDbCircle
 10
65.54001332194502
 20
54.91101349547389
 30
0.0
 40
0.5
  0
CIRCLE
  5
3B8D
330
1F
100
AcDbEntity
  8
TK1
100
AcDbCircle
 10
63.00001332194506
 20
54.91101349547389
 30
0.0
 40
0.5
  0
CIRCLE
  5
3B8E
330
1F
100
AcDbEntity
  8
TK1
100
AcDbCircle
 10
83.32001332194499
 20
57.45101349547386
 30
0.0
 40
0.5
  0
CIRCLE
  5
3B8F
330
1F
100
AcDbEntity
  8
TK1
100
AcDbCircle
 10
80.78001332194503
 20
57.45101349547386
 30
0.0
 40
0.5
  0
CIRCLE
  5
3B90
330
1F
100
AcDbEntity
  8
TK1
100
AcDbCircle
 10
78.24001332194507
 20
57.45101349547397
 30
0.0
 40
0.5
  0
CIRCLE
  5
3B91
330
1F
100
AcDbEntity
  8
TK1
100
AcDbCircle
 10
75.70001332194511
 20
57.45101349547397
 30
0.0
 40
0.5
  0
CIRCLE
  5
3B92
330
1F
100
AcDbEntity
  8
TK1
100
AcDbCircle
 10
73.16001332194514
 20
57.45101349547397
 30
0.0
 40
0.5
  0
CIRCLE
  5
3B93
330
1F
100
AcDbEntity
  8
TK1
100
AcDbCircle
 10
70.62001332194518
 20
57.45101349547397
 30
0.0
 40
0.5
  0
CIRCLE
  5
3B94
330
1F
100
AcDbEntity
  8
TK1
100
AcDbCircle
 10
68.08001332194499
 20
57.45101349547397
 30
0.0
 40
0.5
  0
CIRCLE
  5
3B95
330
1F
100
AcDbEntity
  8
TK1
100
AcDbCircle
 10
65.54001332194502
 20
57.45101349547397
 30
0.0
 40
0.5
  0
CIRCLE
  5
3B96
330
1F
100
AcDbEntity
  8
TK1
100
AcDbCircle
 10
63.00001332194506
 20
57.45101349547397
 30
0.0
 40
0.5
  0
CIRCLE
  5
3B97
330
1F
100
AcDbEntity
  8
TK1
100
AcDbCircle
 10
83.32001332194499
 20
59.99101349547394
 30
0.0
 40
0.5
  0
CIRCLE
  5
3B98
330
1F
100
AcDbEntity
  8
TK1
100
AcDbCircle
 10
80.78001332194503
 20
59.99101349547394
 30
0.0
 40
0.5
  0
CIRCLE
  5
3B99
330
1F
100
AcDbEntity
  8
TK1
100
AcDbCircle
 10
78.24001332194507
 20
59.99101349547394
 30
0.0
 40
0.5
  0
CIRCLE
  5
3B9A
330
1F
100
AcDbEntity
  8
TK1
100
AcDbCircle
 10
75.70001332194511
 20
59.99101349547394
 30
0.0
 40
0.5
  0
CIRCLE
  5
3B9B
330
1F
100
AcDbEntity
  8
TK1
100
AcDbCircle
 10
73.16001332194514
 20
59.99101349547394
 30
0.0
 40
0.5
  0
CIRCLE
  5
3B9C
330
1F
100
AcDbEntity
  8
TK1
100
AcDbCircle
 10
70.62001332194518
 20
59.99101349547394
 30
0.0
 40
0.5
  0
CIRCLE
  5
3B9D
330
1F
100
AcDbEntity
  8
TK1
100
AcDbCircle
 10
68.08001332194499
 20
59.99101349547394
 30
0.0
 40
0.5
  0
CIRCLE
  5
3B9E
330
1F
100
AcDbEntity
  8
TK1
100
AcDbCircle
 10
65.54001332194502
 20
59.99101349547394
 30
0.0
 40
0.5
  0
CIRCLE
  5
3B9F
330
1F
100
AcDbEntity
  8
TK1
100
AcDbCircle
 10
63.00001332194506
 20
59.99101349547394
 30
0.0
 40
0.5
  0
CIRCLE
  5
3BA0
330
1F
100
AcDbEntity
  8
TK1
100
AcDbCircle
 10
83.32001332194499
 20
62.5310134954739
 30
0.0
 40
0.5
  0
CIRCLE
  5
3BA1
330
1F
100
AcDbEntity
  8
TK1
100
AcDbCircle
 10
80.78001332194503
 20
62.5310134954739
 30
0.0
 40
0.5
  0
CIRCLE
  5
3BA2
330
1F
100
AcDbEntity
  8
TK1
100
AcDbCircle
 10
78.24001332194507
 20
62.5310134954739
 30
0.0
 40
0.5
  0
CIRCLE
  5
3BA3
330
1F
100
AcDbEntity
  8
TK1
100
AcDbCircle
 10
75.70001332194511
 20
62.5310134954739
 30
0.0
 40
0.5
  0
CIRCLE
  5
3BA4
330
1F
100
AcDbEntity
  8
TK1
100
AcDbCircle
 10
73.16001332194514
 20
62.5310134954739
 30
0.0
 40
0.5
  0
CIRCLE
  5
3BA5
330
1F
100
AcDbEntity
  8
TK1
100
AcDbCircle
 10
70.62001332194518
 20
62.5310134954739
 30
0.0
 40
0.5
  0
CIRCLE
  5
3BA6
330
1F
100
AcDbEntity
  8
TK1
100
AcDbCircle
 10
68.08001332194499
 20
62.5310134954739
 30
0.0
 40
0.5
  0
CIRCLE
  5
3BA7
330
1F
100
AcDbEntity
  8
TK1
100
AcDbCircle
 10
65.54001332194502
 20
62.5310134954739
 30
0.0
 40
0.5
  0
CIRCLE
  5
3BA8
330
1F
100
AcDbEntity
  8
TK1
100
AcDbCircle
 10
63.00001332194506
 20
62.5310134954739
 30
0.0
 40
0.5
  0
CIRCLE
  5
3BA9
330
1F
100
AcDbEntity
  8
TK1
100
AcDbCircle
 10
83.32001332194499
 20
65.07101349547387
 30
0.0
 40
0.5
  0
CIRCLE
  5
3BAA
330
1F
100
AcDbEntity
  8
TK1
100
AcDbCircle
 10
80.78001332194503
 20
65.07101349547387
 30
0.0
 40
0.5
  0
CIRCLE
  5
3BAB
330
1F
100
AcDbEntity
  8
TK1
100
AcDbCircle
 10
78.24001332194507
 20
65.07101349547387
 30
0.0
 40
0.5
  0
CIRCLE
  5
3BAC
330
1F
100
AcDbEntity
  8
TK1
100
AcDbCircle
 10
75.70001332194511
 20
65.07101349547387
 30
0.0
 40
0.5
  0
CIRCLE
  5
3BAD
330
1F
100
AcDbEntity
  8
TK1
100
AcDbCircle
 10
73.16001332194514
 20
65.07101349547387
 30
0.0
 40
0.5
  0
CIRCLE
  5
3BAE
330
1F
100
AcDbEntity
  8
TK1
100
AcDbCircle
 10
70.62001332194518
 20
65.07101349547387
 30
0.0
 40
0.5
  0
CIRCLE
  5
3BAF
330
1F
100
AcDbEntity
  8
TK1
100
AcDbCircle
 10
68.08001332194499
 20
65.07101349547387
 30
0.0
 40
0.5
  0
CIRCLE
  5
3BB0
330
1F
100
AcDbEntity
  8
TK1
100
AcDbCircle
 10
65.54001332194502
 20
65.07101349547387
 30
0.0
 40
0.5
  0
CIRCLE
  5
3BB1
330
1F
100
AcDbEntity
  8
TK1
100
AcDbCircle
 10
63.00001332194506
 20
65.07101349547387
 30
0.0
 40
0.5
  0
CIRCLE
  5
3BB2
330
1F
100
AcDbEntity
  8
TK1
100
AcDbCircle
 10
83.32001332194499
 20
67.61101349547383
 30
0.0
 40
0.5
  0
CIRCLE
  5
3BB3
330
1F
100
AcDbEntity
  8
TK1
100
AcDbCircle
 10
80.78001332194503
 20
67.61101349547383
 30
0.0
 40
0.5
  0
CIRCLE
  5
3BB4
330
1F
100
AcDbEntity
  8
TK1
100
AcDbCircle
 10
78.24001332194507
 20
67.61101349547394
 30
0.0
 40
0.5
  0
CIRCLE
  5
3BB5
330
1F
100
AcDbEntity
  8
TK1
100
AcDbCircle
 10
75.70001332194511
 20
67.61101349547394
 30
0.0
 40
0.5
  0
CIRCLE
  5
3BB6
330
1F
100
AcDbEntity
  8
TK1
100
AcDbCircle
 10
73.16001332194514
 20
67.61101349547394
 30
0.0
 40
0.5
  0
CIRCLE
  5
3BB7
330
1F
100
AcDbEntity
  8
TK1
100
AcDbCircle
 10
70.62001332194518
 20
67.61101349547394
 30
0.0
 40
0.5
  0
CIRCLE
  5
3BB8
330
1F
100
AcDbEntity
  8
TK1
100
AcDbCircle
 10
68.08001332194499
 20
67.61101349547394
 30
0.0
 40
0.5
  0
CIRCLE
  5
3BB9
330
1F
100
AcDbEntity
  8
TK1
100
AcDbCircle
 10
65.54001332194502
 20
67.61101349547394
 30
0.0
 40
0.5
  0
CIRCLE
  5
3BBA
330
1F
100
AcDbEntity
  8
TK1
100
AcDbCircle
 10
63.00001332194506
 20
67.61101349547394
 30
0.0
 40
0.5
  0
CIRCLE
  5
3BBB
330
1F
100
AcDbEntity
  8
TK1
100
AcDbCircle
 10
83.32001332194499
 20
70.1510134954739
 30
0.0
 40
0.5
  0
CIRCLE
  5
3BBC
330
1F
100
AcDbEntity
  8
TK1
100
AcDbCircle
 10
80.78001332194503
 20
70.1510134954739
 30
0.0
 40
0.5
  0
CIRCLE
  5
3BBD
330
1F
100
AcDbEntity
  8
TK1
100
AcDbCircle
 10
78.24001332194507
 20
70.1510134954739
 30
0.0
 40
0.5
  0
CIRCLE
  5
3BBE
330
1F
100
AcDbEntity
  8
TK1
100
AcDbCircle
 10
75.70001332194511
 20
70.1510134954739
 30
0.0
 40
0.5
  0
CIRCLE
  5
3BBF
330
1F
100
AcDbEntity
  8
TK1
100
AcDbCircle
 10
73.16001332194514
 20
70.1510134954739
 30
0.0
 40
0.5
  0
CIRCLE
  5
3BC0
330
1F
100
AcDbEntity
  8
TK1
100
AcDbCircle
 10
70.62001332194518
 20
70.1510134954739
 30
0.0
 40
0.5
  0
CIRCLE
  5
3BC1
330
1F
100
AcDbEntity
  8
TK1
100
AcDbCircle
 10
68.08001332194499
 20
70.1510134954739
 30
0.0
 40
0.5
  0
CIRCLE
  5
3BC2
330
1F
100
AcDbEntity
  8
TK1
100
AcDbCircle
 10
65.54001332194502
 20
70.1510134954739
 30
0.0
 40
0.5
  0
CIRCLE
  5
3BC3
330
1F
100
AcDbEntity
  8
TK1
100
AcDbCircle
 10
63.00001332194506
 20
70.1510134954739
 30
0.0
 40
0.5
  0
CIRCLE
  5
3BC4
330
1F
100
AcDbEntity
  8
TK1
100
AcDbCircle
 10
83.32001332194499
 20
72.69101349547387
 30
0.0
 40
0.5
  0
CIRCLE
  5
3BC5
330
1F
100
AcDbEntity
  8
TK1
100
AcDbCircle
 10
80.78001332194503
 20
72.69101349547387
 30
0.0
 40
0.5
  0
CIRCLE
  5
3BC6
330
1F
100
AcDbEntity
  8
TK1
100
AcDbCircle
 10
78.24001332194507
 20
72.69101349547398
 30
0.0
 40
0.5
  0
CIRCLE
  5
3BC7
330
1F
100
AcDbEntity
  8
TK1
100
AcDbCircle
 10
75.70001332194511
 20
72.69101349547398
 30
0.0
 40
0.5
  0
CIRCLE
  5
3BC8
330
1F
100
AcDbEntity
  8
TK1
100
AcDbCircle
 10
73.16001332194514
 20
72.69101349547398
 30
0.0
 40
0.5
  0
CIRCLE
  5
3BC9
330
1F
100
AcDbEntity
  8
TK1
100
AcDbCircle
 10
70.62001332194518
 20
72.69101349547398
 30
0.0
 40
0.5
  0
CIRCLE
  5
3BCA
330
1F
100
AcDbEntity
  8
TK1
100
AcDbCircle
 10
68.08001332194499
 20
72.69101349547398
 30
0.0
 40
0.5
  0
CIRCLE
  5
3BCB
330
1F
100
AcDbEntity
  8
TK1
100
AcDbCircle
 10
65.54001332194502
 20
72.69101349547398
 30
0.0
 40
0.5
  0
CIRCLE
  5
3BCC
330
1F
100
AcDbEntity
  8
TK1
100
AcDbCircle
 10
63.00001332194506
 20
72.69101349547398
 30
0.0
 40
0.5
  0
CIRCLE
  5
3BCD
330
1F
100
AcDbEntity
  8
TK1
100
AcDbCircle
 10
83.32001332194499
 20
75.23101349547395
 30
0.0
 40
0.5
  0
CIRCLE
  5
3BCE
330
1F
100
AcDbEntity
  8
TK1
100
AcDbCircle
 10
80.78001332194503
 20
75.23101349547395
 30
0.0
 40
0.5
  0
CIRCLE
  5
3BCF
330
1F
100
AcDbEntity
  8
TK1
100
AcDbCircle
 10
78.24001332194507
 20
75.23101349547395
 30
0.0
 40
0.5
  0
CIRCLE
  5
3BD0
330
1F
100
AcDbEntity
  8
TK1
100
AcDbCircle
 10
75.70001332194511
 20
75.23101349547395
 30
0.0
 40
0.5
  0
CIRCLE
  5
3BD1
330
1F
100
AcDbEntity
  8
TK1
100
AcDbCircle
 10
73.16001332194514
 20
75.23101349547395
 30
0.0
 40
0.5
  0
CIRCLE
  5
3BD2
330
1F
100
AcDbEntity
  8
TK1
100
AcDbCircle
 10
70.62001332194518
 20
75.23101349547395
 30
0.0
 40
0.5
  0
CIRCLE
  5
3BD3
330
1F
100
AcDbEntity
  8
TK1
100
AcDbCircle
 10
68.08001332194499
 20
75.23101349547395
 30
0.0
 40
0.5
  0
CIRCLE
  5
3BD4
330
1F
100
AcDbEntity
  8
TK1
100
AcDbCircle
 10
65.54001332194502
 20
75.23101349547395
 30
0.0
 40
0.5
  0
CIRCLE
  5
3BD5
330
1F
100
AcDbEntity
  8
TK1
100
AcDbCircle
 10
63.00001332194506
 20
75.23101349547395
 30
0.0
 40
0.5
  0
CIRCLE
  5
3BD6
330
1F
100
AcDbEntity
  8
TK1
100
AcDbCircle
 10
83.32001332194499
 20
77.77101349547391
 30
0.0
 40
0.5
  0
CIRCLE
  5
3BD7
330
1F
100
AcDbEntity
  8
TK1
100
AcDbCircle
 10
80.78001332194503
 20
77.77101349547391
 30
0.0
 40
0.5
  0
CIRCLE
  5
3BD8
330
1F
100
AcDbEntity
  8
TK1
100
AcDbCircle
 10
78.24001332194507
 20
77.77101349547391
 30
0.0
 40
0.5
  0
CIRCLE
  5
3BD9
330
1F
100
AcDbEntity
  8
TK1
100
AcDbCircle
 10
75.70001332194511
 20
77.77101349547391
 30
0.0
 40
0.5
  0
CIRCLE
  5
3BDA
330
1F
100
AcDbEntity
  8
TK1
100
AcDbCircle
 10
73.16001332194514
 20
77.77101349547391
 30
0.0
 40
0.5
  0
CIRCLE
  5
3BDB
330
1F
100
AcDbEntity
  8
TK1
100
AcDbCircle
 10
70.62001332194518
 20
77.77101349547391
 30
0.0
 40
0.5
  0
CIRCLE
  5
3BDC
330
1F
100
AcDbEntity
  8
TK1
100
AcDbCircle
 10
68.08001332194521
 20
77.77101349547391
 30
0.0
 40
0.5
  0
CIRCLE
  5
3BDD
330
1F
100
AcDbEntity
  8
TK1
100
AcDbCircle
 10
65.54001332194502
 20
77.77101349547391
 30
0.0
 40
0.5
  0
CIRCLE
  5
3BDE
330
1F
100
AcDbEntity
  8
TK1
100
AcDbCircle
 10
63.00001332194506
 20
77.77101349547391
 30
0.0
 40
0.5
  0
CIRCLE
  5
3BDF
330
1F
100
AcDbEntity
  8
TK1
100
AcDbCircle
 10
83.32001332194499
 20
80.31101349547387
 30
0.0
 40
0.5
  0
CIRCLE
  5
3BE0
330
1F
100
AcDbEntity
  8
TK1
100
AcDbCircle
 10
80.78001332194503
 20
80.31101349547387
 30
0.0
 40
0.5
  0
CIRCLE
  5
3BE1
330
1F
100
AcDbEntity
  8
TK1
100
AcDbCircle
 10
78.24001332194507
 20
80.31101349547387
 30
0.0
 40
0.5
  0
CIRCLE
  5
3BE2
330
1F
100
AcDbEntity
  8
TK1
100
AcDbCircle
 10
75.70001332194511
 20
80.31101349547387
 30
0.0
 40
0.5
  0
CIRCLE
  5
3BE3
330
1F
100
AcDbEntity
  8
TK1
100
AcDbCircle
 10
73.16001332194514
 20
80.31101349547387
 30
0.0
 40
0.5
  0
CIRCLE
  5
3BE4
330
1F
100
AcDbEntity
  8
TK1
100
AcDbCircle
 10
70.62001332194518
 20
80.31101349547387
 30
0.0
 40
0.5
  0
CIRCLE
  5
3BE5
330
1F
100
AcDbEntity
  8
TK1
100
AcDbCircle
 10
68.08001332194521
 20
80.31101349547387
 30
0.0
 40
0.5
  0
CIRCLE
  5
3BE6
330
1F
100
AcDbEntity
  8
TK1
100
AcDbCircle
 10
65.54001332194502
 20
80.31101349547387
 30
0.0
 40
0.5
  0
CIRCLE
  5
3BE7
330
1F
100
AcDbEntity
  8
TK1
100
AcDbCircle
 10
63.00001332194506
 20
80.31101349547387
 30
0.0
 40
0.5
  0
CIRCLE
  5
3BE8
330
1F
100
AcDbEntity
  8
TK1
100
AcDbCircle
 10
83.32001332194499
 20
82.85101349547383
 30
0.0
 40
0.5
  0
CIRCLE
  5
3BE9
330
1F
100
AcDbEntity
  8
TK1
100
AcDbCircle
 10
80.78001332194503
 20
82.85101349547383
 30
0.0
 40
0.5
  0
CIRCLE
  5
3BEA
330
1F
100
AcDbEntity
  8
TK1
100
AcDbCircle
 10
78.24001332194507
 20
82.85101349547394
 30
0.0
 40
0.5
  0
CIRCLE
  5
3BEB
330
1F
100
AcDbEntity
  8
TK1
100
AcDbCircle
 10
75.70001332194511
 20
82.85101349547394
 30
0.0
 40
0.5
  0
CIRCLE
  5
3BEC
330
1F
100
AcDbEntity
  8
TK1
100
AcDbCircle
 10
73.16001332194514
 20
82.85101349547394
 30
0.0
 40
0.5
  0
CIRCLE
  5
3BED
330
1F
100
AcDbEntity
  8
TK1
100
AcDbCircle
 10
70.62001332194518
 20
82.85101349547394
 30
0.0
 40
0.5
  0
CIRCLE
  5
3BEE
330
1F
100
AcDbEntity
  8
TK1
100
AcDbCircle
 10
68.08001332194521
 20
82.85101349547394
 30
0.0
 40
0.5
  0
CIRCLE
  5
3BEF
330
1F
100
AcDbEntity
  8
TK1
100
AcDbCircle
 10
65.54001332194502
 20
82.85101349547394
 30
0.0
 40
0.5
  0
CIRCLE
  5
3BF0
330
1F
100
AcDbEntity
  8
TK1
100
AcDbCircle
 10
63.00001332194506
 20
82.85101349547394
 30
0.0
 40
0.5
  0
CIRCLE
  5
3BF1
330
1F
100
AcDbEntity
  8
TK1
100
AcDbCircle
 10
83.32001332194499
 20
85.39101349547392
 30
0.0
 40
0.5
  0
CIRCLE
  5
3BF2
330
1F
100
AcDbEntity
  8
TK1
100
AcDbCircle
 10
80.78001332194503
 20
85.39101349547392
 30
0.0
 40
0.5
  0
CIRCLE
  5
3BF3
330
1F
100
AcDbEntity
  8
TK1
100
AcDbCircle
 10
78.24001332194507
 20
85.39101349547392
 30
0.0
 40
0.5
  0
CIRCLE
  5
3BF4
330
1F
100
AcDbEntity
  8
TK1
100
AcDbCircle
 10
75.70001332194511
 20
85.39101349547392
 30
0.0
 40
0.5
  0
CIRCLE
  5
3BF5
330
1F
100
AcDbEntity
  8
TK1
100
AcDbCircle
 10
73.16001332194514
 20
85.39101349547392
 30
0.0
 40
0.5
  0
CIRCLE
  5
3BF6
330
1F
100
AcDbEntity
  8
TK1
100
AcDbCircle
 10
70.62001332194518
 20
85.39101349547392
 30
0.0
 40
0.5
  0
CIRCLE
  5
3BF7
330
1F
100
AcDbEntity
  8
TK1
100
AcDbCircle
 10
68.08001332194521
 20
85.39101349547392
 30
0.0
 40
0.5
  0
CIRCLE
  5
3BF8
330
1F
100
AcDbEntity
  8
TK1
100
AcDbCircle
 10
65.54001332194502
 20
85.39101349547392
 30
0.0
 40
0.5
  0
CIRCLE
  5
3BF9
330
1F
100
AcDbEntity
  8
TK1
100
AcDbCircle
 10
63.00001332194506
 20
85.39101349547392
 30
0.0
 40
0.5
  0
CIRCLE
  5
3BFA
330
1F
100
AcDbEntity
  8
TK1
100
AcDbCircle
 10
83.32001332194499
 20
87.93101349547388
 30
0.0
 40
0.5
  0
CIRCLE
  5
3BFB
330
1F
100
AcDbEntity
  8
TK1
100
AcDbCircle
 10
80.78001332194503
 20
87.93101349547388
 30
0.0
 40
0.5
  0
CIRCLE
  5
3BFC
330
1F
100
AcDbEntity
  8
TK1
100
AcDbCircle
 10
78.24001332194507
 20
87.93101349547388
 30
0.0
 40
0.5
  0
CIRCLE
  5
3BFD
330
1F
100
AcDbEntity
  8
TK1
100
AcDbCircle
 10
75.70001332194511
 20
87.93101349547388
 30
0.0
 40
0.5
  0
CIRCLE
  5
3BFE
330
1F
100
AcDbEntity
  8
TK1
100
AcDbCircle
 10
73.16001332194514
 20
87.93101349547388
 30
0.0
 40
0.5
  0
CIRCLE
  5
3BFF
330
1F
100
AcDbEntity
  8
TK1
100
AcDbCircle
 10
70.62001332194518
 20
87.93101349547388
 30
0.0
 40
0.5
  0
CIRCLE
  5
3C00
330
1F
100
AcDbEntity
  8
TK1
100
AcDbCircle
 10
68.08001332194521
 20
87.93101349547388
 30
0.0
 40
0.5
  0
CIRCLE
  5
3C01
330
1F
100
AcDbEntity
  8
TK1
100
AcDbCircle
 10
65.54001332194502
 20
87.93101349547388
 30
0.0
 40
0.5
  0
CIRCLE
  5
3C02
330
1F
100
AcDbEntity
  8
TK1
100
AcDbCircle
 10
63.00001332194506
 20
87.93101349547388
 30
0.0
 40
0.5
  0
CIRCLE
  5
3C03
330
1F
100
AcDbEntity
  8
TK1
100
AcDbCircle
 10
83.32001332194499
 20
90.47101349547395
 30
0.0
 40
0.5
  0
CIRCLE
  5
3C04
330
1F
100
AcDbEntity
  8
TK1
100
AcDbCircle
 10
80.78001332194503
 20
90.47101349547395
 30
0.0
 40
0.5
  0
CIRCLE
  5
3C05
330
1F
100
AcDbEntity
  8
TK1
100
AcDbCircle
 10
78.24001332194507
 20
90.47101349547395
 30
0.0
 40
0.5
  0
CIRCLE
  5
3C06
330
1F
100
AcDbEntity
  8
TK1
100
AcDbCircle
 10
75.70001332194511
 20
90.47101349547395
 30
0.0
 40
0.5
  0
CIRCLE
  5
3C07
330
1F
100
AcDbEntity
  8
TK1
100
AcDbCircle
 10
73.16001332194514
 20
90.47101349547395
 30
0.0
 40
0.5
  0
CIRCLE
  5
3C08
330
1F
100
AcDbEntity
  8
TK1
100
AcDbCircle
 10
70.62001332194518
 20
90.47101349547395
 30
0.0
 40
0.5
  0
CIRCLE
  5
3C09
330
1F
100
AcDbEntity
  8
TK1
100
AcDbCircle
 10
68.08001332194521
 20
90.47101349547395
 30
0.0
 40
0.5
  0
CIRCLE
  5
3C0A
330
1F
100
AcDbEntity
  8
TK1
100
AcDbCircle
 10
65.54001332194502
 20
90.47101349547395
 30
0.0
 40
0.5
  0
CIRCLE
  5
3C0B
330
1F
100
AcDbEntity
  8
TK1
100
AcDbCircle
 10
63.00001332194506
 20
90.47101349547395
 30
0.0
 40
0.5
  0
CIRCLE
  5
3C0C
330
1F
100
AcDbEntity
  8
TK1
100
AcDbCircle
 10
60.4600133219451
 20
93.01101349547392
 30
0.0
 40
0.5
  0
CIRCLE
  5
3C0D
330
1F
100
AcDbEntity
  8
TK1
100
AcDbCircle
 10
63.00001332194506
 20
93.01101349547392
 30
0.0
 40
0.5
  0
CIRCLE
  5
3C0E
330
1F
100
AcDbEntity
  8
TK1
100
AcDbCircle
 10
65.54001332194502
 20
93.01101349547392
 30
0.0
 40
0.5
  0
CIRCLE
  5
3C0F
330
1F
100
AcDbEntity
  8
TK1
100
AcDbCircle
 10
68.08001332194521
 20
93.01101349547392
 30
0.0
 40
0.5
  0
CIRCLE
  5
3C10
330
1F
100
AcDbEntity
  8
TK1
100
AcDbCircle
 10
70.62001332194518
 20
93.01101349547392
 30
0.0
 40
0.5
  0
CIRCLE
  5
3C11
330
1F
100
AcDbEntity
  8
TK1
100
AcDbCircle
 10
73.16001332194514
 20
93.01101349547392
 30
0.0
 40
0.5
  0
CIRCLE
  5
3C12
330
1F
100
AcDbEntity
  8
TK1
100
AcDbCircle
 10
75.70001332194511
 20
93.01101349547392
 30
0.0
 40
0.5
  0
CIRCLE
  5
3C13
330
1F
100
AcDbEntity
  8
TK1
100
AcDbCircle
 10
78.24001332194507
 20
93.01101349547392
 30
0.0
 40
0.5
  0
CIRCLE
  5
3C14
330
1F
100
AcDbEntity
  8
TK1
100
AcDbCircle
 10
80.78001332194503
 20
93.01101349547392
 30
0.0
 40
0.5
  0
CIRCLE
  5
3C15
330
1F
100
AcDbEntity
  8
TK1
100
AcDbCircle
 10
83.32001332194499
 20
93.01101349547392
 30
0.0
 40
0.5
  0
CIRCLE
  5
3C16
330
1F
100
AcDbEntity
  8
TK1
100
AcDbCircle
 10
63.00001332194506
 20
95.55101349547388
 30
0.0
 40
0.5
  0
CIRCLE
  5
3C17
330
1F
100
AcDbEntity
  8
TK1
100
AcDbCircle
 10
65.54001332194502
 20
95.55101349547388
 30
0.0
 40
0.5
  0
CIRCLE
  5
3C18
330
1F
100
AcDbEntity
  8
TK1
100
AcDbCircle
 10
68.08001332194521
 20
95.55101349547388
 30
0.0
 40
0.5
  0
CIRCLE
  5
3C19
330
1F
100
AcDbEntity
  8
TK1
100
AcDbCircle
 10
70.62001332194518
 20
95.55101349547388
 30
0.0
 40
0.5
  0
CIRCLE
  5
3C1A
330
1F
100
AcDbEntity
  8
TK1
100
AcDbCircle
 10
73.16001332194514
 20
95.55101349547388
 30
0.0
 40
0.5
  0
CIRCLE
  5
3C1B
330
1F
100
AcDbEntity
  8
TK1
100
AcDbCircle
 10
75.70001332194511
 20
95.55101349547388
 30
0.0
 40
0.5
  0
CIRCLE
  5
3C1C
330
1F
100
AcDbEntity
  8
TK1
100
AcDbCircle
 10
78.24001332194507
 20
95.55101349547388
 30
0.0
 40
0.5
  0
CIRCLE
  5
3C1D
330
1F
100
AcDbEntity
  8
TK1
100
AcDbCircle
 10
80.78001332194503
 20
95.55101349547388
 30
0.0
 40
0.5
  0
CIRCLE
  5
3C1E
330
1F
100
AcDbEntity
  8
TK1
100
AcDbCircle
 10
83.32001332194499
 20
95.55101349547388
 30
0.0
 40
0.5
  0
CIRCLE
  5
3C1F
330
1F
100
AcDbEntity
  8
TK1
100
AcDbCircle
 10
63.00001332194506
 20
98.09101349547397
 30
0.0
 40
0.5
  0
CIRCLE
  5
3C20
330
1F
100
AcDbEntity
  8
TK1
100
AcDbCircle
 10
65.54001332194502
 20
98.09101349547397
 30
0.0
 40
0.5
  0
CIRCLE
  5
3C21
330
1F
100
AcDbEntity
  8
TK1
100
AcDbCircle
 10
68.08001332194521
 20
98.09101349547397
 30
0.0
 40
0.5
  0
CIRCLE
  5
3C22
330
1F
100
AcDbEntity
  8
TK1
100
AcDbCircle
 10
70.62001332194518
 20
98.09101349547397
 30
0.0
 40
0.5
  0
CIRCLE
  5
3C23
330
1F
100
AcDbEntity
  8
TK1
100
AcDbCircle
 10
73.16001332194514
 20
98.09101349547397
 30
0.0
 40
0.5
  0
CIRCLE
  5
3C24
330
1F
100
AcDbEntity
  8
TK1
100
AcDbCircle
 10
75.70001332194511
 20
98.09101349547397
 30
0.0
 40
0.5
  0
CIRCLE
  5
3C25
330
1F
100
AcDbEntity
  8
TK1
100
AcDbCircle
 10
78.24001332194507
 20
98.09101349547397
 30
0.0
 40
0.5
  0
CIRCLE
  5
3C26
330
1F
100
AcDbEntity
  8
TK1
100
AcDbCircle
 10
80.78001332194503
 20
98.09101349547397
 30
0.0
 40
0.5
  0
CIRCLE
  5
3C27
330
1F
100
AcDbEntity
  8
TK1
100
AcDbCircle
 10
83.32001332194499
 20
98.09101349547397
 30
0.0
 40
0.5
  0
CIRCLE
  5
3C28
330
1F
100
AcDbEntity
  8
TK1
100
AcDbCircle
 10
63.00001332194506
 20
100.6310134954739
 30
0.0
 40
0.5
  0
CIRCLE
  5
3C29
330
1F
100
AcDbEntity
  8
TK1
100
AcDbCircle
 10
65.54001332194502
 20
100.6310134954739
 30
0.0
 40
0.5
  0
CIRCLE
  5
3C2A
330
1F
100
AcDbEntity
  8
TK1
100
AcDbCircle
 10
68.08001332194521
 20
100.6310134954739
 30
0.0
 40
0.5
  0
CIRCLE
  5
3C2B
330
1F
100
AcDbEntity
  8
TK1
100
AcDbCircle
 10
70.62001332194518
 20
100.6310134954739
 30
0.0
 40
0.5
  0
CIRCLE
  5
3C2C
330
1F
100
AcDbEntity
  8
TK1
100
AcDbCircle
 10
73.16001332194514
 20
100.6310134954739
 30
0.0
 40
0.5
  0
CIRCLE
  5
3C2D
330
1F
100
AcDbEntity
  8
TK1
100
AcDbCircle
 10
75.70001332194511
 20
100.6310134954739
 30
0.0
 40
0.5
  0
CIRCLE
  5
3C2E
330
1F
100
AcDbEntity
  8
TK1
100
AcDbCircle
 10
78.24001332194507
 20
100.6310134954739
 30
0.0
 40
0.5
  0
CIRCLE
  5
3C2F
330
1F
100
AcDbEntity
  8
TK1
100
AcDbCircle
 10
80.78001332194503
 20
100.6310134954739
 30
0.0
 40
0.5
  0
CIRCLE
  5
3C30
330
1F
100
AcDbEntity
  8
TK1
100
AcDbCircle
 10
83.32001332194499
 20
100.6310134954739
 30
0.0
 40
0.5
  0
CIRCLE
  5
3C31
330
1F
100
AcDbEntity
  8
TK1
100
AcDbCircle
 10
63.00001332194506
 20
103.1710134954739
 30
0.0
 40
0.5
  0
CIRCLE
  5
3C32
330
1F
100
AcDbEntity
  8
TK1
100
AcDbCircle
 10
65.54001332194502
 20
103.1710134954739
 30
0.0
 40
0.5
  0
CIRCLE
  5
3C33
330
1F
100
AcDbEntity
  8
TK1
100
AcDbCircle
 10
68.08001332194521
 20
103.1710134954739
 30
0.0
 40
0.5
  0
CIRCLE
  5
3C34
330
1F
100
AcDbEntity
  8
TK1
100
AcDbCircle
 10
70.62001332194518
 20
103.1710134954739
 30
0.0
 40
0.5
  0
CIRCLE
  5
3C35
330
1F
100
AcDbEntity
  8
TK1
100
AcDbCircle
 10
73.16001332194514
 20
103.1710134954739
 30
0.0
 40
0.5
  0
CIRCLE
  5
3C36
330
1F
100
AcDbEntity
  8
TK1
100
AcDbCircle
 10
75.70001332194511
 20
103.1710134954739
 30
0.0
 40
0.5
  0
CIRCLE
  5
3C37
330
1F
100
AcDbEntity
  8
TK1
100
AcDbCircle
 10
78.24001332194507
 20
103.1710134954739
 30
0.0
 40
0.5
  0
CIRCLE
  5
3C38
330
1F
100
AcDbEntity
  8
TK1
100
AcDbCircle
 10
80.78001332194503
 20
103.171013495474
 30
0.0
 40
0.5
  0
CIRCLE
  5
3C39
330
1F
100
AcDbEntity
  8
TK1
100
AcDbCircle
 10
83.32001332194499
 20
103.171013495474
 30
0.0
 40
0.5
  0
CIRCLE
  5
3C3A
330
1F
100
AcDbEntity
  8
TK1
100
AcDbCircle
 10
63.00001332194506
 20
105.7110134954739
 30
0.0
 40
0.5
  0
CIRCLE
  5
3C3B
330
1F
100
AcDbEntity
  8
TK1
100
AcDbCircle
 10
65.54001332194502
 20
105.7110134954739
 30
0.0
 40
0.5
  0
CIRCLE
  5
3C3C
330
1F
100
AcDbEntity
  8
TK1
100
AcDbCircle
 10
68.08001332194521
 20
105.7110134954739
 30
0.0
 40
0.5
  0
CIRCLE
  5
3C3D
330
1F
100
AcDbEntity
  8
TK1
100
AcDbCircle
 10
70.62001332194518
 20
105.7110134954739
 30
0.0
 40
0.5
  0
CIRCLE
  5
3C3E
330
1F
100
AcDbEntity
  8
TK1
100
AcDbCircle
 10
73.16001332194514
 20
105.7110134954739
 30
0.0
 40
0.5
  0
CIRCLE
  5
3C3F
330
1F
100
AcDbEntity
  8
TK1
100
AcDbCircle
 10
75.70001332194511
 20
105.7110134954739
 30
0.0
 40
0.5
  0
CIRCLE
  5
3C40
330
1F
100
AcDbEntity
  8
TK1
100
AcDbCircle
 10
78.24001332194507
 20
105.7110134954739
 30
0.0
 40
0.5
  0
CIRCLE
  5
3C41
330
1F
100
AcDbEntity
  8
TK1
100
AcDbCircle
 10
80.78001332194503
 20
105.7110134954739
 30
0.0
 40
0.5
  0
CIRCLE
  5
3C42
330
1F
100
AcDbEntity
  8
TK1
100
AcDbCircle
 10
83.32001332194499
 20
105.7110134954739
 30
0.0
 40
0.5
  0
CIRCLE
  5
3C43
330
1F
100
AcDbEntity
  8
TK1
100
AcDbCircle
 10
63.00001332194506
 20
108.2510134954739
 30
0.0
 40
0.5
  0
CIRCLE
  5
3C44
330
1F
100
AcDbEntity
  8
TK1
100
AcDbCircle
 10
65.54001332194502
 20
108.2510134954739
 30
0.0
 40
0.5
  0
CIRCLE
  5
3C45
330
1F
100
AcDbEntity
  8
TK1
100
AcDbCircle
 10
68.08001332194521
 20
108.2510134954739
 30
0.0
 40
0.5
  0
CIRCLE
  5
3C46
330
1F
100
AcDbEntity
  8
TK1
100
AcDbCircle
 10
70.62001332194518
 20
108.2510134954739
 30
0.0
 40
0.5
  0
CIRCLE
  5
3C47
330
1F
100
AcDbEntity
  8
TK1
100
AcDbCircle
 10
73.16001332194514
 20
108.2510134954739
 30
0.0
 40
0.5
  0
CIRCLE
  5
3C48
330
1F
100
AcDbEntity
  8
TK1
100
AcDbCircle
 10
75.70001332194511
 20
108.2510134954739
 30
0.0
 40
0.5
  0
CIRCLE
  5
3C49
330
1F
100
AcDbEntity
  8
TK1
100
AcDbCircle
 10
78.24001332194507
 20
108.2510134954739
 30
0.0
 40
0.5
  0
CIRCLE
  5
3C4A
330
1F
100
AcDbEntity
  8
TK1
100
AcDbCircle
 10
80.78001332194503
 20
108.2510134954739
 30
0.0
 40
0.5
  0
CIRCLE
  5
3C4B
330
1F
100
AcDbEntity
  8
TK1
100
AcDbCircle
 10
83.32001332194499
 20
108.2510134954739
 30
0.0
 40
0.5
  0
CIRCLE
  5
3C4C
330
1F
100
AcDbEntity
  8
TK1
100
AcDbCircle
 10
63.00001332194506
 20
110.7910134954739
 30
0.0
 40
0.5
  0
CIRCLE
  5
3C4D
330
1F
100
AcDbEntity
  8
TK1
100
AcDbCircle
 10
65.54001332194502
 20
110.7910134954739
 30
0.0
 40
0.5
  0
CIRCLE
  5
3C4E
330
1F
100
AcDbEntity
  8
TK1
100
AcDbCircle
 10
68.08001332194499
 20
110.7910134954739
 30
0.0
 40
0.5
  0
CIRCLE
  5
3C4F
330
1F
100
AcDbEntity
  8
TK1
100
AcDbCircle
 10
70.62001332194518
 20
110.7910134954739
 30
0.0
 40
0.5
  0
CIRCLE
  5
3C50
330
1F
100
AcDbEntity
  8
TK1
100
AcDbCircle
 10
73.16001332194514
 20
110.7910134954739
 30
0.0
 40
0.5
  0
CIRCLE
  5
3C51
330
1F
100
AcDbEntity
  8
TK1
100
AcDbCircle
 10
75.70001332194511
 20
110.7910134954739
 30
0.0
 40
0.5
  0
CIRCLE
  5
3C52
330
1F
100
AcDbEntity
  8
TK1
100
AcDbCircle
 10
78.24001332194507
 20
110.7910134954739
 30
0.0
 40
0.5
  0
CIRCLE
  5
3C53
330
1F
100
AcDbEntity
  8
TK1
100
AcDbCircle
 10
80.78001332194503
 20
110.7910134954739
 30
0.0
 40
0.5
  0
CIRCLE
  5
3C54
330
1F
100
AcDbEntity
  8
TK1
100
AcDbCircle
 10
83.32001332194499
 20
110.7910134954739
 30
0.0
 40
0.5
  0
CIRCLE
  5
3C55
330
1F
100
AcDbEntity
  8
TK1
100
AcDbCircle
 10
63.00001332194506
 20
113.3310134954738
 30
0.0
 40
0.5
  0
CIRCLE
  5
3C56
330
1F
100
AcDbEntity
  8
TK1
100
AcDbCircle
 10
65.54001332194502
 20
113.3310134954738
 30
0.0
 40
0.5
  0
CIRCLE
  5
3C57
330
1F
100
AcDbEntity
  8
TK1
100
AcDbCircle
 10
68.08001332194499
 20
113.3310134954738
 30
0.0
 40
0.5
  0
CIRCLE
  5
3C58
330
1F
100
AcDbEntity
  8
TK1
100
AcDbCircle
 10
70.62001332194518
 20
113.3310134954738
 30
0.0
 40
0.5
  0
CIRCLE
  5
3C59
330
1F
100
AcDbEntity
  8
TK1
100
AcDbCircle
 10
73.16001332194514
 20
113.3310134954738
 30
0.0
 40
0.5
  0
CIRCLE
  5
3C5A
330
1F
100
AcDbEntity
  8
TK1
100
AcDbCircle
 10
75.70001332194511
 20
113.3310134954738
 30
0.0
 40
0.5
  0
CIRCLE
  5
3C5B
330
1F
100
AcDbEntity
  8
TK1
100
AcDbCircle
 10
78.24001332194507
 20
113.3310134954738
 30
0.0
 40
0.5
  0
CIRCLE
  5
3C5C
330
1F
100
AcDbEntity
  8
TK1
100
AcDbCircle
 10
80.78001332194503
 20
113.3310134954739
 30
0.0
 40
0.5
  0
CIRCLE
  5
3C5D
330
1F
100
AcDbEntity
  8
TK1
100
AcDbCircle
 10
83.32001332194499
 20
113.3310134954739
 30
0.0
 40
0.5
  0
CIRCLE
  5
3C5E
330
1F
100
AcDbEntity
  8
TK1
100
AcDbCircle
 10
63.00001332194506
 20
115.8710134954739
 30
0.0
 40
0.5
  0
CIRCLE
  5
3C5F
330
1F
100
AcDbEntity
  8
TK1
100
AcDbCircle
 10
65.54001332194502
 20
115.8710134954739
 30
0.0
 40
0.5
  0
CIRCLE
  5
3C60
330
1F
100
AcDbEntity
  8
TK1
100
AcDbCircle
 10
68.08001332194499
 20
115.8710134954739
 30
0.0
 40
0.5
  0
CIRCLE
  5
3C61
330
1F
100
AcDbEntity
  8
TK1
100
AcDbCircle
 10
70.62001332194518
 20
115.8710134954739
 30
0.0
 40
0.5
  0
CIRCLE
  5
3C62
330
1F
100
AcDbEntity
  8
TK1
100
AcDbCircle
 10
73.16001332194514
 20
115.8710134954739
 30
0.0
 40
0.5
  0
CIRCLE
  5
3C63
330
1F
100
AcDbEntity
  8
TK1
100
AcDbCircle
 10
75.70001332194511
 20
115.8710134954739
 30
0.0
 40
0.5
  0
CIRCLE
  5
3C64
330
1F
100
AcDbEntity
  8
TK1
100
AcDbCircle
 10
78.24001332194507
 20
115.8710134954739
 30
0.0
 40
0.5
  0
CIRCLE
  5
3C65
330
1F
100
AcDbEntity
  8
TK1
100
AcDbCircle
 10
80.78001332194503
 20
115.8710134954739
 30
0.0
 40
0.5
  0
CIRCLE
  5
3C66
330
1F
100
AcDbEntity
  8
TK1
100
AcDbCircle
 10
83.32001332194499
 20
115.8710134954739
 30
0.0
 40
0.5
  0
CIRCLE
  5
3C67
330
1F
100
AcDbEntity
  8
TK1
100
AcDbCircle
 10
63.00001332194506
 20
118.4110134954739
 30
0.0
 40
0.5
  0
CIRCLE
  5
3C68
330
1F
100
AcDbEntity
  8
TK1
100
AcDbCircle
 10
65.54001332194502
 20
118.4110134954739
 30
0.0
 40
0.5
  0
CIRCLE
  5
3C69
330
1F
100
AcDbEntity
  8
TK1
100
AcDbCircle
 10
68.08001332194499
 20
118.4110134954739
 30
0.0
 40
0.5
  0
CIRCLE
  5
3C6A
330
1F
100
AcDbEntity
  8
TK1
100
AcDbCircle
 10
70.62001332194518
 20
118.4110134954739
 30
0.0
 40
0.5
  0
CIRCLE
  5
3C6B
330
1F
100
AcDbEntity
  8
TK1
100
AcDbCircle
 10
73.16001332194514
 20
118.4110134954739
 30
0.0
 40
0.5
  0
CIRCLE
  5
3C6C
330
1F
100
AcDbEntity
  8
TK1
100
AcDbCircle
 10
75.70001332194511
 20
118.4110134954739
 30
0.0
 40
0.5
  0
CIRCLE
  5
3C6D
330
1F
100
AcDbEntity
  8
TK1
100
AcDbCircle
 10
78.24001332194507
 20
118.4110134954739
 30
0.0
 40
0.5
  0
CIRCLE
  5
3C6E
330
1F
100
AcDbEntity
  8
TK1
100
AcDbCircle
 10
80.78001332194503
 20
118.411013495474
 30
0.0
 40
0.5
  0
CIRCLE
  5
3C6F
330
1F
100
AcDbEntity
  8
TK1
100
AcDbCircle
 10
83.32001332194499
 20
118.411013495474
 30
0.0
 40
0.5
  0
CIRCLE
  5
3C70
330
1F
100
AcDbEntity
  8
TK1
100
AcDbCircle
 10
63.00001332194506
 20
120.9510134954739
 30
0.0
 40
0.5
  0
CIRCLE
  5
3C71
330
1F
100
AcDbEntity
  8
TK1
100
AcDbCircle
 10
65.54001332194502
 20
120.9510134954739
 30
0.0
 40
0.5
  0
CIRCLE
  5
3C72
330
1F
100
AcDbEntity
  8
TK1
100
AcDbCircle
 10
68.08001332194499
 20
120.9510134954739
 30
0.0
 40
0.5
  0
CIRCLE
  5
3C73
330
1F
100
AcDbEntity
  8
TK1
100
AcDbCircle
 10
70.62001332194518
 20
120.9510134954739
 30
0.0
 40
0.5
  0
CIRCLE
  5
3C74
330
1F
100
AcDbEntity
  8
TK1
100
AcDbCircle
 10
73.16001332194514
 20
120.9510134954739
 30
0.0
 40
0.5
  0
CIRCLE
  5
3C75
330
1F
100
AcDbEntity
  8
TK1
100
AcDbCircle
 10
75.70001332194511
 20
120.9510134954739
 30
0.0
 40
0.5
  0
CIRCLE
  5
3C76
330
1F
100
AcDbEntity
  8
TK1
100
AcDbCircle
 10
78.24001332194507
 20
120.9510134954739
 30
0.0
 40
0.5
  0
CIRCLE
  5
3C77
330
1F
100
AcDbEntity
  8
TK1
100
AcDbCircle
 10
80.78001332194503
 20
120.9510134954739
 30
0.0
 40
0.5
  0
CIRCLE
  5
3C78
330
1F
100
AcDbEntity
  8
TK1
100
AcDbCircle
 10
83.32001332194499
 20
120.9510134954739
 30
0.0
 40
0.5
  0
CIRCLE
  5
3C79
330
1F
100
AcDbEntity
  8
TK1
100
AcDbCircle
 10
63.00001332194506
 20
123.491013495474
 30
0.0
 40
0.5
  0
CIRCLE
  5
3C7A
330
1F
100
AcDbEntity
  8
TK1
100
AcDbCircle
 10
65.54001332194502
 20
123.491013495474
 30
0.0
 40
0.5
  0
CIRCLE
  5
3C7B
330
1F
100
AcDbEntity
  8
TK1
100
AcDbCircle
 10
68.08001332194499
 20
123.491013495474
 30
0.0
 40
0.5
  0
CIRCLE
  5
3C7C
330
1F
100
AcDbEntity
  8
TK1
100
AcDbCircle
 10
70.62001332194518
 20
123.491013495474
 30
0.0
 40
0.5
  0
CIRCLE
  5
3C7D
330
1F
100
AcDbEntity
  8
TK1
100
AcDbCircle
 10
73.16001332194514
 20
123.491013495474
 30
0.0
 40
0.5
  0
CIRCLE
  5
3C7E
330
1F
100
AcDbEntity
  8
TK1
100
AcDbCircle
 10
75.70001332194511
 20
123.491013495474
 30
0.0
 40
0.5
  0
CIRCLE
  5
3C7F
330
1F
100
AcDbEntity
  8
TK1
100
AcDbCircle
 10
78.24001332194507
 20
123.491013495474
 30
0.0
 40
0.5
  0
CIRCLE
  5
3C80
330
1F
100
AcDbEntity
  8
TK1
100
AcDbCircle
 10
80.78001332194503
 20
123.491013495474
 30
0.0
 40
0.5
  0
CIRCLE
  5
3C81
330
1F
100
AcDbEntity
  8
TK1
100
AcDbCircle
 10
83.32001332194499
 20
123.491013495474
 30
0.0
 40
0.5
  0
CIRCLE
  5
3C82
330
1F
100
AcDbEntity
  8
TK1
100
AcDbCircle
 10
63.00001332194506
 20
126.0310134954739
 30
0.0
 40
0.5
  0
CIRCLE
  5
3C83
330
1F
100
AcDbEntity
  8
TK1
100
AcDbCircle
 10
65.54001332194502
 20
126.0310134954739
 30
0.0
 40
0.5
  0
CIRCLE
  5
3C84
330
1F
100
AcDbEntity
  8
TK1
100
AcDbCircle
 10
68.08001332194499
 20
126.0310134954739
 30
0.0
 40
0.5
  0
CIRCLE
  5
3C85
330
1F
100
AcDbEntity
  8
TK1
100
AcDbCircle
 10
70.62001332194518
 20
126.0310134954739
 30
0.0
 40
0.5
  0
CIRCLE
  5
3C86
330
1F
100
AcDbEntity
  8
TK1
100
AcDbCircle
 10
73.16001332194514
 20
126.0310134954739
 30
0.0
 40
0.5
  0
CIRCLE
  5
3C87
330
1F
100
AcDbEntity
  8
TK1
100
AcDbCircle
 10
75.70001332194511
 20
126.0310134954739
 30
0.0
 40
0.5
  0
CIRCLE
  5
3C88
330
1F
100
AcDbEntity
  8
TK1
100
AcDbCircle
 10
78.24001332194507
 20
126.0310134954739
 30
0.0
 40
0.5
  0
CIRCLE
  5
3C89
330
1F
100
AcDbEntity
  8
TK1
100
AcDbCircle
 10
80.78001332194503
 20
126.0310134954739
 30
0.0
 40
0.5
  0
CIRCLE
  5
3C8A
330
1F
100
AcDbEntity
  8
TK1
100
AcDbCircle
 10
83.32001332194499
 20
126.0310134954739
 30
0.0
 40
0.5
  0
CIRCLE
  5
3C8B
330
1F
100
AcDbEntity
  8
TK1
100
AcDbCircle
 10
63.00001332194506
 20
128.5710134954739
 30
0.0
 40
0.5
  0
CIRCLE
  5
3C8C
330
1F
100
AcDbEntity
  8
TK1
100
AcDbCircle
 10
65.54001332194502
 20
128.5710134954739
 30
0.0
 40
0.5
  0
CIRCLE
  5
3C8D
330
1F
100
AcDbEntity
  8
TK1
100
AcDbCircle
 10
68.08001332194499
 20
128.5710134954739
 30
0.0
 40
0.5
  0
CIRCLE
  5
3C8E
330
1F
100
AcDbEntity
  8
TK1
100
AcDbCircle
 10
70.62001332194518
 20
128.5710134954739
 30
0.0
 40
0.5
  0
CIRCLE
  5
3C8F
330
1F
100
AcDbEntity
  8
TK1
100
AcDbCircle
 10
73.16001332194514
 20
128.5710134954739
 30
0.0
 40
0.5
  0
CIRCLE
  5
3C90
330
1F
100
AcDbEntity
  8
TK1
100
AcDbCircle
 10
75.70001332194511
 20
128.5710134954739
 30
0.0
 40
0.5
  0
CIRCLE
  5
3C91
330
1F
100
AcDbEntity
  8
TK1
100
AcDbCircle
 10
78.24001332194507
 20
128.5710134954739
 30
0.0
 40
0.5
  0
CIRCLE
  5
3C92
330
1F
100
AcDbEntity
  8
TK1
100
AcDbCircle
 10
80.78001332194503
 20
128.5710134954739
 30
0.0
 40
0.5
  0
CIRCLE
  5
3C93
330
1F
100
AcDbEntity
  8
TK1
100
AcDbCircle
 10
83.32001332194499
 20
128.5710134954739
 30
0.0
 40
0.5
  0
CIRCLE
  5
3C94
330
1F
100
AcDbEntity
  8
TK1
100
AcDbCircle
 10
63.00001332194506
 20
131.1110134954739
 30
0.0
 40
0.5
  0
CIRCLE
  5
3C95
330
1F
100
AcDbEntity
  8
TK1
100
AcDbCircle
 10
65.54001332194502
 20
131.1110134954739
 30
0.0
 40
0.5
  0
CIRCLE
  5
3C96
330
1F
100
AcDbEntity
  8
TK1
100
AcDbCircle
 10
68.08001332194499
 20
131.1110134954739
 30
0.0
 40
0.5
  0
CIRCLE
  5
3C97
330
1F
100
AcDbEntity
  8
TK1
100
AcDbCircle
 10
70.62001332194518
 20
131.1110134954739
 30
0.0
 40
0.5
  0
CIRCLE
  5
3C98
330
1F
100
AcDbEntity
  8
TK1
100
AcDbCircle
 10
73.16001332194514
 20
131.1110134954739
 30
0.0
 40
0.5
  0
CIRCLE
  5
3C99
330
1F
100
AcDbEntity
  8
TK1
100
AcDbCircle
 10
75.70001332194511
 20
131.1110134954739
 30
0.0
 40
0.5
  0
CIRCLE
  5
3C9A
330
1F
100
AcDbEntity
  8
TK1
100
AcDbCircle
 10
78.24001332194507
 20
131.1110134954739
 30
0.0
 40
0.5
  0
CIRCLE
  5
3C9B
330
1F
100
AcDbEntity
  8
TK1
100
AcDbCircle
 10
80.78001332194503
 20
131.1110134954739
 30
0.0
 40
0.5
  0
CIRCLE
  5
3C9C
330
1F
100
AcDbEntity
  8
TK1
100
AcDbCircle
 10
83.32001332194499
 20
131.1110134954739
 30
0.0
 40
0.5
  0
CIRCLE
  5
3C9D
330
1F
100
AcDbEntity
  8
TK1
100
AcDbCircle
 10
63.00001332194506
 20
133.6510134954739
 30
0.0
 40
0.5
  0
CIRCLE
  5
3C9E
330
1F
100
AcDbEntity
  8
TK1
100
AcDbCircle
 10
65.54001332194502
 20
133.6510134954739
 30
0.0
 40
0.5
  0
CIRCLE
  5
3C9F
330
1F
100
AcDbEntity
  8
TK1
100
AcDbCircle
 10
68.08001332194499
 20
133.6510134954739
 30
0.0
 40
0.5
  0
CIRCLE
  5
3CA0
330
1F
100
AcDbEntity
  8
TK1
100
AcDbCircle
 10
70.62001332194518
 20
133.6510134954739
 30
0.0
 40
0.5
  0
CIRCLE
  5
3CA1
330
1F
100
AcDbEntity
  8
TK1
100
AcDbCircle
 10
73.16001332194514
 20
133.6510134954739
 30
0.0
 40
0.5
  0
CIRCLE
  5
3CA2
330
1F
100
AcDbEntity
  8
TK1
100
AcDbCircle
 10
75.70001332194511
 20
133.6510134954739
 30
0.0
 40
0.5
  0
CIRCLE
  5
3CA3
330
1F
100
AcDbEntity
  8
TK1
100
AcDbCircle
 10
78.24001332194507
 20
133.6510134954739
 30
0.0
 40
0.5
  0
CIRCLE
  5
3CA4
330
1F
100
AcDbEntity
  8
TK1
100
AcDbCircle
 10
80.78001332194503
 20
133.6510134954739
 30
0.0
 40
0.5
  0
CIRCLE
  5
3CA5
330
1F
100
AcDbEntity
  8
TK1
100
AcDbCircle
 10
83.32001332194499
 20
133.6510134954739
 30
0.0
 40
0.5
  0
CIRCLE
  5
3CA6
330
1F
100
AcDbEntity
  8
TK1
100
AcDbCircle
 10
37.6000133219452
 20
133.6510134954739
 30
0.0
 40
0.5
  0
CIRCLE
  5
3CA7
330
1F
100
AcDbEntity
  8
TK1
100
AcDbCircle
 10
40.14001332194516
 20
133.6510134954739
 30
0.0
 40
0.5
  0
CIRCLE
  5
3CA8
330
1F
100
AcDbEntity
  8
TK1
100
AcDbCircle
 10
42.68001332194512
 20
133.6510134954739
 30
0.0
 40
0.5
  0
CIRCLE
  5
3CA9
330
1F
100
AcDbEntity
  8
TK1
100
AcDbCircle
 10
45.22001332194508
 20
133.6510134954739
 30
0.0
 40
0.5
  0
CIRCLE
  5
3CAA
330
1F
100
AcDbEntity
  8
TK1
100
AcDbCircle
 10
47.76001332194505
 20
133.6510134954739
 30
0.0
 40
0.5
  0
CIRCLE
  5
3CAB
330
1F
100
AcDbEntity
  8
TK1
100
AcDbCircle
 10
50.30001332194501
 20
133.6510134954739
 30
0.0
 40
0.5
  0
CIRCLE
  5
3CAC
330
1F
100
AcDbEntity
  8
TK1
100
AcDbCircle
 10
52.84001332194498
 20
133.6510134954739
 30
0.0
 40
0.5
  0
CIRCLE
  5
3CAD
330
1F
100
AcDbEntity
  8
TK1
100
AcDbCircle
 10
55.38001332194494
 20
133.6510134954739
 30
0.0
 40
0.5
  0
CIRCLE
  5
3CAE
330
1F
100
AcDbEntity
  8
TK1
100
AcDbCircle
 10
57.92001332194513
 20
133.6510134954739
 30
0.0
 40
0.5
  0
CIRCLE
  5
3CAF
330
1F
100
AcDbEntity
  8
TK1
100
AcDbCircle
 10
60.4600133219451
 20
133.6510134954739
 30
0.0
 40
0.5
  0
CIRCLE
  5
3CB0
330
1F
100
AcDbEntity
  8
TK1
100
AcDbCircle
 10
37.6000133219452
 20
131.1110134954739
 30
0.0
 40
0.5
  0
CIRCLE
  5
3CB1
330
1F
100
AcDbEntity
  8
TK1
100
AcDbCircle
 10
40.14001332194516
 20
131.1110134954739
 30
0.0
 40
0.5
  0
CIRCLE
  5
3CB2
330
1F
100
AcDbEntity
  8
TK1
100
AcDbCircle
 10
42.68001332194512
 20
131.1110134954739
 30
0.0
 40
0.5
  0
CIRCLE
  5
3CB3
330
1F
100
AcDbEntity
  8
TK1
100
AcDbCircle
 10
45.22001332194508
 20
131.1110134954739
 30
0.0
 40
0.5
  0
CIRCLE
  5
3CB4
330
1F
100
AcDbEntity
  8
TK1
100
AcDbCircle
 10
47.76001332194505
 20
131.1110134954739
 30
0.0
 40
0.5
  0
CIRCLE
  5
3CB5
330
1F
100
AcDbEntity
  8
TK1
100
AcDbCircle
 10
50.30001332194501
 20
131.1110134954739
 30
0.0
 40
0.5
  0
CIRCLE
  5
3CB6
330
1F
100
AcDbEntity
  8
TK1
100
AcDbCircle
 10
52.84001332194498
 20
131.1110134954739
 30
0.0
 40
0.5
  0
CIRCLE
  5
3CB7
330
1F
100
AcDbEntity
  8
TK1
100
AcDbCircle
 10
55.38001332194494
 20
131.1110134954739
 30
0.0
 40
0.5
  0
CIRCLE
  5
3CB8
330
1F
100
AcDbEntity
  8
TK1
100
AcDbCircle
 10
57.92001332194513
 20
131.1110134954739
 30
0.0
 40
0.5
  0
CIRCLE
  5
3CB9
330
1F
100
AcDbEntity
  8
TK1
100
AcDbCircle
 10
60.4600133219451
 20
131.1110134954739
 30
0.0
 40
0.5
  0
CIRCLE
  5
3CBA
330
1F
100
AcDbEntity
  8
TK1
100
AcDbCircle
 10
37.6000133219452
 20
128.5710134954739
 30
0.0
 40
0.5
  0
CIRCLE
  5
3CBB
330
1F
100
AcDbEntity
  8
TK1
100
AcDbCircle
 10
40.14001332194516
 20
128.5710134954739
 30
0.0
 40
0.5
  0
CIRCLE
  5
3CBC
330
1F
100
AcDbEntity
  8
TK1
100
AcDbCircle
 10
42.68001332194512
 20
128.5710134954739
 30
0.0
 40
0.5
  0
CIRCLE
  5
3CBD
330
1F
100
AcDbEntity
  8
TK1
100
AcDbCircle
 10
45.22001332194508
 20
128.5710134954739
 30
0.0
 40
0.5
  0
CIRCLE
  5
3CBE
330
1F
100
AcDbEntity
  8
TK1
100
AcDbCircle
 10
47.76001332194505
 20
128.5710134954739
 30
0.0
 40
0.5
  0
CIRCLE
  5
3CBF
330
1F
100
AcDbEntity
  8
TK1
100
AcDbCircle
 10
50.30001332194501
 20
128.5710134954739
 30
0.0
 40
0.5
  0
CIRCLE
  5
3CC0
330
1F
100
AcDbEntity
  8
TK1
100
AcDbCircle
 10
52.84001332194498
 20
128.5710134954739
 30
0.0
 40
0.5
  0
CIRCLE
  5
3CC1
330
1F
100
AcDbEntity
  8
TK1
100
AcDbCircle
 10
55.38001332194494
 20
128.5710134954739
 30
0.0
 40
0.5
  0
CIRCLE
  5
3CC2
330
1F
100
AcDbEntity
  8
TK1
100
AcDbCircle
 10
57.92001332194513
 20
128.5710134954739
 30
0.0
 40
0.5
  0
CIRCLE
  5
3CC3
330
1F
100
AcDbEntity
  8
TK1
100
AcDbCircle
 10
60.4600133219451
 20
128.5710134954739
 30
0.0
 40
0.5
  0
CIRCLE
  5
3CC4
330
1F
100
AcDbEntity
  8
TK1
100
AcDbCircle
 10
37.6000133219452
 20
126.0310134954739
 30
0.0
 40
0.5
  0
CIRCLE
  5
3CC5
330
1F
100
AcDbEntity
  8
TK1
100
AcDbCircle
 10
40.14001332194516
 20
126.0310134954739
 30
0.0
 40
0.5
  0
CIRCLE
  5
3CC6
330
1F
100
AcDbEntity
  8
TK1
100
AcDbCircle
 10
42.68001332194512
 20
126.0310134954739
 30
0.0
 40
0.5
  0
CIRCLE
  5
3CC7
330
1F
100
AcDbEntity
  8
TK1
100
AcDbCircle
 10
45.22001332194508
 20
126.0310134954739
 30
0.0
 40
0.5
  0
CIRCLE
  5
3CC8
330
1F
100
AcDbEntity
  8
TK1
100
AcDbCircle
 10
47.76001332194505
 20
126.0310134954739
 30
0.0
 40
0.5
  0
CIRCLE
  5
3CC9
330
1F
100
AcDbEntity
  8
TK1
100
AcDbCircle
 10
50.30001332194501
 20
126.0310134954739
 30
0.0
 40
0.5
  0
CIRCLE
  5
3CCA
330
1F
100
AcDbEntity
  8
TK1
100
AcDbCircle
 10
52.84001332194498
 20
126.0310134954739
 30
0.0
 40
0.5
  0
CIRCLE
  5
3CCB
330
1F
100
AcDbEntity
  8
TK1
100
AcDbCircle
 10
55.38001332194494
 20
126.0310134954739
 30
0.0
 40
0.5
  0
CIRCLE
  5
3CCC
330
1F
100
AcDbEntity
  8
TK1
100
AcDbCircle
 10
57.92001332194513
 20
126.0310134954739
 30
0.0
 40
0.5
  0
CIRCLE
  5
3CCD
330
1F
100
AcDbEntity
  8
TK1
100
AcDbCircle
 10
60.4600133219451
 20
126.0310134954739
 30
0.0
 40
0.5
  0
CIRCLE
  5
3CCE
330
1F
100
AcDbEntity
  8
TK1
100
AcDbCircle
 10
37.6000133219452
 20
123.491013495474
 30
0.0
 40
0.5
  0
CIRCLE
  5
3CCF
330
1F
100
AcDbEntity
  8
TK1
100
AcDbCircle
 10
40.14001332194516
 20
123.491013495474
 30
0.0
 40
0.5
  0
CIRCLE
  5
3CD0
330
1F
100
AcDbEntity
  8
TK1
100
AcDbCircle
 10
42.68001332194512
 20
123.491013495474
 30
0.0
 40
0.5
  0
CIRCLE
  5
3CD1
330
1F
100
AcDbEntity
  8
TK1
100
AcDbCircle
 10
45.22001332194508
 20
123.491013495474
 30
0.0
 40
0.5
  0
CIRCLE
  5
3CD2
330
1F
100
AcDbEntity
  8
TK1
100
AcDbCircle
 10
47.76001332194505
 20
123.491013495474
 30
0.0
 40
0.5
  0
CIRCLE
  5
3CD3
330
1F
100
AcDbEntity
  8
TK1
100
AcDbCircle
 10
50.30001332194501
 20
123.491013495474
 30
0.0
 40
0.5
  0
CIRCLE
  5
3CD4
330
1F
100
AcDbEntity
  8
TK1
100
AcDbCircle
 10
52.84001332194498
 20
123.491013495474
 30
0.0
 40
0.5
  0
CIRCLE
  5
3CD5
330
1F
100
AcDbEntity
  8
TK1
100
AcDbCircle
 10
55.38001332194494
 20
123.491013495474
 30
0.0
 40
0.5
  0
CIRCLE
  5
3CD6
330
1F
100
AcDbEntity
  8
TK1
100
AcDbCircle
 10
57.92001332194513
 20
123.491013495474
 30
0.0
 40
0.5
  0
CIRCLE
  5
3CD7
330
1F
100
AcDbEntity
  8
TK1
100
AcDbCircle
 10
60.4600133219451
 20
123.491013495474
 30
0.0
 40
0.5
  0
CIRCLE
  5
3CD8
330
1F
100
AcDbEntity
  8
TK1
100
AcDbCircle
 10
37.6000133219452
 20
120.9510134954739
 30
0.0
 40
0.5
  0
CIRCLE
  5
3CD9
330
1F
100
AcDbEntity
  8
TK1
100
AcDbCircle
 10
40.14001332194516
 20
120.9510134954739
 30
0.0
 40
0.5
  0
CIRCLE
  5
3CDA
330
1F
100
AcDbEntity
  8
TK1
100
AcDbCircle
 10
42.68001332194512
 20
120.9510134954739
 30
0.0
 40
0.5
  0
CIRCLE
  5
3CDB
330
1F
100
AcDbEntity
  8
TK1
100
AcDbCircle
 10
45.22001332194508
 20
120.9510134954739
 30
0.0
 40
0.5
  0
CIRCLE
  5
3CDC
330
1F
100
AcDbEntity
  8
TK1
100
AcDbCircle
 10
47.76001332194505
 20
120.9510134954739
 30
0.0
 40
0.5
  0
CIRCLE
  5
3CDD
330
1F
100
AcDbEntity
  8
TK1
100
AcDbCircle
 10
50.30001332194501
 20
120.9510134954739
 30
0.0
 40
0.5
  0
CIRCLE
  5
3CDE
330
1F
100
AcDbEntity
  8
TK1
100
AcDbCircle
 10
52.84001332194498
 20
120.9510134954739
 30
0.0
 40
0.5
  0
CIRCLE
  5
3CDF
330
1F
100
AcDbEntity
  8
TK1
100
AcDbCircle
 10
55.38001332194494
 20
120.9510134954739
 30
0.0
 40
0.5
  0
CIRCLE
  5
3CE0
330
1F
100
AcDbEntity
  8
TK1
100
AcDbCircle
 10
57.92001332194513
 20
120.9510134954739
 30
0.0
 40
0.5
  0
CIRCLE
  5
3CE1
330
1F
100
AcDbEntity
  8
TK1
100
AcDbCircle
 10
60.4600133219451
 20
120.9510134954739
 30
0.0
 40
0.5
  0
CIRCLE
  5
3CE2
330
1F
100
AcDbEntity
  8
TK1
100
AcDbCircle
 10
37.6000133219452
 20
118.4110134954739
 30
0.0
 40
0.5
  0
CIRCLE
  5
3CE3
330
1F
100
AcDbEntity
  8
TK1
100
AcDbCircle
 10
40.14001332194516
 20
118.4110134954739
 30
0.0
 40
0.5
  0
CIRCLE
  5
3CE4
330
1F
100
AcDbEntity
  8
TK1
100
AcDbCircle
 10
42.68001332194512
 20
118.4110134954739
 30
0.0
 40
0.5
  0
CIRCLE
  5
3CE5
330
1F
100
AcDbEntity
  8
TK1
100
AcDbCircle
 10
45.22001332194508
 20
118.4110134954739
 30
0.0
 40
0.5
  0
CIRCLE
  5
3CE6
330
1F
100
AcDbEntity
  8
TK1
100
AcDbCircle
 10
47.76001332194505
 20
118.4110134954739
 30
0.0
 40
0.5
  0
CIRCLE
  5
3CE7
330
1F
100
AcDbEntity
  8
TK1
100
AcDbCircle
 10
50.30001332194501
 20
118.4110134954739
 30
0.0
 40
0.5
  0
CIRCLE
  5
3CE8
330
1F
100
AcDbEntity
  8
TK1
100
AcDbCircle
 10
52.84001332194498
 20
118.4110134954739
 30
0.0
 40
0.5
  0
CIRCLE
  5
3CE9
330
1F
100
AcDbEntity
  8
TK1
100
AcDbCircle
 10
55.38001332194494
 20
118.4110134954739
 30
0.0
 40
0.5
  0
CIRCLE
  5
3CEA
330
1F
100
AcDbEntity
  8
TK1
100
AcDbCircle
 10
57.92001332194513
 20
118.4110134954739
 30
0.0
 40
0.5
  0
CIRCLE
  5
3CEB
330
1F
100
AcDbEntity
  8
TK1
100
AcDbCircle
 10
60.4600133219451
 20
118.4110134954739
 30
0.0
 40
0.5
  0
CIRCLE
  5
3CEC
330
1F
100
AcDbEntity
  8
TK1
100
AcDbCircle
 10
37.6000133219452
 20
115.8710134954739
 30
0.0
 40
0.5
  0
CIRCLE
  5
3CED
330
1F
100
AcDbEntity
  8
TK1
100
AcDbCircle
 10
40.14001332194516
 20
115.8710134954739
 30
0.0
 40
0.5
  0
CIRCLE
  5
3CEE
330
1F
100
AcDbEntity
  8
TK1
100
AcDbCircle
 10
42.68001332194512
 20
115.8710134954739
 30
0.0
 40
0.5
  0
CIRCLE
  5
3CEF
330
1F
100
AcDbEntity
  8
TK1
100
AcDbCircle
 10
45.22001332194508
 20
115.8710134954739
 30
0.0
 40
0.5
  0
CIRCLE
  5
3CF0
330
1F
100
AcDbEntity
  8
TK1
100
AcDbCircle
 10
47.76001332194505
 20
115.8710134954739
 30
0.0
 40
0.5
  0
CIRCLE
  5
3CF1
330
1F
100
AcDbEntity
  8
TK1
100
AcDbCircle
 10
50.30001332194501
 20
115.8710134954739
 30
0.0
 40
0.5
  0
CIRCLE
  5
3CF2
330
1F
100
AcDbEntity
  8
TK1
100
AcDbCircle
 10
52.84001332194498
 20
115.8710134954739
 30
0.0
 40
0.5
  0
CIRCLE
  5
3CF3
330
1F
100
AcDbEntity
  8
TK1
100
AcDbCircle
 10
55.38001332194494
 20
115.8710134954739
 30
0.0
 40
0.5
  0
CIRCLE
  5
3CF4
330
1F
100
AcDbEntity
  8
TK1
100
AcDbCircle
 10
57.92001332194513
 20
115.8710134954739
 30
0.0
 40
0.5
  0
CIRCLE
  5
3CF5
330
1F
100
AcDbEntity
  8
TK1
100
AcDbCircle
 10
60.4600133219451
 20
115.8710134954739
 30
0.0
 40
0.5
  0
CIRCLE
  5
3CF6
330
1F
100
AcDbEntity
  8
TK1
100
AcDbCircle
 10
37.6000133219452
 20
113.3310134954738
 30
0.0
 40
0.5
  0
CIRCLE
  5
3CF7
330
1F
100
AcDbEntity
  8
TK1
100
AcDbCircle
 10
40.14001332194516
 20
113.3310134954738
 30
0.0
 40
0.5
  0
CIRCLE
  5
3CF8
330
1F
100
AcDbEntity
  8
TK1
100
AcDbCircle
 10
42.68001332194512
 20
113.3310134954738
 30
0.0
 40
0.5
  0
CIRCLE
  5
3CF9
330
1F
100
AcDbEntity
  8
TK1
100
AcDbCircle
 10
45.22001332194508
 20
113.3310134954738
 30
0.0
 40
0.5
  0
CIRCLE
  5
3CFA
330
1F
100
AcDbEntity
  8
TK1
100
AcDbCircle
 10
47.76001332194505
 20
113.3310134954738
 30
0.0
 40
0.5
  0
CIRCLE
  5
3CFB
330
1F
100
AcDbEntity
  8
TK1
100
AcDbCircle
 10
50.30001332194501
 20
113.3310134954738
 30
0.0
 40
0.5
  0
CIRCLE
  5
3CFC
330
1F
100
AcDbEntity
  8
TK1
100
AcDbCircle
 10
52.84001332194498
 20
113.3310134954738
 30
0.0
 40
0.5
  0
CIRCLE
  5
3CFD
330
1F
100
AcDbEntity
  8
TK1
100
AcDbCircle
 10
55.38001332194494
 20
113.3310134954738
 30
0.0
 40
0.5
  0
CIRCLE
  5
3CFE
330
1F
100
AcDbEntity
  8
TK1
100
AcDbCircle
 10
57.92001332194513
 20
113.3310134954738
 30
0.0
 40
0.5
  0
CIRCLE
  5
3CFF
330
1F
100
AcDbEntity
  8
TK1
100
AcDbCircle
 10
60.4600133219451
 20
113.3310134954738
 30
0.0
 40
0.5
  0
CIRCLE
  5
3D00
330
1F
100
AcDbEntity
  8
TK1
100
AcDbCircle
 10
37.6000133219452
 20
110.7910134954739
 30
0.0
 40
0.5
  0
CIRCLE
  5
3D01
330
1F
100
AcDbEntity
  8
TK1
100
AcDbCircle
 10
40.14001332194516
 20
110.7910134954739
 30
0.0
 40
0.5
  0
CIRCLE
  5
3D02
330
1F
100
AcDbEntity
  8
TK1
100
AcDbCircle
 10
42.68001332194512
 20
110.7910134954739
 30
0.0
 40
0.5
  0
CIRCLE
  5
3D03
330
1F
100
AcDbEntity
  8
TK1
100
AcDbCircle
 10
45.22001332194508
 20
110.7910134954739
 30
0.0
 40
0.5
  0
CIRCLE
  5
3D04
330
1F
100
AcDbEntity
  8
TK1
100
AcDbCircle
 10
47.76001332194505
 20
110.7910134954739
 30
0.0
 40
0.5
  0
CIRCLE
  5
3D05
330
1F
100
AcDbEntity
  8
TK1
100
AcDbCircle
 10
50.30001332194501
 20
110.7910134954739
 30
0.0
 40
0.5
  0
CIRCLE
  5
3D06
330
1F
100
AcDbEntity
  8
TK1
100
AcDbCircle
 10
52.84001332194498
 20
110.7910134954739
 30
0.0
 40
0.5
  0
CIRCLE
  5
3D07
330
1F
100
AcDbEntity
  8
TK1
100
AcDbCircle
 10
55.38001332194494
 20
110.7910134954739
 30
0.0
 40
0.5
  0
CIRCLE
  5
3D08
330
1F
100
AcDbEntity
  8
TK1
100
AcDbCircle
 10
57.92001332194513
 20
110.7910134954739
 30
0.0
 40
0.5
  0
CIRCLE
  5
3D09
330
1F
100
AcDbEntity
  8
TK1
100
AcDbCircle
 10
60.4600133219451
 20
110.7910134954739
 30
0.0
 40
0.5
  0
CIRCLE
  5
3D0A
330
1F
100
AcDbEntity
  8
TK1
100
AcDbCircle
 10
37.6000133219452
 20
108.2510134954739
 30
0.0
 40
0.5
  0
CIRCLE
  5
3D0B
330
1F
100
AcDbEntity
  8
TK1
100
AcDbCircle
 10
40.14001332194516
 20
108.2510134954739
 30
0.0
 40
0.5
  0
CIRCLE
  5
3D0C
330
1F
100
AcDbEntity
  8
TK1
100
AcDbCircle
 10
42.68001332194512
 20
108.2510134954739
 30
0.0
 40
0.5
  0
CIRCLE
  5
3D0D
330
1F
100
AcDbEntity
  8
TK1
100
AcDbCircle
 10
45.22001332194508
 20
108.2510134954739
 30
0.0
 40
0.5
  0
CIRCLE
  5
3D0E
330
1F
100
AcDbEntity
  8
TK1
100
AcDbCircle
 10
47.76001332194505
 20
108.2510134954739
 30
0.0
 40
0.5
  0
CIRCLE
  5
3D0F
330
1F
100
AcDbEntity
  8
TK1
100
AcDbCircle
 10
50.30001332194501
 20
108.2510134954739
 30
0.0
 40
0.5
  0
CIRCLE
  5
3D10
330
1F
100
AcDbEntity
  8
TK1
100
AcDbCircle
 10
52.84001332194498
 20
108.2510134954739
 30
0.0
 40
0.5
  0
CIRCLE
  5
3D11
330
1F
100
AcDbEntity
  8
TK1
100
AcDbCircle
 10
55.38001332194494
 20
108.2510134954739
 30
0.0
 40
0.5
  0
CIRCLE
  5
3D12
330
1F
100
AcDbEntity
  8
TK1
100
AcDbCircle
 10
57.92001332194513
 20
108.2510134954739
 30
0.0
 40
0.5
  0
CIRCLE
  5
3D13
330
1F
100
AcDbEntity
  8
TK1
100
AcDbCircle
 10
60.4600133219451
 20
108.2510134954739
 30
0.0
 40
0.5
  0
CIRCLE
  5
3D14
330
1F
100
AcDbEntity
  8
TK1
100
AcDbCircle
 10
37.6000133219452
 20
105.7110134954739
 30
0.0
 40
0.5
  0
CIRCLE
  5
3D15
330
1F
100
AcDbEntity
  8
TK1
100
AcDbCircle
 10
40.14001332194516
 20
105.7110134954739
 30
0.0
 40
0.5
  0
CIRCLE
  5
3D16
330
1F
100
AcDbEntity
  8
TK1
100
AcDbCircle
 10
42.68001332194512
 20
105.7110134954739
 30
0.0
 40
0.5
  0
CIRCLE
  5
3D17
330
1F
100
AcDbEntity
  8
TK1
100
AcDbCircle
 10
45.22001332194508
 20
105.7110134954739
 30
0.0
 40
0.5
  0
CIRCLE
  5
3D18
330
1F
100
AcDbEntity
  8
TK1
100
AcDbCircle
 10
47.76001332194505
 20
105.7110134954739
 30
0.0
 40
0.5
  0
CIRCLE
  5
3D19
330
1F
100
AcDbEntity
  8
TK1
100
AcDbCircle
 10
50.30001332194501
 20
105.7110134954739
 30
0.0
 40
0.5
  0
CIRCLE
  5
3D1A
330
1F
100
AcDbEntity
  8
TK1
100
AcDbCircle
 10
52.84001332194498
 20
105.7110134954739
 30
0.0
 40
0.5
  0
CIRCLE
  5
3D1B
330
1F
100
AcDbEntity
  8
TK1
100
AcDbCircle
 10
55.38001332194494
 20
105.7110134954739
 30
0.0
 40
0.5
  0
CIRCLE
  5
3D1C
330
1F
100
AcDbEntity
  8
TK1
100
AcDbCircle
 10
57.92001332194513
 20
105.7110134954739
 30
0.0
 40
0.5
  0
CIRCLE
  5
3D1D
330
1F
100
AcDbEntity
  8
TK1
100
AcDbCircle
 10
60.4600133219451
 20
105.7110134954739
 30
0.0
 40
0.5
  0
CIRCLE
  5
3D1E
330
1F
100
AcDbEntity
  8
TK1
100
AcDbCircle
 10
37.6000133219452
 20
103.1710134954739
 30
0.0
 40
0.5
  0
CIRCLE
  5
3D1F
330
1F
100
AcDbEntity
  8
TK1
100
AcDbCircle
 10
40.14001332194516
 20
103.1710134954739
 30
0.0
 40
0.5
  0
CIRCLE
  5
3D20
330
1F
100
AcDbEntity
  8
TK1
100
AcDbCircle
 10
42.68001332194512
 20
103.1710134954739
 30
0.0
 40
0.5
  0
CIRCLE
  5
3D21
330
1F
100
AcDbEntity
  8
TK1
100
AcDbCircle
 10
45.22001332194508
 20
103.1710134954739
 30
0.0
 40
0.5
  0
CIRCLE
  5
3D22
330
1F
100
AcDbEntity
  8
TK1
100
AcDbCircle
 10
47.76001332194505
 20
103.1710134954739
 30
0.0
 40
0.5
  0
CIRCLE
  5
3D23
330
1F
100
AcDbEntity
  8
TK1
100
AcDbCircle
 10
50.30001332194501
 20
103.1710134954739
 30
0.0
 40
0.5
  0
CIRCLE
  5
3D24
330
1F
100
AcDbEntity
  8
TK1
100
AcDbCircle
 10
52.84001332194498
 20
103.1710134954739
 30
0.0
 40
0.5
  0
CIRCLE
  5
3D25
330
1F
100
AcDbEntity
  8
TK1
100
AcDbCircle
 10
55.38001332194494
 20
103.1710134954739
 30
0.0
 40
0.5
  0
CIRCLE
  5
3D26
330
1F
100
AcDbEntity
  8
TK1
100
AcDbCircle
 10
57.92001332194513
 20
103.1710134954739
 30
0.0
 40
0.5
  0
CIRCLE
  5
3D27
330
1F
100
AcDbEntity
  8
TK1
100
AcDbCircle
 10
60.4600133219451
 20
103.1710134954739
 30
0.0
 40
0.5
  0
CIRCLE
  5
3D28
330
1F
100
AcDbEntity
  8
TK1
100
AcDbCircle
 10
37.6000133219452
 20
100.6310134954739
 30
0.0
 40
0.5
  0
CIRCLE
  5
3D29
330
1F
100
AcDbEntity
  8
TK1
100
AcDbCircle
 10
40.14001332194516
 20
100.6310134954739
 30
0.0
 40
0.5
  0
CIRCLE
  5
3D2A
330
1F
100
AcDbEntity
  8
TK1
100
AcDbCircle
 10
42.68001332194512
 20
100.6310134954739
 30
0.0
 40
0.5
  0
CIRCLE
  5
3D2B
330
1F
100
AcDbEntity
  8
TK1
100
AcDbCircle
 10
45.22001332194508
 20
100.6310134954739
 30
0.0
 40
0.5
  0
CIRCLE
  5
3D2C
330
1F
100
AcDbEntity
  8
TK1
100
AcDbCircle
 10
47.76001332194505
 20
100.6310134954739
 30
0.0
 40
0.5
  0
CIRCLE
  5
3D2D
330
1F
100
AcDbEntity
  8
TK1
100
AcDbCircle
 10
50.30001332194501
 20
100.6310134954739
 30
0.0
 40
0.5
  0
CIRCLE
  5
3D2E
330
1F
100
AcDbEntity
  8
TK1
100
AcDbCircle
 10
52.84001332194498
 20
100.6310134954739
 30
0.0
 40
0.5
  0
CIRCLE
  5
3D2F
330
1F
100
AcDbEntity
  8
TK1
100
AcDbCircle
 10
55.38001332194494
 20
100.6310134954739
 30
0.0
 40
0.5
  0
CIRCLE
  5
3D30
330
1F
100
AcDbEntity
  8
TK1
100
AcDbCircle
 10
57.92001332194513
 20
100.6310134954739
 30
0.0
 40
0.5
  0
CIRCLE
  5
3D31
330
1F
100
AcDbEntity
  8
TK1
100
AcDbCircle
 10
60.4600133219451
 20
100.6310134954739
 30
0.0
 40
0.5
  0
CIRCLE
  5
3D32
330
1F
100
AcDbEntity
  8
TK1
100
AcDbCircle
 10
37.6000133219452
 20
98.09101349547397
 30
0.0
 40
0.5
  0
CIRCLE
  5
3D33
330
1F
100
AcDbEntity
  8
TK1
100
AcDbCircle
 10
40.14001332194516
 20
98.09101349547397
 30
0.0
 40
0.5
  0
CIRCLE
  5
3D34
330
1F
100
AcDbEntity
  8
TK1
100
AcDbCircle
 10
42.68001332194512
 20
98.09101349547397
 30
0.0
 40
0.5
  0
CIRCLE
  5
3D35
330
1F
100
AcDbEntity
  8
TK1
100
AcDbCircle
 10
45.22001332194508
 20
98.09101349547397
 30
0.0
 40
0.5
  0
CIRCLE
  5
3D36
330
1F
100
AcDbEntity
  8
TK1
100
AcDbCircle
 10
47.76001332194505
 20
98.09101349547397
 30
0.0
 40
0.5
  0
CIRCLE
  5
3D37
330
1F
100
AcDbEntity
  8
TK1
100
AcDbCircle
 10
50.30001332194501
 20
98.09101349547397
 30
0.0
 40
0.5
  0
CIRCLE
  5
3D38
330
1F
100
AcDbEntity
  8
TK1
100
AcDbCircle
 10
52.84001332194498
 20
98.09101349547397
 30
0.0
 40
0.5
  0
CIRCLE
  5
3D39
330
1F
100
AcDbEntity
  8
TK1
100
AcDbCircle
 10
55.38001332194494
 20
98.09101349547397
 30
0.0
 40
0.5
  0
CIRCLE
  5
3D3A
330
1F
100
AcDbEntity
  8
TK1
100
AcDbCircle
 10
57.92001332194513
 20
98.09101349547397
 30
0.0
 40
0.5
  0
CIRCLE
  5
3D3B
330
1F
100
AcDbEntity
  8
TK1
100
AcDbCircle
 10
60.4600133219451
 20
98.09101349547397
 30
0.0
 40
0.5
  0
CIRCLE
  5
3D3C
330
1F
100
AcDbEntity
  8
TK1
100
AcDbCircle
 10
37.6000133219452
 20
95.55101349547388
 30
0.0
 40
0.5
  0
CIRCLE
  5
3D3D
330
1F
100
AcDbEntity
  8
TK1
100
AcDbCircle
 10
40.14001332194516
 20
95.55101349547388
 30
0.0
 40
0.5
  0
CIRCLE
  5
3D3E
330
1F
100
AcDbEntity
  8
TK1
100
AcDbCircle
 10
42.68001332194512
 20
95.55101349547388
 30
0.0
 40
0.5
  0
CIRCLE
  5
3D3F
330
1F
100
AcDbEntity
  8
TK1
100
AcDbCircle
 10
45.22001332194508
 20
95.55101349547388
 30
0.0
 40
0.5
  0
CIRCLE
  5
3D40
330
1F
100
AcDbEntity
  8
TK1
100
AcDbCircle
 10
47.76001332194505
 20
95.55101349547388
 30
0.0
 40
0.5
  0
CIRCLE
  5
3D41
330
1F
100
AcDbEntity
  8
TK1
100
AcDbCircle
 10
50.30001332194501
 20
95.55101349547388
 30
0.0
 40
0.5
  0
CIRCLE
  5
3D42
330
1F
100
AcDbEntity
  8
TK1
100
AcDbCircle
 10
52.84001332194498
 20
95.55101349547388
 30
0.0
 40
0.5
  0
CIRCLE
  5
3D43
330
1F
100
AcDbEntity
  8
TK1
100
AcDbCircle
 10
55.38001332194494
 20
95.55101349547388
 30
0.0
 40
0.5
  0
CIRCLE
  5
3D44
330
1F
100
AcDbEntity
  8
TK1
100
AcDbCircle
 10
57.92001332194513
 20
95.55101349547388
 30
0.0
 40
0.5
  0
CIRCLE
  5
3D45
330
1F
100
AcDbEntity
  8
TK1
100
AcDbCircle
 10
60.4600133219451
 20
95.55101349547388
 30
0.0
 40
0.5
  0
CIRCLE
  5
3D46
330
1F
100
AcDbEntity
  8
TK1
100
AcDbCircle
 10
37.6000133219452
 20
93.01101349547392
 30
0.0
 40
0.5
  0
CIRCLE
  5
3D47
330
1F
100
AcDbEntity
  8
TK1
100
AcDbCircle
 10
40.14001332194516
 20
93.01101349547392
 30
0.0
 40
0.5
  0
CIRCLE
  5
3D48
330
1F
100
AcDbEntity
  8
TK1
100
AcDbCircle
 10
42.68001332194512
 20
93.01101349547392
 30
0.0
 40
0.5
  0
CIRCLE
  5
3D49
330
1F
100
AcDbEntity
  8
TK1
100
AcDbCircle
 10
45.22001332194508
 20
93.01101349547392
 30
0.0
 40
0.5
  0
CIRCLE
  5
3D4A
330
1F
100
AcDbEntity
  8
TK1
100
AcDbCircle
 10
47.76001332194505
 20
93.01101349547392
 30
0.0
 40
0.5
  0
CIRCLE
  5
3D4B
330
1F
100
AcDbEntity
  8
TK1
100
AcDbCircle
 10
50.30001332194501
 20
93.01101349547392
 30
0.0
 40
0.5
  0
CIRCLE
  5
3D4C
330
1F
100
AcDbEntity
  8
TK1
100
AcDbCircle
 10
52.84001332194498
 20
93.01101349547392
 30
0.0
 40
0.5
  0
CIRCLE
  5
3D4D
330
1F
100
AcDbEntity
  8
TK1
100
AcDbCircle
 10
55.38001332194494
 20
93.01101349547392
 30
0.0
 40
0.5
  0
CIRCLE
  5
3D4E
330
1F
100
AcDbEntity
  8
TK1
100
AcDbCircle
 10
57.92001332194513
 20
93.01101349547392
 30
0.0
 40
0.5
  0
CIRCLE
  5
3D4F
330
1F
100
AcDbEntity
  8
TK1
100
AcDbCircle
 10
60.4600133219451
 20
93.01101349547392
 30
0.0
 40
0.5
  0
LWPOLYLINE
  5
3D50
102
{ACAD_REACTORS
330
3E7F
330
3ED1
330
3F4C
330
3F9D
102
}
330
1F
100
AcDbEntity
  8
TK1
100
AcDbPolyline
 90
        8
 70
     1
 43
0.0
 10
35.4600133219451
 20
48.51101349547391
 10
85.4600133219451
 20
48.51101349547391
 42
0.4142135623730951
 10
86.4600133219451
 20
49.51101349547392
 10
86.4600133219451
 20
136.511013495474
 42
0.4142135623730951
 10
85.4600133219451
 20
137.511013495474
 10
35.4600133219451
 20
137.511013495474
 42
0.4142135623730951
 10
34.4600133219451
 20
136.511013495474
 10
34.4600133219451
 20
49.51101349547392
 42
0.4142135623730951
1001
GENIUS_GENREC_14
1002
{
1000
PYDIR
1011
34.4600133219451
1021
137.511013495474
1031
0.0
1002
}
1002
{
1000
PXDIR
1011
86.4600133219451
1021
48.51101349547391
1031
0.0
1002
}
1002
{
1000
PORI
1011
34.4600133219451
1021
48.51101349547391
1031
0.0
1002
}
1002
{
1000
PINS
1011
60.4600133219451
1021
93.01101349547392
1031
0.0
1002
}
1002
{
1000
HVAL
1000
89
1002
}
1002
{
1000
H
1070
     2
1002
}
1002
{
1000
WVAL
1000
52
1002
}
1002
{
1000
W
1070
     2
1002
}
1002
{
1000
C
1070
     4
1002
}
1001
GENIUS_GENOBJ-N-REC_13
1002
{
1000
OWNER
1000
GEN
1002
}
1001
GENIUS_GENODEF_13
1002
{
1000
HIER
1070
     0
1002
}
1002
{
1000
MANEDIT
1070
     0
1002
}
1002
{
1000
NOSEL
1070
     0
1002
}
1002
{
1000
BEHIND
1070
     0
1002
}
1002
{
1000
OTHER
1070
     0
1002
}
1002
{
1000
REACTOR
1002
}
  0
MTEXT
  5
3D51
330
1F
100
AcDbEntity
  8
AM_6
100
AcDbMText
 10
47.53483939022681
 20
51.07922631948483
 30
0.0
 40
2.0
 41
17.06294954997611
 71
     1
 72
     5
  1
{\fArial|b0|i0|c0|p32;TAKACHI}
 73
     1
 44
1.0
1001
GENIUS_AMGTXT_16
1040
3.5
1040
0.12
1001
ACAD
1000
MTEXTBEGIN
1070
    73
1070
     1
1070
    44
1040
1.0
1070
    74
1070
     0
1000
MTEXTEND
  0
MTEXT
  5
3D52
330
1F
100
AcDbEntity
  8
AM_6
100
AcDbMText
 10
61.01298214481085
 20
51.07922631948483
 30
0.0
 40
2.0
 41
17.06294954997611
 71
     1
 72
     5
  1
{\fArial|b0|i0|c0|p32;TNF52-89}
 73
     1
 44
1.0
1001
GENIUS_AMGTXT_16
1040
3.5
1040
0.12
1001
ACAD
1000
MTEXTBEGIN
1070
    73
1070
     1
1070
    44
1040
1.0
1070
    74
1070
     0
1000
MTEXTEND
  0
POINT
  5
3D67
330
1F
100
AcDbEntity
  8
0
 60
     1
100
AcDbPoint
 10
1516.4779577872
 20
90.7820902728439
 30
0.0
1001
GENIUS_GENOENT_13
1002
{
1000
MYREF
1005
3D67
1002
}
1002
{
1000
GRP
1005
0
1002
}
1001
GENIUS_GENOBJ-N-CRS_13
1002
{
1000
OWNER
1000
GEN
1002
}
1001
GENIUS_GENOLIS_13
1002
{
1000
ENT
1005
3AD8
1005
3AD9
1005
3ADA
1005
3ADB
1002
}
1001
GENIUS_GENODEF_13
1002
{
1000
HIER
1070
    10
1002
}
1002
{
1000
MANEDIT
1070
     0
1002
}
1002
{
1000
NOSEL
1070
     0
1002
}
1002
{
1000
BEHIND
1070
     0
1002
}
1002
{
1000
OTHER
1070
     0
1002
}
1002
{
1000
REACTOR
1002
}
  0
POINT
  5
3D68
330
1F
100
AcDbEntity
  8
0
 60
     1
100
AcDbPoint
 10
1516.4779577872
 20
90.7820902728439
 30
0.0
1001
GENIUS_GENOENT_13
1002
{
1000
MYREF
1005
3D68
1002
}
1002
{
1000
GRP
1005
0
1002
}
1001
GENIUS_GENOBJ-N-CRS_13
1002
{
1000
OWNER
1000
GEN
1002
}
1001
GENIUS_GENOLIS_13
1002
{
1000
ENT
1005
3AD4
1005
3AD5
1005
3AD6
1005
3AD7
1002
}
1001
GENIUS_GENODEF_13
1002
{
1000
HIER
1070
    10
1002
}
1002
{
1000
MANEDIT
1070
     0
1002
}
1002
{
1000
NOSEL
1070
     0
1002
}
1002
{
1000
BEHIND
1070
     0
1002
}
1002
{
1000
OTHER
1070
     0
1002
}
1002
{
1000
REACTOR
1002
}
  0
POINT
  5
3D69
330
1F
100
AcDbEntity
  8
0
 60
     1
100
AcDbPoint
 10
1516.4779577872
 20
90.7820902728439
 30
0.0
1001
GENIUS_GENOENT_13
1002
{
1000
MYREF
1005
3D69
1002
}
1002
{
1000
GRP
1005
0
1002
}
1001
GENIUS_GENODEF_13
1002
{
1000
HIER
1070
    10
1002
}
1002
{
1000
MANEDIT
1070
     0
1002
}
1002
{
1000
NOSEL
1070
     0
1002
}
1002
{
1000
BEHIND
1070
     0
1002
}
1002
{
1000
OTHER
1070
     0
1002
}
1002
{
1000
REACTOR
1002
}
1001
GENIUS_GENOLIS_13
1002
{
1000
ENT
1005
3AD0
1005
3AD1
1005
3AD2
1005
3AD3
1002
}
1001
GENIUS_GENOBJ-N-CRS_13
1002
{
1000
OWNER
1000
GEN
1002
}
  0
POINT
  5
3D6A
330
1F
100
AcDbEntity
  8
0
 60
     1
100
AcDbPoint
 10
1516.4779577872
 20
90.7820902728439
 30
0.0
1001
GENIUS_GENOENT_13
1002
{
1000
MYREF
1005
3D6A
1002
}
1002
{
1000
GRP
1005
0
1002
}
1001
GENIUS_GENOLIS_13
1002
{
1000
ENT
1005
3ACB
1005
3ACC
1005
3ACD
1005
3ACE
1002
}
1001
GENIUS_GENODEF_13
1002
{
1000
HIER
1070
    10
1002
}
1002
{
1000
MANEDIT
1070
     0
1002
}
1002
{
1000
NOSEL
1070
     0
1002
}
1002
{
1000
BEHIND
1070
     0
1002
}
1002
{
1000
OTHER
1070
     0
1002
}
1002
{
1000
REACTOR
1002
}
1001
GENIUS_GENOBJ-N-CRS_13
1002
{
1000
OWNER
1000
GEN
1002
}
  0
DIMENSION
  5
3E17
330
1F
100
AcDbEntity
  8
AM_5
100
AcDbDimension
  2
*D38
 10
83.02863617719607
 20
133.2446892905363
 30
0.0
 11
87.51470730801575
 21
139.5004966466496
 31
0.0
 70
   163
 71
     5
 42
0.9999999999999431
  3
AM_ISO$3
100
AcDbDiametricDimension
 15
83.61139046669368
 25
134.0573377004111
 35
0.0
 40
0.0
1001
ACAD
1000
DSTYLE
1002
{
1070
   144
1040
1.0
1070
    40
1040
0.5
1070
   279
1070
     1
1002
}
  0
DIMENSION
  5
3E27
330
1F
100
AcDbEntity
  8
AM_5
100
AcDbDimension
  2
*D39
 10
85.46001332194505
 20
49.51101349547389
 30
0.0
 11
91.19587005114567
 21
46.16706690019397
 31
0.0
 70
    36
  1
4-<>
 71
     5
 42
1.000000000000042
  3
AM_ISO$4
100
AcDbRadialDimension
 15
86.17437841774359
 25
48.81124031085988
 35
0.0
 40
0.0
1001
ACAD
1000
DSTYLE
1002
{
1070
    40
1040
0.5
1070
    74
1070
     0
1070
   279
1070
     1
1002
}
  0
DIMENSION
  5
3E44
102
{ACAD_XDICTIONARY
360
3E4F
102
}
102
{ACAD_REACTORS
330
3E50
102
}
330
1F
100
AcDbEntity
  8
AM_5
100
AcDbDimension
  2
*D40
 10
83.32001332194497
 20
140.4623417612438
 30
0.0
 11
60.46001332194508
 21
142.0875140053383
 31
0.0
 70
    32
 71
     5
 42
45.71999999999976
  3
AM_ISO$0
100
AcDbAlignedDimension
 13
37.6000133219452
 23
137.1510134954738
 33
0.0
 14
83.32001332194497
 24
137.1510134954738
 34
0.0
100
AcDbRotatedDimension
1001
ACAD
1000
DSTYLE
1002
{
1070
   144
1040
1.0
1070
    40
1040
0.5
1070
   279
1070
     1
1002
}
  0
DIMENSION
  5
3E6E
102
{ACAD_XDICTIONARY
360
3E7E
102
}
102
{ACAD_REACTORS
330
3E7F
102
}
330
1F
100
AcDbEntity
  8
AM_5
100
AcDbDimension
  2
*D41
 10
28.10001332194513
 20
133.6510134954739
 30
0.0
 11
28.10001332194512
 21
135.5810134954739
 31
0.0
 70
   160
 71
     5
 42
3.860000000000127
  3
AM_ISO$0
100
AcDbAlignedDimension
 13
35.4600133219451
 23
137.511013495474
 33
0.0
 14
34.1000133219452
 24
133.6510134954739
 34
0.0
 50
90.0
100
AcDbRotatedDimension
1001
ACAD
1000
DSTYLE
1002
{
1070
    40
1040
0.5
1002
}
  0
DIMENSION
  5
3E9C
102
{ACAD_XDICTIONARY
360
3EA7
102
}
102
{ACAD_REACTORS
330
3EA8
102
}
330
1F
100
AcDbEntity
  8
AM_5
100
AcDbDimension
  2
*D42
 10
28.10001332194517
 20
52.37101349547391
 30
0.0
 11
26.47484107785068
 21
93.01101349547391
 31
0.0
 70
    32
 71
     5
 42
81.27999999999994
  3
AM_ISO$0
100
AcDbAlignedDimension
 13
34.1000133219452
 23
133.6510134954739
 33
0.0
 14
34.10001332194517
 24
52.37101349547391
 34
0.0
 50
90.0
100
AcDbRotatedDimension
1001
ACAD
1000
DSTYLE
1002
{
1070
   144
1040
1.0
1070
    40
1040
0.5
1070
   279
1070
     1
1002
}
  0
DIMENSION
  5
3EC0
102
{ACAD_XDICTIONARY
360
3ED0
102
}
102
{ACAD_REACTORS
330
3ED1
102
}
330
1F
100
AcDbEntity
  8
AM_5
100
AcDbDimension
  2
*D43
 10
28.10001332194515
 20
48.51101349547391
 30
0.0
 11
28.10001332194514
 21
50.44101349547393
 31
0.0
 70
   160
 71
     5
 42
3.860000000000013
  3
AM_ISO$0
100
AcDbAlignedDimension
 13
34.1000133219452
 23
52.37101349547393
 33
0.0
 14
35.4600133219451
 24
48.51101349547391
 34
0.0
 50
90.0
100
AcDbRotatedDimension
1001
ACAD
1000
DSTYLE
1002
{
1070
    40
1040
0.5
1002
}
  0
DIMENSION
  5
3F40
102
{ACAD_XDICTIONARY
360
3F4B
102
}
102
{ACAD_REACTORS
330
3F4C
102
}
330
1F
100
AcDbEntity
  8
AM_5
100
AcDbDimension
  2
*D44
 10
86.4600133219451
 20
45.11344171374439
 30
0.0
 11
60.4600133219451
 21
46.73861395783887
 31
0.0
 70
    32
 71
     5
 42
52.0
  3
AM_ISO$0
100
AcDbAlignedDimension
 13
34.4600133219451
 23
49.51101349547392
 33
0.0
 14
86.4600133219451
 24
49.51101349547392
 34
0.0
 50
0.0000000000002036
100
AcDbRotatedDimension
1001
ACAD
1000
DSTYLE
1002
{
1070
   144
1040
1.0
1070
    40
1040
0.5
1070
   279
1070
     1
1002
}
  0
DIMENSION
  5
3F91
102
{ACAD_XDICTIONARY
360
3F9C
102
}
102
{ACAD_REACTORS
330
3F9D
102
}
330
1F
100
AcDbEntity
  8
AM_5
100
AcDbDimension
  2
*D46
 10
91.4600133219451
 20
48.51101349547391
 30
0.0
 11
89.83501332194508
 21
93.01101349547399
 31
0.0
 70
    32
 71
     5
 42
89.00000000000009
  3
AM_ISO$0
100
AcDbAlignedDimension
 13
85.4600133219451
 23
137.511013495474
 33
0.0
 14
85.4600133219451
 24
48.51101349547391
 34
0.0
 50
90.0
100
AcDbRotatedDimension
1001
ACAD
1000
DSTYLE
1002
{
1070
   144
1040
1.0
1070
    40
1040
0.5
1070
   279
1070
     1
1002
}
  0
VIEWPORT
  5
17C
102
{ACAD_XDICTIONARY
360
4130
102
}
330
23
100
AcDbEntity
 67
     1
  8
0
100
AcDbViewport
 10
133.3499908447265
 20
101.5999970436096
 30
0.0
 40
370.2266912936524
 41
228.4221935424805
 68
     1
 69
     1
 12
133.3499908447265
 22
101.5999970436096
 13
0.0
 23
0.0
 14
10.0
 24
10.0
 15
10.0
 25
10.0
 16
0.0
 26
0.0
 36
1.0
 17
0.0
 27
0.0
 37
0.0
 42
50.0
 43
0.0
 44
0.0
 45
228.4221935424805
 50
0.0
 51
0.0
 72
   100
 90
    32800
  1

281
     0
 71
     1
 74
     0
110
0.0
120
0.0
130
0.0
111
1.0
121
0.0
131
0.0
112
0.0
122
1.0
132
0.0
 79
     0
146
0.0
  0
ENDSEC
  0
SECTION
  2
OBJECTS
  0
DICTIONARY
  5
C
330
0
100
AcDbDictionary
281
     1
  3
ACAD_CIP_PREVIOUS_PRODUCT_INFO
350
40B8
  3
ACAD_COLOR
350
BE
  3
ACAD_DETAILVIEWSTYLE
350
40AC
  3
ACAD_GROUP
350
D
  3
ACAD_LAYOUT
350
1A
  3
ACAD_MATERIAL
350
BD
  3
ACAD_MLEADERSTYLE
350
40A8
  3
ACAD_MLINESTYLE
350
17
  3
ACAD_PLOTSETTINGS
350
19
  3
ACAD_PLOTSTYLENAME
350
E
  3
ACAD_SCALELIST
350
4096
  3
ACAD_SECTIONVIEWSTYLE
350
40AA
  3
ACAD_TABLESTYLE
350
583
  3
ACAD_VISUALSTYLE
350
407D
  3
ACDB_RECOMPOSE_DATA
350
4126
  3
AcDbVariableDictionary
350
94
  3
AcmDictionary
350
5B
  3
AMG
350
41
  3
AMGSNAPSETTINGS
350
220
  3
DWGPROPS
350
4127
  0
DICTIONARY
  5
35D
330
2
100
AcDbDictionary
280
     1
281
     1
  3
ACAD_LAYERFILTERS
360
451
  3
ACAD_LAYERSTATES
360
35E
  3
AMLAYER_GROUPCOLORS
360
4A4
  0
DICTIONARY
  5
40FC
330
10
100
AcDbDictionary
280
     1
281
     1
  3
ADSK_XREC_LAYER_RECONCILED
360
40FD
  0
DICTIONARY
  5
40FE
330
518
100
AcDbDictionary
280
     1
281
     1
  3
ADSK_XREC_LAYER_RECONCILED
360
40FF
  0
DICTIONARY
  5
4100
330
519
100
AcDbDictionary
280
     1
281
     1
  3
ADSK_XREC_LAYER_RECONCILED
360
4101
  0
DICTIONARY
  5
4102
330
51A
100
AcDbDictionary
280
     1
281
     1
  3
ADSK_XREC_LAYER_RECONCILED
360
4103
  0
DICTIONARY
  5
4104
330
51B
100
AcDbDictionary
280
     1
281
     1
  3
ADSK_XREC_LAYER_RECONCILED
360
4105
  0
DICTIONARY
  5
4106
330
51C
100
AcDbDictionary
280
     1
281
     1
  3
ADSK_XREC_LAYER_RECONCILED
360
4107
  0
DICTIONARY
  5
4108
330
51D
100
AcDbDictionary
280
     1
281
     1
  3
ADSK_XREC_LAYER_RECONCILED
360
4109
  0
DICTIONARY
  5
410A
330
5E5
100
AcDbDictionary
280
     1
281
     1
  3
ADSK_XREC_LAYER_RECONCILED
360
410B
  0
DICTIONARY
  5
410C
330
5E6
100
AcDbDictionary
280
     1
281
     1
  3
ADSK_XREC_LAYER_RECONCILED
360
410D
  0
DICTIONARY
  5
410E
330
5E7
100
AcDbDictionary
280
     1
281
     1
  3
ADSK_XREC_LAYER_RECONCILED
360
410F
  0
DICTIONARY
  5
4110
330
6CF
100
AcDbDictionary
280
     1
281
     1
  3
ADSK_XREC_LAYER_RECONCILED
360
4111
  0
DICTIONARY
  5
4112
330
6D0
100
AcDbDictionary
280
     1
281
     1
  3
ADSK_XREC_LAYER_RECONCILED
360
4113
  0
DICTIONARY
  5
4114
330
AFF
100
AcDbDictionary
280
     1
281
     1
  3
ADSK_XREC_LAYER_RECONCILED
360
4115
  0
DICTIONARY
  5
4116
330
B76
100
AcDbDictionary
280
     1
281
     1
  3
ADSK_XREC_LAYER_RECONCILED
360
4117
  0
DICTIONARY
  5
4118
330
B77
100
AcDbDictionary
280
     1
281
     1
  3
ADSK_XREC_LAYER_RECONCILED
360
4119
  0
DICTIONARY
  5
411A
330
B9B
100
AcDbDictionary
280
     1
281
     1
  3
ADSK_XREC_LAYER_RECONCILED
360
411B
  0
DICTIONARY
  5
411C
330
188B
100
AcDbDictionary
280
     1
281
     1
  3
ADSK_XREC_LAYER_RECONCILED
360
411D
  0
DICTIONARY
  5
8F
330
1F
100
AcDbDictionary
280
     1
281
     1
  0
DICTIONARY
  5
5D9
330
5CD
100
AcDbDictionary
280
     1
281
     1
  0
DICTIONARY
  5
63E
330
5E9
100
AcDbDictionary
280
     1
281
     1
  0
DICTIONARY
  5
412E
330
178
100
AcDbDictionary
280
     1
281
     1
  3
ACAD_XREC_ROUNDTRIP
360
412F
  0
DICTIONARY
  5
4136
330
401E
100
AcDbDictionary
280
     1
281
     1
  3
ACAD_MTEXT_RT
360
4137
  0
DICTIONARY
  5
3E4F
330
3E44
100
AcDbDictionary
280
     1
281
     1
  3
ACAD_DIMASSOC
360
3E50
  0
DICTIONARY
  5
3E7E
330
3E6E
100
AcDbDictionary
280
     1
281
     1
  3
ACAD_DIMASSOC
360
3E7F
  0
DICTIONARY
  5
3EA7
330
3E9C
100
AcDbDictionary
280
     1
281
     1
  3
ACAD_DIMASSOC
360
3EA8
  0
DICTIONARY
  5
3ED0
330
3EC0
100
AcDbDictionary
280
     1
281
     1
  3
ACAD_DIMASSOC
360
3ED1
  0
DICTIONARY
  5
3F4B
330
3F40
100
AcDbDictionary
280
     1
281
     1
  3
ACAD_DIMASSOC
360
3F4C
  0
DICTIONARY
  5
3F9C
330
3F91
100
AcDbDictionary
280
     1
281
     1
  3
ACAD_DIMASSOC
360
3F9D
  0
DICTIONARY
  5
4130
330
17C
100
AcDbDictionary
280
     1
281
     1
  3
ACAD_XREC_ROUNDTRIP
360
4131
  0
XRECORD
  5
40B8
102
{ACAD_REACTORS
330
C
102
}
330
C
100
AcDbXrecord
280
     1
300
AMECH_PP
300
2013
300
PDSS_F_S
  0
DICTIONARY
  5
BE
102
{ACAD_REACTORS
330
C
102
}
330
C
100
AcDbDictionary
281
     1
  0
DICTIONARY
  5
40AC
102
{ACAD_REACTORS
330
C
102
}
330
C
100
AcDbDictionary
281
     1
  3
Metric50
350
40AD
  0
DICTIONARY
  5
D
102
{ACAD_REACTORS
330
C
102
}
330
C
100
AcDbDictionary
281
     1
  0
DICTIONARY
  5
1A
102
{ACAD_REACTORS
330
C
102
}
330
C
100
AcDbDictionary
281
     1
  3
Model
350
22
  3
レイアウト1
350
1E
  3
レイアウト2
350
26
  0
DICTIONARY
  5
BD
102
{ACAD_REACTORS
330
C
102
}
330
C
100
AcDbDictionary
281
     1
  3
ByBlock
350
406D
  3
ByLayer
350
4065
  3
Global
350
4075
  0
DICTIONARY
  5
40A8
102
{ACAD_REACTORS
330
C
102
}
330
C
100
AcDbDictionary
281
     1
  3
Standard
350
40A9
  0
DICTIONARY
  5
17
102
{ACAD_REACTORS
330
C
102
}
330
C
100
AcDbDictionary
281
     1
  3
Standard
350
18
  0
DICTIONARY
  5
19
102
{ACAD_REACTORS
330
C
102
}
330
C
100
AcDbDictionary
281
     1
  0
ACDBDICTIONARYWDFLT
  5
E
102
{ACAD_REACTORS
330
C
102
}
330
C
100
AcDbDictionary
281
     1
  3
Normal
350
F
100
AcDbDictionaryWithDefault
340
F
  0
DICTIONARY
  5
4096
102
{ACAD_REACTORS
330
C
102
}
330
C
100
AcDbDictionary
281
     1
  3
A0
350
4097
  3
A1
350
4098
  3
A2
350
4099
  3
A3
350
409A
  3
A4
350
409B
  3
A5
350
409C
  3
A6
350
409D
  3
A7
350
409E
  3
A8
350
409F
  3
A9
350
40A0
  3
B0
350
40A1
  3
B1
350
40A2
  3
B2
350
40A3
  3
B3
350
40A4
  3
B4
350
40A5
  3
B5
350
40A6
  3
B6
350
40A7
  0
DICTIONARY
  5
40AA
102
{ACAD_REACTORS
330
C
102
}
330
C
100
AcDbDictionary
281
     1
  3
Metric50
350
40AB
  0
DICTIONARY
  5
583
102
{ACAD_REACTORS
330
C
102
}
330
C
100
AcDbDictionary
281
     1
  3
Standard
350
584
  0
DICTIONARY
  5
407D
102
{ACAD_REACTORS
330
C
102
}
330
C
100
AcDbDictionary
281
     1
  3
2dWireframe
350
4083
  3
Basic
350
4082
  3
Brighten
350
4089
  3
ColorChange
350
408D
  3
Conceptual
350
4086
  3
Dim
350
4088
  3
EdgeColorOff
350
4095
  3
Facepattern
350
408C
  3
Flat
350
407E
  3
FlatWithEdges
350
407F
  3
Gouraud
350
4080
  3
GouraudWithEdges
350
4081
  3
Hidden
350
4085
  3
JitterOff
350
4093
  3
Linepattern
350
408B
  3
OverhangOff
350
4094
  3
Realistic
350
4087
  3
Shaded
350
4092
  3
Shaded with edges
350
4091
  3
Shades of Gray
350
408E
  3
Sketchy
350
408F
  3
Thicken
350
408A
  3
Wireframe
350
4084
  3
X-Ray
350
4090
  0
XRECORD
  5
4126
102
{ACAD_REACTORS
330
C
102
}
330
C
100
AcDbXrecord
280
     1
 90
        1
330
584
  0
DICTIONARY
  5
94
102
{ACAD_REACTORS
330
C
102
}
330
C
100
AcDbDictionary
281
     1
  3
CANNOSCALE
350
4121
  3
CMLEADERSTYLE
350
411E
  3
CTABLESTYLE
350
B86
  3
CVIEWDETAILSTYLE
350
411F
  3
CVIEWSECTIONSTYLE
350
4120
  3
DIMASSOC
350
96
  3
INDEXCTL
350
95
  3
SORTENTS
350
4122
  3
XCLIPFRAME
350
4123
  0
DICTIONARY
  5
5B
102
{ACAD_REACTORS
330
C
102
}
330
C
100
AcDbDictionary
281
     1
  3
AcmBOM
350
B73
  3
AcmStdDictionary
350
61
  3
AMDTSECTSYM_ARROWCOLOR
350
58F
  0
DICTIONARY
  5
41
102
{ACAD_REACTORS
330
C
102
}
330
C
100
AcDbDictionary
281
     1
  0
DICTIONARY
  5
220
102
{ACAD_REACTORS
330
C
102
}
330
C
100
AcDbDictionary
281
     1
  0
XRECORD
  5
4127
102
{ACAD_REACTORS
330
C
102
}
330
C
100
AcDbXrecord
280
     1
  1
DWGPROPS COOKIE
  2

  3

  4

  6

  7

  8
中根
  9

300
AmdtFileType=84
301
=
302
=
303
=
304
=
305
=
306
=
307
=
308
=
309
=
 40
0.052118599537037
 41
2453795.581804826
 42
2457008.414253669
  1

 90
        1
  0
DICTIONARY
  5
451
102
{ACAD_REACTORS
330
35D
102
}
330
35D
100
AcDbDictionary
281
     1
  0
DICTIONARY
  5
35E
102
{ACAD_REACTORS
330
35D
102
}
330
35D
100
AcDbDictionary
281
     1
  3
takachi1
350
35F
  0
DICTIONARY
  5
4A4
102
{ACAD_REACTORS
330
35D
102
}
330
35D
100
AcDbDictionary
280
     1
281
     1
  0
XRECORD
  5
40FD
102
{ACAD_REACTORS
330
40FC
102
}
330
40FC
100
AcDbXrecord
280
     1
290
     1
  0
XRECORD
  5
40FF
102
{ACAD_REACTORS
330
40FE
102
}
330
40FE
100
AcDbXrecord
280
     1
290
     1
  0
XRECORD
  5
4101
102
{ACAD_REACTORS
330
4100
102
}
330
4100
100
AcDbXrecord
280
     1
290
     1
  0
XRECORD
  5
4103
102
{ACAD_REACTORS
330
4102
102
}
330
4102
100
AcDbXrecord
280
     1
290
     1
  0
XRECORD
  5
4105
102
{ACAD_REACTORS
330
4104
102
}
330
4104
100
AcDbXrecord
280
     1
290
     1
  0
XRECORD
  5
4107
102
{ACAD_REACTORS
330
4106
102
}
330
4106
100
AcDbXrecord
280
     1
290
     1
  0
XRECORD
  5
4109
102
{ACAD_REACTORS
330
4108
102
}
330
4108
100
AcDbXrecord
280
     1
290
     1
  0
XRECORD
  5
410B
102
{ACAD_REACTORS
330
410A
102
}
330
410A
100
AcDbXrecord
280
     1
290
     1
  0
XRECORD
  5
410D
102
{ACAD_REACTORS
330
410C
102
}
330
410C
100
AcDbXrecord
280
     1
290
     1
  0
XRECORD
  5
410F
102
{ACAD_REACTORS
330
410E
102
}
330
410E
100
AcDbXrecord
280
     1
290
     1
  0
XRECORD
  5
4111
102
{ACAD_REACTORS
330
4110
102
}
330
4110
100
AcDbXrecord
280
     1
290
     1
  0
XRECORD
  5
4113
102
{ACAD_REACTORS
330
4112
102
}
330
4112
100
AcDbXrecord
280
     1
290
     1
  0
XRECORD
  5
4115
102
{ACAD_REACTORS
330
4114
102
}
330
4114
100
AcDbXrecord
280
     1
290
     1
  0
XRECORD
  5
4117
102
{ACAD_REACTORS
330
4116
102
}
330
4116
100
AcDbXrecord
280
     1
290
     1
  0
XRECORD
  5
4119
102
{ACAD_REACTORS
330
4118
102
}
330
4118
100
AcDbXrecord
280
     1
290
     1
  0
XRECORD
  5
411B
102
{ACAD_REACTORS
330
411A
102
}
330
411A
100
AcDbXrecord
280
     1
290
     1
  0
XRECORD
  5
411D
102
{ACAD_REACTORS
330
411C
102
}
330
411C
100
AcDbXrecord
280
     1
290
     1
  0
XRECORD
  5
412F
102
{ACAD_REACTORS
330
412E
102
}
330
412E
100
AcDbXrecord
280
     1
102
SHADEPLOT
 70
     0
  0
XRECORD
  5
4137
102
{ACAD_REACTORS
330
4136
102
}
330
4136
100
AcDbXrecord
280
     1
 40
1892.0
  1
\U+22051
  0
DIMASSOC
  5
3E50
102
{ACAD_REACTORS
330
3E4F
102
}
330
3E4F
100
AcDbDimAssoc
330
3E44
 90
        3
 70
     0
 71
     0
  1
AcDbOsnapPointRef
 72
     1
331
3ADA
 73
     0
 91
        0
 40
0.0
 10
0.0
 20
0.0
 30
2.000000000000000E+50
 75
     0
  1
AcDbOsnapPointRef
 72
     8
331
3AD6
 73
     0
 91
        0
 40
0.9999999999999918
 10
0.0
 20
0.0
 30
0.0
 75
     1
  1
AcDbOsnapPointRef
 72
     1
331
3ADA
 73
     0
 91
        0
 40
0.0
 10
0.0
 20
0.0
 30
2.000000000000000E+50
 75
     0
  0
DIMASSOC
  5
3E7F
102
{ACAD_REACTORS
330
3E7E
102
}
330
3E7E
100
AcDbDimAssoc
330
3E6E
 90
        3
 70
     0
 71
     0
  1
AcDbOsnapPointRef
 72
     1
331
3D50
 73
     2
 91
        5
 40
0.0
 10
0.0
 20
0.0
 30
2.000000000000000E+50
 75
     0
  1
AcDbOsnapPointRef
 72
     1
331
3AD9
 73
     0
 91
        0
 40
0.0
 10
0.0
 20
0.0
 30
2.000000000000000E+50
 75
     0
  0
DIMASSOC
  5
3EA8
102
{ACAD_REACTORS
330
3EA7
102
}
330
3EA7
100
AcDbDimAssoc
330
3E9C
 90
        3
 70
     0
 71
     0
  1
AcDbOsnapPointRef
 72
     1
331
3AD9
 73
     0
 91
        0
 40
0.0
 10
0.0
 20
0.0
 30
2.000000000000000E+50
 75
     0
  1
AcDbOsnapPointRef
 72
     8
331
3ACC
 73
     0
 91
        0
 40
1.0
 10
0.0
 20
0.0
 30
0.0
 75
     1
  1
AcDbOsnapPointRef
 72
     1
331
3AD9
 73
     0
 91
        0
 40
0.0
 10
0.0
 20
0.0
 30
2.000000000000000E+50
 75
     0
  0
DIMASSOC
  5
3ED1
102
{ACAD_REACTORS
330
3ED0
102
}
330
3ED0
100
AcDbDimAssoc
330
3EC0
 90
        3
 70
     0
 71
     0
  1
AcDbOsnapPointRef
 72
     1
331
3ACC
 73
     0
 91
        0
 40
0.0
 10
0.0
 20
0.0
 30
2.000000000000000E+50
 75
     0
  1
AcDbOsnapPointRef
 72
     1
331
3D50
 73
     2
 91
        8
 40
0.0
 10
0.0
 20
0.0
 30
2.000000000000000E+50
 75
     0
  0
DIMASSOC
  5
3F4C
102
{ACAD_REACTORS
330
3F4B
102
}
330
3F4B
100
AcDbDimAssoc
330
3F40
 90
        3
 70
     0
 71
     0
  1
AcDbOsnapPointRef
 72
     1
331
3D50
 73
     2
 91
        7
 40
0.0
 10
0.0
 20
0.0
 30
2.000000000000000E+50
 75
     0
  1
AcDbOsnapPointRef
 72
     1
331
3D50
 73
     2
 91
        2
 40
0.0
 10
0.0
 20
0.0
 30
2.000000000000000E+50
 75
     0
  0
DIMASSOC
  5
3F9D
102
{ACAD_REACTORS
330
3F9C
102
}
330
3F9C
100
AcDbDimAssoc
330
3F91
 90
        3
 70
     0
 71
     0
  1
AcDbOsnapPointRef
 72
     1
331
3D50
 73
     2
 91
        4
 40
0.0
 10
0.0
 20
0.0
 30
2.000000000000000E+50
 75
     0
  1
AcDbOsnapPointRef
 72
    13
331
3D50
 73
     2
 91
        2
 40
0.0
 10
0.0
 20
0.0
 30
2.000000000000000E+50
 75
     0
  0
XRECORD
  5
4131
102
{ACAD_REACTORS
330
4130
102
}
330
4130
100
AcDbXrecord
280
     1
102
SHADEPLOT
 70
     0
  0
ACDBDETAILVIEWSTYLE
  5
40AD
102
{ACAD_REACTORS
330
40AC
102
}
330
40AC
100
AcDbModelDocViewStyle
 70
     0
  3
Metric50
290
     0
100
AcDbDetailViewStyle
 70
     0
 71
     0
 90
        3
 71
     1
340
11
 40
5.0
340
0
 40
5.0
300

 40
0.0
280
     1
 71
     2
340
16
 90
       25
 71
     3
340
11
 40
5.0
 90
        0
 40
15.0
 90
        1
300
%<\AcVar ViewDetailId>% (%<\AcVar ViewScale \f "%sn">%)
 71
     4
340
16
 90
       25
340
16
 90
       25
280
     0
  0
LAYOUT
  5
22
102
{ACAD_XDICTIONARY
360
412A
102
}
102
{ACAD_REACTORS
330
1A
102
}
330
1A
100
AcDbPlotSettings
  1

  2
RICOH IPSiO CX7200 RPCS
  4
A3
  6
AM_VIEW1
 40
5.873749732971191
 41
5.873747825622558
 42
5.873748779296875
 43
5.873748779296875
 44
296.9259948730469
 45
419.9466552734374
 46
2.589999999999999
 47
4.099999999999999
 48
10.0
 49
0.0
140
410.0
141
280.0
142
1.0
143
1.0
 70
 11956
 72
     1
 73
     1
 74
     4
  7
takachi-1.ctb
 75
    16
147
1.0
148
-10.0
149
0.0
100
AcDbLayout
  1
Model
 70
     1
 71
     0
 10
0.0
 20
0.0
 11
12.0
 21
9.0
 12
0.0
 22
0.0
 32
0.0
 14
0.0
 24
0.0
 34
0.0
 15
0.0
 25
0.0
 35
0.0
146
0.0
 13
0.0
 23
0.0
 33
0.0
 16
1.0
 26
0.0
 36
0.0
 17
0.0
 27
1.0
 37
0.0
 76
     0
330
1F
331
4063
  0
LAYOUT
  5
1E
102
{ACAD_XDICTIONARY
360
4128
102
}
102
{ACAD_REACTORS
330
1A
102
}
330
1A
100
AcDbPlotSettings
  1

  2
none_device
  4
Letter_(8.50_x_11.00_Inches)
  6

 40
6.349999904632568
 41
6.349999904632568
 42
6.350006103515625
 43
6.350006103515625
 44
215.8999938964844
 45
279.3999938964844
 46
0.0
 47
0.0
 48
0.0
 49
0.0
140
0.0
141
0.0
142
1.0
143
1.0
 70
   688
 72
     1
 73
     1
 74
     5
  7
takachi-1.ctb
 75
    16
147
1.0
148
0.0
149
0.0
100
AcDbLayout
  1
レイアウト1
 70
     1
 71
     1
 10
-6.350006103515625
 20
-6.349999904632568
 11
273.0499877929688
 21
209.5499939918518
 12
0.0
 22
0.0
 32
0.0
 14
1.000000000000000E+20
 24
1.000000000000000E+20
 34
1.000000000000000E+20
 15
-1.000000000000000E+20
 25
-1.000000000000000E+20
 35
-1.000000000000000E+20
146
0.0
 13
0.0
 23
0.0
 33
0.0
 16
1.0
 26
0.0
 36
0.0
 17
0.0
 27
1.0
 37
0.0
 76
     0
330
1B
331
178
  0
LAYOUT
  5
26
102
{ACAD_XDICTIONARY
360
412C
102
}
102
{ACAD_REACTORS
330
1A
102
}
330
1A
100
AcDbPlotSettings
  1

  2
none_device
  4
Letter_(8.50_x_11.00_Inches)
  6

 40
6.349999904632568
 41
6.349999904632568
 42
6.350006103515625
 43
6.350006103515625
 44
215.8999938964844
 45
279.3999938964844
 46
0.0
 47
0.0
 48
0.0
 49
0.0
140
0.0
141
0.0
142
1.0
143
1.0
 70
   688
 72
     1
 73
     1
 74
     5
  7
takachi-1.ctb
 75
    16
147
1.0
148
0.0
149
0.0
100
AcDbLayout
  1
レイアウト2
 70
     1
 71
     2
 10
-6.350006103515625
 20
-6.349999904632568
 11
273.0499877929688
 21
209.5499939918518
 12
0.0
 22
0.0
 32
0.0
 14
1.000000000000000E+20
 24
1.000000000000000E+20
 34
1.000000000000000E+20
 15
-1.000000000000000E+20
 25
-1.000000000000000E+20
 35
-1.000000000000000E+20
146
0.0
 13
0.0
 23
0.0
 33
0.0
 16
1.0
 26
0.0
 36
0.0
 17
0.0
 27
1.0
 37
0.0
 76
     0
330
23
331
17C
  0
MATERIAL
  5
406D
102
{ACAD_XDICTIONARY
360
406E
102
}
102
{ACAD_REACTORS
330
BD
102
}
330
BD
100
AcDbMaterial
  1
ByBlock
 72
     0
 43
0.0008202099737533
 43
0.0
 43
0.0
 43
0.0
 43
0.0
 43
0.0008202099737533
 43
0.0
 43
0.0
 43
0.0
 43
0.0
 43
1.0
 43
0.0
 43
0.0
 43
0.0
 43
0.0
 43
1.0
 77
     0
 47
0.0008202099737533
 47
0.0
 47
0.0
 47
0.0
 47
0.0
 47
0.0008202099737533
 47
0.0
 47
0.0
 47
0.0
 47
0.0
 47
1.0
 47
0.0
 47
0.0
 47
0.0
 47
0.0
 47
1.0
171
     0
 49
0.0008202099737533
 49
0.0
 49
0.0
 49
0.0
 49
0.0
 49
0.0008202099737533
 49
0.0
 49
0.0
 49
0.0
 49
0.0
 49
1.0
 49
0.0
 49
0.0
 49
0.0
 49
0.0
 49
1.0
175
     0
142
0.0008202099737533
142
0.0
142
0.0
142
0.0
142
0.0
142
0.0008202099737533
142
0.0
142
0.0
142
0.0
142
0.0
142
1.0
142
0.0
142
0.0
142
0.0
142
0.0
142
1.0
179
     0
144
0.0008202099737533
144
0.0
144
0.0
144
0.0
144
0.0
144
0.0008202099737533
144
0.0
144
0.0
144
0.0
144
0.0
144
1.0
144
0.0
144
0.0
144
0.0
144
0.0
144
1.0
147
0.0008202099737533
147
0.0
147
0.0
147
0.0
147
0.0
147
0.0008202099737533
147
0.0
147
0.0
147
0.0
147
0.0
147
1.0
147
0.0
147
0.0
147
0.0
147
0.0
147
1.0
  0
MATERIAL
  5
4065
102
{ACAD_XDICTIONARY
360
4066
102
}
102
{ACAD_REACTORS
330
BD
102
}
330
BD
100
AcDbMaterial
  1
ByLayer
 72
     0
 43
0.0008202099737533
 43
0.0
 43
0.0
 43
0.0
 43
0.0
 43
0.0008202099737533
 43
0.0
 43
0.0
 43
0.0
 43
0.0
 43
1.0
 43
0.0
 43
0.0
 43
0.0
 43
0.0
 43
1.0
 77
     0
 47
0.0008202099737533
 47
0.0
 47
0.0
 47
0.0
 47
0.0
 47
0.0008202099737533
 47
0.0
 47
0.0
 47
0.0
 47
0.0
 47
1.0
 47
0.0
 47
0.0
 47
0.0
 47
0.0
 47
1.0
171
     0
 49
0.0008202099737533
 49
0.0
 49
0.0
 49
0.0
 49
0.0
 49
0.0008202099737533
 49
0.0
 49
0.0
 49
0.0
 49
0.0
 49
1.0
 49
0.0
 49
0.0
 49
0.0
 49
0.0
 49
1.0
175
     0
142
0.0008202099737533
142
0.0
142
0.0
142
0.0
142
0.0
142
0.0008202099737533
142
0.0
142
0.0
142
0.0
142
0.0
142
1.0
142
0.0
142
0.0
142
0.0
142
0.0
142
1.0
179
     0
144
0.0008202099737533
144
0.0
144
0.0
144
0.0
144
0.0
144
0.0008202099737533
144
0.0
144
0.0
144
0.0
144
0.0
144
1.0
144
0.0
144
0.0
144
0.0
144
0.0
144
1.0
147
0.0008202099737533
147
0.0
147
0.0
147
0.0
147
0.0
147
0.0008202099737533
147
0.0
147
0.0
147
0.0
147
0.0
147
1.0
147
0.0
147
0.0
147
0.0
147
0.0
147
1.0
  0
MATERIAL
  5
4075
102
{ACAD_XDICTIONARY
360
4076
102
}
102
{ACAD_REACTORS
330
BD
102
}
330
BD
100
AcDbMaterial
  1
Global
 72
     0
 43
0.0008202099737533
 43
0.0
 43
0.0
 43
0.0
 43
0.0
 43
0.0008202099737533
 43
0.0
 43
0.0
 43
0.0
 43
0.0
 43
1.0
 43
0.0
 43
0.0
 43
0.0
 43
0.0
 43
1.0
 77
     0
 47
0.0008202099737533
 47
0.0
 47
0.0
 47
0.0
 47
0.0
 47
0.0008202099737533
 47
0.0
 47
0.0
 47
0.0
 47
0.0
 47
1.0
 47
0.0
 47
0.0
 47
0.0
 47
0.0
 47
1.0
171
     0
 49
0.0008202099737533
 49
0.0
 49
0.0
 49
0.0
 49
0.0
 49
0.0008202099737533
 49
0.0
 49
0.0
 49
0.0
 49
0.0
 49
1.0
 49
0.0
 49
0.0
 49
0.0
 49
0.0
 49
1.0
175
     0
142
0.0008202099737533
142
0.0
142
0.0
142
0.0
142
0.0
142
0.0008202099737533
142
0.0
142
0.0
142
0.0
142
0.0
142
1.0
142
0.0
142
0.0
142
0.0
142
0.0
142
1.0
179
     0
144
0.0008202099737533
144
0.0
144
0.0
144
0.0
144
0.0
144
0.0008202099737533
144
0.0
144
0.0
144
0.0
144
0.0
144
1.0
144
0.0
144
0.0
144
0.0
144
0.0
144
1.0
147
0.0008202099737533
147
0.0
147
0.0
147
0.0
147
0.0
147
0.0008202099737533
147
0.0
147
0.0
147
0.0
147
0.0
147
1.0
147
0.0
147
0.0
147
0.0
147
0.0
147
1.0
  0
MLEADERSTYLE
  5
40A9
102
{ACAD_XDICTIONARY
360
416C
102
}
102
{ACAD_REACTORS
330
40A8
102
}
330
40A8
100
AcDbMLeaderStyle
170
     2
171
     1
172
     0
 90
        2
 40
0.0
 41
0.0
173
     1
 91
-1056964608
340
14
 92
       -2
290
     1
 42
2.0
291
     1
 43
0.36
  3
Standard
 44
4.0
300

342
11
174
     1
178
     6
175
     1
176
     0
 93
-1056964608
 45
4.0
292
     0
297
     0
 46
4.0
 94
-1056964608
 47
1.0
 49
1.0
140
1.0
293
     1
141
0.0
294
     1
177
     0
142
1.0
295
     0
296
     0
143
0.125
1001
ACAD_MLEADERVER
1070
     2
  0
MLINESTYLE
  5
18
102
{ACAD_REACTORS
330
17
102
}
330
17
100
AcDbMlineStyle
  2
STANDARD
 70
     0
  3

 62
   256
 51
90.0
 52
90.0
 71
     2
 49
0.5
 62
   256
  6
BYLAYER
 49
-0.5
 62
   256
  6
BYLAYER
  0
ACDBPLACEHOLDER
  5
F
102
{ACAD_REACTORS
330
E
102
}
330
E
  0
SCALE
  5
4097
102
{ACAD_REACTORS
330
4096
102
}
330
4096
100
AcDbScale
 70
     0
300
1:1
140
1.0
141
1.0
290
     1
  0
SCALE
  5
4098
102
{ACAD_REACTORS
330
4096
102
}
330
4096
100
AcDbScale
 70
     0
300
1:2
140
1.0
141
2.0
290
     0
  0
SCALE
  5
4099
102
{ACAD_REACTORS
330
4096
102
}
330
4096
100
AcDbScale
 70
     0
300
1:4
140
1.0
141
4.0
290
     0
  0
SCALE
  5
409A
102
{ACAD_REACTORS
330
4096
102
}
330
4096
100
AcDbScale
 70
     0
300
1:5
140
1.0
141
5.0
290
     0
  0
SCALE
  5
409B
102
{ACAD_REACTORS
330
4096
102
}
330
4096
100
AcDbScale
 70
     0
300
1:8
140
1.0
141
8.0
290
     0
  0
SCALE
  5
409C
102
{ACAD_REACTORS
330
4096
102
}
330
4096
100
AcDbScale
 70
     0
300
1:10
140
1.0
141
10.0
290
     0
  0
SCALE
  5
409D
102
{ACAD_REACTORS
330
4096
102
}
330
4096
100
AcDbScale
 70
     0
300
1:16
140
1.0
141
16.0
290
     0
  0
SCALE
  5
409E
102
{ACAD_REACTORS
330
4096
102
}
330
4096
100
AcDbScale
 70
     0
300
1:20
140
1.0
141
20.0
290
     0
  0
SCALE
  5
409F
102
{ACAD_REACTORS
330
4096
102
}
330
4096
100
AcDbScale
 70
     0
300
1:30
140
1.0
141
30.0
290
     0
  0
SCALE
  5
40A0
102
{ACAD_REACTORS
330
4096
102
}
330
4096
100
AcDbScale
 70
     0
300
1:40
140
1.0
141
40.0
290
     0
  0
SCALE
  5
40A1
102
{ACAD_REACTORS
330
4096
102
}
330
4096
100
AcDbScale
 70
     0
300
1:50
140
1.0
141
50.0
290
     0
  0
SCALE
  5
40A2
102
{ACAD_REACTORS
330
4096
102
}
330
4096
100
AcDbScale
 70
     0
300
1:100
140
1.0
141
100.0
290
     0
  0
SCALE
  5
40A3
102
{ACAD_REACTORS
330
4096
102
}
330
4096
100
AcDbScale
 70
     0
300
2:1
140
2.0
141
1.0
290
     0
  0
SCALE
  5
40A4
102
{ACAD_REACTORS
330
4096
102
}
330
4096
100
AcDbScale
 70
     0
300
4:1
140
4.0
141
1.0
290
     0
  0
SCALE
  5
40A5
102
{ACAD_REACTORS
330
4096
102
}
330
4096
100
AcDbScale
 70
     0
300
8:1
140
8.0
141
1.0
290
     0
  0
SCALE
  5
40A6
102
{ACAD_REACTORS
330
4096
102
}
330
4096
100
AcDbScale
 70
     0
300
10:1
140
10.0
141
1.0
290
     0
  0
SCALE
  5
40A7
102
{ACAD_REACTORS
330
4096
102
}
330
4096
100
AcDbScale
 70
     0
300
100:1
140
100.0
141
1.0
290
     0
  0
ACDBSECTIONVIEWSTYLE
  5
40AB
102
{ACAD_REACTORS
330
40AA
102
}
330
40AA
100
AcDbModelDocViewStyle
 70
     0
  3
Metric50
290
     0
100
AcDbSectionViewStyle
 70
     0
 71
     0
 90
      102
 71
     1
340
11
 40
5.0
340
0
340
0
 40
5.0
300
I, O, Q, S, X, Z
 40
10.0
 90
        0
 40
2.5
 90
        0
 71
     2
340
16
 90
       25
340
16
 90
       50
 40
5.0
 40
2.5
 40
5.0
 71
     3
340
11
 40
5.0
 90
        0
 40
15.0
 90
        1
300
%<\AcVar ViewSectionStartId>%-%<\AcVar ViewSectionEndId>% (%<\AcVar ViewScale \f "%sn">%)
 71
     4
300
ANSI31
 40
1.0
 90
        0
290
     0
290
     0
 90
        6
 40
0.0
 40
1.570796326794896
 40
0.2617993877991494
 40
1.308996938995747
 40
-0.2617993877991494
 40
1.832595714594046
  0
TABLESTYLE
  5
584
102
{ACAD_XDICTIONARY
360
4124
102
}
102
{ACAD_REACTORS
330
583
102
}
330
583
100
AcDbTableStyle
  3
Standard
 70
     0
 71
     0
 40
1.5
 41
1.5
280
     0
281
     0
  7
STANDARD
140
4.5
170
     2
 62
     0
 63
     7
283
     0
274
    -2
284
     1
 64
     0
275
    -2
285
     1
 65
     0
276
    -2
286
     1
 66
     0
277
    -2
287
     1
 67
     0
278
    -2
288
     1
 68
     0
279
    -2
289
     1
 69
     0
  7
STANDARD
140
6.0
170
     5
 62
     0
 63
     7
283
     0
274
    -2
284
     1
 64
     0
275
    -2
285
     1
 65
     0
276
    -2
286
     1
 66
     0
277
    -2
287
     1
 67
     0
278
    -2
288
     1
 68
     0
279
    -2
289
     1
 69
     0
  7
STANDARD
140
4.5
170
     5
 62
     0
 63
     7
283
     0
274
    -2
284
     1
 64
     0
275
    -2
285
     1
 65
     0
276
    -2
286
     1
 66
     0
277
    -2
287
     1
 67
     0
278
    -2
288
     1
 68
     0
279
    -2
289
     1
 69
     0
  0
VISUALSTYLE
  5
4083
102
{ACAD_XDICTIONARY
360
4145
102
}
102
{ACAD_REACTORS
330
407D
102
}
330
407D
100
AcDbVisualStyle
  2
2dWireframe
 70
     4
 71
     0
 72
     2
 73
     0
 90
        0
 40
-0.6
 41
-30.0
 62
     5
 63
     7
 74
     1
 91
        4
 64
     7
 65
   257
 75
     1
175
     1
 42
1.0
 92
        0
 66
   257
 43
1.0
 76
     1
 77
     6
 78
     2
 67
     7
 79
     5
170
     0
171
     0
290
     0
174
     0
 93
        1
 44
0.0
173
     0
291
     0
 45
0.0
1001
ACAD
1000
AcDbSavedByObjectVersion
1070
     0
  0
VISUALSTYLE
  5
4082
102
{ACAD_XDICTIONARY
360
4143
102
}
102
{ACAD_REACTORS
330
407D
102
}
330
407D
100
AcDbVisualStyle
  2
Basic
 70
     7
 71
     1
 72
     0
 73
     1
 90
        0
 40
-0.6
 41
-30.0
 62
     5
 63
     7
 74
     0
 91
        4
 64
     7
 65
   257
 75
     1
175
     1
 42
1.0
 92
        8
 66
     7
 43
1.0
 76
     1
 77
     6
 78
     2
 67
     7
 79
     5
170
     0
171
     0
290
     0
174
     0
 93
        1
 44
0.0
173
     0
291
     1
 45
0.0
1001
ACAD
1000
AcDbSavedByObjectVersion
1070
     0
  0
VISUALSTYLE
  5
4089
102
{ACAD_XDICTIONARY
360
4151
102
}
102
{ACAD_REACTORS
330
407D
102
}
330
407D
100
AcDbVisualStyle
  2
Brighten
 70
    12
 71
     2
 72
     2
 73
     0
 90
        0
 40
-0.6
 41
-30.0
 62
     5
 63
     7
 74
     1
 91
        4
 64
     7
 65
   257
 75
     1
175
     1
 42
1.0
 92
        8
 66
     7
 43
1.0
 76
     1
 77
     6
 78
     2
 67
     7
 79
     5
170
     0
171
     0
290
     0
174
     0
 93
        1
 44
50.0
173
     0
291
     1
 45
0.0
1001
ACAD
1000
AcDbSavedByObjectVersion
1070
     0
  0
VISUALSTYLE
  5
408D
102
{ACAD_XDICTIONARY
360
4159
102
}
102
{ACAD_REACTORS
330
407D
102
}
330
407D
100
AcDbVisualStyle
  2
ColorChange
 70
    16
 71
     2
 72
     2
 73
     3
 90
        0
 40
-0.6
 41
-30.0
 62
     5
 63
     8
 74
     1
 91
        4
 64
     7
 65
   257
 75
     1
175
     1
 42
1.0
 92
        8
 66
     8
 43
1.0
 76
     1
 77
     6
 78
     2
 67
     7
 79
     5
170
     0
171
     0
290
     0
174
     0
 93
        1
 44
0.0
173
     0
291
     1
 45
0.0
1001
ACAD
1000
AcDbSavedByObjectVersion
1070
     0
  0
VISUALSTYLE
  5
4086
102
{ACAD_XDICTIONARY
360
414B
102
}
102
{ACAD_REACTORS
330
407D
102
}
330
407D
100
AcDbVisualStyle
  2
Conceptual
 70
     9
 71
     3
 72
     2
 73
     0
 90
        0
 40
-0.6
 41
-30.0
 62
     5
 63
     7
 74
     2
 91
        2
 64
     7
 65
   257
 75
     1
175
     1
 42
179.0
 92
        8
 66
     7
 43
1.0
 76
     1
 77
     6
 78
     2
 67
     7
 79
     3
170
     0
171
     0
290
     0
174
     0
 93
        1
 44
0.0
173
     0
291
     0
 45
0.0
1001
ACAD
1000
AcDbSavedByObjectVersion
1070
     0
  0
VISUALSTYLE
  5
4088
102
{ACAD_XDICTIONARY
360
414F
102
}
102
{ACAD_REACTORS
330
407D
102
}
330
407D
100
AcDbVisualStyle
  2
Dim
 70
    11
 71
     2
 72
     2
 73
     0
 90
        0
 40
-0.6
 41
-30.0
 62
     5
 63
     7
 74
     1
 91
        4
 64
     7
 65
   257
 75
     1
175
     1
 42
1.0
 92
        8
 66
     7
 43
1.0
 76
     1
 77
     6
 78
     2
 67
     7
 79
     5
170
     0
171
     0
290
     0
174
     0
 93
        1
 44
-50.0
173
     0
291
     1
 45
0.0
1001
ACAD
1000
AcDbSavedByObjectVersion
1070
     0
  0
VISUALSTYLE
  5
4095
102
{ACAD_XDICTIONARY
360
4169
102
}
102
{ACAD_REACTORS
330
407D
102
}
330
407D
100
AcDbVisualStyle
  2
EdgeColorOff
 70
    22
 71
     2
 72
     2
 73
     0
 90
        0
 40
-0.6
 41
-30.0
 62
     5
 63
     7
 74
     1
 91
        4
 64
     7
 65
   257
 75
     1
175
     1
 42
1.0
 92
        8
 66
     7
 43
1.0
 76
     1
 77
     6
 78
     2
 67
     7
 79
     5
170
     0
171
     0
290
     0
174
     0
 93
        1
 44
0.0
173
     0
291
     1
 45
0.0
1001
ACAD
1000
AcDbSavedByObjectVersion
1070
     0
  0
VISUALSTYLE
  5
408C
102
{ACAD_XDICTIONARY
360
4157
102
}
102
{ACAD_REACTORS
330
407D
102
}
330
407D
100
AcDbVisualStyle
  2
Facepattern
 70
    15
 71
     2
 72
     2
 73
     0
 90
        0
 40
-0.6
 41
-30.0
 62
     5
 63
     7
 74
     1
 91
        4
 64
     7
 65
   257
 75
     1
175
     1
 42
1.0
 92
        8
 66
     7
 43
1.0
 76
     1
 77
     6
 78
     2
 67
     7
 79
     5
170
     0
171
     0
290
     0
174
     0
 93
        1
 44
0.0
173
     0
291
     1
 45
0.0
1001
ACAD
1000
AcDbSavedByObjectVersion
1070
     0
  0
VISUALSTYLE
  5
407E
102
{ACAD_XDICTIONARY
360
413B
102
}
102
{ACAD_REACTORS
330
407D
102
}
330
407D
100
AcDbVisualStyle
  2
Flat
 70
     0
 71
     2
 72
     1
 73
     1
 90
        2
 40
-0.6
 41
30.0
 62
     5
 63
     7
 74
     0
 91
        0
 64
     7
 65
   257
 75
     1
175
     1
 42
1.0
 92
        8
 66
     7
 43
1.0
 76
     1
 77
     6
 78
     2
 67
     7
 79
     5
170
     0
171
     0
290
     0
174
     0
 93
       13
 44
0.0
173
     0
291
     1
 45
0.0
1001
ACAD
1000
AcDbSavedByObjectVersion
1070
     0
  0
VISUALSTYLE
  5
407F
102
{ACAD_XDICTIONARY
360
413D
102
}
102
{ACAD_REACTORS
330
407D
102
}
330
407D
100
AcDbVisualStyle
  2
FlatWithEdges
 70
     1
 71
     2
 72
     1
 73
     1
 90
        2
 40
-0.6
 41
30.0
 62
     5
 63
     7
 74
     1
 91
        0
 64
     7
 65
   257
 75
     1
175
     1
 42
1.0
 92
        0
 66
   257
 43
1.0
 76
     1
 77
     6
 78
     2
 67
     7
 79
     5
170
     0
171
     0
290
     0
174
     0
 93
       13
 44
0.0
173
     0
291
     1
 45
0.0
1001
ACAD
1000
AcDbSavedByObjectVersion
1070
     0
  0
VISUALSTYLE
  5
4080
102
{ACAD_XDICTIONARY
360
413F
102
}
102
{ACAD_REACTORS
330
407D
102
}
330
407D
100
AcDbVisualStyle
  2
Gouraud
 70
     2
 71
     2
 72
     2
 73
     1
 90
        2
 40
-0.6
 41
30.0
 62
     5
 63
     7
 74
     0
 91
        0
 64
     7
 65
   257
 75
     1
175
     1
 42
1.0
 92
        0
 66
     7
 43
1.0
 76
     1
 77
     6
 78
     2
 67
     7
 79
     5
170
     0
171
     0
290
     0
174
     0
 93
       13
 44
0.0
173
     0
291
     1
 45
0.0
1001
ACAD
1000
AcDbSavedByObjectVersion
1070
     0
  0
VISUALSTYLE
  5
4081
102
{ACAD_XDICTIONARY
360
4141
102
}
102
{ACAD_REACTORS
330
407D
102
}
330
407D
100
AcDbVisualStyle
  2
GouraudWithEdges
 70
     3
 71
     2
 72
     2
 73
     1
 90
        2
 40
-0.6
 41
30.0
 62
     5
 63
     7
 74
     1
 91
        0
 64
     7
 65
   257
 75
     1
175
     1
 42
1.0
 92
        0
 66
   257
 43
1.0
 76
     1
 77
     6
 78
     2
 67
     7
 79
     5
170
     0
171
     0
290
     0
174
     0
 93
       13
 44
0.0
173
     0
291
     1
 45
0.0
1001
ACAD
1000
AcDbSavedByObjectVersion
1070
     0
  0
VISUALSTYLE
  5
4085
102
{ACAD_XDICTIONARY
360
4149
102
}
102
{ACAD_REACTORS
330
407D
102
}
330
407D
100
AcDbVisualStyle
  2
Hidden
 70
     6
 71
     1
 72
     2
 73
     2
 90
        0
 40
-0.6
 41
-30.0
 62
     5
 63
     7
 74
     2
 91
        2
 64
     7
 65
   257
 75
     2
175
     1
 42
40.0
 92
        0
 66
   257
 43
1.0
 76
     1
 77
     6
 78
     2
 67
     7
 79
     3
170
     0
171
     0
290
     0
174
     0
 93
        1
 44
0.0
173
     0
291
     0
 45
0.0
1001
ACAD
1000
AcDbSavedByObjectVersion
1070
     0
  0
VISUALSTYLE
  5
4093
102
{ACAD_XDICTIONARY
360
4165
102
}
102
{ACAD_REACTORS
330
407D
102
}
330
407D
100
AcDbVisualStyle
  2
JitterOff
 70
    20
 71
     2
 72
     2
 73
     0
 90
        0
 40
-0.6
 41
-30.0
 62
     5
 63
     7
 74
     1
 91
        4
 64
     7
 65
   257
 75
     1
175
     1
 42
1.0
 92
       10
 66
     7
 43
1.0
 76
     1
 77
     6
 78
     2
 67
     7
 79
     5
170
     0
171
     0
290
     0
174
     0
 93
        1
 44
0.0
173
     0
291
     1
 45
0.0
1001
ACAD
1000
AcDbSavedByObjectVersion
1070
     0
  0
VISUALSTYLE
  5
408B
102
{ACAD_XDICTIONARY
360
4155
102
}
102
{ACAD_REACTORS
330
407D
102
}
330
407D
100
AcDbVisualStyle
  2
Linepattern
 70
    14
 71
     2
 72
     2
 73
     0
 90
        0
 40
-0.6
 41
-30.0
 62
     5
 63
     7
 74
     1
 91
        4
 64
     7
 65
   257
 75
     7
175
     7
 42
1.0
 92
        8
 66
     7
 43
1.0
 76
     1
 77
     6
 78
     2
 67
     7
 79
     5
170
     0
171
     0
290
     0
174
     0
 93
        1
 44
0.0
173
     0
291
     1
 45
0.0
1001
ACAD
1000
AcDbSavedByObjectVersion
1070
     0
  0
VISUALSTYLE
  5
4094
102
{ACAD_XDICTIONARY
360
4167
102
}
102
{ACAD_REACTORS
330
407D
102
}
330
407D
100
AcDbVisualStyle
  2
OverhangOff
 70
    21
 71
     2
 72
     2
 73
     0
 90
        0
 40
-0.6
 41
-30.0
 62
     5
 63
     7
 74
     1
 91
        4
 64
     7
 65
   257
 75
     1
175
     1
 42
1.0
 92
        9
 66
     7
 43
1.0
 76
     1
 77
     6
 78
     2
 67
     7
 79
     5
170
     0
171
     0
290
     0
174
     0
 93
        1
 44
0.0
173
     0
291
     1
 45
0.0
1001
ACAD
1000
AcDbSavedByObjectVersion
1070
     0
  0
VISUALSTYLE
  5
4087
102
{ACAD_XDICTIONARY
360
414D
102
}
102
{ACAD_REACTORS
330
407D
102
}
330
407D
100
AcDbVisualStyle
  2
Realistic
 70
     8
 71
     2
 72
     3
 73
     0
 90
        2
 40
-0.6
 41
30.0
 62
     5
 63
     7
 74
     0
 91
        0
 64
     7
 65
   257
 75
     1
175
     1
 42
1.0
 92
        8
 66
   257
 43
1.0
 76
     1
 77
     6
 78
     2
 67
     7
 79
     3
170
     0
171
     0
290
     0
174
     0
 93
       13
 44
0.0
173
     0
291
     0
 45
0.0
1001
ACAD
1000
AcDbSavedByObjectVersion
1070
     0
  0
VISUALSTYLE
  5
4092
102
{ACAD_XDICTIONARY
360
4163
102
}
102
{ACAD_REACTORS
330
407D
102
}
330
407D
100
AcDbVisualStyle
  2
Shaded
 70
    27
 71
     2
 72
     2
 73
     1
 90
        2
 40
-0.6
 41
30.0
 62
     5
 63
     7
 74
     0
 91
        4
 64
     7
 65
   257
 75
     1
175
     1
 42
1.0
 92
        8
 66
   257
 43
1.0
 76
     1
 77
     6
 78
     2
 67
     8
 79
     3
170
     0
171
     0
290
     0
174
     0
 93
        5
 44
0.0
173
     0
291
     0
 45
0.0
1001
ACAD
1000
AcDbSavedByObjectVersion
1070
     0
  0
VISUALSTYLE
  5
4091
102
{ACAD_XDICTIONARY
360
4161
102
}
102
{ACAD_REACTORS
330
407D
102
}
330
407D
100
AcDbVisualStyle
  2
Shaded with edges
 70
    26
 71
     2
 72
     2
 73
     1
 90
        2
 40
-0.6
 41
30.0
 62
     5
 63
     7
 74
     1
 91
       10
 64
     7
 65
   257
 75
     2
175
     1
 42
1.0
 92
        8
 66
   257
 43
1.0
 76
     1
 77
     6
 78
     2
 67
     7
 79
     3
170
     0
171
     0
290
     0
174
     0
 93
        5
 44
0.0
173
     0
291
     0
 45
0.0
1001
ACAD
1000
AcDbSavedByObjectVersion
1070
     0
  0
VISUALSTYLE
  5
408E
102
{ACAD_XDICTIONARY
360
415B
102
}
102
{ACAD_REACTORS
330
407D
102
}
330
407D
100
AcDbVisualStyle
  2
Shades of Gray
 70
    23
 71
     2
 72
     2
 73
     3
 90
        0
 40
-0.6
 41
-30.0
 62
     5
 63
     7
 74
     2
 91
        2
 64
     7
 65
     7
 75
     1
175
     1
 42
40.0
 92
        8
 66
     7
 43
1.0
 76
     1
 77
     6
 78
     2
 67
     7
 79
     3
170
     0
171
     0
290
     0
174
     0
 93
        1
 44
0.0
173
     0
291
     0
 45
0.0
1001
ACAD
1000
AcDbSavedByObjectVersion
1070
     0
  0
VISUALSTYLE
  5
408F
102
{ACAD_XDICTIONARY
360
415D
102
}
102
{ACAD_REACTORS
330
407D
102
}
330
407D
100
AcDbVisualStyle
  2
Sketchy
 70
    24
 71
     1
 72
     2
 73
     2
 90
        0
 40
-0.6
 41
-30.0
 62
     5
 63
     7
 74
     2
 91
        2
 64
     7
 65
     7
 75
     1
175
     1
 42
40.0
 92
       11
 66
     7
 43
1.0
 76
     1
 77
     6
 78
     2
 67
     7
 79
     6
170
     0
171
     0
290
     0
174
     0
 93
        1
 44
0.0
173
     0
291
     0
 45
0.0
1001
ACAD
1000
AcDbSavedByObjectVersion
1070
     0
  0
VISUALSTYLE
  5
408A
102
{ACAD_XDICTIONARY
360
4153
102
}
102
{ACAD_REACTORS
330
407D
102
}
330
407D
100
AcDbVisualStyle
  2
Thicken
 70
    13
 71
     2
 72
     2
 73
     0
 90
        0
 40
-0.6
 41
-30.0
 62
     5
 63
     7
 74
     1
 91
        4
 64
     7
 65
   257
 75
     1
175
     1
 42
1.0
 92
       12
 66
     7
 43
1.0
 76
     1
 77
     6
 78
     2
 67
     7
 79
     5
170
     0
171
     0
290
     0
174
     0
 93
        1
 44
0.0
173
     0
291
     1
 45
0.0
1001
ACAD
1000
AcDbSavedByObjectVersion
1070
     0
  0
VISUALSTYLE
  5
4084
102
{ACAD_XDICTIONARY
360
4147
102
}
102
{ACAD_REACTORS
330
407D
102
}
330
407D
100
AcDbVisualStyle
  2
Wireframe
 70
     5
 71
     0
 72
     2
 73
     0
 90
        0
 40
-0.6
 41
-30.0
 62
     5
 63
     7
 74
     1
 91
        4
 64
     7
 65
   257
 75
     1
175
     1
 42
1.0
 92
        0
 66
   257
 43
1.0
 76
     1
 77
     6
 78
     2
 67
     7
 79
     3
170
     0
171
     0
290
     0
174
     0
 93
        1
 44
0.0
173
     0
291
     0
 45
0.0
1001
ACAD
1000
AcDbSavedByObjectVersion
1070
     0
  0
VISUALSTYLE
  5
4090
102
{ACAD_XDICTIONARY
360
415F
102
}
102
{ACAD_REACTORS
330
407D
102
}
330
407D
100
AcDbVisualStyle
  2
X-Ray
 70
    25
 71
     2
 72
     2
 73
     1
 90
        1
 40
0.5
 41
-30.0
 62
     5
 63
     7
 74
     1
 91
        0
 64
     7
 65
   257
 75
     1
175
     1
 42
1.0
 92
        8
 66
     7
 43
1.0
 76
     1
 77
     6
 78
     2
 67
     7
 79
     3
170
     0
171
     0
290
     0
174
     0
 93
       13
 44
0.0
173
     0
291
     0
 45
0.0
1001
ACAD
1000
AcDbSavedByObjectVersion
1070
     0
  0
DICTIONARYVAR
  5
4121
102
{ACAD_REACTORS
330
94
102
}
330
94
100
DictionaryVariables
280
     0
  1
1:1
  0
DICTIONARYVAR
  5
411E
102
{ACAD_REACTORS
330
94
102
}
330
94
100
DictionaryVariables
280
     0
  1
STANDARD
  0
DICTIONARYVAR
  5
B86
102
{ACAD_REACTORS
330
94
102
}
330
94
100
DictionaryVariables
280
     0
  1
STANDARD
  0
DICTIONARYVAR
  5
411F
102
{ACAD_REACTORS
330
94
102
}
330
94
100
DictionaryVariables
280
     0
  1
Metric50
  0
DICTIONARYVAR
  5
4120
102
{ACAD_REACTORS
330
94
102
}
330
94
100
DictionaryVariables
280
     0
  1
Metric50
  0
DICTIONARYVAR
  5
96
102
{ACAD_REACTORS
330
94
102
}
330
94
100
DictionaryVariables
280
     0
  1
2
  0
DICTIONARYVAR
  5
95
102
{ACAD_REACTORS
330
94
102
}
330
94
100
DictionaryVariables
280
     0
  1
0
  0
DICTIONARYVAR
  5
4122
102
{ACAD_REACTORS
330
94
102
}
330
94
100
DictionaryVariables
280
     0
  1
127
  0
DICTIONARYVAR
  5
4123
102
{ACAD_REACTORS
330
94
102
}
330
94
100
DictionaryVariables
280
     0
  1
0
  0
DICTIONARY
  5
B73
102
{ACAD_REACTORS
330
5B
102
}
330
5B
100
AcDbDictionary
281
     1
  0
DICTIONARY
  5
61
102
{ACAD_REACTORS
330
5B
102
}
330
5B
100
AcDbDictionary
281
     1
  0
XRECORD
  5
58F
102
{ACAD_REACTORS
330
5B
102
}
330
5B
100
AcDbXrecord
280
     1
 90
-1023410169
  0
XRECORD
  5
35F
102
{ACAD_REACTORS
330
35E
102
}
330
35E
100
AcDbXrecord
280
     1
 91
       16
330
1E1
 90
        0
 62
     7
370
    -3
331
16
  1
色_7
330
10
 90
        8
 62
     7
370
    -3
331
16
  1
色_7
  0
DICTIONARY
  5
412A
330
22
100
AcDbDictionary
280
     1
281
     1
  3
ACAD_XREC_ROUNDTRIP
360
412B
  0
DICTIONARY
  5
4128
330
1E
100
AcDbDictionary
280
     1
281
     1
  3
ACAD_XREC_ROUNDTRIP
360
4129
  0
DICTIONARY
  5
412C
330
26
100
AcDbDictionary
280
     1
281
     1
  3
ACAD_XREC_ROUNDTRIP
360
412D
  0
DICTIONARY
  5
406E
330
406D
100
AcDbDictionary
280
     1
281
     1
  3
ACAD_XREC_ROUNDTRIP
360
4139
  3
BUMPTILE
360
4070
  3
DIFFUSETILE
360
406F
  3
OPACITYTILE
360
4073
  3
REFLECTIONTILE
360
4072
  3
REFRACTIONTILE
360
4074
  3
SPECULARTILE
360
4071
  0
DICTIONARY
  5
4066
330
4065
100
AcDbDictionary
280
     1
281
     1
  3
ACAD_XREC_ROUNDTRIP
360
4138
  3
BUMPTILE
360
4068
  3
DIFFUSETILE
360
4067
  3
OPACITYTILE
360
406B
  3
REFLECTIONTILE
360
406A
  3
REFRACTIONTILE
360
406C
  3
SPECULARTILE
360
4069
  0
DICTIONARY
  5
4076
330
4075
100
AcDbDictionary
280
     1
281
     1
  3
ACAD_XREC_ROUNDTRIP
360
413A
  3
BUMPTILE
360
4078
  3
DIFFUSETILE
360
4077
  3
OPACITYTILE
360
407B
  3
REFLECTIONTILE
360
407A
  3
REFRACTIONTILE
360
407C
  3
SPECULARTILE
360
4079
  0
DICTIONARY
  5
416C
330
40A9
100
AcDbDictionary
280
     1
281
     1
  3
ACAD_XREC_ROUNDTRIP
360
416D
  0
DICTIONARY
  5
4124
330
584
100
AcDbDictionary
280
     1
281
     1
  3
ACAD_ROUNDTRIP_2008_TABLESTYLE_CELLSTYLEMAP
360
4125
  3
ACAD_XREC_ROUNDTRIP
360
4132
  0
DICTIONARY
  5
4145
330
4083
100
AcDbDictionary
280
     1
281
     1
  3
ACAD_XREC_ROUNDTRIP
360
4146
  0
DICTIONARY
  5
4143
330
4082
100
AcDbDictionary
280
     1
281
     1
  3
ACAD_XREC_ROUNDTRIP
360
4144
  0
DICTIONARY
  5
4151
330
4089
100
AcDbDictionary
280
     1
281
     1
  3
ACAD_XREC_ROUNDTRIP
360
4152
  0
DICTIONARY
  5
4159
330
408D
100
AcDbDictionary
280
     1
281
     1
  3
ACAD_XREC_ROUNDTRIP
360
415A
  0
DICTIONARY
  5
414B
330
4086
100
AcDbDictionary
280
     1
281
     1
  3
ACAD_XREC_ROUNDTRIP
360
414C
  0
DICTIONARY
  5
414F
330
4088
100
AcDbDictionary
280
     1
281
     1
  3
ACAD_XREC_ROUNDTRIP
360
4150
  0
DICTIONARY
  5
4169
330
4095
100
AcDbDictionary
280
     1
281
     1
  3
ACAD_XREC_ROUNDTRIP
360
416A
  0
DICTIONARY
  5
4157
330
408C
100
AcDbDictionary
280
     1
281
     1
  3
ACAD_XREC_ROUNDTRIP
360
4158
  0
DICTIONARY
  5
413B
330
407E
100
AcDbDictionary
280
     1
281
     1
  3
ACAD_XREC_ROUNDTRIP
360
413C
  0
DICTIONARY
  5
413D
330
407F
100
AcDbDictionary
280
     1
281
     1
  3
ACAD_XREC_ROUNDTRIP
360
413E
  0
DICTIONARY
  5
413F
330
4080
100
AcDbDictionary
280
     1
281
     1
  3
ACAD_XREC_ROUNDTRIP
360
4140
  0
DICTIONARY
  5
4141
330
4081
100
AcDbDictionary
280
     1
281
     1
  3
ACAD_XREC_ROUNDTRIP
360
4142
  0
DICTIONARY
  5
4149
330
4085
100
AcDbDictionary
280
     1
281
     1
  3
ACAD_XREC_ROUNDTRIP
360
414A
  0
DICTIONARY
  5
4165
330
4093
100
AcDbDictionary
280
     1
281
     1
  3
ACAD_XREC_ROUNDTRIP
360
4166
  0
DICTIONARY
  5
4155
330
408B
100
AcDbDictionary
280
     1
281
     1
  3
ACAD_XREC_ROUNDTRIP
360
4156
  0
DICTIONARY
  5
4167
330
4094
100
AcDbDictionary
280
     1
281
     1
  3
ACAD_XREC_ROUNDTRIP
360
4168
  0
DICTIONARY
  5
414D
330
4087
100
AcDbDictionary
280
     1
281
     1
  3
ACAD_XREC_ROUNDTRIP
360
414E
  0
DICTIONARY
  5
4163
330
4092
100
AcDbDictionary
280
     1
281
     1
  3
ACAD_XREC_ROUNDTRIP
360
4164
  0
DICTIONARY
  5
4161
330
4091
100
AcDbDictionary
280
     1
281
     1
  3
ACAD_XREC_ROUNDTRIP
360
4162
  0
DICTIONARY
  5
415B
330
408E
100
AcDbDictionary
280
     1
281
     1
  3
ACAD_XREC_ROUNDTRIP
360
415C
  0
DICTIONARY
  5
415D
330
408F
100
AcDbDictionary
280
     1
281
     1
  3
ACAD_XREC_ROUNDTRIP
360
415E
  0
DICTIONARY
  5
4153
330
408A
100
AcDbDictionary
280
     1
281
     1
  3
ACAD_XREC_ROUNDTRIP
360
4154
  0
DICTIONARY
  5
4147
330
4084
100
AcDbDictionary
280
     1
281
     1
  3
ACAD_XREC_ROUNDTRIP
360
4148
  0
DICTIONARY
  5
415F
330
4090
100
AcDbDictionary
280
     1
281
     1
  3
ACAD_XREC_ROUNDTRIP
360
4160
  0
XRECORD
  5
412B
102
{ACAD_REACTORS
330
412A
102
}
330
412A
100
AcDbXrecord
280
     1
102
SHADEPLOT
 70
     0
102
SHADEPLOTRESLEVEL
 70
     2
102
SHADEPLOTCUSTOMDPI
 70
   300
  0
XRECORD
  5
4129
102
{ACAD_REACTORS
330
4128
102
}
330
4128
100
AcDbXrecord
280
     1
102
SHADEPLOT
 70
     1
102
SHADEPLOTRESLEVEL
 70
     2
102
SHADEPLOTCUSTOMDPI
 70
   300
  0
XRECORD
  5
412D
102
{ACAD_REACTORS
330
412C
102
}
330
412C
100
AcDbXrecord
280
     1
102
SHADEPLOT
 70
     1
102
SHADEPLOTRESLEVEL
 70
     2
102
SHADEPLOTCUSTOMDPI
 70
   300
  0
XRECORD
  5
4139
102
{ACAD_REACTORS
330
406E
102
}
330
406E
100
AcDbXrecord
280
     1
102
MATERIAL
148
0.0
149
0.0
149
0.0
 93
        0
 94
      127
282
     0
 72
     0
 77
     0
171
     0
175
     0
179
     0
273
     0
  0
XRECORD
  5
4070
102
{ACAD_REACTORS
330
406E
102
}
330
406E
100
AcDbXrecord
280
     1
270
     1
271
     1
  0
XRECORD
  5
406F
102
{ACAD_REACTORS
330
406E
102
}
330
406E
100
AcDbXrecord
280
     1
270
     1
271
     1
  0
XRECORD
  5
4073
102
{ACAD_REACTORS
330
406E
102
}
330
406E
100
AcDbXrecord
280
     1
270
     1
271
     1
  0
XRECORD
  5
4072
102
{ACAD_REACTORS
330
406E
102
}
330
406E
100
AcDbXrecord
280
     1
270
     1
271
     1
  0
XRECORD
  5
4074
102
{ACAD_REACTORS
330
406E
102
}
330
406E
100
AcDbXrecord
280
     1
270
     1
271
     1
  0
XRECORD
  5
4071
102
{ACAD_REACTORS
330
406E
102
}
330
406E
100
AcDbXrecord
280
     1
270
     1
271
     1
  0
XRECORD
  5
4138
102
{ACAD_REACTORS
330
4066
102
}
330
4066
100
AcDbXrecord
280
     1
102
MATERIAL
148
0.0
149
0.0
149
0.0
 93
        0
 94
      127
282
     0
 72
     0
 77
     0
171
     0
175
     0
179
     0
273
     0
  0
XRECORD
  5
4068
102
{ACAD_REACTORS
330
4066
102
}
330
4066
100
AcDbXrecord
280
     1
270
     1
271
     1
  0
XRECORD
  5
4067
102
{ACAD_REACTORS
330
4066
102
}
330
4066
100
AcDbXrecord
280
     1
270
     1
271
     1
  0
XRECORD
  5
406B
102
{ACAD_REACTORS
330
4066
102
}
330
4066
100
AcDbXrecord
280
     1
270
     1
271
     1
  0
XRECORD
  5
406A
102
{ACAD_REACTORS
330
4066
102
}
330
4066
100
AcDbXrecord
280
     1
270
     1
271
     1
  0
XRECORD
  5
406C
102
{ACAD_REACTORS
330
4066
102
}
330
4066
100
AcDbXrecord
280
     1
270
     1
271
     1
  0
XRECORD
  5
4069
102
{ACAD_REACTORS
330
4066
102
}
330
4066
100
AcDbXrecord
280
     1
270
     1
271
     1
  0
XRECORD
  5
413A
102
{ACAD_REACTORS
330
4076
102
}
330
4076
100
AcDbXrecord
280
     1
102
MATERIAL
148
0.0
149
0.0
149
0.0
 93
        0
 94
      127
282
     0
 72
     0
 77
     0
171
     0
175
     0
179
     0
273
     0
  0
XRECORD
  5
4078
102
{ACAD_REACTORS
330
4076
102
}
330
4076
100
AcDbXrecord
280
     1
270
     1
271
     1
  0
XRECORD
  5
4077
102
{ACAD_REACTORS
330
4076
102
}
330
4076
100
AcDbXrecord
280
     1
270
     1
271
     1
  0
XRECORD
  5
407B
102
{ACAD_REACTORS
330
4076
102
}
330
4076
100
AcDbXrecord
280
     1
270
     1
271
     1
  0
XRECORD
  5
407A
102
{ACAD_REACTORS
330
4076
102
}
330
4076
100
AcDbXrecord
280
     1
270
     1
271
     1
  0
XRECORD
  5
407C
102
{ACAD_REACTORS
330
4076
102
}
330
4076
100
AcDbXrecord
280
     1
270
     1
271
     1
  0
XRECORD
  5
4079
102
{ACAD_REACTORS
330
4076
102
}
330
4076
100
AcDbXrecord
280
     1
270
     1
271
     1
  0
XRECORD
  5
416D
102
{ACAD_REACTORS
330
416C
102
}
330
416C
100
AcDbXrecord
280
     1
102
ACAD_ROUNDTRIP_2012_MLEADER_STYLE
298
     1
  0
CELLSTYLEMAP
  5
4125
102
{ACAD_REACTORS
330
4124
102
}
330
4124
100
AcDbCellStyleMap
 90
        3
300
CELLSTYLE
  1
TABLEFORMAT_BEGIN
 90
        5
170
     1
 91
        0
 92
    32768
 62
   257
 93
        1
300
CONTENTFORMAT
  1
CONTENTFORMAT_BEGIN
 90
        0
 91
        0
 92
        4
 93
        0
300

 40
0.0
140
1.0
 94
        5
 62
     0
340
11
144
6.0
309
CONTENTFORMAT_END
171
     1
301
MARGIN
  1
CELLMARGIN_BEGIN
 40
1.5
 40
1.5
 40
1.5
 40
1.5
 40
0.18
 40
0.18
309
CELLMARGIN_END
 94
        6
 95
        1
302
GRIDFORMAT
  1
GRIDFORMAT_BEGIN
 90
        0
 91
        1
 62
     0
 92
       -2
340
0
 93
        0
 40
0.045
309
GRIDFORMAT_END
 95
        2
302
GRIDFORMAT
  1
GRIDFORMAT_BEGIN
 90
        0
 91
        1
 62
     0
 92
       -2
340
0
 93
        0
 40
0.045
309
GRIDFORMAT_END
 95
        4
302
GRIDFORMAT
  1
GRIDFORMAT_BEGIN
 90
        0
 91
        1
 62
     0
 92
       -2
340
0
 93
        0
 40
0.045
309
GRIDFORMAT_END
 95
        8
302
GRIDFORMAT
  1
GRIDFORMAT_BEGIN
 90
        0
 91
        1
 62
     0
 92
       -2
340
0
 93
        0
 40
0.045
309
GRIDFORMAT_END
 95
       16
302
GRIDFORMAT
  1
GRIDFORMAT_BEGIN
 90
        0
 91
        1
 62
     0
 92
       -2
340
0
 93
        0
 40
0.045
309
GRIDFORMAT_END
 95
       32
302
GRIDFORMAT
  1
GRIDFORMAT_BEGIN
 90
        0
 91
        1
 62
     0
 92
       -2
340
0
 93
        0
 40
0.045
309
GRIDFORMAT_END
309
TABLEFORMAT_END
  1
CELLSTYLE_BEGIN
 90
        1
 91
        1
300
_TITLE
309
CELLSTYLE_END
300
CELLSTYLE
  1
TABLEFORMAT_BEGIN
 90
        5
170
     1
 91
        0
 92
        0
 62
   257
 93
        1
300
CONTENTFORMAT
  1
CONTENTFORMAT_BEGIN
 90
        0
 91
        0
 92
        4
 93
        0
300

 40
0.0
140
1.0
 94
        5
 62
     0
340
11
144
4.5
309
CONTENTFORMAT_END
171
     1
301
MARGIN
  1
CELLMARGIN_BEGIN
 40
1.5
 40
1.5
 40
1.5
 40
1.5
 40
0.18
 40
0.18
309
CELLMARGIN_END
 94
        6
 95
        1
302
GRIDFORMAT
  1
GRIDFORMAT_BEGIN
 90
        0
 91
        1
 62
     0
 92
       -2
340
0
 93
        0
 40
0.045
309
GRIDFORMAT_END
 95
        2
302
GRIDFORMAT
  1
GRIDFORMAT_BEGIN
 90
        0
 91
        1
 62
     0
 92
       -2
340
0
 93
        0
 40
0.045
309
GRIDFORMAT_END
 95
        4
302
GRIDFORMAT
  1
GRIDFORMAT_BEGIN
 90
        0
 91
        1
 62
     0
 92
       -2
340
0
 93
        0
 40
0.045
309
GRIDFORMAT_END
 95
        8
302
GRIDFORMAT
  1
GRIDFORMAT_BEGIN
 90
        0
 91
        1
 62
     0
 92
       -2
340
0
 93
        0
 40
0.045
309
GRIDFORMAT_END
 95
       16
302
GRIDFORMAT
  1
GRIDFORMAT_BEGIN
 90
        0
 91
        1
 62
     0
 92
       -2
340
0
 93
        0
 40
0.045
309
GRIDFORMAT_END
 95
       32
302
GRIDFORMAT
  1
GRIDFORMAT_BEGIN
 90
        0
 91
        1
 62
     0
 92
       -2
340
0
 93
        0
 40
0.045
309
GRIDFORMAT_END
309
TABLEFORMAT_END
  1
CELLSTYLE_BEGIN
 90
        2
 91
        1
300
_HEADER
309
CELLSTYLE_END
300
CELLSTYLE
  1
TABLEFORMAT_BEGIN
 90
        5
170
     1
 91
        0
 92
        0
 62
   257
 93
        1
300
CONTENTFORMAT
  1
CONTENTFORMAT_BEGIN
 90
        0
 91
        0
 92
        4
 93
        0
300

 40
0.0
140
1.0
 94
        2
 62
     0
340
11
144
4.5
309
CONTENTFORMAT_END
171
     1
301
MARGIN
  1
CELLMARGIN_BEGIN
 40
1.5
 40
1.5
 40
1.5
 40
1.5
 40
0.18
 40
0.18
309
CELLMARGIN_END
 94
        6
 95
        1
302
GRIDFORMAT
  1
GRIDFORMAT_BEGIN
 90
        0
 91
        1
 62
     0
 92
       -2
340
0
 93
        0
 40
0.045
309
GRIDFORMAT_END
 95
        2
302
GRIDFORMAT
  1
GRIDFORMAT_BEGIN
 90
        0
 91
        1
 62
     0
 92
       -2
340
0
 93
        0
 40
0.045
309
GRIDFORMAT_END
 95
        4
302
GRIDFORMAT
  1
GRIDFORMAT_BEGIN
 90
        0
 91
        1
 62
     0
 92
       -2
340
0
 93
        0
 40
0.045
309
GRIDFORMAT_END
 95
        8
302
GRIDFORMAT
  1
GRIDFORMAT_BEGIN
 90
        0
 91
        1
 62
     0
 92
       -2
340
0
 93
        0
 40
0.045
309
GRIDFORMAT_END
 95
       16
302
GRIDFORMAT
  1
GRIDFORMAT_BEGIN
 90
        0
 91
        1
 62
     0
 92
       -2
340
0
 93
        0
 40
0.045
309
GRIDFORMAT_END
 95
       32
302
GRIDFORMAT
  1
GRIDFORMAT_BEGIN
 90
        0
 91
        1
 62
     0
 92
       -2
340
0
 93
        0
 40
0.045
309
GRIDFORMAT_END
309
TABLEFORMAT_END
  1
CELLSTYLE_BEGIN
 90
        3
 91
        2
300
_DATA
309
CELLSTYLE_END
  0
XRECORD
  5
4132
102
{ACAD_REACTORS
330
4124
102
}
330
4124
100
AcDbXrecord
280
     1
102
ACAD_ROUNDTRIP_PRE2007_TABLESTYLE
 90
        4
 91
        0
  1

 92
        4
 93
        0
  2

 94
        4
 95
        0
  3

  0
XRECORD
  5
4146
102
{ACAD_REACTORS
330
4145
102
}
330
4145
100
AcDbXrecord
280
     1
102
RTVSPost2010Prop28
280
     1
102
RTVSPost2010PropOp28
 70
     1
102
RTVSPost2010Prop29
280
     1
102
RTVSPost2010PropOp29
 70
     1
102
RTVSPost2010Prop30
280
     0
102
RTVSPost2010PropOp30
 70
     1
102
RTVSPost2010Prop31
280
     0
102
RTVSPost2010PropOp31
 70
     1
102
RTVSPost2010Prop32
280
     0
102
RTVSPost2010PropOp32
 70
     1
102
RTVSPost2010Prop33
280
     0
102
RTVSPost2010PropOp33
 70
     1
102
RTVSPost2010Prop34
280
     0
102
RTVSPost2010PropOp34
 70
     1
102
RTVSPost2010Prop35
280
     0
102
RTVSPost2010PropOp35
 70
     1
102
RTVSPost2010Prop36
280
     0
102
RTVSPost2010PropOp36
 70
     1
102
RTVSPost2010Prop37
 90
       50
102
RTVSPost2010PropOp37
 70
     1
102
RTVSPost2010Prop38
140
0.0
102
RTVSPost2010PropOp38
 70
     1
102
RTVSPost2010Prop39
140
1.0
102
RTVSPost2010PropOp39
 70
     1
102
RTVSPost2010Prop40
 90
        0
102
RTVSPost2010PropOp40
 70
     1
102
RTVSPost2010Prop41ColorIndex
 90
       18
102
RTVSPost2010Prop41ColorRGB
 90
        0
102
RTVSPost2010PropOp41
 70
     1
102
RTVSPost2010Prop42
 90
       50
102
RTVSPost2010PropOp42
 70
     1
102
RTVSPost2010Prop43
 90
        3
102
RTVSPost2010PropOp43
 70
     1
102
RTVSPost2010Prop44ColorIndex
 90
        5
102
RTVSPost2010Prop44ColorRGB
 90
      255
102
RTVSPost2010PropOp44
 70
     1
102
RTVSPost2010Prop45
280
     0
102
RTVSPost2010PropOp45
 70
     1
102
RTVSPost2010Prop46
 90
       50
102
RTVSPost2010PropOp46
 70
     1
102
RTVSPost2010Prop47
 90
       50
102
RTVSPost2010PropOp47
 70
     1
102
RTVSPost2010Prop48
 90
       50
102
RTVSPost2010PropOp48
 70
     1
102
RTVSPost2010Prop49
280
     0
102
RTVSPost2010PropOp49
 70
     1
102
RTVSPost2010Prop50
 90
       50
102
RTVSPost2010PropOp50
 70
     1
102
RTVSPost2010Prop51ColorIndex
 90
      256
102
RTVSPost2010Prop51ColorRGB
 90
-16777216
102
RTVSPost2010PropOp51
 70
     0
102
RTVSPost2010Prop52
140
1.0
102
RTVSPost2010PropOp52
 70
     0
102
RTVSPost2010Prop53
 90
        2
102
RTVSPost2010PropOp53
 70
     1
102
RTVSPost2010Prop54
  1
strokes_ogs.tif
102
RTVSPost2010PropOp54
 70
     1
102
RTVSPost2010Prop55
280
     0
102
RTVSPost2010PropOp55
 70
     1
102
RTVSPost2010Prop56
140
1.0
102
RTVSPost2010PropOp56
 70
     1
102
RTVSPost2010Prop57
140
1.0
102
RTVSPost2010PropOp57
 70
     1
102
RTVSPropertyOp0
 70
     1
102
RTVSPropertyOp1
 70
     1
102
RTVSPropertyOp2
 70
     1
102
RTVSPropertyOp3
 70
     1
102
RTVSPropertyOp4
 70
     1
102
RTVSPropertyOp5
 70
     1
102
RTVSPropertyOp6
 70
     1
102
RTVSPropertyOp7
 70
     1
102
RTVSPropertyOp8
 70
     1
102
RTVSPropertyOp9
 70
     1
102
RTVSPropertyOp10
 70
     1
102
RTVSPropertyOp11
 70
     1
102
RTVSPropertyOp12
 70
     1
102
RTVSPropertyOp13
 70
     1
102
RTVSPropertyOp14
 70
     1
102
RTVSPropertyOp15
 70
     1
102
RTVSPropertyOp16
 70
     1
102
RTVSPropertyOp17
 70
     1
102
RTVSPropertyOp18
 70
     1
102
RTVSPropertyOp19
 70
     1
102
RTVSPropertyOp20
 70
     1
102
RTVSPropertyOp21
 70
     1
102
RTVSPropertyOp22
 70
     1
102
RTVSPropertyOp23
 70
     1
102
RTVSPropertyOp24
 70
     1
102
RTVSPropertyOp25
 70
     1
102
RTVSPropertyOp26
 70
     1
102
RTVSPropertyOp27
 70
     1
102
RTVSPropertyOp28
 70
     1
102
RTVSPropertyOp29
 70
     1
102
RTVSPropertyOp30
 70
     1
102
RTVSPropertyOp31
 70
     1
102
RTVSPropertyOp32
 70
     1
102
RTVSPropertyOp33
 70
     1
102
RTVSPropertyOp34
 70
     1
102
RTVSPropertyOp35
 70
     1
102
RTVSPropertyOp36
 70
     1
102
RTVSPropertyOp37
 70
     1
102
RTVSPropertyOp38
 70
     1
102
RTVSPropertyOp39
 70
     1
102
RTVSPropertyOp40
 70
     1
102
RTVSPropertyOp41
 70
     1
102
RTVSPropertyOp42
 70
     1
102
RTVSPropertyOp43
 70
     1
102
RTVSPropertyOp44
 70
     1
102
RTVSPropertyOp45
 70
     1
102
RTVSPropertyOp46
 70
     1
102
RTVSPropertyOp47
 70
     1
102
RTVSPropertyOp48
 70
     1
102
RTVSPropertyOp49
 70
     1
102
RTVSPropertyOp50
 70
     1
102
RTVSPropertyOp51
 70
     0
102
RTVSPropertyOp52
 70
     0
102
RTVSPropertyOp53
 70
     1
102
RTVSPropertyOp54
 70
     1
102
RTVSPropertyOp55
 70
     1
102
RTVSPropertyOp56
 70
     1
102
RTVSPropertyOp57
 70
     1
102
RTVSPropertyOp58
 70
     1
102
RTVSPropertyOp59
 70
     1
102
RTVSPropertyOp60
 70
     1
102
RTVSPropertyOp61
 70
     1
102
RTVSPropertyOp62
 70
     1
  0
XRECORD
  5
4144
102
{ACAD_REACTORS
330
4143
102
}
330
4143
100
AcDbXrecord
280
     1
102
RTVSPost2010Prop28
280
     0
102
RTVSPost2010PropOp28
 70
     1
102
RTVSPost2010Prop29
280
     1
102
RTVSPost2010PropOp29
 70
     1
102
RTVSPost2010Prop30
280
     1
102
RTVSPost2010PropOp30
 70
     1
102
RTVSPost2010Prop31
280
     0
102
RTVSPost2010PropOp31
 70
     1
102
RTVSPost2010Prop32
280
     0
102
RTVSPost2010PropOp32
 70
     1
102
RTVSPost2010Prop33
280
     0
102
RTVSPost2010PropOp33
 70
     1
102
RTVSPost2010Prop34
280
     0
102
RTVSPost2010PropOp34
 70
     1
102
RTVSPost2010Prop35
280
     0
102
RTVSPost2010PropOp35
 70
     1
102
RTVSPost2010Prop36
280
     0
102
RTVSPost2010PropOp36
 70
     1
102
RTVSPost2010Prop37
 90
       50
102
RTVSPost2010PropOp37
 70
     1
102
RTVSPost2010Prop38
140
0.0
102
RTVSPost2010PropOp38
 70
     1
102
RTVSPost2010Prop39
140
1.0
102
RTVSPost2010PropOp39
 70
     1
102
RTVSPost2010Prop40
 90
        0
102
RTVSPost2010PropOp40
 70
     1
102
RTVSPost2010Prop41ColorIndex
 90
       18
102
RTVSPost2010Prop41ColorRGB
 90
        0
102
RTVSPost2010PropOp41
 70
     1
102
RTVSPost2010Prop42
 90
       50
102
RTVSPost2010PropOp42
 70
     1
102
RTVSPost2010Prop43
 90
        3
102
RTVSPost2010PropOp43
 70
     1
102
RTVSPost2010Prop44ColorIndex
 90
        5
102
RTVSPost2010Prop44ColorRGB
 90
      255
102
RTVSPost2010PropOp44
 70
     1
102
RTVSPost2010Prop45
280
     0
102
RTVSPost2010PropOp45
 70
     1
102
RTVSPost2010Prop46
 90
       50
102
RTVSPost2010PropOp46
 70
     1
102
RTVSPost2010Prop47
 90
       50
102
RTVSPost2010PropOp47
 70
     1
102
RTVSPost2010Prop48
 90
       50
102
RTVSPost2010PropOp48
 70
     1
102
RTVSPost2010Prop49
280
     0
102
RTVSPost2010PropOp49
 70
     1
102
RTVSPost2010Prop50
 90
       50
102
RTVSPost2010PropOp50
 70
     1
102
RTVSPost2010Prop51ColorIndex
 90
      256
102
RTVSPost2010Prop51ColorRGB
 90
-16777216
102
RTVSPost2010PropOp51
 70
     0
102
RTVSPost2010Prop52
140
1.0
102
RTVSPost2010PropOp52
 70
     0
102
RTVSPost2010Prop53
 90
        2
102
RTVSPost2010PropOp53
 70
     1
102
RTVSPost2010Prop54
  1
strokes_ogs.tif
102
RTVSPost2010PropOp54
 70
     1
102
RTVSPost2010Prop55
280
     0
102
RTVSPost2010PropOp55
 70
     1
102
RTVSPost2010Prop56
140
1.0
102
RTVSPost2010PropOp56
 70
     1
102
RTVSPost2010Prop57
140
1.0
102
RTVSPost2010PropOp57
 70
     1
102
RTVSPropertyOp0
 70
     1
102
RTVSPropertyOp1
 70
     1
102
RTVSPropertyOp2
 70
     1
102
RTVSPropertyOp3
 70
     1
102
RTVSPropertyOp4
 70
     1
102
RTVSPropertyOp5
 70
     1
102
RTVSPropertyOp6
 70
     1
102
RTVSPropertyOp7
 70
     1
102
RTVSPropertyOp8
 70
     1
102
RTVSPropertyOp9
 70
     1
102
RTVSPropertyOp10
 70
     1
102
RTVSPropertyOp11
 70
     1
102
RTVSPropertyOp12
 70
     1
102
RTVSPropertyOp13
 70
     1
102
RTVSPropertyOp14
 70
     1
102
RTVSPropertyOp15
 70
     1
102
RTVSPropertyOp16
 70
     1
102
RTVSPropertyOp17
 70
     1
102
RTVSPropertyOp18
 70
     1
102
RTVSPropertyOp19
 70
     1
102
RTVSPropertyOp20
 70
     1
102
RTVSPropertyOp21
 70
     1
102
RTVSPropertyOp22
 70
     1
102
RTVSPropertyOp23
 70
     1
102
RTVSPropertyOp24
 70
     1
102
RTVSPropertyOp25
 70
     1
102
RTVSPropertyOp26
 70
     1
102
RTVSPropertyOp27
 70
     1
102
RTVSPropertyOp28
 70
     1
102
RTVSPropertyOp29
 70
     1
102
RTVSPropertyOp30
 70
     1
102
RTVSPropertyOp31
 70
     1
102
RTVSPropertyOp32
 70
     1
102
RTVSPropertyOp33
 70
     1
102
RTVSPropertyOp34
 70
     1
102
RTVSPropertyOp35
 70
     1
102
RTVSPropertyOp36
 70
     1
102
RTVSPropertyOp37
 70
     1
102
RTVSPropertyOp38
 70
     1
102
RTVSPropertyOp39
 70
     1
102
RTVSPropertyOp40
 70
     1
102
RTVSPropertyOp41
 70
     1
102
RTVSPropertyOp42
 70
     1
102
RTVSPropertyOp43
 70
     1
102
RTVSPropertyOp44
 70
     1
102
RTVSPropertyOp45
 70
     1
102
RTVSPropertyOp46
 70
     1
102
RTVSPropertyOp47
 70
     1
102
RTVSPropertyOp48
 70
     1
102
RTVSPropertyOp49
 70
     1
102
RTVSPropertyOp50
 70
     1
102
RTVSPropertyOp51
 70
     0
102
RTVSPropertyOp52
 70
     0
102
RTVSPropertyOp53
 70
     1
102
RTVSPropertyOp54
 70
     1
102
RTVSPropertyOp55
 70
     1
102
RTVSPropertyOp56
 70
     1
102
RTVSPropertyOp57
 70
     1
102
RTVSPropertyOp58
 70
     1
102
RTVSPropertyOp59
 70
     1
102
RTVSPropertyOp60
 70
     1
102
RTVSPropertyOp61
 70
     1
102
RTVSPropertyOp62
 70
     1
  0
XRECORD
  5
4152
102
{ACAD_REACTORS
330
4151
102
}
330
4151
100
AcDbXrecord
280
     1
102
RTVSPost2010Prop28
280
     0
102
RTVSPost2010PropOp28
 70
     1
102
RTVSPost2010Prop29
280
     1
102
RTVSPost2010PropOp29
 70
     1
102
RTVSPost2010Prop30
280
     1
102
RTVSPost2010PropOp30
 70
     1
102
RTVSPost2010Prop31
280
     0
102
RTVSPost2010PropOp31
 70
     1
102
RTVSPost2010Prop32
280
     0
102
RTVSPost2010PropOp32
 70
     1
102
RTVSPost2010Prop33
280
     0
102
RTVSPost2010PropOp33
 70
     1
102
RTVSPost2010Prop34
280
     0
102
RTVSPost2010PropOp34
 70
     1
102
RTVSPost2010Prop35
280
     0
102
RTVSPost2010PropOp35
 70
     1
102
RTVSPost2010Prop36
280
     0
102
RTVSPost2010PropOp36
 70
     1
102
RTVSPost2010Prop37
 90
       50
102
RTVSPost2010PropOp37
 70
     1
102
RTVSPost2010Prop38
140
0.0
102
RTVSPost2010PropOp38
 70
     1
102
RTVSPost2010Prop39
140
1.0
102
RTVSPost2010PropOp39
 70
     1
102
RTVSPost2010Prop40
 90
        0
102
RTVSPost2010PropOp40
 70
     1
102
RTVSPost2010Prop41ColorIndex
 90
       18
102
RTVSPost2010Prop41ColorRGB
 90
        0
102
RTVSPost2010PropOp41
 70
     1
102
RTVSPost2010Prop42
 90
       50
102
RTVSPost2010PropOp42
 70
     1
102
RTVSPost2010Prop43
 90
        3
102
RTVSPost2010PropOp43
 70
     1
102
RTVSPost2010Prop44ColorIndex
 90
        5
102
RTVSPost2010Prop44ColorRGB
 90
      255
102
RTVSPost2010PropOp44
 70
     1
102
RTVSPost2010Prop45
280
     0
102
RTVSPost2010PropOp45
 70
     1
102
RTVSPost2010Prop46
 90
       50
102
RTVSPost2010PropOp46
 70
     1
102
RTVSPost2010Prop47
 90
       50
102
RTVSPost2010PropOp47
 70
     1
102
RTVSPost2010Prop48
 90
       50
102
RTVSPost2010PropOp48
 70
     1
102
RTVSPost2010Prop49
280
     0
102
RTVSPost2010PropOp49
 70
     1
102
RTVSPost2010Prop50
 90
       50
102
RTVSPost2010PropOp50
 70
     1
102
RTVSPost2010Prop51ColorIndex
 90
      256
102
RTVSPost2010Prop51ColorRGB
 90
-16777216
102
RTVSPost2010PropOp51
 70
     0
102
RTVSPost2010Prop52
140
1.0
102
RTVSPost2010PropOp52
 70
     0
102
RTVSPost2010Prop53
 90
        2
102
RTVSPost2010PropOp53
 70
     1
102
RTVSPost2010Prop54
  1
strokes_ogs.tif
102
RTVSPost2010PropOp54
 70
     1
102
RTVSPost2010Prop55
280
     0
102
RTVSPost2010PropOp55
 70
     1
102
RTVSPost2010Prop56
140
1.0
102
RTVSPost2010PropOp56
 70
     1
102
RTVSPost2010Prop57
140
1.0
102
RTVSPost2010PropOp57
 70
     1
102
RTVSPropertyOp0
 70
     1
102
RTVSPropertyOp1
 70
     1
102
RTVSPropertyOp2
 70
     1
102
RTVSPropertyOp3
 70
     1
102
RTVSPropertyOp4
 70
     1
102
RTVSPropertyOp5
 70
     1
102
RTVSPropertyOp6
 70
     1
102
RTVSPropertyOp7
 70
     1
102
RTVSPropertyOp8
 70
     1
102
RTVSPropertyOp9
 70
     1
102
RTVSPropertyOp10
 70
     1
102
RTVSPropertyOp11
 70
     1
102
RTVSPropertyOp12
 70
     1
102
RTVSPropertyOp13
 70
     1
102
RTVSPropertyOp14
 70
     1
102
RTVSPropertyOp15
 70
     1
102
RTVSPropertyOp16
 70
     1
102
RTVSPropertyOp17
 70
     1
102
RTVSPropertyOp18
 70
     1
102
RTVSPropertyOp19
 70
     1
102
RTVSPropertyOp20
 70
     1
102
RTVSPropertyOp21
 70
     1
102
RTVSPropertyOp22
 70
     1
102
RTVSPropertyOp23
 70
     1
102
RTVSPropertyOp24
 70
     1
102
RTVSPropertyOp25
 70
     1
102
RTVSPropertyOp26
 70
     1
102
RTVSPropertyOp27
 70
     1
102
RTVSPropertyOp28
 70
     1
102
RTVSPropertyOp29
 70
     1
102
RTVSPropertyOp30
 70
     1
102
RTVSPropertyOp31
 70
     1
102
RTVSPropertyOp32
 70
     1
102
RTVSPropertyOp33
 70
     1
102
RTVSPropertyOp34
 70
     1
102
RTVSPropertyOp35
 70
     1
102
RTVSPropertyOp36
 70
     1
102
RTVSPropertyOp37
 70
     1
102
RTVSPropertyOp38
 70
     1
102
RTVSPropertyOp39
 70
     1
102
RTVSPropertyOp40
 70
     1
102
RTVSPropertyOp41
 70
     1
102
RTVSPropertyOp42
 70
     1
102
RTVSPropertyOp43
 70
     1
102
RTVSPropertyOp44
 70
     1
102
RTVSPropertyOp45
 70
     1
102
RTVSPropertyOp46
 70
     1
102
RTVSPropertyOp47
 70
     1
102
RTVSPropertyOp48
 70
     1
102
RTVSPropertyOp49
 70
     1
102
RTVSPropertyOp50
 70
     1
102
RTVSPropertyOp51
 70
     0
102
RTVSPropertyOp52
 70
     0
102
RTVSPropertyOp53
 70
     1
102
RTVSPropertyOp54
 70
     1
102
RTVSPropertyOp55
 70
     1
102
RTVSPropertyOp56
 70
     1
102
RTVSPropertyOp57
 70
     1
102
RTVSPropertyOp58
 70
     1
102
RTVSPropertyOp59
 70
     1
102
RTVSPropertyOp60
 70
     1
102
RTVSPropertyOp61
 70
     1
102
RTVSPropertyOp62
 70
     1
  0
XRECORD
  5
415A
102
{ACAD_REACTORS
330
4159
102
}
330
4159
100
AcDbXrecord
280
     1
102
RTVSPost2010Prop28
280
     0
102
RTVSPost2010PropOp28
 70
     1
102
RTVSPost2010Prop29
280
     1
102
RTVSPost2010PropOp29
 70
     1
102
RTVSPost2010Prop30
280
     1
102
RTVSPost2010PropOp30
 70
     1
102
RTVSPost2010Prop31
280
     0
102
RTVSPost2010PropOp31
 70
     1
102
RTVSPost2010Prop32
280
     0
102
RTVSPost2010PropOp32
 70
     1
102
RTVSPost2010Prop33
280
     0
102
RTVSPost2010PropOp33
 70
     1
102
RTVSPost2010Prop34
280
     0
102
RTVSPost2010PropOp34
 70
     1
102
RTVSPost2010Prop35
280
     0
102
RTVSPost2010PropOp35
 70
     1
102
RTVSPost2010Prop36
280
     0
102
RTVSPost2010PropOp36
 70
     1
102
RTVSPost2010Prop37
 90
       50
102
RTVSPost2010PropOp37
 70
     1
102
RTVSPost2010Prop38
140
0.0
102
RTVSPost2010PropOp38
 70
     1
102
RTVSPost2010Prop39
140
1.0
102
RTVSPost2010PropOp39
 70
     1
102
RTVSPost2010Prop40
 90
        0
102
RTVSPost2010PropOp40
 70
     1
102
RTVSPost2010Prop41ColorIndex
 90
       18
102
RTVSPost2010Prop41ColorRGB
 90
        0
102
RTVSPost2010PropOp41
 70
     1
102
RTVSPost2010Prop42
 90
       50
102
RTVSPost2010PropOp42
 70
     1
102
RTVSPost2010Prop43
 90
        3
102
RTVSPost2010PropOp43
 70
     1
102
RTVSPost2010Prop44ColorIndex
 90
        5
102
RTVSPost2010Prop44ColorRGB
 90
      255
102
RTVSPost2010PropOp44
 70
     1
102
RTVSPost2010Prop45
280
     0
102
RTVSPost2010PropOp45
 70
     1
102
RTVSPost2010Prop46
 90
       50
102
RTVSPost2010PropOp46
 70
     1
102
RTVSPost2010Prop47
 90
       50
102
RTVSPost2010PropOp47
 70
     1
102
RTVSPost2010Prop48
 90
       50
102
RTVSPost2010PropOp48
 70
     1
102
RTVSPost2010Prop49
280
     0
102
RTVSPost2010PropOp49
 70
     1
102
RTVSPost2010Prop50
 90
       50
102
RTVSPost2010PropOp50
 70
     1
102
RTVSPost2010Prop51ColorIndex
 90
      256
102
RTVSPost2010Prop51ColorRGB
 90
-16777216
102
RTVSPost2010PropOp51
 70
     0
102
RTVSPost2010Prop52
140
1.0
102
RTVSPost2010PropOp52
 70
     0
102
RTVSPost2010Prop53
 90
        2
102
RTVSPost2010PropOp53
 70
     1
102
RTVSPost2010Prop54
  1
strokes_ogs.tif
102
RTVSPost2010PropOp54
 70
     1
102
RTVSPost2010Prop55
280
     0
102
RTVSPost2010PropOp55
 70
     1
102
RTVSPost2010Prop56
140
1.0
102
RTVSPost2010PropOp56
 70
     1
102
RTVSPost2010Prop57
140
1.0
102
RTVSPost2010PropOp57
 70
     1
102
RTVSPropertyOp0
 70
     1
102
RTVSPropertyOp1
 70
     1
102
RTVSPropertyOp2
 70
     1
102
RTVSPropertyOp3
 70
     1
102
RTVSPropertyOp4
 70
     1
102
RTVSPropertyOp5
 70
     1
102
RTVSPropertyOp6
 70
     1
102
RTVSPropertyOp7
 70
     1
102
RTVSPropertyOp8
 70
     1
102
RTVSPropertyOp9
 70
     1
102
RTVSPropertyOp10
 70
     1
102
RTVSPropertyOp11
 70
     1
102
RTVSPropertyOp12
 70
     1
102
RTVSPropertyOp13
 70
     1
102
RTVSPropertyOp14
 70
     1
102
RTVSPropertyOp15
 70
     1
102
RTVSPropertyOp16
 70
     1
102
RTVSPropertyOp17
 70
     1
102
RTVSPropertyOp18
 70
     1
102
RTVSPropertyOp19
 70
     1
102
RTVSPropertyOp20
 70
     1
102
RTVSPropertyOp21
 70
     1
102
RTVSPropertyOp22
 70
     1
102
RTVSPropertyOp23
 70
     1
102
RTVSPropertyOp24
 70
     1
102
RTVSPropertyOp25
 70
     1
102
RTVSPropertyOp26
 70
     1
102
RTVSPropertyOp27
 70
     1
102
RTVSPropertyOp28
 70
     1
102
RTVSPropertyOp29
 70
     1
102
RTVSPropertyOp30
 70
     1
102
RTVSPropertyOp31
 70
     1
102
RTVSPropertyOp32
 70
     1
102
RTVSPropertyOp33
 70
     1
102
RTVSPropertyOp34
 70
     1
102
RTVSPropertyOp35
 70
     1
102
RTVSPropertyOp36
 70
     1
102
RTVSPropertyOp37
 70
     1
102
RTVSPropertyOp38
 70
     1
102
RTVSPropertyOp39
 70
     1
102
RTVSPropertyOp40
 70
     1
102
RTVSPropertyOp41
 70
     1
102
RTVSPropertyOp42
 70
     1
102
RTVSPropertyOp43
 70
     1
102
RTVSPropertyOp44
 70
     1
102
RTVSPropertyOp45
 70
     1
102
RTVSPropertyOp46
 70
     1
102
RTVSPropertyOp47
 70
     1
102
RTVSPropertyOp48
 70
     1
102
RTVSPropertyOp49
 70
     1
102
RTVSPropertyOp50
 70
     1
102
RTVSPropertyOp51
 70
     0
102
RTVSPropertyOp52
 70
     0
102
RTVSPropertyOp53
 70
     1
102
RTVSPropertyOp54
 70
     1
102
RTVSPropertyOp55
 70
     1
102
RTVSPropertyOp56
 70
     1
102
RTVSPropertyOp57
 70
     1
102
RTVSPropertyOp58
 70
     1
102
RTVSPropertyOp59
 70
     1
102
RTVSPropertyOp60
 70
     1
102
RTVSPropertyOp61
 70
     1
102
RTVSPropertyOp62
 70
     1
  0
XRECORD
  5
414C
102
{ACAD_REACTORS
330
414B
102
}
330
414B
100
AcDbXrecord
280
     1
102
RTVSPost2010Prop28
280
     0
102
RTVSPost2010PropOp28
 70
     1
102
RTVSPost2010Prop29
280
     1
102
RTVSPost2010PropOp29
 70
     1
102
RTVSPost2010Prop30
280
     1
102
RTVSPost2010PropOp30
 70
     1
102
RTVSPost2010Prop31
280
     0
102
RTVSPost2010PropOp31
 70
     1
102
RTVSPost2010Prop32
280
     0
102
RTVSPost2010PropOp32
 70
     1
102
RTVSPost2010Prop33
280
     0
102
RTVSPost2010PropOp33
 70
     1
102
RTVSPost2010Prop34
280
     0
102
RTVSPost2010PropOp34
 70
     1
102
RTVSPost2010Prop35
280
     0
102
RTVSPost2010PropOp35
 70
     1
102
RTVSPost2010Prop36
280
     0
102
RTVSPost2010PropOp36
 70
     1
102
RTVSPost2010Prop37
 90
       50
102
RTVSPost2010PropOp37
 70
     1
102
RTVSPost2010Prop38
140
0.0
102
RTVSPost2010PropOp38
 70
     1
102
RTVSPost2010Prop39
140
1.0
102
RTVSPost2010PropOp39
 70
     1
102
RTVSPost2010Prop40
 90
        0
102
RTVSPost2010PropOp40
 70
     1
102
RTVSPost2010Prop41ColorIndex
 90
       18
102
RTVSPost2010Prop41ColorRGB
 90
        0
102
RTVSPost2010PropOp41
 70
     1
102
RTVSPost2010Prop42
 90
       50
102
RTVSPost2010PropOp42
 70
     1
102
RTVSPost2010Prop43
 90
        3
102
RTVSPost2010PropOp43
 70
     1
102
RTVSPost2010Prop44ColorIndex
 90
        5
102
RTVSPost2010Prop44ColorRGB
 90
      255
102
RTVSPost2010PropOp44
 70
     1
102
RTVSPost2010Prop45
280
     0
102
RTVSPost2010PropOp45
 70
     1
102
RTVSPost2010Prop46
 90
       50
102
RTVSPost2010PropOp46
 70
     1
102
RTVSPost2010Prop47
 90
       50
102
RTVSPost2010PropOp47
 70
     1
102
RTVSPost2010Prop48
 90
       50
102
RTVSPost2010PropOp48
 70
     1
102
RTVSPost2010Prop49
280
     0
102
RTVSPost2010PropOp49
 70
     1
102
RTVSPost2010Prop50
 90
       50
102
RTVSPost2010PropOp50
 70
     1
102
RTVSPost2010Prop51ColorIndex
 90
      256
102
RTVSPost2010Prop51ColorRGB
 90
-16777216
102
RTVSPost2010PropOp51
 70
     0
102
RTVSPost2010Prop52
140
1.0
102
RTVSPost2010PropOp52
 70
     0
102
RTVSPost2010Prop53
 90
        2
102
RTVSPost2010PropOp53
 70
     1
102
RTVSPost2010Prop54
  1
strokes_ogs.tif
102
RTVSPost2010PropOp54
 70
     1
102
RTVSPost2010Prop55
280
     0
102
RTVSPost2010PropOp55
 70
     1
102
RTVSPost2010Prop56
140
1.0
102
RTVSPost2010PropOp56
 70
     1
102
RTVSPost2010Prop57
140
1.0
102
RTVSPost2010PropOp57
 70
     1
102
RTVSPropertyOp0
 70
     1
102
RTVSPropertyOp1
 70
     1
102
RTVSPropertyOp2
 70
     1
102
RTVSPropertyOp3
 70
     1
102
RTVSPropertyOp4
 70
     1
102
RTVSPropertyOp5
 70
     1
102
RTVSPropertyOp6
 70
     1
102
RTVSPropertyOp7
 70
     1
102
RTVSPropertyOp8
 70
     1
102
RTVSPropertyOp9
 70
     1
102
RTVSPropertyOp10
 70
     1
102
RTVSPropertyOp11
 70
     1
102
RTVSPropertyOp12
 70
     1
102
RTVSPropertyOp13
 70
     1
102
RTVSPropertyOp14
 70
     1
102
RTVSPropertyOp15
 70
     1
102
RTVSPropertyOp16
 70
     1
102
RTVSPropertyOp17
 70
     1
102
RTVSPropertyOp18
 70
     1
102
RTVSPropertyOp19
 70
     1
102
RTVSPropertyOp20
 70
     1
102
RTVSPropertyOp21
 70
     1
102
RTVSPropertyOp22
 70
     1
102
RTVSPropertyOp23
 70
     1
102
RTVSPropertyOp24
 70
     1
102
RTVSPropertyOp25
 70
     1
102
RTVSPropertyOp26
 70
     1
102
RTVSPropertyOp27
 70
     1
102
RTVSPropertyOp28
 70
     1
102
RTVSPropertyOp29
 70
     1
102
RTVSPropertyOp30
 70
     1
102
RTVSPropertyOp31
 70
     1
102
RTVSPropertyOp32
 70
     1
102
RTVSPropertyOp33
 70
     1
102
RTVSPropertyOp34
 70
     1
102
RTVSPropertyOp35
 70
     1
102
RTVSPropertyOp36
 70
     1
102
RTVSPropertyOp37
 70
     1
102
RTVSPropertyOp38
 70
     1
102
RTVSPropertyOp39
 70
     1
102
RTVSPropertyOp40
 70
     1
102
RTVSPropertyOp41
 70
     1
102
RTVSPropertyOp42
 70
     1
102
RTVSPropertyOp43
 70
     1
102
RTVSPropertyOp44
 70
     1
102
RTVSPropertyOp45
 70
     1
102
RTVSPropertyOp46
 70
     1
102
RTVSPropertyOp47
 70
     1
102
RTVSPropertyOp48
 70
     1
102
RTVSPropertyOp49
 70
     1
102
RTVSPropertyOp50
 70
     1
102
RTVSPropertyOp51
 70
     0
102
RTVSPropertyOp52
 70
     0
102
RTVSPropertyOp53
 70
     1
102
RTVSPropertyOp54
 70
     1
102
RTVSPropertyOp55
 70
     1
102
RTVSPropertyOp56
 70
     1
102
RTVSPropertyOp57
 70
     1
102
RTVSPropertyOp58
 70
     1
102
RTVSPropertyOp59
 70
     1
102
RTVSPropertyOp60
 70
     1
102
RTVSPropertyOp61
 70
     1
102
RTVSPropertyOp62
 70
     1
  0
XRECORD
  5
4150
102
{ACAD_REACTORS
330
414F
102
}
330
414F
100
AcDbXrecord
280
     1
102
RTVSPost2010Prop28
280
     0
102
RTVSPost2010PropOp28
 70
     1
102
RTVSPost2010Prop29
280
     1
102
RTVSPost2010PropOp29
 70
     1
102
RTVSPost2010Prop30
280
     1
102
RTVSPost2010PropOp30
 70
     1
102
RTVSPost2010Prop31
280
     0
102
RTVSPost2010PropOp31
 70
     1
102
RTVSPost2010Prop32
280
     0
102
RTVSPost2010PropOp32
 70
     1
102
RTVSPost2010Prop33
280
     0
102
RTVSPost2010PropOp33
 70
     1
102
RTVSPost2010Prop34
280
     0
102
RTVSPost2010PropOp34
 70
     1
102
RTVSPost2010Prop35
280
     0
102
RTVSPost2010PropOp35
 70
     1
102
RTVSPost2010Prop36
280
     0
102
RTVSPost2010PropOp36
 70
     1
102
RTVSPost2010Prop37
 90
       50
102
RTVSPost2010PropOp37
 70
     1
102
RTVSPost2010Prop38
140
0.0
102
RTVSPost2010PropOp38
 70
     1
102
RTVSPost2010Prop39
140
1.0
102
RTVSPost2010PropOp39
 70
     1
102
RTVSPost2010Prop40
 90
        0
102
RTVSPost2010PropOp40
 70
     1
102
RTVSPost2010Prop41ColorIndex
 90
       18
102
RTVSPost2010Prop41ColorRGB
 90
        0
102
RTVSPost2010PropOp41
 70
     1
102
RTVSPost2010Prop42
 90
       50
102
RTVSPost2010PropOp42
 70
     1
102
RTVSPost2010Prop43
 90
        3
102
RTVSPost2010PropOp43
 70
     1
102
RTVSPost2010Prop44ColorIndex
 90
        5
102
RTVSPost2010Prop44ColorRGB
 90
      255
102
RTVSPost2010PropOp44
 70
     1
102
RTVSPost2010Prop45
280
     0
102
RTVSPost2010PropOp45
 70
     1
102
RTVSPost2010Prop46
 90
       50
102
RTVSPost2010PropOp46
 70
     1
102
RTVSPost2010Prop47
 90
       50
102
RTVSPost2010PropOp47
 70
     1
102
RTVSPost2010Prop48
 90
       50
102
RTVSPost2010PropOp48
 70
     1
102
RTVSPost2010Prop49
280
     0
102
RTVSPost2010PropOp49
 70
     1
102
RTVSPost2010Prop50
 90
       50
102
RTVSPost2010PropOp50
 70
     1
102
RTVSPost2010Prop51ColorIndex
 90
      256
102
RTVSPost2010Prop51ColorRGB
 90
-16777216
102
RTVSPost2010PropOp51
 70
     0
102
RTVSPost2010Prop52
140
1.0
102
RTVSPost2010PropOp52
 70
     0
102
RTVSPost2010Prop53
 90
        2
102
RTVSPost2010PropOp53
 70
     1
102
RTVSPost2010Prop54
  1
strokes_ogs.tif
102
RTVSPost2010PropOp54
 70
     1
102
RTVSPost2010Prop55
280
     0
102
RTVSPost2010PropOp55
 70
     1
102
RTVSPost2010Prop56
140
1.0
102
RTVSPost2010PropOp56
 70
     1
102
RTVSPost2010Prop57
140
1.0
102
RTVSPost2010PropOp57
 70
     1
102
RTVSPropertyOp0
 70
     1
102
RTVSPropertyOp1
 70
     1
102
RTVSPropertyOp2
 70
     1
102
RTVSPropertyOp3
 70
     1
102
RTVSPropertyOp4
 70
     1
102
RTVSPropertyOp5
 70
     1
102
RTVSPropertyOp6
 70
     1
102
RTVSPropertyOp7
 70
     1
102
RTVSPropertyOp8
 70
     1
102
RTVSPropertyOp9
 70
     1
102
RTVSPropertyOp10
 70
     1
102
RTVSPropertyOp11
 70
     1
102
RTVSPropertyOp12
 70
     1
102
RTVSPropertyOp13
 70
     1
102
RTVSPropertyOp14
 70
     1
102
RTVSPropertyOp15
 70
     1
102
RTVSPropertyOp16
 70
     1
102
RTVSPropertyOp17
 70
     1
102
RTVSPropertyOp18
 70
     1
102
RTVSPropertyOp19
 70
     1
102
RTVSPropertyOp20
 70
     1
102
RTVSPropertyOp21
 70
     1
102
RTVSPropertyOp22
 70
     1
102
RTVSPropertyOp23
 70
     1
102
RTVSPropertyOp24
 70
     1
102
RTVSPropertyOp25
 70
     1
102
RTVSPropertyOp26
 70
     1
102
RTVSPropertyOp27
 70
     1
102
RTVSPropertyOp28
 70
     1
102
RTVSPropertyOp29
 70
     1
102
RTVSPropertyOp30
 70
     1
102
RTVSPropertyOp31
 70
     1
102
RTVSPropertyOp32
 70
     1
102
RTVSPropertyOp33
 70
     1
102
RTVSPropertyOp34
 70
     1
102
RTVSPropertyOp35
 70
     1
102
RTVSPropertyOp36
 70
     1
102
RTVSPropertyOp37
 70
     1
102
RTVSPropertyOp38
 70
     1
102
RTVSPropertyOp39
 70
     1
102
RTVSPropertyOp40
 70
     1
102
RTVSPropertyOp41
 70
     1
102
RTVSPropertyOp42
 70
     1
102
RTVSPropertyOp43
 70
     1
102
RTVSPropertyOp44
 70
     1
102
RTVSPropertyOp45
 70
     1
102
RTVSPropertyOp46
 70
     1
102
RTVSPropertyOp47
 70
     1
102
RTVSPropertyOp48
 70
     1
102
RTVSPropertyOp49
 70
     1
102
RTVSPropertyOp50
 70
     1
102
RTVSPropertyOp51
 70
     0
102
RTVSPropertyOp52
 70
     0
102
RTVSPropertyOp53
 70
     1
102
RTVSPropertyOp54
 70
     1
102
RTVSPropertyOp55
 70
     1
102
RTVSPropertyOp56
 70
     1
102
RTVSPropertyOp57
 70
     1
102
RTVSPropertyOp58
 70
     1
102
RTVSPropertyOp59
 70
     1
102
RTVSPropertyOp60
 70
     1
102
RTVSPropertyOp61
 70
     1
102
RTVSPropertyOp62
 70
     1
  0
XRECORD
  5
416A
102
{ACAD_REACTORS
330
4169
102
}
330
4169
100
AcDbXrecord
280
     1
102
RTVSPost2010Prop28
280
     0
102
RTVSPost2010PropOp28
 70
     0
102
RTVSPost2010Prop29
280
     1
102
RTVSPost2010PropOp29
 70
     0
102
RTVSPost2010Prop30
280
     1
102
RTVSPost2010PropOp30
 70
     0
102
RTVSPost2010Prop31
280
     0
102
RTVSPost2010PropOp31
 70
     0
102
RTVSPost2010Prop32
280
     0
102
RTVSPost2010PropOp32
 70
     0
102
RTVSPost2010Prop33
280
     0
102
RTVSPost2010PropOp33
 70
     0
102
RTVSPost2010Prop34
280
     0
102
RTVSPost2010PropOp34
 70
     0
102
RTVSPost2010Prop35
280
     0
102
RTVSPost2010PropOp35
 70
     0
102
RTVSPost2010Prop36
280
     0
102
RTVSPost2010PropOp36
 70
     0
102
RTVSPost2010Prop37
 90
       50
102
RTVSPost2010PropOp37
 70
     0
102
RTVSPost2010Prop38
140
0.0
102
RTVSPost2010PropOp38
 70
     0
102
RTVSPost2010Prop39
140
1.0
102
RTVSPost2010PropOp39
 70
     0
102
RTVSPost2010Prop40
 90
        0
102
RTVSPost2010PropOp40
 70
     0
102
RTVSPost2010Prop41ColorIndex
 90
       18
102
RTVSPost2010Prop41ColorRGB
 90
        0
102
RTVSPost2010PropOp41
 70
     0
102
RTVSPost2010Prop42
 90
       50
102
RTVSPost2010PropOp42
 70
     0
102
RTVSPost2010Prop43
 90
        3
102
RTVSPost2010PropOp43
 70
     0
102
RTVSPost2010Prop44ColorIndex
 90
        5
102
RTVSPost2010Prop44ColorRGB
 90
      255
102
RTVSPost2010PropOp44
 70
     0
102
RTVSPost2010Prop45
280
     0
102
RTVSPost2010PropOp45
 70
     0
102
RTVSPost2010Prop46
 90
       50
102
RTVSPost2010PropOp46
 70
     0
102
RTVSPost2010Prop47
 90
       50
102
RTVSPost2010PropOp47
 70
     0
102
RTVSPost2010Prop48
 90
       50
102
RTVSPost2010PropOp48
 70
     0
102
RTVSPost2010Prop49
280
     0
102
RTVSPost2010PropOp49
 70
     0
102
RTVSPost2010Prop50
 90
       50
102
RTVSPost2010PropOp50
 70
     0
102
RTVSPost2010Prop51ColorIndex
 90
      256
102
RTVSPost2010Prop51ColorRGB
 90
-16777216
102
RTVSPost2010PropOp51
 70
     0
102
RTVSPost2010Prop52
140
1.0
102
RTVSPost2010PropOp52
 70
     0
102
RTVSPost2010Prop53
 90
        2
102
RTVSPost2010PropOp53
 70
     0
102
RTVSPost2010Prop54
  1
strokes_ogs.tif
102
RTVSPost2010PropOp54
 70
     0
102
RTVSPost2010Prop55
280
     0
102
RTVSPost2010PropOp55
 70
     0
102
RTVSPost2010Prop56
140
1.0
102
RTVSPost2010PropOp56
 70
     0
102
RTVSPost2010Prop57
140
1.0
102
RTVSPost2010PropOp57
 70
     0
102
RTVSPropertyOp0
 70
     0
102
RTVSPropertyOp1
 70
     0
102
RTVSPropertyOp2
 70
     0
102
RTVSPropertyOp3
 70
     0
102
RTVSPropertyOp4
 70
     0
102
RTVSPropertyOp5
 70
     0
102
RTVSPropertyOp6
 70
     0
102
RTVSPropertyOp7
 70
     0
102
RTVSPropertyOp8
 70
     0
102
RTVSPropertyOp9
 70
     0
102
RTVSPropertyOp10
 70
     0
102
RTVSPropertyOp11
 70
     0
102
RTVSPropertyOp12
 70
     0
102
RTVSPropertyOp13
 70
     0
102
RTVSPropertyOp14
 70
     2
102
RTVSPropertyOp15
 70
     0
102
RTVSPropertyOp16
 70
     0
102
RTVSPropertyOp17
 70
     0
102
RTVSPropertyOp18
 70
     0
102
RTVSPropertyOp19
 70
     0
102
RTVSPropertyOp20
 70
     0
102
RTVSPropertyOp21
 70
     0
102
RTVSPropertyOp22
 70
     0
102
RTVSPropertyOp23
 70
     0
102
RTVSPropertyOp24
 70
     0
102
RTVSPropertyOp25
 70
     0
102
RTVSPropertyOp26
 70
     0
102
RTVSPropertyOp27
 70
     0
102
RTVSPropertyOp28
 70
     0
102
RTVSPropertyOp29
 70
     0
102
RTVSPropertyOp30
 70
     0
102
RTVSPropertyOp31
 70
     0
102
RTVSPropertyOp32
 70
     0
102
RTVSPropertyOp33
 70
     0
102
RTVSPropertyOp34
 70
     0
102
RTVSPropertyOp35
 70
     0
102
RTVSPropertyOp36
 70
     0
102
RTVSPropertyOp37
 70
     0
102
RTVSPropertyOp38
 70
     0
102
RTVSPropertyOp39
 70
     0
102
RTVSPropertyOp40
 70
     0
102
RTVSPropertyOp41
 70
     0
102
RTVSPropertyOp42
 70
     0
102
RTVSPropertyOp43
 70
     0
102
RTVSPropertyOp44
 70
     0
102
RTVSPropertyOp45
 70
     0
102
RTVSPropertyOp46
 70
     0
102
RTVSPropertyOp47
 70
     0
102
RTVSPropertyOp48
 70
     0
102
RTVSPropertyOp49
 70
     0
102
RTVSPropertyOp50
 70
     0
102
RTVSPropertyOp51
 70
     0
102
RTVSPropertyOp52
 70
     0
102
RTVSPropertyOp53
 70
     0
102
RTVSPropertyOp54
 70
     0
102
RTVSPropertyOp55
 70
     0
102
RTVSPropertyOp56
 70
     0
102
RTVSPropertyOp57
 70
     0
102
RTVSPropertyOp58
 70
     0
102
RTVSPropertyOp59
 70
     0
102
RTVSPropertyOp60
 70
     0
102
RTVSPropertyOp61
 70
     0
102
RTVSPropertyOp62
 70
     0
  0
XRECORD
  5
4158
102
{ACAD_REACTORS
330
4157
102
}
330
4157
100
AcDbXrecord
280
     1
102
RTVSPost2010Prop28
280
     0
102
RTVSPost2010PropOp28
 70
     1
102
RTVSPost2010Prop29
280
     1
102
RTVSPost2010PropOp29
 70
     1
102
RTVSPost2010Prop30
280
     1
102
RTVSPost2010PropOp30
 70
     1
102
RTVSPost2010Prop31
280
     0
102
RTVSPost2010PropOp31
 70
     1
102
RTVSPost2010Prop32
280
     0
102
RTVSPost2010PropOp32
 70
     1
102
RTVSPost2010Prop33
280
     0
102
RTVSPost2010PropOp33
 70
     1
102
RTVSPost2010Prop34
280
     0
102
RTVSPost2010PropOp34
 70
     1
102
RTVSPost2010Prop35
280
     0
102
RTVSPost2010PropOp35
 70
     1
102
RTVSPost2010Prop36
280
     0
102
RTVSPost2010PropOp36
 70
     1
102
RTVSPost2010Prop37
 90
       50
102
RTVSPost2010PropOp37
 70
     1
102
RTVSPost2010Prop38
140
0.0
102
RTVSPost2010PropOp38
 70
     1
102
RTVSPost2010Prop39
140
1.0
102
RTVSPost2010PropOp39
 70
     1
102
RTVSPost2010Prop40
 90
        0
102
RTVSPost2010PropOp40
 70
     1
102
RTVSPost2010Prop41ColorIndex
 90
       18
102
RTVSPost2010Prop41ColorRGB
 90
        0
102
RTVSPost2010PropOp41
 70
     1
102
RTVSPost2010Prop42
 90
       50
102
RTVSPost2010PropOp42
 70
     1
102
RTVSPost2010Prop43
 90
        3
102
RTVSPost2010PropOp43
 70
     1
102
RTVSPost2010Prop44ColorIndex
 90
        5
102
RTVSPost2010Prop44ColorRGB
 90
      255
102
RTVSPost2010PropOp44
 70
     1
102
RTVSPost2010Prop45
280
     0
102
RTVSPost2010PropOp45
 70
     1
102
RTVSPost2010Prop46
 90
       50
102
RTVSPost2010PropOp46
 70
     1
102
RTVSPost2010Prop47
 90
       50
102
RTVSPost2010PropOp47
 70
     1
102
RTVSPost2010Prop48
 90
       50
102
RTVSPost2010PropOp48
 70
     1
102
RTVSPost2010Prop49
280
     0
102
RTVSPost2010PropOp49
 70
     1
102
RTVSPost2010Prop50
 90
       50
102
RTVSPost2010PropOp50
 70
     1
102
RTVSPost2010Prop51ColorIndex
 90
      256
102
RTVSPost2010Prop51ColorRGB
 90
-16777216
102
RTVSPost2010PropOp51
 70
     0
102
RTVSPost2010Prop52
140
1.0
102
RTVSPost2010PropOp52
 70
     0
102
RTVSPost2010Prop53
 90
        2
102
RTVSPost2010PropOp53
 70
     1
102
RTVSPost2010Prop54
  1
strokes_ogs.tif
102
RTVSPost2010PropOp54
 70
     1
102
RTVSPost2010Prop55
280
     0
102
RTVSPost2010PropOp55
 70
     1
102
RTVSPost2010Prop56
140
1.0
102
RTVSPost2010PropOp56
 70
     1
102
RTVSPost2010Prop57
140
1.0
102
RTVSPost2010PropOp57
 70
     1
102
RTVSPropertyOp0
 70
     1
102
RTVSPropertyOp1
 70
     1
102
RTVSPropertyOp2
 70
     1
102
RTVSPropertyOp3
 70
     1
102
RTVSPropertyOp4
 70
     1
102
RTVSPropertyOp5
 70
     1
102
RTVSPropertyOp6
 70
     1
102
RTVSPropertyOp7
 70
     1
102
RTVSPropertyOp8
 70
     1
102
RTVSPropertyOp9
 70
     1
102
RTVSPropertyOp10
 70
     1
102
RTVSPropertyOp11
 70
     1
102
RTVSPropertyOp12
 70
     1
102
RTVSPropertyOp13
 70
     1
102
RTVSPropertyOp14
 70
     1
102
RTVSPropertyOp15
 70
     1
102
RTVSPropertyOp16
 70
     1
102
RTVSPropertyOp17
 70
     1
102
RTVSPropertyOp18
 70
     1
102
RTVSPropertyOp19
 70
     1
102
RTVSPropertyOp20
 70
     1
102
RTVSPropertyOp21
 70
     1
102
RTVSPropertyOp22
 70
     1
102
RTVSPropertyOp23
 70
     1
102
RTVSPropertyOp24
 70
     1
102
RTVSPropertyOp25
 70
     1
102
RTVSPropertyOp26
 70
     1
102
RTVSPropertyOp27
 70
     1
102
RTVSPropertyOp28
 70
     1
102
RTVSPropertyOp29
 70
     1
102
RTVSPropertyOp30
 70
     1
102
RTVSPropertyOp31
 70
     1
102
RTVSPropertyOp32
 70
     1
102
RTVSPropertyOp33
 70
     1
102
RTVSPropertyOp34
 70
     1
102
RTVSPropertyOp35
 70
     1
102
RTVSPropertyOp36
 70
     1
102
RTVSPropertyOp37
 70
     1
102
RTVSPropertyOp38
 70
     1
102
RTVSPropertyOp39
 70
     1
102
RTVSPropertyOp40
 70
     1
102
RTVSPropertyOp41
 70
     1
102
RTVSPropertyOp42
 70
     1
102
RTVSPropertyOp43
 70
     1
102
RTVSPropertyOp44
 70
     1
102
RTVSPropertyOp45
 70
     1
102
RTVSPropertyOp46
 70
     1
102
RTVSPropertyOp47
 70
     1
102
RTVSPropertyOp48
 70
     1
102
RTVSPropertyOp49
 70
     1
102
RTVSPropertyOp50
 70
     1
102
RTVSPropertyOp51
 70
     0
102
RTVSPropertyOp52
 70
     0
102
RTVSPropertyOp53
 70
     1
102
RTVSPropertyOp54
 70
     1
102
RTVSPropertyOp55
 70
     1
102
RTVSPropertyOp56
 70
     1
102
RTVSPropertyOp57
 70
     1
102
RTVSPropertyOp58
 70
     1
102
RTVSPropertyOp59
 70
     1
102
RTVSPropertyOp60
 70
     1
102
RTVSPropertyOp61
 70
     1
102
RTVSPropertyOp62
 70
     1
  0
XRECORD
  5
413C
102
{ACAD_REACTORS
330
413B
102
}
330
413B
100
AcDbXrecord
280
     1
102
RTVSPost2010Prop28
280
     0
102
RTVSPost2010PropOp28
 70
     1
102
RTVSPost2010Prop29
280
     1
102
RTVSPost2010PropOp29
 70
     1
102
RTVSPost2010Prop30
280
     1
102
RTVSPost2010PropOp30
 70
     1
102
RTVSPost2010Prop31
280
     0
102
RTVSPost2010PropOp31
 70
     1
102
RTVSPost2010Prop32
280
     0
102
RTVSPost2010PropOp32
 70
     1
102
RTVSPost2010Prop33
280
     0
102
RTVSPost2010PropOp33
 70
     1
102
RTVSPost2010Prop34
280
     0
102
RTVSPost2010PropOp34
 70
     1
102
RTVSPost2010Prop35
280
     0
102
RTVSPost2010PropOp35
 70
     1
102
RTVSPost2010Prop36
280
     0
102
RTVSPost2010PropOp36
 70
     1
102
RTVSPost2010Prop37
 90
       50
102
RTVSPost2010PropOp37
 70
     1
102
RTVSPost2010Prop38
140
0.0
102
RTVSPost2010PropOp38
 70
     1
102
RTVSPost2010Prop39
140
1.0
102
RTVSPost2010PropOp39
 70
     1
102
RTVSPost2010Prop40
 90
        0
102
RTVSPost2010PropOp40
 70
     1
102
RTVSPost2010Prop41ColorIndex
 90
       18
102
RTVSPost2010Prop41ColorRGB
 90
        0
102
RTVSPost2010PropOp41
 70
     1
102
RTVSPost2010Prop42
 90
       50
102
RTVSPost2010PropOp42
 70
     1
102
RTVSPost2010Prop43
 90
        3
102
RTVSPost2010PropOp43
 70
     1
102
RTVSPost2010Prop44ColorIndex
 90
        5
102
RTVSPost2010Prop44ColorRGB
 90
      255
102
RTVSPost2010PropOp44
 70
     1
102
RTVSPost2010Prop45
280
     0
102
RTVSPost2010PropOp45
 70
     1
102
RTVSPost2010Prop46
 90
       50
102
RTVSPost2010PropOp46
 70
     1
102
RTVSPost2010Prop47
 90
       50
102
RTVSPost2010PropOp47
 70
     1
102
RTVSPost2010Prop48
 90
       50
102
RTVSPost2010PropOp48
 70
     1
102
RTVSPost2010Prop49
280
     0
102
RTVSPost2010PropOp49
 70
     1
102
RTVSPost2010Prop50
 90
       50
102
RTVSPost2010PropOp50
 70
     1
102
RTVSPost2010Prop51ColorIndex
 90
      256
102
RTVSPost2010Prop51ColorRGB
 90
-16777216
102
RTVSPost2010PropOp51
 70
     0
102
RTVSPost2010Prop52
140
1.0
102
RTVSPost2010PropOp52
 70
     0
102
RTVSPost2010Prop53
 90
        2
102
RTVSPost2010PropOp53
 70
     1
102
RTVSPost2010Prop54
  1
strokes_ogs.tif
102
RTVSPost2010PropOp54
 70
     1
102
RTVSPost2010Prop55
280
     0
102
RTVSPost2010PropOp55
 70
     1
102
RTVSPost2010Prop56
140
1.0
102
RTVSPost2010PropOp56
 70
     1
102
RTVSPost2010Prop57
140
1.0
102
RTVSPost2010PropOp57
 70
     1
102
RTVSPropertyOp0
 70
     1
102
RTVSPropertyOp1
 70
     1
102
RTVSPropertyOp2
 70
     1
102
RTVSPropertyOp3
 70
     1
102
RTVSPropertyOp4
 70
     1
102
RTVSPropertyOp5
 70
     1
102
RTVSPropertyOp6
 70
     1
102
RTVSPropertyOp7
 70
     1
102
RTVSPropertyOp8
 70
     1
102
RTVSPropertyOp9
 70
     1
102
RTVSPropertyOp10
 70
     1
102
RTVSPropertyOp11
 70
     1
102
RTVSPropertyOp12
 70
     1
102
RTVSPropertyOp13
 70
     1
102
RTVSPropertyOp14
 70
     1
102
RTVSPropertyOp15
 70
     1
102
RTVSPropertyOp16
 70
     1
102
RTVSPropertyOp17
 70
     1
102
RTVSPropertyOp18
 70
     1
102
RTVSPropertyOp19
 70
     1
102
RTVSPropertyOp20
 70
     1
102
RTVSPropertyOp21
 70
     1
102
RTVSPropertyOp22
 70
     1
102
RTVSPropertyOp23
 70
     1
102
RTVSPropertyOp24
 70
     1
102
RTVSPropertyOp25
 70
     1
102
RTVSPropertyOp26
 70
     1
102
RTVSPropertyOp27
 70
     1
102
RTVSPropertyOp28
 70
     1
102
RTVSPropertyOp29
 70
     1
102
RTVSPropertyOp30
 70
     1
102
RTVSPropertyOp31
 70
     1
102
RTVSPropertyOp32
 70
     1
102
RTVSPropertyOp33
 70
     1
102
RTVSPropertyOp34
 70
     1
102
RTVSPropertyOp35
 70
     1
102
RTVSPropertyOp36
 70
     1
102
RTVSPropertyOp37
 70
     1
102
RTVSPropertyOp38
 70
     1
102
RTVSPropertyOp39
 70
     1
102
RTVSPropertyOp40
 70
     1
102
RTVSPropertyOp41
 70
     1
102
RTVSPropertyOp42
 70
     1
102
RTVSPropertyOp43
 70
     1
102
RTVSPropertyOp44
 70
     1
102
RTVSPropertyOp45
 70
     1
102
RTVSPropertyOp46
 70
     1
102
RTVSPropertyOp47
 70
     1
102
RTVSPropertyOp48
 70
     1
102
RTVSPropertyOp49
 70
     1
102
RTVSPropertyOp50
 70
     1
102
RTVSPropertyOp51
 70
     0
102
RTVSPropertyOp52
 70
     0
102
RTVSPropertyOp53
 70
     1
102
RTVSPropertyOp54
 70
     1
102
RTVSPropertyOp55
 70
     1
102
RTVSPropertyOp56
 70
     1
102
RTVSPropertyOp57
 70
     1
102
RTVSPropertyOp58
 70
     1
102
RTVSPropertyOp59
 70
     1
102
RTVSPropertyOp60
 70
     1
102
RTVSPropertyOp61
 70
     1
102
RTVSPropertyOp62
 70
     1
  0
XRECORD
  5
413E
102
{ACAD_REACTORS
330
413D
102
}
330
413D
100
AcDbXrecord
280
     1
102
RTVSPost2010Prop28
280
     0
102
RTVSPost2010PropOp28
 70
     1
102
RTVSPost2010Prop29
280
     1
102
RTVSPost2010PropOp29
 70
     1
102
RTVSPost2010Prop30
280
     1
102
RTVSPost2010PropOp30
 70
     1
102
RTVSPost2010Prop31
280
     0
102
RTVSPost2010PropOp31
 70
     1
102
RTVSPost2010Prop32
280
     0
102
RTVSPost2010PropOp32
 70
     1
102
RTVSPost2010Prop33
280
     0
102
RTVSPost2010PropOp33
 70
     1
102
RTVSPost2010Prop34
280
     0
102
RTVSPost2010PropOp34
 70
     1
102
RTVSPost2010Prop35
280
     0
102
RTVSPost2010PropOp35
 70
     1
102
RTVSPost2010Prop36
280
     0
102
RTVSPost2010PropOp36
 70
     1
102
RTVSPost2010Prop37
 90
       50
102
RTVSPost2010PropOp37
 70
     1
102
RTVSPost2010Prop38
140
0.0
102
RTVSPost2010PropOp38
 70
     1
102
RTVSPost2010Prop39
140
1.0
102
RTVSPost2010PropOp39
 70
     1
102
RTVSPost2010Prop40
 90
        0
102
RTVSPost2010PropOp40
 70
     1
102
RTVSPost2010Prop41ColorIndex
 90
       18
102
RTVSPost2010Prop41ColorRGB
 90
        0
102
RTVSPost2010PropOp41
 70
     1
102
RTVSPost2010Prop42
 90
       50
102
RTVSPost2010PropOp42
 70
     1
102
RTVSPost2010Prop43
 90
        3
102
RTVSPost2010PropOp43
 70
     1
102
RTVSPost2010Prop44ColorIndex
 90
        5
102
RTVSPost2010Prop44ColorRGB
 90
      255
102
RTVSPost2010PropOp44
 70
     1
102
RTVSPost2010Prop45
280
     0
102
RTVSPost2010PropOp45
 70
     1
102
RTVSPost2010Prop46
 90
       50
102
RTVSPost2010PropOp46
 70
     1
102
RTVSPost2010Prop47
 90
       50
102
RTVSPost2010PropOp47
 70
     1
102
RTVSPost2010Prop48
 90
       50
102
RTVSPost2010PropOp48
 70
     1
102
RTVSPost2010Prop49
280
     0
102
RTVSPost2010PropOp49
 70
     1
102
RTVSPost2010Prop50
 90
       50
102
RTVSPost2010PropOp50
 70
     1
102
RTVSPost2010Prop51ColorIndex
 90
      256
102
RTVSPost2010Prop51ColorRGB
 90
-16777216
102
RTVSPost2010PropOp51
 70
     0
102
RTVSPost2010Prop52
140
1.0
102
RTVSPost2010PropOp52
 70
     0
102
RTVSPost2010Prop53
 90
        2
102
RTVSPost2010PropOp53
 70
     1
102
RTVSPost2010Prop54
  1
strokes_ogs.tif
102
RTVSPost2010PropOp54
 70
     1
102
RTVSPost2010Prop55
280
     0
102
RTVSPost2010PropOp55
 70
     1
102
RTVSPost2010Prop56
140
1.0
102
RTVSPost2010PropOp56
 70
     1
102
RTVSPost2010Prop57
140
1.0
102
RTVSPost2010PropOp57
 70
     1
102
RTVSPropertyOp0
 70
     1
102
RTVSPropertyOp1
 70
     1
102
RTVSPropertyOp2
 70
     1
102
RTVSPropertyOp3
 70
     1
102
RTVSPropertyOp4
 70
     1
102
RTVSPropertyOp5
 70
     1
102
RTVSPropertyOp6
 70
     1
102
RTVSPropertyOp7
 70
     1
102
RTVSPropertyOp8
 70
     1
102
RTVSPropertyOp9
 70
     1
102
RTVSPropertyOp10
 70
     1
102
RTVSPropertyOp11
 70
     1
102
RTVSPropertyOp12
 70
     1
102
RTVSPropertyOp13
 70
     1
102
RTVSPropertyOp14
 70
     1
102
RTVSPropertyOp15
 70
     1
102
RTVSPropertyOp16
 70
     1
102
RTVSPropertyOp17
 70
     1
102
RTVSPropertyOp18
 70
     1
102
RTVSPropertyOp19
 70
     1
102
RTVSPropertyOp20
 70
     1
102
RTVSPropertyOp21
 70
     1
102
RTVSPropertyOp22
 70
     1
102
RTVSPropertyOp23
 70
     1
102
RTVSPropertyOp24
 70
     1
102
RTVSPropertyOp25
 70
     1
102
RTVSPropertyOp26
 70
     1
102
RTVSPropertyOp27
 70
     1
102
RTVSPropertyOp28
 70
     1
102
RTVSPropertyOp29
 70
     1
102
RTVSPropertyOp30
 70
     1
102
RTVSPropertyOp31
 70
     1
102
RTVSPropertyOp32
 70
     1
102
RTVSPropertyOp33
 70
     1
102
RTVSPropertyOp34
 70
     1
102
RTVSPropertyOp35
 70
     1
102
RTVSPropertyOp36
 70
     1
102
RTVSPropertyOp37
 70
     1
102
RTVSPropertyOp38
 70
     1
102
RTVSPropertyOp39
 70
     1
102
RTVSPropertyOp40
 70
     1
102
RTVSPropertyOp41
 70
     1
102
RTVSPropertyOp42
 70
     1
102
RTVSPropertyOp43
 70
     1
102
RTVSPropertyOp44
 70
     1
102
RTVSPropertyOp45
 70
     1
102
RTVSPropertyOp46
 70
     1
102
RTVSPropertyOp47
 70
     1
102
RTVSPropertyOp48
 70
     1
102
RTVSPropertyOp49
 70
     1
102
RTVSPropertyOp50
 70
     1
102
RTVSPropertyOp51
 70
     0
102
RTVSPropertyOp52
 70
     0
102
RTVSPropertyOp53
 70
     1
102
RTVSPropertyOp54
 70
     1
102
RTVSPropertyOp55
 70
     1
102
RTVSPropertyOp56
 70
     1
102
RTVSPropertyOp57
 70
     1
102
RTVSPropertyOp58
 70
     1
102
RTVSPropertyOp59
 70
     1
102
RTVSPropertyOp60
 70
     1
102
RTVSPropertyOp61
 70
     1
102
RTVSPropertyOp62
 70
     1
  0
XRECORD
  5
4140
102
{ACAD_REACTORS
330
413F
102
}
330
413F
100
AcDbXrecord
280
     1
102
RTVSPost2010Prop28
280
     0
102
RTVSPost2010PropOp28
 70
     1
102
RTVSPost2010Prop29
280
     1
102
RTVSPost2010PropOp29
 70
     1
102
RTVSPost2010Prop30
280
     1
102
RTVSPost2010PropOp30
 70
     1
102
RTVSPost2010Prop31
280
     0
102
RTVSPost2010PropOp31
 70
     1
102
RTVSPost2010Prop32
280
     0
102
RTVSPost2010PropOp32
 70
     1
102
RTVSPost2010Prop33
280
     0
102
RTVSPost2010PropOp33
 70
     1
102
RTVSPost2010Prop34
280
     0
102
RTVSPost2010PropOp34
 70
     1
102
RTVSPost2010Prop35
280
     0
102
RTVSPost2010PropOp35
 70
     1
102
RTVSPost2010Prop36
280
     0
102
RTVSPost2010PropOp36
 70
     1
102
RTVSPost2010Prop37
 90
       50
102
RTVSPost2010PropOp37
 70
     1
102
RTVSPost2010Prop38
140
0.0
102
RTVSPost2010PropOp38
 70
     1
102
RTVSPost2010Prop39
140
1.0
102
RTVSPost2010PropOp39
 70
     1
102
RTVSPost2010Prop40
 90
        0
102
RTVSPost2010PropOp40
 70
     1
102
RTVSPost2010Prop41ColorIndex
 90
       18
102
RTVSPost2010Prop41ColorRGB
 90
        0
102
RTVSPost2010PropOp41
 70
     1
102
RTVSPost2010Prop42
 90
       50
102
RTVSPost2010PropOp42
 70
     1
102
RTVSPost2010Prop43
 90
        3
102
RTVSPost2010PropOp43
 70
     1
102
RTVSPost2010Prop44ColorIndex
 90
        5
102
RTVSPost2010Prop44ColorRGB
 90
      255
102
RTVSPost2010PropOp44
 70
     1
102
RTVSPost2010Prop45
280
     0
102
RTVSPost2010PropOp45
 70
     1
102
RTVSPost2010Prop46
 90
       50
102
RTVSPost2010PropOp46
 70
     1
102
RTVSPost2010Prop47
 90
       50
102
RTVSPost2010PropOp47
 70
     1
102
RTVSPost2010Prop48
 90
       50
102
RTVSPost2010PropOp48
 70
     1
102
RTVSPost2010Prop49
280
     0
102
RTVSPost2010PropOp49
 70
     1
102
RTVSPost2010Prop50
 90
       50
102
RTVSPost2010PropOp50
 70
     1
102
RTVSPost2010Prop51ColorIndex
 90
      256
102
RTVSPost2010Prop51ColorRGB
 90
-16777216
102
RTVSPost2010PropOp51
 70
     0
102
RTVSPost2010Prop52
140
1.0
102
RTVSPost2010PropOp52
 70
     0
102
RTVSPost2010Prop53
 90
        2
102
RTVSPost2010PropOp53
 70
     1
102
RTVSPost2010Prop54
  1
strokes_ogs.tif
102
RTVSPost2010PropOp54
 70
     1
102
RTVSPost2010Prop55
280
     0
102
RTVSPost2010PropOp55
 70
     1
102
RTVSPost2010Prop56
140
1.0
102
RTVSPost2010PropOp56
 70
     1
102
RTVSPost2010Prop57
140
1.0
102
RTVSPost2010PropOp57
 70
     1
102
RTVSPropertyOp0
 70
     1
102
RTVSPropertyOp1
 70
     1
102
RTVSPropertyOp2
 70
     1
102
RTVSPropertyOp3
 70
     1
102
RTVSPropertyOp4
 70
     1
102
RTVSPropertyOp5
 70
     1
102
RTVSPropertyOp6
 70
     1
102
RTVSPropertyOp7
 70
     1
102
RTVSPropertyOp8
 70
     1
102
RTVSPropertyOp9
 70
     1
102
RTVSPropertyOp10
 70
     1
102
RTVSPropertyOp11
 70
     1
102
RTVSPropertyOp12
 70
     1
102
RTVSPropertyOp13
 70
     1
102
RTVSPropertyOp14
 70
     1
102
RTVSPropertyOp15
 70
     1
102
RTVSPropertyOp16
 70
     1
102
RTVSPropertyOp17
 70
     1
102
RTVSPropertyOp18
 70
     1
102
RTVSPropertyOp19
 70
     1
102
RTVSPropertyOp20
 70
     1
102
RTVSPropertyOp21
 70
     1
102
RTVSPropertyOp22
 70
     1
102
RTVSPropertyOp23
 70
     1
102
RTVSPropertyOp24
 70
     1
102
RTVSPropertyOp25
 70
     1
102
RTVSPropertyOp26
 70
     1
102
RTVSPropertyOp27
 70
     1
102
RTVSPropertyOp28
 70
     1
102
RTVSPropertyOp29
 70
     1
102
RTVSPropertyOp30
 70
     1
102
RTVSPropertyOp31
 70
     1
102
RTVSPropertyOp32
 70
     1
102
RTVSPropertyOp33
 70
     1
102
RTVSPropertyOp34
 70
     1
102
RTVSPropertyOp35
 70
     1
102
RTVSPropertyOp36
 70
     1
102
RTVSPropertyOp37
 70
     1
102
RTVSPropertyOp38
 70
     1
102
RTVSPropertyOp39
 70
     1
102
RTVSPropertyOp40
 70
     1
102
RTVSPropertyOp41
 70
     1
102
RTVSPropertyOp42
 70
     1
102
RTVSPropertyOp43
 70
     1
102
RTVSPropertyOp44
 70
     1
102
RTVSPropertyOp45
 70
     1
102
RTVSPropertyOp46
 70
     1
102
RTVSPropertyOp47
 70
     1
102
RTVSPropertyOp48
 70
     1
102
RTVSPropertyOp49
 70
     1
102
RTVSPropertyOp50
 70
     1
102
RTVSPropertyOp51
 70
     0
102
RTVSPropertyOp52
 70
     0
102
RTVSPropertyOp53
 70
     1
102
RTVSPropertyOp54
 70
     1
102
RTVSPropertyOp55
 70
     1
102
RTVSPropertyOp56
 70
     1
102
RTVSPropertyOp57
 70
     1
102
RTVSPropertyOp58
 70
     1
102
RTVSPropertyOp59
 70
     1
102
RTVSPropertyOp60
 70
     1
102
RTVSPropertyOp61
 70
     1
102
RTVSPropertyOp62
 70
     1
  0
XRECORD
  5
4142
102
{ACAD_REACTORS
330
4141
102
}
330
4141
100
AcDbXrecord
280
     1
102
RTVSPost2010Prop28
280
     0
102
RTVSPost2010PropOp28
 70
     1
102
RTVSPost2010Prop29
280
     1
102
RTVSPost2010PropOp29
 70
     1
102
RTVSPost2010Prop30
280
     1
102
RTVSPost2010PropOp30
 70
     1
102
RTVSPost2010Prop31
280
     0
102
RTVSPost2010PropOp31
 70
     1
102
RTVSPost2010Prop32
280
     0
102
RTVSPost2010PropOp32
 70
     1
102
RTVSPost2010Prop33
280
     0
102
RTVSPost2010PropOp33
 70
     1
102
RTVSPost2010Prop34
280
     0
102
RTVSPost2010PropOp34
 70
     1
102
RTVSPost2010Prop35
280
     0
102
RTVSPost2010PropOp35
 70
     1
102
RTVSPost2010Prop36
280
     0
102
RTVSPost2010PropOp36
 70
     1
102
RTVSPost2010Prop37
 90
       50
102
RTVSPost2010PropOp37
 70
     1
102
RTVSPost2010Prop38
140
0.0
102
RTVSPost2010PropOp38
 70
     1
102
RTVSPost2010Prop39
140
1.0
102
RTVSPost2010PropOp39
 70
     1
102
RTVSPost2010Prop40
 90
        0
102
RTVSPost2010PropOp40
 70
     1
102
RTVSPost2010Prop41ColorIndex
 90
       18
102
RTVSPost2010Prop41ColorRGB
 90
        0
102
RTVSPost2010PropOp41
 70
     1
102
RTVSPost2010Prop42
 90
       50
102
RTVSPost2010PropOp42
 70
     1
102
RTVSPost2010Prop43
 90
        3
102
RTVSPost2010PropOp43
 70
     1
102
RTVSPost2010Prop44ColorIndex
 90
        5
102
RTVSPost2010Prop44ColorRGB
 90
      255
102
RTVSPost2010PropOp44
 70
     1
102
RTVSPost2010Prop45
280
     0
102
RTVSPost2010PropOp45
 70
     1
102
RTVSPost2010Prop46
 90
       50
102
RTVSPost2010PropOp46
 70
     1
102
RTVSPost2010Prop47
 90
       50
102
RTVSPost2010PropOp47
 70
     1
102
RTVSPost2010Prop48
 90
       50
102
RTVSPost2010PropOp48
 70
     1
102
RTVSPost2010Prop49
280
     0
102
RTVSPost2010PropOp49
 70
     1
102
RTVSPost2010Prop50
 90
       50
102
RTVSPost2010PropOp50
 70
     1
102
RTVSPost2010Prop51ColorIndex
 90
      256
102
RTVSPost2010Prop51ColorRGB
 90
-16777216
102
RTVSPost2010PropOp51
 70
     0
102
RTVSPost2010Prop52
140
1.0
102
RTVSPost2010PropOp52
 70
     0
102
RTVSPost2010Prop53
 90
        2
102
RTVSPost2010PropOp53
 70
     1
102
RTVSPost2010Prop54
  1
strokes_ogs.tif
102
RTVSPost2010PropOp54
 70
     1
102
RTVSPost2010Prop55
280
     0
102
RTVSPost2010PropOp55
 70
     1
102
RTVSPost2010Prop56
140
1.0
102
RTVSPost2010PropOp56
 70
     1
102
RTVSPost2010Prop57
140
1.0
102
RTVSPost2010PropOp57
 70
     1
102
RTVSPropertyOp0
 70
     1
102
RTVSPropertyOp1
 70
     1
102
RTVSPropertyOp2
 70
     1
102
RTVSPropertyOp3
 70
     1
102
RTVSPropertyOp4
 70
     1
102
RTVSPropertyOp5
 70
     1
102
RTVSPropertyOp6
 70
     1
102
RTVSPropertyOp7
 70
     1
102
RTVSPropertyOp8
 70
     1
102
RTVSPropertyOp9
 70
     1
102
RTVSPropertyOp10
 70
     1
102
RTVSPropertyOp11
 70
     1
102
RTVSPropertyOp12
 70
     1
102
RTVSPropertyOp13
 70
     1
102
RTVSPropertyOp14
 70
     1
102
RTVSPropertyOp15
 70
     1
102
RTVSPropertyOp16
 70
     1
102
RTVSPropertyOp17
 70
     1
102
RTVSPropertyOp18
 70
     1
102
RTVSPropertyOp19
 70
     1
102
RTVSPropertyOp20
 70
     1
102
RTVSPropertyOp21
 70
     1
102
RTVSPropertyOp22
 70
     1
102
RTVSPropertyOp23
 70
     1
102
RTVSPropertyOp24
 70
     1
102
RTVSPropertyOp25
 70
     1
102
RTVSPropertyOp26
 70
     1
102
RTVSPropertyOp27
 70
     1
102
RTVSPropertyOp28
 70
     1
102
RTVSPropertyOp29
 70
     1
102
RTVSPropertyOp30
 70
     1
102
RTVSPropertyOp31
 70
     1
102
RTVSPropertyOp32
 70
     1
102
RTVSPropertyOp33
 70
     1
102
RTVSPropertyOp34
 70
     1
102
RTVSPropertyOp35
 70
     1
102
RTVSPropertyOp36
 70
     1
102
RTVSPropertyOp37
 70
     1
102
RTVSPropertyOp38
 70
     1
102
RTVSPropertyOp39
 70
     1
102
RTVSPropertyOp40
 70
     1
102
RTVSPropertyOp41
 70
     1
102
RTVSPropertyOp42
 70
     1
102
RTVSPropertyOp43
 70
     1
102
RTVSPropertyOp44
 70
     1
102
RTVSPropertyOp45
 70
     1
102
RTVSPropertyOp46
 70
     1
102
RTVSPropertyOp47
 70
     1
102
RTVSPropertyOp48
 70
     1
102
RTVSPropertyOp49
 70
     1
102
RTVSPropertyOp50
 70
     1
102
RTVSPropertyOp51
 70
     0
102
RTVSPropertyOp52
 70
     0
102
RTVSPropertyOp53
 70
     1
102
RTVSPropertyOp54
 70
     1
102
RTVSPropertyOp55
 70
     1
102
RTVSPropertyOp56
 70
     1
102
RTVSPropertyOp57
 70
     1
102
RTVSPropertyOp58
 70
     1
102
RTVSPropertyOp59
 70
     1
102
RTVSPropertyOp60
 70
     1
102
RTVSPropertyOp61
 70
     1
102
RTVSPropertyOp62
 70
     1
  0
XRECORD
  5
414A
102
{ACAD_REACTORS
330
4149
102
}
330
4149
100
AcDbXrecord
280
     1
102
RTVSPost2010Prop28
280
     0
102
RTVSPost2010PropOp28
 70
     1
102
RTVSPost2010Prop29
280
     1
102
RTVSPost2010PropOp29
 70
     1
102
RTVSPost2010Prop30
280
     1
102
RTVSPost2010PropOp30
 70
     1
102
RTVSPost2010Prop31
280
     0
102
RTVSPost2010PropOp31
 70
     1
102
RTVSPost2010Prop32
280
     0
102
RTVSPost2010PropOp32
 70
     1
102
RTVSPost2010Prop33
280
     0
102
RTVSPost2010PropOp33
 70
     1
102
RTVSPost2010Prop34
280
     0
102
RTVSPost2010PropOp34
 70
     1
102
RTVSPost2010Prop35
280
     0
102
RTVSPost2010PropOp35
 70
     1
102
RTVSPost2010Prop36
280
     0
102
RTVSPost2010PropOp36
 70
     1
102
RTVSPost2010Prop37
 90
       50
102
RTVSPost2010PropOp37
 70
     1
102
RTVSPost2010Prop38
140
0.0
102
RTVSPost2010PropOp38
 70
     1
102
RTVSPost2010Prop39
140
1.0
102
RTVSPost2010PropOp39
 70
     1
102
RTVSPost2010Prop40
 90
        0
102
RTVSPost2010PropOp40
 70
     1
102
RTVSPost2010Prop41ColorIndex
 90
       18
102
RTVSPost2010Prop41ColorRGB
 90
        0
102
RTVSPost2010PropOp41
 70
     1
102
RTVSPost2010Prop42
 90
       50
102
RTVSPost2010PropOp42
 70
     1
102
RTVSPost2010Prop43
 90
        3
102
RTVSPost2010PropOp43
 70
     1
102
RTVSPost2010Prop44ColorIndex
 90
        5
102
RTVSPost2010Prop44ColorRGB
 90
      255
102
RTVSPost2010PropOp44
 70
     1
102
RTVSPost2010Prop45
280
     0
102
RTVSPost2010PropOp45
 70
     1
102
RTVSPost2010Prop46
 90
       50
102
RTVSPost2010PropOp46
 70
     1
102
RTVSPost2010Prop47
 90
       50
102
RTVSPost2010PropOp47
 70
     1
102
RTVSPost2010Prop48
 90
       50
102
RTVSPost2010PropOp48
 70
     1
102
RTVSPost2010Prop49
280
     0
102
RTVSPost2010PropOp49
 70
     1
102
RTVSPost2010Prop50
 90
       50
102
RTVSPost2010PropOp50
 70
     1
102
RTVSPost2010Prop51ColorIndex
 90
      256
102
RTVSPost2010Prop51ColorRGB
 90
-16777216
102
RTVSPost2010PropOp51
 70
     0
102
RTVSPost2010Prop52
140
1.0
102
RTVSPost2010PropOp52
 70
     0
102
RTVSPost2010Prop53
 90
        2
102
RTVSPost2010PropOp53
 70
     1
102
RTVSPost2010Prop54
  1
strokes_ogs.tif
102
RTVSPost2010PropOp54
 70
     1
102
RTVSPost2010Prop55
280
     0
102
RTVSPost2010PropOp55
 70
     1
102
RTVSPost2010Prop56
140
1.0
102
RTVSPost2010PropOp56
 70
     1
102
RTVSPost2010Prop57
140
1.0
102
RTVSPost2010PropOp57
 70
     1
102
RTVSPropertyOp0
 70
     1
102
RTVSPropertyOp1
 70
     1
102
RTVSPropertyOp2
 70
     1
102
RTVSPropertyOp3
 70
     1
102
RTVSPropertyOp4
 70
     1
102
RTVSPropertyOp5
 70
     1
102
RTVSPropertyOp6
 70
     1
102
RTVSPropertyOp7
 70
     1
102
RTVSPropertyOp8
 70
     1
102
RTVSPropertyOp9
 70
     1
102
RTVSPropertyOp10
 70
     1
102
RTVSPropertyOp11
 70
     1
102
RTVSPropertyOp12
 70
     1
102
RTVSPropertyOp13
 70
     1
102
RTVSPropertyOp14
 70
     1
102
RTVSPropertyOp15
 70
     1
102
RTVSPropertyOp16
 70
     1
102
RTVSPropertyOp17
 70
     1
102
RTVSPropertyOp18
 70
     1
102
RTVSPropertyOp19
 70
     1
102
RTVSPropertyOp20
 70
     1
102
RTVSPropertyOp21
 70
     1
102
RTVSPropertyOp22
 70
     1
102
RTVSPropertyOp23
 70
     1
102
RTVSPropertyOp24
 70
     1
102
RTVSPropertyOp25
 70
     1
102
RTVSPropertyOp26
 70
     1
102
RTVSPropertyOp27
 70
     1
102
RTVSPropertyOp28
 70
     1
102
RTVSPropertyOp29
 70
     1
102
RTVSPropertyOp30
 70
     1
102
RTVSPropertyOp31
 70
     1
102
RTVSPropertyOp32
 70
     1
102
RTVSPropertyOp33
 70
     1
102
RTVSPropertyOp34
 70
     1
102
RTVSPropertyOp35
 70
     1
102
RTVSPropertyOp36
 70
     1
102
RTVSPropertyOp37
 70
     1
102
RTVSPropertyOp38
 70
     1
102
RTVSPropertyOp39
 70
     1
102
RTVSPropertyOp40
 70
     1
102
RTVSPropertyOp41
 70
     1
102
RTVSPropertyOp42
 70
     1
102
RTVSPropertyOp43
 70
     1
102
RTVSPropertyOp44
 70
     1
102
RTVSPropertyOp45
 70
     1
102
RTVSPropertyOp46
 70
     1
102
RTVSPropertyOp47
 70
     1
102
RTVSPropertyOp48
 70
     1
102
RTVSPropertyOp49
 70
     1
102
RTVSPropertyOp50
 70
     1
102
RTVSPropertyOp51
 70
     0
102
RTVSPropertyOp52
 70
     0
102
RTVSPropertyOp53
 70
     1
102
RTVSPropertyOp54
 70
     1
102
RTVSPropertyOp55
 70
     1
102
RTVSPropertyOp56
 70
     1
102
RTVSPropertyOp57
 70
     1
102
RTVSPropertyOp58
 70
     1
102
RTVSPropertyOp59
 70
     1
102
RTVSPropertyOp60
 70
     1
102
RTVSPropertyOp61
 70
     1
102
RTVSPropertyOp62
 70
     1
  0
XRECORD
  5
4166
102
{ACAD_REACTORS
330
4165
102
}
330
4165
100
AcDbXrecord
280
     1
102
RTVSPost2010Prop28
280
     0
102
RTVSPost2010PropOp28
 70
     0
102
RTVSPost2010Prop29
280
     1
102
RTVSPost2010PropOp29
 70
     0
102
RTVSPost2010Prop30
280
     1
102
RTVSPost2010PropOp30
 70
     0
102
RTVSPost2010Prop31
280
     0
102
RTVSPost2010PropOp31
 70
     0
102
RTVSPost2010Prop32
280
     0
102
RTVSPost2010PropOp32
 70
     0
102
RTVSPost2010Prop33
280
     0
102
RTVSPost2010PropOp33
 70
     0
102
RTVSPost2010Prop34
280
     0
102
RTVSPost2010PropOp34
 70
     0
102
RTVSPost2010Prop35
280
     0
102
RTVSPost2010PropOp35
 70
     0
102
RTVSPost2010Prop36
280
     0
102
RTVSPost2010PropOp36
 70
     0
102
RTVSPost2010Prop37
 90
       50
102
RTVSPost2010PropOp37
 70
     0
102
RTVSPost2010Prop38
140
0.0
102
RTVSPost2010PropOp38
 70
     0
102
RTVSPost2010Prop39
140
1.0
102
RTVSPost2010PropOp39
 70
     0
102
RTVSPost2010Prop40
 90
        0
102
RTVSPost2010PropOp40
 70
     0
102
RTVSPost2010Prop41ColorIndex
 90
       18
102
RTVSPost2010Prop41ColorRGB
 90
        0
102
RTVSPost2010PropOp41
 70
     0
102
RTVSPost2010Prop42
 90
       50
102
RTVSPost2010PropOp42
 70
     0
102
RTVSPost2010Prop43
 90
        3
102
RTVSPost2010PropOp43
 70
     0
102
RTVSPost2010Prop44ColorIndex
 90
        5
102
RTVSPost2010Prop44ColorRGB
 90
      255
102
RTVSPost2010PropOp44
 70
     0
102
RTVSPost2010Prop45
280
     0
102
RTVSPost2010PropOp45
 70
     0
102
RTVSPost2010Prop46
 90
       50
102
RTVSPost2010PropOp46
 70
     0
102
RTVSPost2010Prop47
 90
       50
102
RTVSPost2010PropOp47
 70
     0
102
RTVSPost2010Prop48
 90
       50
102
RTVSPost2010PropOp48
 70
     0
102
RTVSPost2010Prop49
280
     0
102
RTVSPost2010PropOp49
 70
     0
102
RTVSPost2010Prop50
 90
       50
102
RTVSPost2010PropOp50
 70
     0
102
RTVSPost2010Prop51ColorIndex
 90
      256
102
RTVSPost2010Prop51ColorRGB
 90
-16777216
102
RTVSPost2010PropOp51
 70
     0
102
RTVSPost2010Prop52
140
1.0
102
RTVSPost2010PropOp52
 70
     0
102
RTVSPost2010Prop53
 90
        2
102
RTVSPost2010PropOp53
 70
     0
102
RTVSPost2010Prop54
  1
strokes_ogs.tif
102
RTVSPost2010PropOp54
 70
     0
102
RTVSPost2010Prop55
280
     0
102
RTVSPost2010PropOp55
 70
     0
102
RTVSPost2010Prop56
140
1.0
102
RTVSPost2010PropOp56
 70
     0
102
RTVSPost2010Prop57
140
1.0
102
RTVSPost2010PropOp57
 70
     0
102
RTVSPropertyOp0
 70
     0
102
RTVSPropertyOp1
 70
     0
102
RTVSPropertyOp2
 70
     0
102
RTVSPropertyOp3
 70
     0
102
RTVSPropertyOp4
 70
     0
102
RTVSPropertyOp5
 70
     0
102
RTVSPropertyOp6
 70
     0
102
RTVSPropertyOp7
 70
     0
102
RTVSPropertyOp8
 70
     0
102
RTVSPropertyOp9
 70
     0
102
RTVSPropertyOp10
 70
     0
102
RTVSPropertyOp11
 70
     0
102
RTVSPropertyOp12
 70
     0
102
RTVSPropertyOp13
 70
     0
102
RTVSPropertyOp14
 70
     2
102
RTVSPropertyOp15
 70
     0
102
RTVSPropertyOp16
 70
     0
102
RTVSPropertyOp17
 70
     0
102
RTVSPropertyOp18
 70
     0
102
RTVSPropertyOp19
 70
     0
102
RTVSPropertyOp20
 70
     0
102
RTVSPropertyOp21
 70
     0
102
RTVSPropertyOp22
 70
     0
102
RTVSPropertyOp23
 70
     0
102
RTVSPropertyOp24
 70
     0
102
RTVSPropertyOp25
 70
     0
102
RTVSPropertyOp26
 70
     0
102
RTVSPropertyOp27
 70
     0
102
RTVSPropertyOp28
 70
     0
102
RTVSPropertyOp29
 70
     0
102
RTVSPropertyOp30
 70
     0
102
RTVSPropertyOp31
 70
     0
102
RTVSPropertyOp32
 70
     0
102
RTVSPropertyOp33
 70
     0
102
RTVSPropertyOp34
 70
     0
102
RTVSPropertyOp35
 70
     0
102
RTVSPropertyOp36
 70
     0
102
RTVSPropertyOp37
 70
     0
102
RTVSPropertyOp38
 70
     0
102
RTVSPropertyOp39
 70
     0
102
RTVSPropertyOp40
 70
     0
102
RTVSPropertyOp41
 70
     0
102
RTVSPropertyOp42
 70
     0
102
RTVSPropertyOp43
 70
     0
102
RTVSPropertyOp44
 70
     0
102
RTVSPropertyOp45
 70
     0
102
RTVSPropertyOp46
 70
     0
102
RTVSPropertyOp47
 70
     0
102
RTVSPropertyOp48
 70
     0
102
RTVSPropertyOp49
 70
     0
102
RTVSPropertyOp50
 70
     0
102
RTVSPropertyOp51
 70
     0
102
RTVSPropertyOp52
 70
     0
102
RTVSPropertyOp53
 70
     0
102
RTVSPropertyOp54
 70
     0
102
RTVSPropertyOp55
 70
     0
102
RTVSPropertyOp56
 70
     0
102
RTVSPropertyOp57
 70
     0
102
RTVSPropertyOp58
 70
     0
102
RTVSPropertyOp59
 70
     0
102
RTVSPropertyOp60
 70
     0
102
RTVSPropertyOp61
 70
     0
102
RTVSPropertyOp62
 70
     0
  0
XRECORD
  5
4156
102
{ACAD_REACTORS
330
4155
102
}
330
4155
100
AcDbXrecord
280
     1
102
RTVSPost2010Prop28
280
     0
102
RTVSPost2010PropOp28
 70
     1
102
RTVSPost2010Prop29
280
     1
102
RTVSPost2010PropOp29
 70
     1
102
RTVSPost2010Prop30
280
     1
102
RTVSPost2010PropOp30
 70
     1
102
RTVSPost2010Prop31
280
     0
102
RTVSPost2010PropOp31
 70
     1
102
RTVSPost2010Prop32
280
     0
102
RTVSPost2010PropOp32
 70
     1
102
RTVSPost2010Prop33
280
     0
102
RTVSPost2010PropOp33
 70
     1
102
RTVSPost2010Prop34
280
     0
102
RTVSPost2010PropOp34
 70
     1
102
RTVSPost2010Prop35
280
     0
102
RTVSPost2010PropOp35
 70
     1
102
RTVSPost2010Prop36
280
     0
102
RTVSPost2010PropOp36
 70
     1
102
RTVSPost2010Prop37
 90
       50
102
RTVSPost2010PropOp37
 70
     1
102
RTVSPost2010Prop38
140
0.0
102
RTVSPost2010PropOp38
 70
     1
102
RTVSPost2010Prop39
140
1.0
102
RTVSPost2010PropOp39
 70
     1
102
RTVSPost2010Prop40
 90
        0
102
RTVSPost2010PropOp40
 70
     1
102
RTVSPost2010Prop41ColorIndex
 90
       18
102
RTVSPost2010Prop41ColorRGB
 90
        0
102
RTVSPost2010PropOp41
 70
     1
102
RTVSPost2010Prop42
 90
       50
102
RTVSPost2010PropOp42
 70
     1
102
RTVSPost2010Prop43
 90
        3
102
RTVSPost2010PropOp43
 70
     1
102
RTVSPost2010Prop44ColorIndex
 90
        5
102
RTVSPost2010Prop44ColorRGB
 90
      255
102
RTVSPost2010PropOp44
 70
     1
102
RTVSPost2010Prop45
280
     0
102
RTVSPost2010PropOp45
 70
     1
102
RTVSPost2010Prop46
 90
       50
102
RTVSPost2010PropOp46
 70
     1
102
RTVSPost2010Prop47
 90
       50
102
RTVSPost2010PropOp47
 70
     1
102
RTVSPost2010Prop48
 90
       50
102
RTVSPost2010PropOp48
 70
     1
102
RTVSPost2010Prop49
280
     0
102
RTVSPost2010PropOp49
 70
     1
102
RTVSPost2010Prop50
 90
       50
102
RTVSPost2010PropOp50
 70
     1
102
RTVSPost2010Prop51ColorIndex
 90
      256
102
RTVSPost2010Prop51ColorRGB
 90
-16777216
102
RTVSPost2010PropOp51
 70
     0
102
RTVSPost2010Prop52
140
1.0
102
RTVSPost2010PropOp52
 70
     0
102
RTVSPost2010Prop53
 90
        2
102
RTVSPost2010PropOp53
 70
     1
102
RTVSPost2010Prop54
  1
strokes_ogs.tif
102
RTVSPost2010PropOp54
 70
     1
102
RTVSPost2010Prop55
280
     0
102
RTVSPost2010PropOp55
 70
     1
102
RTVSPost2010Prop56
140
1.0
102
RTVSPost2010PropOp56
 70
     1
102
RTVSPost2010Prop57
140
1.0
102
RTVSPost2010PropOp57
 70
     1
102
RTVSPropertyOp0
 70
     1
102
RTVSPropertyOp1
 70
     1
102
RTVSPropertyOp2
 70
     1
102
RTVSPropertyOp3
 70
     1
102
RTVSPropertyOp4
 70
     1
102
RTVSPropertyOp5
 70
     1
102
RTVSPropertyOp6
 70
     1
102
RTVSPropertyOp7
 70
     1
102
RTVSPropertyOp8
 70
     1
102
RTVSPropertyOp9
 70
     1
102
RTVSPropertyOp10
 70
     1
102
RTVSPropertyOp11
 70
     1
102
RTVSPropertyOp12
 70
     1
102
RTVSPropertyOp13
 70
     1
102
RTVSPropertyOp14
 70
     1
102
RTVSPropertyOp15
 70
     1
102
RTVSPropertyOp16
 70
     1
102
RTVSPropertyOp17
 70
     1
102
RTVSPropertyOp18
 70
     1
102
RTVSPropertyOp19
 70
     1
102
RTVSPropertyOp20
 70
     1
102
RTVSPropertyOp21
 70
     1
102
RTVSPropertyOp22
 70
     1
102
RTVSPropertyOp23
 70
     1
102
RTVSPropertyOp24
 70
     1
102
RTVSPropertyOp25
 70
     1
102
RTVSPropertyOp26
 70
     1
102
RTVSPropertyOp27
 70
     1
102
RTVSPropertyOp28
 70
     1
102
RTVSPropertyOp29
 70
     1
102
RTVSPropertyOp30
 70
     1
102
RTVSPropertyOp31
 70
     1
102
RTVSPropertyOp32
 70
     1
102
RTVSPropertyOp33
 70
     1
102
RTVSPropertyOp34
 70
     1
102
RTVSPropertyOp35
 70
     1
102
RTVSPropertyOp36
 70
     1
102
RTVSPropertyOp37
 70
     1
102
RTVSPropertyOp38
 70
     1
102
RTVSPropertyOp39
 70
     1
102
RTVSPropertyOp40
 70
     1
102
RTVSPropertyOp41
 70
     1
102
RTVSPropertyOp42
 70
     1
102
RTVSPropertyOp43
 70
     1
102
RTVSPropertyOp44
 70
     1
102
RTVSPropertyOp45
 70
     1
102
RTVSPropertyOp46
 70
     1
102
RTVSPropertyOp47
 70
     1
102
RTVSPropertyOp48
 70
     1
102
RTVSPropertyOp49
 70
     1
102
RTVSPropertyOp50
 70
     1
102
RTVSPropertyOp51
 70
     0
102
RTVSPropertyOp52
 70
     0
102
RTVSPropertyOp53
 70
     1
102
RTVSPropertyOp54
 70
     1
102
RTVSPropertyOp55
 70
     1
102
RTVSPropertyOp56
 70
     1
102
RTVSPropertyOp57
 70
     1
102
RTVSPropertyOp58
 70
     1
102
RTVSPropertyOp59
 70
     1
102
RTVSPropertyOp60
 70
     1
102
RTVSPropertyOp61
 70
     1
102
RTVSPropertyOp62
 70
     1
  0
XRECORD
  5
4168
102
{ACAD_REACTORS
330
4167
102
}
330
4167
100
AcDbXrecord
280
     1
102
RTVSPost2010Prop28
280
     0
102
RTVSPost2010PropOp28
 70
     0
102
RTVSPost2010Prop29
280
     1
102
RTVSPost2010PropOp29
 70
     0
102
RTVSPost2010Prop30
280
     1
102
RTVSPost2010PropOp30
 70
     0
102
RTVSPost2010Prop31
280
     0
102
RTVSPost2010PropOp31
 70
     0
102
RTVSPost2010Prop32
280
     0
102
RTVSPost2010PropOp32
 70
     0
102
RTVSPost2010Prop33
280
     0
102
RTVSPost2010PropOp33
 70
     0
102
RTVSPost2010Prop34
280
     0
102
RTVSPost2010PropOp34
 70
     0
102
RTVSPost2010Prop35
280
     0
102
RTVSPost2010PropOp35
 70
     0
102
RTVSPost2010Prop36
280
     0
102
RTVSPost2010PropOp36
 70
     0
102
RTVSPost2010Prop37
 90
       50
102
RTVSPost2010PropOp37
 70
     0
102
RTVSPost2010Prop38
140
0.0
102
RTVSPost2010PropOp38
 70
     0
102
RTVSPost2010Prop39
140
1.0
102
RTVSPost2010PropOp39
 70
     0
102
RTVSPost2010Prop40
 90
        0
102
RTVSPost2010PropOp40
 70
     0
102
RTVSPost2010Prop41ColorIndex
 90
       18
102
RTVSPost2010Prop41ColorRGB
 90
        0
102
RTVSPost2010PropOp41
 70
     0
102
RTVSPost2010Prop42
 90
       50
102
RTVSPost2010PropOp42
 70
     0
102
RTVSPost2010Prop43
 90
        3
102
RTVSPost2010PropOp43
 70
     0
102
RTVSPost2010Prop44ColorIndex
 90
        5
102
RTVSPost2010Prop44ColorRGB
 90
      255
102
RTVSPost2010PropOp44
 70
     0
102
RTVSPost2010Prop45
280
     0
102
RTVSPost2010PropOp45
 70
     0
102
RTVSPost2010Prop46
 90
       50
102
RTVSPost2010PropOp46
 70
     0
102
RTVSPost2010Prop47
 90
       50
102
RTVSPost2010PropOp47
 70
     0
102
RTVSPost2010Prop48
 90
       50
102
RTVSPost2010PropOp48
 70
     0
102
RTVSPost2010Prop49
280
     0
102
RTVSPost2010PropOp49
 70
     0
102
RTVSPost2010Prop50
 90
       50
102
RTVSPost2010PropOp50
 70
     0
102
RTVSPost2010Prop51ColorIndex
 90
      256
102
RTVSPost2010Prop51ColorRGB
 90
-16777216
102
RTVSPost2010PropOp51
 70
     0
102
RTVSPost2010Prop52
140
1.0
102
RTVSPost2010PropOp52
 70
     0
102
RTVSPost2010Prop53
 90
        2
102
RTVSPost2010PropOp53
 70
     0
102
RTVSPost2010Prop54
  1
strokes_ogs.tif
102
RTVSPost2010PropOp54
 70
     0
102
RTVSPost2010Prop55
280
     0
102
RTVSPost2010PropOp55
 70
     0
102
RTVSPost2010Prop56
140
1.0
102
RTVSPost2010PropOp56
 70
     0
102
RTVSPost2010Prop57
140
1.0
102
RTVSPost2010PropOp57
 70
     0
102
RTVSPropertyOp0
 70
     0
102
RTVSPropertyOp1
 70
     0
102
RTVSPropertyOp2
 70
     0
102
RTVSPropertyOp3
 70
     0
102
RTVSPropertyOp4
 70
     0
102
RTVSPropertyOp5
 70
     0
102
RTVSPropertyOp6
 70
     0
102
RTVSPropertyOp7
 70
     0
102
RTVSPropertyOp8
 70
     0
102
RTVSPropertyOp9
 70
     0
102
RTVSPropertyOp10
 70
     0
102
RTVSPropertyOp11
 70
     0
102
RTVSPropertyOp12
 70
     0
102
RTVSPropertyOp13
 70
     0
102
RTVSPropertyOp14
 70
     2
102
RTVSPropertyOp15
 70
     0
102
RTVSPropertyOp16
 70
     0
102
RTVSPropertyOp17
 70
     0
102
RTVSPropertyOp18
 70
     0
102
RTVSPropertyOp19
 70
     0
102
RTVSPropertyOp20
 70
     0
102
RTVSPropertyOp21
 70
     0
102
RTVSPropertyOp22
 70
     0
102
RTVSPropertyOp23
 70
     0
102
RTVSPropertyOp24
 70
     0
102
RTVSPropertyOp25
 70
     0
102
RTVSPropertyOp26
 70
     0
102
RTVSPropertyOp27
 70
     0
102
RTVSPropertyOp28
 70
     0
102
RTVSPropertyOp29
 70
     0
102
RTVSPropertyOp30
 70
     0
102
RTVSPropertyOp31
 70
     0
102
RTVSPropertyOp32
 70
     0
102
RTVSPropertyOp33
 70
     0
102
RTVSPropertyOp34
 70
     0
102
RTVSPropertyOp35
 70
     0
102
RTVSPropertyOp36
 70
     0
102
RTVSPropertyOp37
 70
     0
102
RTVSPropertyOp38
 70
     0
102
RTVSPropertyOp39
 70
     0
102
RTVSPropertyOp40
 70
     0
102
RTVSPropertyOp41
 70
     0
102
RTVSPropertyOp42
 70
     0
102
RTVSPropertyOp43
 70
     0
102
RTVSPropertyOp44
 70
     0
102
RTVSPropertyOp45
 70
     0
102
RTVSPropertyOp46
 70
     0
102
RTVSPropertyOp47
 70
     0
102
RTVSPropertyOp48
 70
     0
102
RTVSPropertyOp49
 70
     0
102
RTVSPropertyOp50
 70
     0
102
RTVSPropertyOp51
 70
     0
102
RTVSPropertyOp52
 70
     0
102
RTVSPropertyOp53
 70
     0
102
RTVSPropertyOp54
 70
     0
102
RTVSPropertyOp55
 70
     0
102
RTVSPropertyOp56
 70
     0
102
RTVSPropertyOp57
 70
     0
102
RTVSPropertyOp58
 70
     0
102
RTVSPropertyOp59
 70
     0
102
RTVSPropertyOp60
 70
     0
102
RTVSPropertyOp61
 70
     0
102
RTVSPropertyOp62
 70
     0
  0
XRECORD
  5
414E
102
{ACAD_REACTORS
330
414D
102
}
330
414D
100
AcDbXrecord
280
     1
102
RTVSPost2010Prop28
280
     0
102
RTVSPost2010PropOp28
 70
     1
102
RTVSPost2010Prop29
280
     1
102
RTVSPost2010PropOp29
 70
     1
102
RTVSPost2010Prop30
280
     1
102
RTVSPost2010PropOp30
 70
     1
102
RTVSPost2010Prop31
280
     0
102
RTVSPost2010PropOp31
 70
     1
102
RTVSPost2010Prop32
280
     0
102
RTVSPost2010PropOp32
 70
     1
102
RTVSPost2010Prop33
280
     0
102
RTVSPost2010PropOp33
 70
     1
102
RTVSPost2010Prop34
280
     0
102
RTVSPost2010PropOp34
 70
     1
102
RTVSPost2010Prop35
280
     0
102
RTVSPost2010PropOp35
 70
     1
102
RTVSPost2010Prop36
280
     0
102
RTVSPost2010PropOp36
 70
     1
102
RTVSPost2010Prop37
 90
       50
102
RTVSPost2010PropOp37
 70
     1
102
RTVSPost2010Prop38
140
0.0
102
RTVSPost2010PropOp38
 70
     1
102
RTVSPost2010Prop39
140
1.0
102
RTVSPost2010PropOp39
 70
     1
102
RTVSPost2010Prop40
 90
        0
102
RTVSPost2010PropOp40
 70
     1
102
RTVSPost2010Prop41ColorIndex
 90
       18
102
RTVSPost2010Prop41ColorRGB
 90
        0
102
RTVSPost2010PropOp41
 70
     1
102
RTVSPost2010Prop42
 90
       50
102
RTVSPost2010PropOp42
 70
     1
102
RTVSPost2010Prop43
 90
        3
102
RTVSPost2010PropOp43
 70
     1
102
RTVSPost2010Prop44ColorIndex
 90
        5
102
RTVSPost2010Prop44ColorRGB
 90
      255
102
RTVSPost2010PropOp44
 70
     1
102
RTVSPost2010Prop45
280
     0
102
RTVSPost2010PropOp45
 70
     1
102
RTVSPost2010Prop46
 90
       50
102
RTVSPost2010PropOp46
 70
     1
102
RTVSPost2010Prop47
 90
       50
102
RTVSPost2010PropOp47
 70
     1
102
RTVSPost2010Prop48
 90
       50
102
RTVSPost2010PropOp48
 70
     1
102
RTVSPost2010Prop49
280
     0
102
RTVSPost2010PropOp49
 70
     1
102
RTVSPost2010Prop50
 90
       50
102
RTVSPost2010PropOp50
 70
     1
102
RTVSPost2010Prop51ColorIndex
 90
      256
102
RTVSPost2010Prop51ColorRGB
 90
-16777216
102
RTVSPost2010PropOp51
 70
     0
102
RTVSPost2010Prop52
140
1.0
102
RTVSPost2010PropOp52
 70
     0
102
RTVSPost2010Prop53
 90
        2
102
RTVSPost2010PropOp53
 70
     1
102
RTVSPost2010Prop54
  1
strokes_ogs.tif
102
RTVSPost2010PropOp54
 70
     1
102
RTVSPost2010Prop55
280
     0
102
RTVSPost2010PropOp55
 70
     1
102
RTVSPost2010Prop56
140
1.0
102
RTVSPost2010PropOp56
 70
     1
102
RTVSPost2010Prop57
140
1.0
102
RTVSPost2010PropOp57
 70
     1
102
RTVSPropertyOp0
 70
     1
102
RTVSPropertyOp1
 70
     1
102
RTVSPropertyOp2
 70
     1
102
RTVSPropertyOp3
 70
     1
102
RTVSPropertyOp4
 70
     1
102
RTVSPropertyOp5
 70
     1
102
RTVSPropertyOp6
 70
     1
102
RTVSPropertyOp7
 70
     1
102
RTVSPropertyOp8
 70
     1
102
RTVSPropertyOp9
 70
     1
102
RTVSPropertyOp10
 70
     1
102
RTVSPropertyOp11
 70
     1
102
RTVSPropertyOp12
 70
     1
102
RTVSPropertyOp13
 70
     1
102
RTVSPropertyOp14
 70
     1
102
RTVSPropertyOp15
 70
     1
102
RTVSPropertyOp16
 70
     1
102
RTVSPropertyOp17
 70
     1
102
RTVSPropertyOp18
 70
     1
102
RTVSPropertyOp19
 70
     1
102
RTVSPropertyOp20
 70
     1
102
RTVSPropertyOp21
 70
     1
102
RTVSPropertyOp22
 70
     1
102
RTVSPropertyOp23
 70
     1
102
RTVSPropertyOp24
 70
     1
102
RTVSPropertyOp25
 70
     1
102
RTVSPropertyOp26
 70
     1
102
RTVSPropertyOp27
 70
     1
102
RTVSPropertyOp28
 70
     1
102
RTVSPropertyOp29
 70
     1
102
RTVSPropertyOp30
 70
     1
102
RTVSPropertyOp31
 70
     1
102
RTVSPropertyOp32
 70
     1
102
RTVSPropertyOp33
 70
     1
102
RTVSPropertyOp34
 70
     1
102
RTVSPropertyOp35
 70
     1
102
RTVSPropertyOp36
 70
     1
102
RTVSPropertyOp37
 70
     1
102
RTVSPropertyOp38
 70
     1
102
RTVSPropertyOp39
 70
     1
102
RTVSPropertyOp40
 70
     1
102
RTVSPropertyOp41
 70
     1
102
RTVSPropertyOp42
 70
     1
102
RTVSPropertyOp43
 70
     1
102
RTVSPropertyOp44
 70
     1
102
RTVSPropertyOp45
 70
     1
102
RTVSPropertyOp46
 70
     1
102
RTVSPropertyOp47
 70
     1
102
RTVSPropertyOp48
 70
     1
102
RTVSPropertyOp49
 70
     1
102
RTVSPropertyOp50
 70
     1
102
RTVSPropertyOp51
 70
     0
102
RTVSPropertyOp52
 70
     0
102
RTVSPropertyOp53
 70
     1
102
RTVSPropertyOp54
 70
     1
102
RTVSPropertyOp55
 70
     1
102
RTVSPropertyOp56
 70
     1
102
RTVSPropertyOp57
 70
     1
102
RTVSPropertyOp58
 70
     1
102
RTVSPropertyOp59
 70
     1
102
RTVSPropertyOp60
 70
     1
102
RTVSPropertyOp61
 70
     1
102
RTVSPropertyOp62
 70
     1
  0
XRECORD
  5
4164
102
{ACAD_REACTORS
330
4163
102
}
330
4163
100
AcDbXrecord
280
     1
102
RTVSPost2010Prop28
280
     0
102
RTVSPost2010PropOp28
 70
     1
102
RTVSPost2010Prop29
280
     1
102
RTVSPost2010PropOp29
 70
     1
102
RTVSPost2010Prop30
280
     1
102
RTVSPost2010PropOp30
 70
     1
102
RTVSPost2010Prop31
280
     0
102
RTVSPost2010PropOp31
 70
     1
102
RTVSPost2010Prop32
280
     0
102
RTVSPost2010PropOp32
 70
     1
102
RTVSPost2010Prop33
280
     0
102
RTVSPost2010PropOp33
 70
     1
102
RTVSPost2010Prop34
280
     0
102
RTVSPost2010PropOp34
 70
     1
102
RTVSPost2010Prop35
280
     0
102
RTVSPost2010PropOp35
 70
     1
102
RTVSPost2010Prop36
280
     0
102
RTVSPost2010PropOp36
 70
     1
102
RTVSPost2010Prop37
 90
       50
102
RTVSPost2010PropOp37
 70
     1
102
RTVSPost2010Prop38
140
0.0
102
RTVSPost2010PropOp38
 70
     1
102
RTVSPost2010Prop39
140
1.0
102
RTVSPost2010PropOp39
 70
     1
102
RTVSPost2010Prop40
 90
        0
102
RTVSPost2010PropOp40
 70
     1
102
RTVSPost2010Prop41ColorIndex
 90
       18
102
RTVSPost2010Prop41ColorRGB
 90
        0
102
RTVSPost2010PropOp41
 70
     1
102
RTVSPost2010Prop42
 90
       50
102
RTVSPost2010PropOp42
 70
     1
102
RTVSPost2010Prop43
 90
        3
102
RTVSPost2010PropOp43
 70
     1
102
RTVSPost2010Prop44ColorIndex
 90
        5
102
RTVSPost2010Prop44ColorRGB
 90
      255
102
RTVSPost2010PropOp44
 70
     1
102
RTVSPost2010Prop45
280
     0
102
RTVSPost2010PropOp45
 70
     1
102
RTVSPost2010Prop46
 90
       50
102
RTVSPost2010PropOp46
 70
     1
102
RTVSPost2010Prop47
 90
       50
102
RTVSPost2010PropOp47
 70
     1
102
RTVSPost2010Prop48
 90
       50
102
RTVSPost2010PropOp48
 70
     1
102
RTVSPost2010Prop49
280
     0
102
RTVSPost2010PropOp49
 70
     1
102
RTVSPost2010Prop50
 90
       50
102
RTVSPost2010PropOp50
 70
     1
102
RTVSPost2010Prop51ColorIndex
 90
      256
102
RTVSPost2010Prop51ColorRGB
 90
-16777216
102
RTVSPost2010PropOp51
 70
     0
102
RTVSPost2010Prop52
140
1.0
102
RTVSPost2010PropOp52
 70
     0
102
RTVSPost2010Prop53
 90
        2
102
RTVSPost2010PropOp53
 70
     1
102
RTVSPost2010Prop54
  1
strokes_ogs.tif
102
RTVSPost2010PropOp54
 70
     1
102
RTVSPost2010Prop55
280
     0
102
RTVSPost2010PropOp55
 70
     1
102
RTVSPost2010Prop56
140
1.0
102
RTVSPost2010PropOp56
 70
     1
102
RTVSPost2010Prop57
140
1.0
102
RTVSPost2010PropOp57
 70
     1
102
RTVSPropertyOp0
 70
     1
102
RTVSPropertyOp1
 70
     1
102
RTVSPropertyOp2
 70
     1
102
RTVSPropertyOp3
 70
     1
102
RTVSPropertyOp4
 70
     1
102
RTVSPropertyOp5
 70
     1
102
RTVSPropertyOp6
 70
     1
102
RTVSPropertyOp7
 70
     1
102
RTVSPropertyOp8
 70
     1
102
RTVSPropertyOp9
 70
     1
102
RTVSPropertyOp10
 70
     1
102
RTVSPropertyOp11
 70
     1
102
RTVSPropertyOp12
 70
     1
102
RTVSPropertyOp13
 70
     1
102
RTVSPropertyOp14
 70
     1
102
RTVSPropertyOp15
 70
     1
102
RTVSPropertyOp16
 70
     1
102
RTVSPropertyOp17
 70
     1
102
RTVSPropertyOp18
 70
     1
102
RTVSPropertyOp19
 70
     1
102
RTVSPropertyOp20
 70
     1
102
RTVSPropertyOp21
 70
     1
102
RTVSPropertyOp22
 70
     1
102
RTVSPropertyOp23
 70
     1
102
RTVSPropertyOp24
 70
     1
102
RTVSPropertyOp25
 70
     1
102
RTVSPropertyOp26
 70
     1
102
RTVSPropertyOp27
 70
     1
102
RTVSPropertyOp28
 70
     1
102
RTVSPropertyOp29
 70
     1
102
RTVSPropertyOp30
 70
     1
102
RTVSPropertyOp31
 70
     1
102
RTVSPropertyOp32
 70
     1
102
RTVSPropertyOp33
 70
     1
102
RTVSPropertyOp34
 70
     1
102
RTVSPropertyOp35
 70
     1
102
RTVSPropertyOp36
 70
     1
102
RTVSPropertyOp37
 70
     1
102
RTVSPropertyOp38
 70
     1
102
RTVSPropertyOp39
 70
     1
102
RTVSPropertyOp40
 70
     1
102
RTVSPropertyOp41
 70
     1
102
RTVSPropertyOp42
 70
     1
102
RTVSPropertyOp43
 70
     1
102
RTVSPropertyOp44
 70
     1
102
RTVSPropertyOp45
 70
     1
102
RTVSPropertyOp46
 70
     1
102
RTVSPropertyOp47
 70
     1
102
RTVSPropertyOp48
 70
     1
102
RTVSPropertyOp49
 70
     1
102
RTVSPropertyOp50
 70
     1
102
RTVSPropertyOp51
 70
     0
102
RTVSPropertyOp52
 70
     0
102
RTVSPropertyOp53
 70
     1
102
RTVSPropertyOp54
 70
     1
102
RTVSPropertyOp55
 70
     1
102
RTVSPropertyOp56
 70
     1
102
RTVSPropertyOp57
 70
     1
102
RTVSPropertyOp58
 70
     1
102
RTVSPropertyOp59
 70
     1
102
RTVSPropertyOp60
 70
     1
102
RTVSPropertyOp61
 70
     1
102
RTVSPropertyOp62
 70
     1
  0
XRECORD
  5
4162
102
{ACAD_REACTORS
330
4161
102
}
330
4161
100
AcDbXrecord
280
     1
102
RTVSPost2010Prop28
280
     0
102
RTVSPost2010PropOp28
 70
     1
102
RTVSPost2010Prop29
280
     1
102
RTVSPost2010PropOp29
 70
     1
102
RTVSPost2010Prop30
280
     1
102
RTVSPost2010PropOp30
 70
     1
102
RTVSPost2010Prop31
280
     0
102
RTVSPost2010PropOp31
 70
     1
102
RTVSPost2010Prop32
280
     0
102
RTVSPost2010PropOp32
 70
     1
102
RTVSPost2010Prop33
280
     0
102
RTVSPost2010PropOp33
 70
     1
102
RTVSPost2010Prop34
280
     0
102
RTVSPost2010PropOp34
 70
     1
102
RTVSPost2010Prop35
280
     0
102
RTVSPost2010PropOp35
 70
     1
102
RTVSPost2010Prop36
280
     0
102
RTVSPost2010PropOp36
 70
     1
102
RTVSPost2010Prop37
 90
       50
102
RTVSPost2010PropOp37
 70
     1
102
RTVSPost2010Prop38
140
0.0
102
RTVSPost2010PropOp38
 70
     1
102
RTVSPost2010Prop39
140
1.0
102
RTVSPost2010PropOp39
 70
     1
102
RTVSPost2010Prop40
 90
        0
102
RTVSPost2010PropOp40
 70
     1
102
RTVSPost2010Prop41ColorIndex
 90
       18
102
RTVSPost2010Prop41ColorRGB
 90
        0
102
RTVSPost2010PropOp41
 70
     1
102
RTVSPost2010Prop42
 90
       50
102
RTVSPost2010PropOp42
 70
     1
102
RTVSPost2010Prop43
 90
        3
102
RTVSPost2010PropOp43
 70
     1
102
RTVSPost2010Prop44ColorIndex
 90
        5
102
RTVSPost2010Prop44ColorRGB
 90
      255
102
RTVSPost2010PropOp44
 70
     1
102
RTVSPost2010Prop45
280
     0
102
RTVSPost2010PropOp45
 70
     1
102
RTVSPost2010Prop46
 90
       50
102
RTVSPost2010PropOp46
 70
     1
102
RTVSPost2010Prop47
 90
       50
102
RTVSPost2010PropOp47
 70
     1
102
RTVSPost2010Prop48
 90
       50
102
RTVSPost2010PropOp48
 70
     1
102
RTVSPost2010Prop49
280
     0
102
RTVSPost2010PropOp49
 70
     1
102
RTVSPost2010Prop50
 90
       50
102
RTVSPost2010PropOp50
 70
     1
102
RTVSPost2010Prop51ColorIndex
 90
      256
102
RTVSPost2010Prop51ColorRGB
 90
-16777216
102
RTVSPost2010PropOp51
 70
     0
102
RTVSPost2010Prop52
140
1.0
102
RTVSPost2010PropOp52
 70
     0
102
RTVSPost2010Prop53
 90
        2
102
RTVSPost2010PropOp53
 70
     1
102
RTVSPost2010Prop54
  1
strokes_ogs.tif
102
RTVSPost2010PropOp54
 70
     1
102
RTVSPost2010Prop55
280
     0
102
RTVSPost2010PropOp55
 70
     1
102
RTVSPost2010Prop56
140
1.0
102
RTVSPost2010PropOp56
 70
     1
102
RTVSPost2010Prop57
140
1.0
102
RTVSPost2010PropOp57
 70
     1
102
RTVSPropertyOp0
 70
     1
102
RTVSPropertyOp1
 70
     1
102
RTVSPropertyOp2
 70
     1
102
RTVSPropertyOp3
 70
     1
102
RTVSPropertyOp4
 70
     1
102
RTVSPropertyOp5
 70
     1
102
RTVSPropertyOp6
 70
     1
102
RTVSPropertyOp7
 70
     1
102
RTVSPropertyOp8
 70
     1
102
RTVSPropertyOp9
 70
     1
102
RTVSPropertyOp10
 70
     1
102
RTVSPropertyOp11
 70
     1
102
RTVSPropertyOp12
 70
     1
102
RTVSPropertyOp13
 70
     1
102
RTVSPropertyOp14
 70
     1
102
RTVSPropertyOp15
 70
     1
102
RTVSPropertyOp16
 70
     1
102
RTVSPropertyOp17
 70
     1
102
RTVSPropertyOp18
 70
     1
102
RTVSPropertyOp19
 70
     1
102
RTVSPropertyOp20
 70
     1
102
RTVSPropertyOp21
 70
     1
102
RTVSPropertyOp22
 70
     1
102
RTVSPropertyOp23
 70
     1
102
RTVSPropertyOp24
 70
     1
102
RTVSPropertyOp25
 70
     1
102
RTVSPropertyOp26
 70
     1
102
RTVSPropertyOp27
 70
     1
102
RTVSPropertyOp28
 70
     1
102
RTVSPropertyOp29
 70
     1
102
RTVSPropertyOp30
 70
     1
102
RTVSPropertyOp31
 70
     1
102
RTVSPropertyOp32
 70
     1
102
RTVSPropertyOp33
 70
     1
102
RTVSPropertyOp34
 70
     1
102
RTVSPropertyOp35
 70
     1
102
RTVSPropertyOp36
 70
     1
102
RTVSPropertyOp37
 70
     1
102
RTVSPropertyOp38
 70
     1
102
RTVSPropertyOp39
 70
     1
102
RTVSPropertyOp40
 70
     1
102
RTVSPropertyOp41
 70
     1
102
RTVSPropertyOp42
 70
     1
102
RTVSPropertyOp43
 70
     1
102
RTVSPropertyOp44
 70
     1
102
RTVSPropertyOp45
 70
     1
102
RTVSPropertyOp46
 70
     1
102
RTVSPropertyOp47
 70
     1
102
RTVSPropertyOp48
 70
     1
102
RTVSPropertyOp49
 70
     1
102
RTVSPropertyOp50
 70
     1
102
RTVSPropertyOp51
 70
     0
102
RTVSPropertyOp52
 70
     0
102
RTVSPropertyOp53
 70
     1
102
RTVSPropertyOp54
 70
     1
102
RTVSPropertyOp55
 70
     1
102
RTVSPropertyOp56
 70
     1
102
RTVSPropertyOp57
 70
     1
102
RTVSPropertyOp58
 70
     1
102
RTVSPropertyOp59
 70
     1
102
RTVSPropertyOp60
 70
     1
102
RTVSPropertyOp61
 70
     1
102
RTVSPropertyOp62
 70
     1
  0
XRECORD
  5
415C
102
{ACAD_REACTORS
330
415B
102
}
330
415B
100
AcDbXrecord
280
     1
102
RTVSPost2010Prop28
280
     0
102
RTVSPost2010PropOp28
 70
     1
102
RTVSPost2010Prop29
280
     1
102
RTVSPost2010PropOp29
 70
     1
102
RTVSPost2010Prop30
280
     1
102
RTVSPost2010PropOp30
 70
     1
102
RTVSPost2010Prop31
280
     0
102
RTVSPost2010PropOp31
 70
     1
102
RTVSPost2010Prop32
280
     0
102
RTVSPost2010PropOp32
 70
     1
102
RTVSPost2010Prop33
280
     0
102
RTVSPost2010PropOp33
 70
     1
102
RTVSPost2010Prop34
280
     0
102
RTVSPost2010PropOp34
 70
     1
102
RTVSPost2010Prop35
280
     0
102
RTVSPost2010PropOp35
 70
     1
102
RTVSPost2010Prop36
280
     0
102
RTVSPost2010PropOp36
 70
     1
102
RTVSPost2010Prop37
 90
       50
102
RTVSPost2010PropOp37
 70
     1
102
RTVSPost2010Prop38
140
0.0
102
RTVSPost2010PropOp38
 70
     1
102
RTVSPost2010Prop39
140
1.0
102
RTVSPost2010PropOp39
 70
     1
102
RTVSPost2010Prop40
 90
        0
102
RTVSPost2010PropOp40
 70
     1
102
RTVSPost2010Prop41ColorIndex
 90
       18
102
RTVSPost2010Prop41ColorRGB
 90
        0
102
RTVSPost2010PropOp41
 70
     1
102
RTVSPost2010Prop42
 90
       50
102
RTVSPost2010PropOp42
 70
     1
102
RTVSPost2010Prop43
 90
        3
102
RTVSPost2010PropOp43
 70
     1
102
RTVSPost2010Prop44ColorIndex
 90
        5
102
RTVSPost2010Prop44ColorRGB
 90
      255
102
RTVSPost2010PropOp44
 70
     1
102
RTVSPost2010Prop45
280
     0
102
RTVSPost2010PropOp45
 70
     1
102
RTVSPost2010Prop46
 90
       50
102
RTVSPost2010PropOp46
 70
     1
102
RTVSPost2010Prop47
 90
       50
102
RTVSPost2010PropOp47
 70
     1
102
RTVSPost2010Prop48
 90
       50
102
RTVSPost2010PropOp48
 70
     1
102
RTVSPost2010Prop49
280
     0
102
RTVSPost2010PropOp49
 70
     1
102
RTVSPost2010Prop50
 90
       50
102
RTVSPost2010PropOp50
 70
     1
102
RTVSPost2010Prop51ColorIndex
 90
      256
102
RTVSPost2010Prop51ColorRGB
 90
-16777216
102
RTVSPost2010PropOp51
 70
     0
102
RTVSPost2010Prop52
140
1.0
102
RTVSPost2010PropOp52
 70
     0
102
RTVSPost2010Prop53
 90
        2
102
RTVSPost2010PropOp53
 70
     1
102
RTVSPost2010Prop54
  1
strokes_ogs.tif
102
RTVSPost2010PropOp54
 70
     1
102
RTVSPost2010Prop55
280
     0
102
RTVSPost2010PropOp55
 70
     1
102
RTVSPost2010Prop56
140
1.0
102
RTVSPost2010PropOp56
 70
     1
102
RTVSPost2010Prop57
140
1.0
102
RTVSPost2010PropOp57
 70
     1
102
RTVSPropertyOp0
 70
     1
102
RTVSPropertyOp1
 70
     1
102
RTVSPropertyOp2
 70
     1
102
RTVSPropertyOp3
 70
     1
102
RTVSPropertyOp4
 70
     1
102
RTVSPropertyOp5
 70
     1
102
RTVSPropertyOp6
 70
     1
102
RTVSPropertyOp7
 70
     1
102
RTVSPropertyOp8
 70
     1
102
RTVSPropertyOp9
 70
     1
102
RTVSPropertyOp10
 70
     1
102
RTVSPropertyOp11
 70
     1
102
RTVSPropertyOp12
 70
     1
102
RTVSPropertyOp13
 70
     1
102
RTVSPropertyOp14
 70
     1
102
RTVSPropertyOp15
 70
     1
102
RTVSPropertyOp16
 70
     1
102
RTVSPropertyOp17
 70
     1
102
RTVSPropertyOp18
 70
     1
102
RTVSPropertyOp19
 70
     1
102
RTVSPropertyOp20
 70
     1
102
RTVSPropertyOp21
 70
     1
102
RTVSPropertyOp22
 70
     1
102
RTVSPropertyOp23
 70
     1
102
RTVSPropertyOp24
 70
     1
102
RTVSPropertyOp25
 70
     1
102
RTVSPropertyOp26
 70
     1
102
RTVSPropertyOp27
 70
     1
102
RTVSPropertyOp28
 70
     1
102
RTVSPropertyOp29
 70
     1
102
RTVSPropertyOp30
 70
     1
102
RTVSPropertyOp31
 70
     1
102
RTVSPropertyOp32
 70
     1
102
RTVSPropertyOp33
 70
     1
102
RTVSPropertyOp34
 70
     1
102
RTVSPropertyOp35
 70
     1
102
RTVSPropertyOp36
 70
     1
102
RTVSPropertyOp37
 70
     1
102
RTVSPropertyOp38
 70
     1
102
RTVSPropertyOp39
 70
     1
102
RTVSPropertyOp40
 70
     1
102
RTVSPropertyOp41
 70
     1
102
RTVSPropertyOp42
 70
     1
102
RTVSPropertyOp43
 70
     1
102
RTVSPropertyOp44
 70
     1
102
RTVSPropertyOp45
 70
     1
102
RTVSPropertyOp46
 70
     1
102
RTVSPropertyOp47
 70
     1
102
RTVSPropertyOp48
 70
     1
102
RTVSPropertyOp49
 70
     1
102
RTVSPropertyOp50
 70
     1
102
RTVSPropertyOp51
 70
     0
102
RTVSPropertyOp52
 70
     0
102
RTVSPropertyOp53
 70
     1
102
RTVSPropertyOp54
 70
     1
102
RTVSPropertyOp55
 70
     1
102
RTVSPropertyOp56
 70
     1
102
RTVSPropertyOp57
 70
     1
102
RTVSPropertyOp58
 70
     1
102
RTVSPropertyOp59
 70
     1
102
RTVSPropertyOp60
 70
     1
102
RTVSPropertyOp61
 70
     1
102
RTVSPropertyOp62
 70
     1
  0
XRECORD
  5
415E
102
{ACAD_REACTORS
330
415D
102
}
330
415D
100
AcDbXrecord
280
     1
102
RTVSPost2010Prop28
280
     0
102
RTVSPost2010PropOp28
 70
     1
102
RTVSPost2010Prop29
280
     1
102
RTVSPost2010PropOp29
 70
     1
102
RTVSPost2010Prop30
280
     1
102
RTVSPost2010PropOp30
 70
     1
102
RTVSPost2010Prop31
280
     0
102
RTVSPost2010PropOp31
 70
     1
102
RTVSPost2010Prop32
280
     0
102
RTVSPost2010PropOp32
 70
     1
102
RTVSPost2010Prop33
280
     0
102
RTVSPost2010PropOp33
 70
     1
102
RTVSPost2010Prop34
280
     0
102
RTVSPost2010PropOp34
 70
     1
102
RTVSPost2010Prop35
280
     0
102
RTVSPost2010PropOp35
 70
     1
102
RTVSPost2010Prop36
280
     0
102
RTVSPost2010PropOp36
 70
     1
102
RTVSPost2010Prop37
 90
       50
102
RTVSPost2010PropOp37
 70
     1
102
RTVSPost2010Prop38
140
0.0
102
RTVSPost2010PropOp38
 70
     1
102
RTVSPost2010Prop39
140
1.0
102
RTVSPost2010PropOp39
 70
     1
102
RTVSPost2010Prop40
 90
        0
102
RTVSPost2010PropOp40
 70
     1
102
RTVSPost2010Prop41ColorIndex
 90
       18
102
RTVSPost2010Prop41ColorRGB
 90
        0
102
RTVSPost2010PropOp41
 70
     1
102
RTVSPost2010Prop42
 90
       50
102
RTVSPost2010PropOp42
 70
     1
102
RTVSPost2010Prop43
 90
        3
102
RTVSPost2010PropOp43
 70
     1
102
RTVSPost2010Prop44ColorIndex
 90
        5
102
RTVSPost2010Prop44ColorRGB
 90
      255
102
RTVSPost2010PropOp44
 70
     1
102
RTVSPost2010Prop45
280
     0
102
RTVSPost2010PropOp45
 70
     1
102
RTVSPost2010Prop46
 90
       50
102
RTVSPost2010PropOp46
 70
     1
102
RTVSPost2010Prop47
 90
       50
102
RTVSPost2010PropOp47
 70
     1
102
RTVSPost2010Prop48
 90
       50
102
RTVSPost2010PropOp48
 70
     1
102
RTVSPost2010Prop49
280
     0
102
RTVSPost2010PropOp49
 70
     1
102
RTVSPost2010Prop50
 90
       50
102
RTVSPost2010PropOp50
 70
     1
102
RTVSPost2010Prop51ColorIndex
 90
      256
102
RTVSPost2010Prop51ColorRGB
 90
-16777216
102
RTVSPost2010PropOp51
 70
     0
102
RTVSPost2010Prop52
140
1.0
102
RTVSPost2010PropOp52
 70
     0
102
RTVSPost2010Prop53
 90
        2
102
RTVSPost2010PropOp53
 70
     1
102
RTVSPost2010Prop54
  1
strokes_ogs.tif
102
RTVSPost2010PropOp54
 70
     1
102
RTVSPost2010Prop55
280
     0
102
RTVSPost2010PropOp55
 70
     1
102
RTVSPost2010Prop56
140
1.0
102
RTVSPost2010PropOp56
 70
     1
102
RTVSPost2010Prop57
140
1.0
102
RTVSPost2010PropOp57
 70
     1
102
RTVSPropertyOp0
 70
     1
102
RTVSPropertyOp1
 70
     1
102
RTVSPropertyOp2
 70
     1
102
RTVSPropertyOp3
 70
     1
102
RTVSPropertyOp4
 70
     1
102
RTVSPropertyOp5
 70
     1
102
RTVSPropertyOp6
 70
     1
102
RTVSPropertyOp7
 70
     1
102
RTVSPropertyOp8
 70
     1
102
RTVSPropertyOp9
 70
     1
102
RTVSPropertyOp10
 70
     1
102
RTVSPropertyOp11
 70
     1
102
RTVSPropertyOp12
 70
     1
102
RTVSPropertyOp13
 70
     1
102
RTVSPropertyOp14
 70
     1
102
RTVSPropertyOp15
 70
     1
102
RTVSPropertyOp16
 70
     1
102
RTVSPropertyOp17
 70
     1
102
RTVSPropertyOp18
 70
     1
102
RTVSPropertyOp19
 70
     1
102
RTVSPropertyOp20
 70
     1
102
RTVSPropertyOp21
 70
     1
102
RTVSPropertyOp22
 70
     1
102
RTVSPropertyOp23
 70
     1
102
RTVSPropertyOp24
 70
     1
102
RTVSPropertyOp25
 70
     1
102
RTVSPropertyOp26
 70
     1
102
RTVSPropertyOp27
 70
     1
102
RTVSPropertyOp28
 70
     1
102
RTVSPropertyOp29
 70
     1
102
RTVSPropertyOp30
 70
     1
102
RTVSPropertyOp31
 70
     1
102
RTVSPropertyOp32
 70
     1
102
RTVSPropertyOp33
 70
     1
102
RTVSPropertyOp34
 70
     1
102
RTVSPropertyOp35
 70
     1
102
RTVSPropertyOp36
 70
     1
102
RTVSPropertyOp37
 70
     1
102
RTVSPropertyOp38
 70
     1
102
RTVSPropertyOp39
 70
     1
102
RTVSPropertyOp40
 70
     1
102
RTVSPropertyOp41
 70
     1
102
RTVSPropertyOp42
 70
     1
102
RTVSPropertyOp43
 70
     1
102
RTVSPropertyOp44
 70
     1
102
RTVSPropertyOp45
 70
     1
102
RTVSPropertyOp46
 70
     1
102
RTVSPropertyOp47
 70
     1
102
RTVSPropertyOp48
 70
     1
102
RTVSPropertyOp49
 70
     1
102
RTVSPropertyOp50
 70
     1
102
RTVSPropertyOp51
 70
     0
102
RTVSPropertyOp52
 70
     0
102
RTVSPropertyOp53
 70
     1
102
RTVSPropertyOp54
 70
     1
102
RTVSPropertyOp55
 70
     1
102
RTVSPropertyOp56
 70
     1
102
RTVSPropertyOp57
 70
     1
102
RTVSPropertyOp58
 70
     1
102
RTVSPropertyOp59
 70
     1
102
RTVSPropertyOp60
 70
     1
102
RTVSPropertyOp61
 70
     1
102
RTVSPropertyOp62
 70
     1
  0
XRECORD
  5
4154
102
{ACAD_REACTORS
330
4153
102
}
330
4153
100
AcDbXrecord
280
     1
102
RTVSPost2010Prop28
280
     0
102
RTVSPost2010PropOp28
 70
     1
102
RTVSPost2010Prop29
280
     1
102
RTVSPost2010PropOp29
 70
     1
102
RTVSPost2010Prop30
280
     1
102
RTVSPost2010PropOp30
 70
     1
102
RTVSPost2010Prop31
280
     0
102
RTVSPost2010PropOp31
 70
     1
102
RTVSPost2010Prop32
280
     0
102
RTVSPost2010PropOp32
 70
     1
102
RTVSPost2010Prop33
280
     0
102
RTVSPost2010PropOp33
 70
     1
102
RTVSPost2010Prop34
280
     0
102
RTVSPost2010PropOp34
 70
     1
102
RTVSPost2010Prop35
280
     0
102
RTVSPost2010PropOp35
 70
     1
102
RTVSPost2010Prop36
280
     0
102
RTVSPost2010PropOp36
 70
     1
102
RTVSPost2010Prop37
 90
       50
102
RTVSPost2010PropOp37
 70
     1
102
RTVSPost2010Prop38
140
0.0
102
RTVSPost2010PropOp38
 70
     1
102
RTVSPost2010Prop39
140
1.0
102
RTVSPost2010PropOp39
 70
     1
102
RTVSPost2010Prop40
 90
        0
102
RTVSPost2010PropOp40
 70
     1
102
RTVSPost2010Prop41ColorIndex
 90
       18
102
RTVSPost2010Prop41ColorRGB
 90
        0
102
RTVSPost2010PropOp41
 70
     1
102
RTVSPost2010Prop42
 90
       50
102
RTVSPost2010PropOp42
 70
     1
102
RTVSPost2010Prop43
 90
        3
102
RTVSPost2010PropOp43
 70
     1
102
RTVSPost2010Prop44ColorIndex
 90
        5
102
RTVSPost2010Prop44ColorRGB
 90
      255
102
RTVSPost2010PropOp44
 70
     1
102
RTVSPost2010Prop45
280
     0
102
RTVSPost2010PropOp45
 70
     1
102
RTVSPost2010Prop46
 90
       50
102
RTVSPost2010PropOp46
 70
     1
102
RTVSPost2010Prop47
 90
       50
102
RTVSPost2010PropOp47
 70
     1
102
RTVSPost2010Prop48
 90
       50
102
RTVSPost2010PropOp48
 70
     1
102
RTVSPost2010Prop49
280
     0
102
RTVSPost2010PropOp49
 70
     1
102
RTVSPost2010Prop50
 90
       50
102
RTVSPost2010PropOp50
 70
     1
102
RTVSPost2010Prop51ColorIndex
 90
      256
102
RTVSPost2010Prop51ColorRGB
 90
-16777216
102
RTVSPost2010PropOp51
 70
     0
102
RTVSPost2010Prop52
140
1.0
102
RTVSPost2010PropOp52
 70
     0
102
RTVSPost2010Prop53
 90
        2
102
RTVSPost2010PropOp53
 70
     1
102
RTVSPost2010Prop54
  1
strokes_ogs.tif
102
RTVSPost2010PropOp54
 70
     1
102
RTVSPost2010Prop55
280
     0
102
RTVSPost2010PropOp55
 70
     1
102
RTVSPost2010Prop56
140
1.0
102
RTVSPost2010PropOp56
 70
     1
102
RTVSPost2010Prop57
140
1.0
102
RTVSPost2010PropOp57
 70
     1
102
RTVSPropertyOp0
 70
     1
102
RTVSPropertyOp1
 70
     1
102
RTVSPropertyOp2
 70
     1
102
RTVSPropertyOp3
 70
     1
102
RTVSPropertyOp4
 70
     1
102
RTVSPropertyOp5
 70
     1
102
RTVSPropertyOp6
 70
     1
102
RTVSPropertyOp7
 70
     1
102
RTVSPropertyOp8
 70
     1
102
RTVSPropertyOp9
 70
     1
102
RTVSPropertyOp10
 70
     1
102
RTVSPropertyOp11
 70
     1
102
RTVSPropertyOp12
 70
     1
102
RTVSPropertyOp13
 70
     1
102
RTVSPropertyOp14
 70
     1
102
RTVSPropertyOp15
 70
     1
102
RTVSPropertyOp16
 70
     1
102
RTVSPropertyOp17
 70
     1
102
RTVSPropertyOp18
 70
     1
102
RTVSPropertyOp19
 70
     1
102
RTVSPropertyOp20
 70
     1
102
RTVSPropertyOp21
 70
     1
102
RTVSPropertyOp22
 70
     1
102
RTVSPropertyOp23
 70
     1
102
RTVSPropertyOp24
 70
     1
102
RTVSPropertyOp25
 70
     1
102
RTVSPropertyOp26
 70
     1
102
RTVSPropertyOp27
 70
     1
102
RTVSPropertyOp28
 70
     1
102
RTVSPropertyOp29
 70
     1
102
RTVSPropertyOp30
 70
     1
102
RTVSPropertyOp31
 70
     1
102
RTVSPropertyOp32
 70
     1
102
RTVSPropertyOp33
 70
     1
102
RTVSPropertyOp34
 70
     1
102
RTVSPropertyOp35
 70
     1
102
RTVSPropertyOp36
 70
     1
102
RTVSPropertyOp37
 70
     1
102
RTVSPropertyOp38
 70
     1
102
RTVSPropertyOp39
 70
     1
102
RTVSPropertyOp40
 70
     1
102
RTVSPropertyOp41
 70
     1
102
RTVSPropertyOp42
 70
     1
102
RTVSPropertyOp43
 70
     1
102
RTVSPropertyOp44
 70
     1
102
RTVSPropertyOp45
 70
     1
102
RTVSPropertyOp46
 70
     1
102
RTVSPropertyOp47
 70
     1
102
RTVSPropertyOp48
 70
     1
102
RTVSPropertyOp49
 70
     1
102
RTVSPropertyOp50
 70
     1
102
RTVSPropertyOp51
 70
     0
102
RTVSPropertyOp52
 70
     0
102
RTVSPropertyOp53
 70
     1
102
RTVSPropertyOp54
 70
     1
102
RTVSPropertyOp55
 70
     1
102
RTVSPropertyOp56
 70
     1
102
RTVSPropertyOp57
 70
     1
102
RTVSPropertyOp58
 70
     1
102
RTVSPropertyOp59
 70
     1
102
RTVSPropertyOp60
 70
     1
102
RTVSPropertyOp61
 70
     1
102
RTVSPropertyOp62
 70
     1
  0
XRECORD
  5
4148
102
{ACAD_REACTORS
330
4147
102
}
330
4147
100
AcDbXrecord
280
     1
102
RTVSPost2010Prop28
280
     0
102
RTVSPost2010PropOp28
 70
     1
102
RTVSPost2010Prop29
280
     1
102
RTVSPost2010PropOp29
 70
     1
102
RTVSPost2010Prop30
280
     1
102
RTVSPost2010PropOp30
 70
     1
102
RTVSPost2010Prop31
280
     0
102
RTVSPost2010PropOp31
 70
     1
102
RTVSPost2010Prop32
280
     0
102
RTVSPost2010PropOp32
 70
     1
102
RTVSPost2010Prop33
280
     0
102
RTVSPost2010PropOp33
 70
     1
102
RTVSPost2010Prop34
280
     0
102
RTVSPost2010PropOp34
 70
     1
102
RTVSPost2010Prop35
280
     0
102
RTVSPost2010PropOp35
 70
     1
102
RTVSPost2010Prop36
280
     0
102
RTVSPost2010PropOp36
 70
     1
102
RTVSPost2010Prop37
 90
       50
102
RTVSPost2010PropOp37
 70
     1
102
RTVSPost2010Prop38
140
0.0
102
RTVSPost2010PropOp38
 70
     1
102
RTVSPost2010Prop39
140
1.0
102
RTVSPost2010PropOp39
 70
     1
102
RTVSPost2010Prop40
 90
        0
102
RTVSPost2010PropOp40
 70
     1
102
RTVSPost2010Prop41ColorIndex
 90
       18
102
RTVSPost2010Prop41ColorRGB
 90
        0
102
RTVSPost2010PropOp41
 70
     1
102
RTVSPost2010Prop42
 90
       50
102
RTVSPost2010PropOp42
 70
     1
102
RTVSPost2010Prop43
 90
        3
102
RTVSPost2010PropOp43
 70
     1
102
RTVSPost2010Prop44ColorIndex
 90
        5
102
RTVSPost2010Prop44ColorRGB
 90
      255
102
RTVSPost2010PropOp44
 70
     1
102
RTVSPost2010Prop45
280
     0
102
RTVSPost2010PropOp45
 70
     1
102
RTVSPost2010Prop46
 90
       50
102
RTVSPost2010PropOp46
 70
     1
102
RTVSPost2010Prop47
 90
       50
102
RTVSPost2010PropOp47
 70
     1
102
RTVSPost2010Prop48
 90
       50
102
RTVSPost2010PropOp48
 70
     1
102
RTVSPost2010Prop49
280
     0
102
RTVSPost2010PropOp49
 70
     1
102
RTVSPost2010Prop50
 90
       50
102
RTVSPost2010PropOp50
 70
     1
102
RTVSPost2010Prop51ColorIndex
 90
      256
102
RTVSPost2010Prop51ColorRGB
 90
-16777216
102
RTVSPost2010PropOp51
 70
     0
102
RTVSPost2010Prop52
140
1.0
102
RTVSPost2010PropOp52
 70
     0
102
RTVSPost2010Prop53
 90
        2
102
RTVSPost2010PropOp53
 70
     1
102
RTVSPost2010Prop54
  1
strokes_ogs.tif
102
RTVSPost2010PropOp54
 70
     1
102
RTVSPost2010Prop55
280
     0
102
RTVSPost2010PropOp55
 70
     1
102
RTVSPost2010Prop56
140
1.0
102
RTVSPost2010PropOp56
 70
     1
102
RTVSPost2010Prop57
140
1.0
102
RTVSPost2010PropOp57
 70
     1
102
RTVSPropertyOp0
 70
     1
102
RTVSPropertyOp1
 70
     1
102
RTVSPropertyOp2
 70
     1
102
RTVSPropertyOp3
 70
     1
102
RTVSPropertyOp4
 70
     1
102
RTVSPropertyOp5
 70
     1
102
RTVSPropertyOp6
 70
     1
102
RTVSPropertyOp7
 70
     1
102
RTVSPropertyOp8
 70
     1
102
RTVSPropertyOp9
 70
     1
102
RTVSPropertyOp10
 70
     1
102
RTVSPropertyOp11
 70
     1
102
RTVSPropertyOp12
 70
     1
102
RTVSPropertyOp13
 70
     1
102
RTVSPropertyOp14
 70
     1
102
RTVSPropertyOp15
 70
     1
102
RTVSPropertyOp16
 70
     1
102
RTVSPropertyOp17
 70
     1
102
RTVSPropertyOp18
 70
     1
102
RTVSPropertyOp19
 70
     1
102
RTVSPropertyOp20
 70
     1
102
RTVSPropertyOp21
 70
     1
102
RTVSPropertyOp22
 70
     1
102
RTVSPropertyOp23
 70
     1
102
RTVSPropertyOp24
 70
     1
102
RTVSPropertyOp25
 70
     1
102
RTVSPropertyOp26
 70
     1
102
RTVSPropertyOp27
 70
     1
102
RTVSPropertyOp28
 70
     1
102
RTVSPropertyOp29
 70
     1
102
RTVSPropertyOp30
 70
     1
102
RTVSPropertyOp31
 70
     1
102
RTVSPropertyOp32
 70
     1
102
RTVSPropertyOp33
 70
     1
102
RTVSPropertyOp34
 70
     1
102
RTVSPropertyOp35
 70
     1
102
RTVSPropertyOp36
 70
     1
102
RTVSPropertyOp37
 70
     1
102
RTVSPropertyOp38
 70
     1
102
RTVSPropertyOp39
 70
     1
102
RTVSPropertyOp40
 70
     1
102
RTVSPropertyOp41
 70
     1
102
RTVSPropertyOp42
 70
     1
102
RTVSPropertyOp43
 70
     1
102
RTVSPropertyOp44
 70
     1
102
RTVSPropertyOp45
 70
     1
102
RTVSPropertyOp46
 70
     1
102
RTVSPropertyOp47
 70
     1
102
RTVSPropertyOp48
 70
     1
102
RTVSPropertyOp49
 70
     1
102
RTVSPropertyOp50
 70
     1
102
RTVSPropertyOp51
 70
     0
102
RTVSPropertyOp52
 70
     0
102
RTVSPropertyOp53
 70
     1
102
RTVSPropertyOp54
 70
     1
102
RTVSPropertyOp55
 70
     1
102
RTVSPropertyOp56
 70
     1
102
RTVSPropertyOp57
 70
     1
102
RTVSPropertyOp58
 70
     1
102
RTVSPropertyOp59
 70
     1
102
RTVSPropertyOp60
 70
     1
102
RTVSPropertyOp61
 70
     1
102
RTVSPropertyOp62
 70
     1
  0
XRECORD
  5
4160
102
{ACAD_REACTORS
330
415F
102
}
330
415F
100
AcDbXrecord
280
     1
102
RTVSPost2010Prop28
280
     0
102
RTVSPost2010PropOp28
 70
     1
102
RTVSPost2010Prop29
280
     1
102
RTVSPost2010PropOp29
 70
     1
102
RTVSPost2010Prop30
280
     1
102
RTVSPost2010PropOp30
 70
     1
102
RTVSPost2010Prop31
280
     0
102
RTVSPost2010PropOp31
 70
     1
102
RTVSPost2010Prop32
280
     0
102
RTVSPost2010PropOp32
 70
     1
102
RTVSPost2010Prop33
280
     0
102
RTVSPost2010PropOp33
 70
     1
102
RTVSPost2010Prop34
280
     0
102
RTVSPost2010PropOp34
 70
     1
102
RTVSPost2010Prop35
280
     0
102
RTVSPost2010PropOp35
 70
     1
102
RTVSPost2010Prop36
280
     0
102
RTVSPost2010PropOp36
 70
     1
102
RTVSPost2010Prop37
 90
       50
102
RTVSPost2010PropOp37
 70
     1
102
RTVSPost2010Prop38
140
0.0
102
RTVSPost2010PropOp38
 70
     1
102
RTVSPost2010Prop39
140
1.0
102
RTVSPost2010PropOp39
 70
     1
102
RTVSPost2010Prop40
 90
        0
102
RTVSPost2010PropOp40
 70
     1
102
RTVSPost2010Prop41ColorIndex
 90
       18
102
RTVSPost2010Prop41ColorRGB
 90
        0
102
RTVSPost2010PropOp41
 70
     1
102
RTVSPost2010Prop42
 90
       50
102
RTVSPost2010PropOp42
 70
     1
102
RTVSPost2010Prop43
 90
        3
102
RTVSPost2010PropOp43
 70
     1
102
RTVSPost2010Prop44ColorIndex
 90
        5
102
RTVSPost2010Prop44ColorRGB
 90
      255
102
RTVSPost2010PropOp44
 70
     1
102
RTVSPost2010Prop45
280
     0
102
RTVSPost2010PropOp45
 70
     1
102
RTVSPost2010Prop46
 90
       50
102
RTVSPost2010PropOp46
 70
     1
102
RTVSPost2010Prop47
 90
       50
102
RTVSPost2010PropOp47
 70
     1
102
RTVSPost2010Prop48
 90
       50
102
RTVSPost2010PropOp48
 70
     1
102
RTVSPost2010Prop49
280
     0
102
RTVSPost2010PropOp49
 70
     1
102
RTVSPost2010Prop50
 90
       50
102
RTVSPost2010PropOp50
 70
     1
102
RTVSPost2010Prop51ColorIndex
 90
      256
102
RTVSPost2010Prop51ColorRGB
 90
-16777216
102
RTVSPost2010PropOp51
 70
     0
102
RTVSPost2010Prop52
140
1.0
102
RTVSPost2010PropOp52
 70
     0
102
RTVSPost2010Prop53
 90
        2
102
RTVSPost2010PropOp53
 70
     1
102
RTVSPost2010Prop54
  1
strokes_ogs.tif
102
RTVSPost2010PropOp54
 70
     1
102
RTVSPost2010Prop55
280
     0
102
RTVSPost2010PropOp55
 70
     1
102
RTVSPost2010Prop56
140
1.0
102
RTVSPost2010PropOp56
 70
     1
102
RTVSPost2010Prop57
140
1.0
102
RTVSPost2010PropOp57
 70
     1
102
RTVSPropertyOp0
 70
     1
102
RTVSPropertyOp1
 70
     1
102
RTVSPropertyOp2
 70
     1
102
RTVSPropertyOp3
 70
     1
102
RTVSPropertyOp4
 70
     1
102
RTVSPropertyOp5
 70
     1
102
RTVSPropertyOp6
 70
     1
102
RTVSPropertyOp7
 70
     1
102
RTVSPropertyOp8
 70
     1
102
RTVSPropertyOp9
 70
     1
102
RTVSPropertyOp10
 70
     1
102
RTVSPropertyOp11
 70
     1
102
RTVSPropertyOp12
 70
     1
102
RTVSPropertyOp13
 70
     1
102
RTVSPropertyOp14
 70
     1
102
RTVSPropertyOp15
 70
     1
102
RTVSPropertyOp16
 70
     1
102
RTVSPropertyOp17
 70
     1
102
RTVSPropertyOp18
 70
     1
102
RTVSPropertyOp19
 70
     1
102
RTVSPropertyOp20
 70
     1
102
RTVSPropertyOp21
 70
     1
102
RTVSPropertyOp22
 70
     1
102
RTVSPropertyOp23
 70
     1
102
RTVSPropertyOp24
 70
     1
102
RTVSPropertyOp25
 70
     1
102
RTVSPropertyOp26
 70
     1
102
RTVSPropertyOp27
 70
     1
102
RTVSPropertyOp28
 70
     1
102
RTVSPropertyOp29
 70
     1
102
RTVSPropertyOp30
 70
     1
102
RTVSPropertyOp31
 70
     1
102
RTVSPropertyOp32
 70
     1
102
RTVSPropertyOp33
 70
     1
102
RTVSPropertyOp34
 70
     1
102
RTVSPropertyOp35
 70
     1
102
RTVSPropertyOp36
 70
     1
102
RTVSPropertyOp37
 70
     1
102
RTVSPropertyOp38
 70
     1
102
RTVSPropertyOp39
 70
     1
102
RTVSPropertyOp40
 70
     1
102
RTVSPropertyOp41
 70
     1
102
RTVSPropertyOp42
 70
     1
102
RTVSPropertyOp43
 70
     1
102
RTVSPropertyOp44
 70
     1
102
RTVSPropertyOp45
 70
     1
102
RTVSPropertyOp46
 70
     1
102
RTVSPropertyOp47
 70
     1
102
RTVSPropertyOp48
 70
     1
102
RTVSPropertyOp49
 70
     1
102
RTVSPropertyOp50
 70
     1
102
RTVSPropertyOp51
 70
     0
102
RTVSPropertyOp52
 70
     0
102
RTVSPropertyOp53
 70
     1
102
RTVSPropertyOp54
 70
     1
102
RTVSPropertyOp55
 70
     1
102
RTVSPropertyOp56
 70
     1
102
RTVSPropertyOp57
 70
     1
102
RTVSPropertyOp58
 70
     1
102
RTVSPropertyOp59
 70
     1
102
RTVSPropertyOp60
 70
     1
102
RTVSPropertyOp61
 70
     1
102
RTVSPropertyOp62
 70
     1
  0
ENDSEC
  0
EOF
