  0
SECTION
  2
HEADER
  9
$ACADVER
  1
AC1015
  9
$ACADMAINTVER
 70
    20
  9
$DWGCODEPAGE
  3
ANSI_932
  9
$INSBASE
 10
0.0
 20
0.0
 30
0.0
  9
$EXTMIN
 10
19.99999999999997
 20
15.0
 30
0.0
  9
$EXTMAX
 10
215.0000000000001
 20
290.0000000000001
 30
0.0
  9
$LIMMIN
 10
19.99999999999997
 20
15.0
  9
$LIMMAX
 10
215.0000000000001
 20
290.0000000000001
  9
$ORTHOMODE
 70
     0
  9
$REGENMODE
 70
     1
  9
$FILLMODE
 70
     1
  9
$QTEXTMODE
 70
     0
  9
$MIRRTEXT
 70
     1
  9
$LTSCALE
 40
1.0
  9
$ATTMODE
 70
     1
  9
$TEXTSIZE
 40
73.98571745357912
  9
$TRACEWID
 40
1.0
  9
$TEXTSTYLE
  7
STANDARD
  9
$CLAYER
  8
0
  9
$CELTYPE
  6
ByLayer
  9
$CECOLOR
 62
   256
  9
$CELTSCALE
 40
1.0
  9
$DISPSILH
 70
     0
  9
$DIMSCALE
 40
1.0
  9
$DIMASZ
 40
2.5
  9
$DIMEXO
 40
1.0
  9
$DIMDLI
 40
10.0
  9
$DIMRND
 40
0.0
  9
$DIMDLE
 40
0.0
  9
$DIMEXE
 40
1.0
  9
$DIMTP
 40
0.1
  9
$DIMTM
 40
0.1
  9
$DIMTXT
 40
3.5
  9
$DIMCEN
 40
0.0
  9
$DIMTSZ
 40
0.0
  9
$DIMTOL
 70
     0
  9
$DIMLIM
 70
     0
  9
$DIMTIH
 70
     0
  9
$DIMTOH
 70
     0
  9
$DIMSE1
 70
     0
  9
$DIMSE2
 70
     0
  9
$DIMTAD
 70
     1
  9
$DIMZIN
 70
     8
  9
$DIMBLK
  1
Open30
  9
$DIMASO
 70
     1
  9
$DIMSHO
 70
     1
  9
$DIMPOST
  1

  9
$DIMAPOST
  1
"
  9
$DIMALT
 70
     0
  9
$DIMALTD
 70
     2
  9
$DIMALTF
 40
0.0393701
  9
$DIMLFAC
 40
1.0
  9
$DIMTOFL
 70
     1
  9
$DIMTVP
 40
0.0
  9
$DIMTIX
 70
     0
  9
$DIMSOXD
 70
     0
  9
$DIMSAH
 70
     0
  9
$DIMBLK1
  1

  9
$DIMBLK2
  1

  9
$DIMSTYLE
  2
AM_ISO
  9
$DIMCLRD
 70
   256
  9
$DIMCLRE
 70
   256
  9
$DIMCLRT
 70
     2
  9
$DIMTFAC
 40
0.71
  9
$DIMGAP
 40
1.5
  9
$DIMJUST
 70
     0
  9
$DIMSD1
 70
     0
  9
$DIMSD2
 70
     0
  9
$DIMTOLJ
 70
     0
  9
$DIMTZIN
 70
     8
  9
$DIMALTZ
 70
     0
  9
$DIMALTTZ
 70
     0
  9
$DIMUPT
 70
     0
  9
$DIMDEC
 70
     2
  9
$DIMTDEC
 70
     2
  9
$DIMALTU
 70
     2
  9
$DIMALTTD
 70
     2
  9
$DIMTXSTY
  7
STANDARD
  9
$DIMAUNIT
 70
     0
  9
$DIMADEC
 70
     0
  9
$DIMALTRND
 40
0.0
  9
$DIMAZIN
 70
     2
  9
$DIMDSEP
 70
    46
  9
$DIMATFIT
 70
     3
  9
$DIMFRAC
 70
     0
  9
$DIMLDRBLK
  1
Open30
  9
$DIMLUNIT
 70
     2
  9
$DIMLWD
 70
    -1
  9
$DIMLWE
 70
    -1
  9
$DIMTMOVE
 70
     0
  9
$LUNITS
 70
     2
  9
$LUPREC
 70
     2
  9
$SKETCHINC
 40
1.0
  9
$FILLETRAD
 40
2.5
  9
$AUNITS
 70
     0
  9
$AUPREC
 70
     0
  9
$MENU
  1
.
  9
$ELEVATION
 40
0.0
  9
$PELEVATION
 40
0.0
  9
$THICKNESS
 40
0.0
  9
$LIMCHECK
 70
     0
  9
$CHAMFERA
 40
2.5
  9
$CHAMFERB
 40
2.5
  9
$CHAMFERC
 40
20.0
  9
$CHAMFERD
 40
0.0
  9
$SKPOLY
 70
     0
  9
$TDCREATE
 40
2453795.640654468
  9
$TDUCREATE
 40
2453795.265654468
  9
$TDUPDATE
 40
2457008.412309549
  9
$TDUUPDATE
 40
2457008.037309549
  9
$TDINDWG
 40
0.0151027199
  9
$TDUSRTIMER
 40
0.0151025463
  9
$USRTIMER
 70
     1
  9
$ANGBASE
 50
0.0
  9
$ANGDIR
 70
     0
  9
$PDMODE
 70
     0
  9
$PDSIZE
 40
0.0
  9
$PLINEWID
 40
0.0
  9
$SPLFRAME
 70
     0
  9
$SPLINETYPE
 70
     6
  9
$SPLINESEGS
 70
     8
  9
$HANDSEED
  5
2E22
  9
$SURFTAB1
 70
     6
  9
$SURFTAB2
 70
     6
  9
$SURFTYPE
 70
     6
  9
$SURFU
 70
     6
  9
$SURFV
 70
     6
  9
$UCSBASE
  2

  9
$UCSNAME
  2

  9
$UCSORG
 10
0.0
 20
0.0
 30
0.0
  9
$UCSXDIR
 10
1.0
 20
0.0
 30
0.0
  9
$UCSYDIR
 10
0.0
 20
1.0
 30
0.0
  9
$UCSORTHOREF
  2

  9
$UCSORTHOVIEW
 70
     0
  9
$UCSORGTOP
 10
0.0
 20
0.0
 30
0.0
  9
$UCSORGBOTTOM
 10
0.0
 20
0.0
 30
0.0
  9
$UCSORGLEFT
 10
0.0
 20
0.0
 30
0.0
  9
$UCSORGRIGHT
 10
0.0
 20
0.0
 30
0.0
  9
$UCSORGFRONT
 10
0.0
 20
0.0
 30
0.0
  9
$UCSORGBACK
 10
0.0
 20
0.0
 30
0.0
  9
$PUCSBASE
  2

  9
$PUCSNAME
  2

  9
$PUCSORG
 10
0.0
 20
0.0
 30
0.0
  9
$PUCSXDIR
 10
1.0
 20
0.0
 30
0.0
  9
$PUCSYDIR
 10
0.0
 20
1.0
 30
0.0
  9
$PUCSORTHOREF
  2

  9
$PUCSORTHOVIEW
 70
     0
  9
$PUCSORGTOP
 10
0.0
 20
0.0
 30
0.0
  9
$PUCSORGBOTTOM
 10
0.0
 20
0.0
 30
0.0
  9
$PUCSORGLEFT
 10
0.0
 20
0.0
 30
0.0
  9
$PUCSORGRIGHT
 10
0.0
 20
0.0
 30
0.0
  9
$PUCSORGFRONT
 10
0.0
 20
0.0
 30
0.0
  9
$PUCSORGBACK
 10
0.0
 20
0.0
 30
0.0
  9
$USERI1
 70
     0
  9
$USERI2
 70
     0
  9
$USERI3
 70
     0
  9
$USERI4
 70
     0
  9
$USERI5
 70
     0
  9
$USERR1
 40
0.0
  9
$USERR2
 40
0.0
  9
$USERR3
 40
0.0
  9
$USERR4
 40
0.0
  9
$USERR5
 40
0.0
  9
$WORLDVIEW
 70
     1
  9
$SHADEDGE
 70
     3
  9
$SHADEDIF
 70
    70
  9
$TILEMODE
 70
     1
  9
$MAXACTVP
 70
    64
  9
$PINSBASE
 10
0.0
 20
0.0
 30
0.0
  9
$PLIMCHECK
 70
     0
  9
$PEXTMIN
 10
1.000000000000000E+20
 20
1.000000000000000E+20
 30
1.000000000000000E+20
  9
$PEXTMAX
 10
-1.000000000000000E+20
 20
-1.000000000000000E+20
 30
-1.000000000000000E+20
  9
$PLIMMIN
 10
-6.350006103515625
 20
-6.349999904632568
  9
$PLIMMAX
 10
273.0499877929688
 20
209.5499939918518
  9
$UNITMODE
 70
     0
  9
$VISRETAIN
 70
     1
  9
$PLINEGEN
 70
     0
  9
$PSLTSCALE
 70
     1
  9
$TREEDEPTH
 70
  3020
  9
$CMLSTYLE
  2
Standard
  9
$CMLJUST
 70
     0
  9
$CMLSCALE
 40
20.0
  9
$PROXYGRAPHICS
 70
     1
  9
$MEASUREMENT
 70
     1
  9
$CELWEIGHT
370
    -1
  9
$ENDCAPS
280
     0
  9
$JOINSTYLE
280
     0
  9
$LWDISPLAY
290
     0
  9
$INSUNITS
 70
     4
  9
$HYPERLINKBASE
  1

  9
$STYLESHEET
  1
takachi-1.ctb
  9
$XEDIT
290
     1
  9
$CEPSNTYPE
380
     0
  9
$PSTYLEMODE
290
     1
  9
$FINGERPRINTGUID
  2
{DE018960-C007-4828-B538-6F6DBBD9100D}
  9
$VERSIONGUID
  2
{3EF3D625-1DE6-4CB1-ADA7-5BEDF2BB2042}
  9
$EXTNAMES
290
     1
  9
$PSVPSCALE
 40
0.0
  9
$OLESTARTUP
290
     0
  0
ENDSEC
  0
SECTION
  2
CLASSES
  0
CLASS
  1
ACDBDICTIONARYWDFLT
  2
AcDbDictionaryWithDefault
  3
ObjectDBX Classes
 90
        0
280
     0
281
     0
  0
CLASS
  1
ACDBPLACEHOLDER
  2
AcDbPlaceHolder
  3
ObjectDBX Classes
 90
        0
280
     0
281
     0
  0
CLASS
  1
LAYOUT
  2
AcDbLayout
  3
ObjectDBX Classes
 90
        0
280
     0
281
     0
  0
CLASS
  1
ACME_DOCUMENT
  2
AcMeDbDoc
  3
AcMeServices
 90
     1024
280
     0
281
     0
  0
CLASS
  1
AMGSETTINGSOBJ
  2
AmgSettingsObj
  3
"AcadM|Product Description: AutoCAD Mechanical|Company: Autodesk, Inc."
 90
     1024
280
     0
281
     0
  0
CLASS
  1
ACMESCOPE
  2
AcMeScope
  3
AcMeServices
 90
     1024
280
     0
281
     0
  0
CLASS
  1
ACMECOMMANDHISTORY
  2
AcMeCommandHistory
  3
AcMeServices
 90
     1024
280
     0
281
     0
  0
CLASS
  1
ACIMSYSVARMAN
  2
AcImSysVarManager
  3
AcMeServices
 90
     1024
280
     0
281
     0
  0
CLASS
  1
ACIMREALSYSVAR
  2
AcImRealSysVar
  3
AcMeServices
 90
     1024
280
     0
281
     0
  0
CLASS
  1
ACIMINTSYSVAR
  2
AcImIntSysVar
  3
AcMeServices
 90
     1024
280
     0
281
     0
  0
CLASS
  1
ACMEDRAWINGMAN
  2
AcMeDrawingMan
  3
AcMeServices
 90
     1024
280
     0
281
     0
  0
CLASS
  1
ACMEVIEW
  2
AcMeView
  3
AcMeServices
 90
     1024
280
     0
281
     0
  0
CLASS
  1
ACDBENTITYCACHE
  2
AcMeEntityCache
  3
AcMeServices
 90
     1024
280
     0
281
     0
  0
CLASS
  1
GSMANAGER
  2
AcMeGSManager
  3
AcMeServices
 90
    32768
280
     0
281
     0
  0
CLASS
  1
AMDTINTERNALREACTOR
  2
AmdtInternalReactor
  3
AcMeServices
 90
     1024
280
     0
281
     0
  0
CLASS
  1
ACMESTATEMGR
  2
AcMeStateMgr
  3
AcMeServices
 90
     1024
280
     0
281
     0
  0
CLASS
  1
ACGREFMASTER
  2
AcGrefMaster
  3
AcAttribServices
 90
     1024
280
     0
281
     0
  0
CLASS
  1
ACME_DATABASE
  2
AcMeDbDatabase
  3
AcMeServices
 90
     1024
280
     0
281
     0
  0
CLASS
  1
ACRFINSADJUSTERMGR
  2
AcRfInsAdjusterMgr
  3
AcMeServices
 90
     1024
280
     0
281
     0
  0
CLASS
  1
ACGREFACADMASTER
  2
AcGrefacadMaster
  3
AcGrefServices
 90
     1024
280
     0
281
     0
  0
CLASS
  1
AMIMASTER
  2
AmiMaster
  3
AmiServices
 90
     1024
280
     0
281
     0
  0
CLASS
  1
ACMDATADICTIONARY
  2
AcmDataDictionary
  3
"AcmSymBB|Product Description: AutoCAD Mechanical|Company: Autodesk, Inc."
 90
     1024
280
     0
281
     0
  0
CLASS
  1
ACMDATAENTRYBLOCK
  2
AcmDataEntryBlock
  3
AcmSymBB|Product Description: AutoCAD Mechanical|Company: Autodesk, Inc.
 90
     1024
280
     0
281
     0
  0
CLASS
  1
ACIMSTRSYSVAR
  2
AcImStrSysVar
  3
AcMeServices
 90
     1024
280
     0
281
     0
  0
CLASS
  1
ACMSTANDARDISO
  2
AcmStandardISO
  3
"Amdt_StdImp|Product Description: AutoCAD Mechanical|Company: Autodesk, Inc."
 90
     1024
280
     0
281
     0
  0
CLASS
  1
AMGOBJPROPCFG
  2
AmgObjPropCfg
  3
"AmgLay|Product Description: AutoCAD Mechanical|Company: Autodesk, Inc."
 90
     1024
280
     0
281
     0
  0
CLASS
  1
AMDTEDGESTANDARDISO
  2
AmdtEdgeStdISO
  3
"Amdt_StdImp|Product Description: AutoCAD Mechanical|Company: Autodesk, Inc."
 90
     1024
280
     0
281
     0
  0
CLASS
  1
ACMSURFSTANDARDISO
  2
AcmSurfTextStdISO
  3
"Amdt_StdImp|Product Description: AutoCAD Mechanical|Company: Autodesk, Inc."
 90
     1024
280
     0
281
     0
  0
CLASS
  1
ACMFCFSTANDARDISO
  2
AcmFCFStdISO
  3
"Amdt_StdImp|Product Description: AutoCAD Mechanical|Company: Autodesk, Inc."
 90
     1024
280
     0
281
     0
  0
CLASS
  1
ACMWELDSTANDARDISO
  2
AcmWeldingStdISO
  3
"Amdt_StdImp|Product Description: AutoCAD Mechanical|Company: Autodesk, Inc."
 90
     1024
280
     0
281
     0
  0
CLASS
  1
ACMIDSTANDARDISO
  2
AcmIdStdISO
  3
"Amdt_StdImp|Product Description: AutoCAD Mechanical|Company: Autodesk, Inc."
 90
     1024
280
     0
281
     0
  0
CLASS
  1
ACMDATUMSTANDARDISO
  2
AcmDatumStdISO
  3
"Amdt_StdImp|Product Description: AutoCAD Mechanical|Company: Autodesk, Inc."
 90
     1024
280
     0
281
     0
  0
CLASS
  1
ACMBOMSTANDARDISO
  2
AcmBOMStdISO
  3
"Amdt_StdImp|Product Description: AutoCAD Mechanical|Company: Autodesk, Inc."
 90
     1024
280
     0
281
     0
  0
CLASS
  1
ACMDETAILSTANDARDISO
  2
AmdtDetailSymStdISO
  3
"Amdt_StdImp|Product Description: AutoCAD Mechanical|Company: Autodesk, Inc."
 90
     1024
280
     0
281
     0
  0
CLASS
  1
ACMSECTIONSTANDARDISO
  2
AmdtSectionSymStdISO
  3
"Amdt_StdImp|Product Description: AutoCAD Mechanical|Company: Autodesk, Inc."
 90
     1024
280
     0
281
     0
  0
CLASS
  1
ACMCENTERLINESTANDARDISO
  2
AmdtCenterLineStdISO
  3
"Amdt_StdImp|Product Description: AutoCAD Mechanical|Company: Autodesk, Inc."
 90
     1024
280
     0
281
     0
  0
CLASS
  1
ACMNOTESTANDARDISO
  2
AmdtNoteStdISO
  3
"Amdt_StdImp|Product Description: AutoCAD Mechanical|Company: Autodesk, Inc."
 90
     1024
280
     0
281
     0
  0
CLASS
  1
ACAMGLAYSTD
  2
AcAmgLayStd
  3
"AmgLay|Product Description: AutoCAD Mechanical|Company: Autodesk, Inc."
 90
     1024
280
     0
281
     0
  0
CLASS
  1
ACAMGDIMSTD
  2
AcAmgDimStd
  3
"AmgDim|Product Description: AutoCAD Mechanical|Company: Autodesk, Inc."
 90
     1024
280
     0
281
     0
  0
CLASS
  1
ACAMGHOLECHARTSTDISO
  2
AcAmgHoleChartStdISO
  3
AmgDim|Product Description: AutoCAD Mechanical|Company: Autodesk, Inc.
 90
     1024
280
     0
281
     0
  0
CLASS
  1
ACAMGTITLESTD
  2
AcAmgTitleStd
  3
"AmgTitle|Product Description: AutoCAD Mechanical|Company: Autodesk, Inc."
 90
     1024
280
     0
281
     0
  0
CLASS
  1
LAYER_INDEX
  2
AcDbLayerIndex
  3
ObjectDBX Classes
 90
    32768
280
     0
281
     0
  0
CLASS
  1
IDBUFFER
  2
AcDbIdBuffer
  3
ObjectDBX Classes
 90
    32768
280
     0
281
     0
  0
CLASS
  1
DICTIONARYVAR
  2
AcDbDictionaryVar
  3
ObjectDBX Classes
 90
        0
280
     0
281
     0
  0
CLASS
  1
AM_DRAWING_MGR
  2
AcDmDwgMgr
  3
AcMechDwgViewMgmt
 90
     1024
280
     0
281
     0
  0
CLASS
  1
AM_DWG_DOCUMENT
  2
AcDmDwgDocument
  3
AcMechDwgViewMgmt
 90
     1024
280
     0
281
     0
  0
CLASS
  1
AM_DWG_SHEET
  2
AcDmSheet
  3
AcMechDwgViewMgmt
 90
     1024
280
     0
281
     0
  0
CLASS
  1
AM_VIEWDIMPARMAP
  2
AcDmViewDimParMap
  3
AcMechDwgViewMgmt
 90
     1024
280
     0
281
     0
  0
CLASS
  1
AM_DWGMGR_NAME
  2
AcDmDwgMgrName
  3
AcMechDwgViewMgmt
 90
     1024
280
     0
281
     0
  0
CLASS
  1
AMDTMENUSTATEMGR
  2
AmdtMenuStateMgr
  3
McadcomServices
 90
     1024
280
     0
281
     0
  0
CLASS
  1
AMDTMCOMMENUSTATE
  2
AmdtMcomMenuState
  3
McadcomServices
 90
     1024
280
     0
281
     0
  0
CLASS
  1
MAPIAMMOUDLE
  2
MApiAmModule
  3
MApiAmServices
 90
     1024
280
     0
281
     0
  0
CLASS
  1
AMDTADMENUSTATE
  2
AmdtAdMenuState
  3
DesignerServices
 90
    32768
280
     0
281
     0
  0
CLASS
  1
ADAPPL
  2
AcAdAppl
  3
DesignerAssemblies
 90
     1024
280
     0
281
     0
  0
CLASS
  1
DEPMGR
  2
AcAdDepMgr
  3
DesignerAssemblies
 90
     1024
280
     0
281
     0
  0
CLASS
  1
PARAMMGR
  2
AcAdParamMgr
  3
DesignerAssemblies
 90
     1024
280
     0
281
     0
  0
CLASS
  1
PARAMSCOPE
  2
AcAdParamScope
  3
DesignerAssemblies
 90
     1024
280
     0
281
     0
  0
CLASS
  1
NAMEDAPPL
  2
AcAdNamedAppl
  3
DesignerAssemblies
 90
     1024
280
     0
281
     0
  0
CLASS
  1
AMDTDMMENUSTATE
  2
AmdtDmMenuState
  3
AcMechDwgViewMgmt
 90
    32768
280
     0
281
     0
  0
CLASS
  1
AMDTAMMENUSTATE
  2
AmdtAmMenuState
  3
DesignerAssemblies
 90
     1024
280
     0
281
     0
  0
CLASS
  1
ACAMPROJECT
  2
AcAmProject
  3
DesignerAssemblies
 90
     1024
280
     0
281
     0
  0
CLASS
  1
ACAMGRCOMPDEF
  2
AcAmGrCompDef
  3
DesignerAssemblies
 90
     1024
280
     0
281
     0
  0
CLASS
  1
ACCMCONTEXT
  2
AcCmContext
  3
DesignerAssemblies
 90
     1024
280
     0
281
     0
  0
CLASS
  1
ACAMCOMPDEF
  2
AcAmCompDef
  3
DesignerAssemblies
 90
     1024
280
     0
281
     0
  0
CLASS
  1
ACAMCOMPDEFMGR
  2
AcAmCompDefMgr
  3
DesignerAssemblies
 90
     1024
280
     0
281
     0
  0
CLASS
  1
AMCONTEXTMGR
  2
AcAmContextMgr
  3
DesignerAssemblies
 90
     1024
280
     0
281
     0
  0
CLASS
  1
ACAMCONTEXTMODELER
  2
AcAmContextModeler
  3
DesignerAssemblies
 90
     1024
280
     0
281
     0
  0
CLASS
  1
ACMTHREADLINESTANDARDISO
  2
AmdtThreadLineStdISO
  3
"Amdt_StdImp|Product Description: AutoCAD Mechanical|Company: Autodesk, Inc."
 90
     1024
280
     0
281
     0
  0
CLASS
  1
CATALOGSTATE
  2
AcAmCatalogState
  3
DesignerAssemblies
 90
     1024
280
     0
281
     0
  0
CLASS
  1
ACAMGRCOMPDEFSET
  2
AcAmGrCompDefSet
  3
DesignerAssemblies
 90
     1024
280
     0
281
     0
  0
CLASS
  1
AMDTBROWSERDBTAB
  2
AmdtBrowserDbTab
  3
McadcomServices
 90
     1024
280
     0
281
     0
  0
CLASS
  1
CBROWSERAPPOBJECT
  2
CBrowserAppObject
  3
McadcomServices
 90
     1024
280
     0
281
     0
  0
CLASS
  1
DM_PLACEHOLDER
  2
AcDmSelsetPlaceholder
  3
McadcomServices
 90
     1024
280
     0
281
     0
  0
CLASS
  1
AMDTNOTETEMPLATEDB
  2
AmdtNoteTemplateDB
  3
AcmSymBB|Product Description: AutoCAD Mechanical|Company: Autodesk, Inc.
 90
     1024
280
     0
281
     0
  0
CLASS
  1
ACAMGFILTERDAT
  2
AcAmgFilterDat
  3
"AcadM|Product Description: AutoCAD Mechanical|Company: Autodesk, Inc."
 90
     1024
280
     0
281
     0
  0
CLASS
  1
AMDTNOTE
  2
AmdtNote
  3
"AcmSymBB|Product Description: AutoCAD Mechanical|Company: Autodesk, Inc."
 90
    33792
280
     0
281
     1
  0
CLASS
  1
AMDTFORMULAUPDATEDISPATCHER
  2
AmdtFormulaUpdateDispatcher
  3
AcMeServices
 90
     1024
280
     0
281
     0
  0
CLASS
  1
AMDTSECTIONSYM
  2
AmdtSectionSym
  3
"AcmSymBB|Product Description: AutoCAD Mechanical|Company: Autodesk, Inc."
 90
    33792
280
     0
281
     1
  0
CLASS
  1
AMDTSECTIONSYMLABEL
  2
AmdtSectionSymLabel
  3
"AcmSymBB|Product Description: AutoCAD Mechanical|Company: Autodesk, Inc."
 90
    33792
280
     0
281
     1
  0
CLASS
  1
AMDTDETAILSYM
  2
AmdtDetailSym
  3
"AcmSymBB|Product Description: AutoCAD Mechanical|Company: Autodesk, Inc."
 90
    33792
280
     0
281
     1
  0
CLASS
  1
AMDTDETAILSYMLABEL
  2
AmdtDetailSymLabel
  3
"AcmSymBB|Product Description: AutoCAD Mechanical|Company: Autodesk, Inc."
 90
    33792
280
     0
281
     1
  0
CLASS
  1
TABLESTYLE
  2
AcDbTableStyle
  3
ObjectDBX Classes
 90
     4095
280
     0
281
     0
  0
CLASS
  1
DIMASSOC
  2
AcDbDimAssoc
  3
"AcDbDimAssoc|Product Desc:     AcDim ARX App For Dimension|Company:          Autodesk, Inc.|WEB Address:      www.autodesk.com"
 90
        0
280
     0
281
     0
  0
CLASS
  1
ACMDATAENTRY
  2
AcmDataEntry
  3
AcmSymBB|Product Description: AutoCAD Mechanical|Company: Autodesk, Inc.
 90
     1024
280
     0
281
     0
  0
CLASS
  1
ACMBOM
  2
AcmBom
  3
"AcmSymBB|Product Description: AutoCAD Mechanical|Company: Autodesk, Inc."
 90
     1024
280
     0
281
     0
  0
CLASS
  1
ACMPARTLIST
  2
AcmPartList
  3
"AcmSymBB|Product Description: AutoCAD Mechanical|Company: Autodesk, Inc."
 90
     1024
280
     0
281
     1
  0
CLASS
  1
ACDBLINERES
  2
AcDbLineRes
  3
AcGrefServices
 90
     1024
280
     0
281
     0
  0
CLASS
  1
ACRFINSADJ
  2
AcRfInsAdjuster
  3
AcMeServices
 90
     1024
280
     0
281
     0
  0
CLASS
  1
ACMDATAENTRYPART
  2
AcmDataEntryPart
  3
AcmSymBB|Product Description: AutoCAD Mechanical|Company: Autodesk, Inc.
 90
     1024
280
     0
281
     0
  0
CLASS
  1
ACMPARTREF
  2
AcmPartRef
  3
"AcmSymBB|Product Description: AutoCAD Mechanical|Company: Autodesk, Inc."
 90
     1024
280
     0
281
     1
  0
CLASS
  1
ACMBOMROW
  2
AcmBomRow
  3
"AcmSymBB|Product Description: AutoCAD Mechanical|Company: Autodesk, Inc."
 90
     1024
280
     0
281
     0
  0
CLASS
  1
ACMBALLOON
  2
AcmBalloon
  3
"AcmSymBB|Product Description: AutoCAD Mechanical|Company: Autodesk, Inc."
 90
     1024
280
     0
281
     1
  0
CLASS
  1
ACDBCIRCARCRES
  2
AcDbCircArcRes
  3
AcGrefServices
 90
     1024
280
     0
281
     0
  0
CLASS
  1
MATERIAL
  2
AcDbMaterial
  3
ObjectDBX Classes
 90
     1153
280
     0
281
     0
  0
CLASS
  1
VISUALSTYLE
  2
AcDbVisualStyle
  3
ObjectDBX Classes
 90
     4095
280
     0
281
     0
  0
CLASS
  1
SCALE
  2
AcDbScale
  3
ObjectDBX Classes
 90
     1153
280
     0
281
     0
  0
CLASS
  1
MLEADERSTYLE
  2
AcDbMLeaderStyle
  3
ACDB_MLEADERSTYLE_CLASS
 90
     4095
280
     0
281
     0
  0
CLASS
  1
ACDBSECTIONVIEWSTYLE
  2
AcDbSectionViewStyle
  3
ObjectDBX Classes
 90
     1025
280
     0
281
     0
  0
CLASS
  1
ACDBDETAILVIEWSTYLE
  2
AcDbDetailViewStyle
  3
ObjectDBX Classes
 90
     1025
280
     0
281
     0
  0
CLASS
  1
ACRFATTGENMGR
  2
AcRfAttGeneralMgr
  3
AcAttribServices
 90
     1024
280
     0
281
     0
  0
CLASS
  1
ACRFOBJATTMGR
  2
AcRfObjAttGroupMgr
  3
AcAttribServices
 90
     1024
280
     0
281
     0
  0
CLASS
  1
ACRFMCADAPIATTHOLDER
  2
AcRfMCADAPIAttHolder
  3
AcAttribServices
 90
     1024
280
     0
281
     0
  0
CLASS
  1
AMDTSYSATTR
  2
AmdtSystemAttribute
  3
AcAttribServices
 90
     1024
280
     0
281
     0
  0
CLASS
  1
ACMTAPERSTANDARDISO
  2
AcmTaperStdISO
  3
"Amdt_StdImp|Product Description: AutoCAD Mechanical|Company: Autodesk, Inc."
 90
     1024
280
     0
281
     0
  0
CLASS
  1
ACMANOOTATIONVIEWSTANDARDISO
  2
AmdtAnViewStdISO
  3
"Amdt_StdImp|Product Description: AutoCAD Mechanical|Company: Autodesk, Inc."
 90
     1024
280
     0
281
     0
  0
CLASS
  1
CELLSTYLEMAP
  2
AcDbCellStyleMap
  3
ObjectDBX Classes
 90
     1152
280
     0
281
     0
  0
ENDSEC
  0
SECTION
  2
TABLES
  0
TABLE
  2
VPORT
  5
8
330
0
100
AcDbSymbolTable
 70
     1
  0
VPORT
  5
2D11
330
8
100
AcDbSymbolTableRecord
100
AcDbViewportTableRecord
  2
*Active
 70
     0
 10
0.0
 20
0.0
 11
1.0
 21
1.0
 12
117.5031687045672
 22
172.1671515134548
 13
0.0
 23
0.0
 14
2.5
 24
2.5
 15
10.0
 25
10.0
 16
0.0
 26
0.0
 36
1.0
 17
0.0
 27
0.0
 37
0.0
 40
273.8153921165513
 41
1.249370277078085
 42
50.0
 43
0.0
 44
0.0
 50
0.0
 51
0.0
 71
     0
 72
   100
 73
     1
 74
     3
 75
     0
 76
     0
 77
     0
 78
     0
281
     0
 65
     1
110
0.0
120
0.0
130
0.0
111
1.0
121
0.0
131
0.0
112
0.0
122
1.0
132
0.0
 79
     0
146
0.0
1001
ACAD_NAV_VCDISPLAY
1070
     3
  0
ENDTAB
  0
TABLE
  2
LTYPE
  5
5
330
0
100
AcDbSymbolTable
 70
    20
  0
LTYPE
  5
14
330
5
100
AcDbSymbolTableRecord
100
AcDbLinetypeTableRecord
  2
ByBlock
 70
     0
  3

 72
    65
 73
     0
 40
0.0
  0
LTYPE
  5
15
330
5
100
AcDbSymbolTableRecord
100
AcDbLinetypeTableRecord
  2
ByLayer
 70
     0
  3

 72
    65
 73
     0
 40
0.0
  0
LTYPE
  5
16
330
5
100
AcDbSymbolTableRecord
100
AcDbLinetypeTableRecord
  2
Continuous
 70
     0
  3
Solid line
 72
    65
 73
     0
 40
0.0
  0
LTYPE
  5
64
330
5
100
AcDbSymbolTableRecord
100
AcDbLinetypeTableRecord
  2
AM_ISO02W050
 70
     0
  3
__ __ __ __ __ __ __ __ __ __ __ __ __ __ __
 72
    65
 73
     2
 40
7.5
 49
6.0
 74
     0
 49
-1.5
 74
     0
  0
LTYPE
  5
65
330
5
100
AcDbSymbolTableRecord
100
AcDbLinetypeTableRecord
  2
AM_ISO08W050
 70
     0
  3
____ . ____ . ____ . ____ . ____ . ____ . ____
 72
    65
 73
     4
 40
18.0
 49
12.0
 74
     0
 49
-1.5
 74
     0
 49
3.0
 74
     0
 49
-1.5
 74
     0
  0
LTYPE
  5
66
330
5
100
AcDbSymbolTableRecord
100
AcDbLinetypeTableRecord
  2
AM_ISO09W050
 70
     0
  3
_____ . . _____ . . _____ . . ____ .. ____
 72
    65
 73
     6
 40
22.5
 49
12.0
 74
     0
 49
-1.5
 74
     0
 49
3.0
 74
     0
 49
-1.5
 74
     0
 49
3.0
 74
     0
 49
-1.5
 74
     0
  0
LTYPE
  5
67
330
5
100
AcDbSymbolTableRecord
100
AcDbLinetypeTableRecord
  2
Amconstr
 70
     0
  3
_______________________
 72
    65
 73
     2
 40
9999.0
 49
9999.0
 74
     0
 49
0.0
 74
     0
  0
LTYPE
  5
68
330
5
100
AcDbSymbolTableRecord
100
AcDbLinetypeTableRecord
  2
AM_ISO08W050x2
 70
     0
  3
__ . __ . __ . __ . __ . __
 72
    65
 73
     4
 40
9.0
 49
6.0
 74
     0
 49
-0.75
 74
     0
 49
1.5
 74
     0
 49
-0.75
 74
     0
  0
LTYPE
  5
69
330
5
100
AcDbSymbolTableRecord
100
AcDbLinetypeTableRecord
  2
AM_ISO02W050x2
 70
     0
  3
 _ _ _ _ _ _ _ _ _ _ _ _
 72
    65
 73
     2
 40
3.75
 49
3.0
 74
     0
 49
-0.75
 74
     0
  0
LTYPE
  5
6C
330
5
100
AcDbSymbolTableRecord
100
AcDbLinetypeTableRecord
  2
Amzigzag
 70
     0
  3
/\/-/\/-/\/-/\/-/\/-/\/
 72
    65
 73
     2
 40
11.0001
 49
0.0001
 74
     4
 75
   135
340
6B
 46
0.04
 50
0.0
 44
0.0
 45
0.0
 49
-11.0
 74
     0
  0
LTYPE
  5
7A
330
5
100
AcDbSymbolTableRecord
100
AcDbLinetypeTableRecord
  2
ACISOWELD
 70
     0
  3
_ _ _ _ _
 72
    65
 73
     2
 40
2.0
 49
2.0
 74
     0
 49
-1.0
 74
     0
  0
LTYPE
  5
7B
330
5
100
AcDbSymbolTableRecord
100
AcDbLinetypeTableRecord
  2
ACISOTGB
 70
     0
  3
__ . . __ . .
 72
    65
 73
     6
 40
9.0
 49
4.0
 74
     0
 49
-1.0
 74
     0
 49
1.0
 74
     0
 49
-1.0
 74
     0
 49
1.0
 74
     0
 49
-1.0
 74
     0
  0
LTYPE
  5
7C
330
5
100
AcDbSymbolTableRecord
100
AcDbLinetypeTableRecord
  2
ACISOTGL
 70
     0
  3
_ _ _ _ _
 72
    65
 73
     2
 40
3.0
 49
2.0
 74
     0
 49
-1.0
 74
     0
  0
LTYPE
  5
7E
330
5
100
AcDbSymbolTableRecord
100
AcDbLinetypeTableRecord
  2
CENTER
 70
     0
  3
__ . __
 72
    65
 73
     4
 40
7.0
 49
4.0
 74
     0
 49
-1.0
 74
     0
 49
1.0
 74
     0
 49
-1.0
 74
     0
  0
LTYPE
  5
D8
330
5
100
AcDbSymbolTableRecord
100
AcDbLinetypeTableRecord
  2
HIDDEN
 70
     0
  3
Hidden __ __ __ __ __ __ __ __ __ __ __ __ __ _
 72
    65
 73
     2
 40
9.524999999999998
 49
6.349999999999999
 74
     0
 49
-3.174999999999999
 74
     0
  0
LTYPE
  5
D9
330
5
100
AcDbSymbolTableRecord
100
AcDbLinetypeTableRecord
  2
PHANTOM2
 70
     0
  3
Phantom (.5x) ___ _ _ ___ _ _ ___ _ _ ___ _ _
 72
    65
 73
     6
 40
31.75
 49
15.875
 74
     0
 49
-3.174999999999999
 74
     0
 49
3.174999999999999
 74
     0
 49
-3.174999999999999
 74
     0
 49
3.174999999999999
 74
     0
 49
-3.174999999999999
 74
     0
  0
LTYPE
  5
5BD
330
5
100
AcDbSymbolTableRecord
100
AcDbLinetypeTableRecord
  2
gen3
 70
     0
  3
-- -- -- -- -- -- -- -- -- -- -- -- -- -- --
 72
    65
 73
     2
 40
6.25
 49
4.75
 74
     0
 49
-1.5
 74
     0
  0
LTYPE
  5
5BE
330
5
100
AcDbSymbolTableRecord
100
AcDbLinetypeTableRecord
  2
gen7
 70
     0
  3
____ . ____ . ____ . ____ . ____ . ____ . ____
 72
    65
 73
     4
 40
13.75
 49
9.75
 74
     0
 49
-1.5
 74
     0
 49
1.0
 74
     0
 49
-1.5
 74
     0
  0
LTYPE
  5
5BF
330
5
100
AcDbSymbolTableRecord
100
AcDbLinetypeTableRecord
  2
gen3a
 70
     0
  3
 - - - - -
 72
    65
 73
     2
 40
3.125
 49
2.25
 74
     0
 49
-0.875
 74
     0
  0
LTYPE
  5
5C0
330
5
100
AcDbSymbolTableRecord
100
AcDbLinetypeTableRecord
  2
gen7a
 70
     0
  3
__ . __ . __
 72
    65
 73
     4
 40
6.875
 49
4.75
 74
     0
 49
-0.875
 74
     0
 49
0.375
 74
     0
 49
-0.875
 74
     0
  0
LTYPE
  5
5C1
330
5
100
AcDbSymbolTableRecord
100
AcDbLinetypeTableRecord
  2
gen4a
 70
     0
  3
_____ . . _____ . . _____ . . ____ .. ____
 72
    65
 73
     6
 40
16.25
 49
9.75
 74
     0
 49
-1.5
 74
     0
 49
1.0
 74
     0
 49
-1.5
 74
     0
 49
1.0
 74
     0
 49
-1.5
 74
     0
  0
LTYPE
  5
5C2
330
5
100
AcDbSymbolTableRecord
100
AcDbLinetypeTableRecord
  2
genzigzag
 70
     0
  3
/\/-/\/-/\/-/\/-/\/-/\/
 72
    65
 73
     2
 40
12.0001
 49
0.0001
 74
     4
 75
   135
340
6B
 46
2.0
 50
0.0
 44
0.0
 45
0.0
 49
-12.0
 74
     0
  0
ENDTAB
  0
TABLE
  2
LAYER
  5
2
102
{ACAD_XDICTIONARY
360
35D
102
}
330
0
100
AcDbSymbolTable
 70
    17
  0
LAYER
  5
10
102
{ACAD_XDICTIONARY
360
2DB2
102
}
330
2
100
AcDbSymbolTableRecord
100
AcDbLayerTableRecord
  2
0
 70
     0
 62
     7
  6
Continuous
370
    -3
390
F
  0
LAYER
  5
1E1
330
2
100
AcDbSymbolTableRecord
100
AcDbLayerTableRecord
  2
Defpoints
 70
     0
 62
     7
  6
Continuous
290
     0
370
    -3
390
F
  0
LAYER
  5
518
102
{ACAD_XDICTIONARY
360
2DB4
102
}
330
2
100
AcDbSymbolTableRecord
100
AcDbLayerTableRecord
  2
TK1
 70
     0
 62
     7
  6
Continuous
370
    25
390
F
  0
LAYER
  5
519
102
{ACAD_XDICTIONARY
360
2DB6
102
}
330
2
100
AcDbSymbolTableRecord
100
AcDbLayerTableRecord
  2
TK10
 70
     0
 62
     7
  6
AM_ISO02W050x2
370
    13
390
F
  0
LAYER
  5
51A
102
{ACAD_XDICTIONARY
360
2DB8
102
}
330
2
100
AcDbSymbolTableRecord
100
AcDbLayerTableRecord
  2
TK2
 70
     0
 62
    51
  6
Continuous
370
    25
390
F
  0
LAYER
  5
51B
102
{ACAD_XDICTIONARY
360
2DBA
102
}
330
2
100
AcDbSymbolTableRecord
100
AcDbLayerTableRecord
  2
TK3
 70
     0
 62
    91
  6
Continuous
370
    25
390
F
  0
LAYER
  5
51C
102
{ACAD_XDICTIONARY
360
2DBC
102
}
330
2
100
AcDbSymbolTableRecord
100
AcDbLayerTableRecord
  2
TK20
 70
     0
 62
    51
  6
AM_ISO02W050x2
370
    13
390
F
  0
LAYER
  5
51D
102
{ACAD_XDICTIONARY
360
2DBE
102
}
330
2
100
AcDbSymbolTableRecord
100
AcDbLayerTableRecord
  2
TK30
 70
     0
 62
    91
  6
AM_ISO02W050x2
370
    13
390
F
  0
LAYER
  5
5E5
102
{ACAD_XDICTIONARY
360
2DC0
102
}
330
2
100
AcDbSymbolTableRecord
100
AcDbLayerTableRecord
  2
7A
 70
     0
 62
     4
  6
gen7a
370
    -3
390
F
  0
LAYER
  5
5E6
102
{ACAD_XDICTIONARY
360
2DC2
102
}
330
2
100
AcDbSymbolTableRecord
100
AcDbLayerTableRecord
  2
RAHM2
 70
     0
 62
     1
  6
Continuous
370
    -3
390
F
  0
LAYER
  5
5E7
102
{ACAD_XDICTIONARY
360
2DC4
102
}
330
2
100
AcDbSymbolTableRecord
100
AcDbLayerTableRecord
  2
KLIN
 70
     0
 62
     1
  6
Continuous
370
    -3
390
F
  0
LAYER
  5
6CD
102
{ACAD_XDICTIONARY
360
2DC6
102
}
330
2
100
AcDbSymbolTableRecord
100
AcDbLayerTableRecord
  2
AM_5
 70
     0
 62
     3
  6
Continuous
370
    25
390
F
  0
LAYER
  5
6CE
102
{ACAD_XDICTIONARY
360
2DC8
102
}
330
2
100
AcDbSymbolTableRecord
100
AcDbLayerTableRecord
  2
AM_7
 70
     0
 62
     4
  6
AM_ISO08W050
370
    25
390
F
  0
LAYER
  5
6CF
102
{ACAD_XDICTIONARY
360
2DCA
102
}
330
2
100
AcDbSymbolTableRecord
100
AcDbLayerTableRecord
  2
AM_6
 70
     0
 62
     2
  6
Continuous
370
    35
390
F
  0
LAYER
  5
F33
102
{ACAD_XDICTIONARY
360
2DCC
102
}
330
2
100
AcDbSymbolTableRecord
100
AcDbLayerTableRecord
  2
AM_0
 70
     0
 62
     7
  6
Continuous
370
    50
390
F
  0
LAYER
  5
F68
102
{ACAD_XDICTIONARY
360
2DCE
102
}
330
2
100
AcDbSymbolTableRecord
100
AcDbLayerTableRecord
  2
AM_12
 70
     0
 62
     7
  6
Continuous
290
     0
370
    50
390
F
  0
LAYER
  5
F69
102
{ACAD_XDICTIONARY
360
2DD0
102
}
330
2
100
AcDbSymbolTableRecord
100
AcDbLayerTableRecord
  2
AM_PAREF
 70
     0
 62
     4
  6
Continuous
290
     0
370
    25
390
F
  0
ENDTAB
  0
TABLE
  2
STYLE
  5
3
330
0
100
AcDbSymbolTable
 70
     5
  0
STYLE
  5
11
330
3
100
AcDbSymbolTableRecord
100
AcDbTextStyleTableRecord
  2
STANDARD
 70
     0
 40
0.0
 41
1.0
 50
0.0
 71
     0
 42
73.98571745357912
  3
ISOCP.SHX
  4
bigfont.shx
  0
STYLE
  5
6B
330
3
100
AcDbSymbolTableRecord
100
AcDbTextStyleTableRecord
  2

 70
     1
 40
0.0
 41
1.0
 50
0.0
 71
     0
 42
2.5
  3
ltypeshp.shx
  4

  0
STYLE
  5
6D
330
3
100
AcDbSymbolTableRecord
100
AcDbTextStyleTableRecord
  2
ACISOTS
 70
     0
 40
1.0
 41
1.0
 50
0.0
 71
     0
 42
2.5
  3
isocp.shx
  4
extfont.shx
  0
STYLE
  5
79
330
3
100
AcDbSymbolTableRecord
100
AcDbTextStyleTableRecord
  2
ACISOGDT
 70
     0
 40
0.0
 41
1.0
 50
0.0
 71
     0
 42
2.5
  3
amgdt.shx
  4

  0
STYLE
  5
5E8
330
3
100
AcDbSymbolTableRecord
100
AcDbTextStyleTableRecord
  2

 70
     1
 40
0.0
 41
1.0
 50
0.0
 71
     0
 42
3.0
  3
genltshp.shx
  4

  0
ENDTAB
  0
TABLE
  2
VIEW
  5
6
330
0
100
AcDbSymbolTable
 70
     6
  0
VIEW
  5
291
330
6
100
AcDbSymbolTableRecord
100
AcDbViewTableRecord
  2
AM_VIEW1
 70
     0
 40
137.5
 10
124.200563204005
 20
221.2500000000001
 41
208.4011264080101
 11
0.0
 21
0.0
 31
1.0
 12
0.0
 22
0.0
 32
0.0
 42
50.0
 43
0.0
 44
0.0
 50
0.0
 71
     0
281
     0
 72
     0
  0
VIEW
  5
292
330
6
100
AcDbSymbolTableRecord
100
AcDbViewTableRecord
  2
AM_VIEW2
 70
     0
 40
137.5
 10
110.799436795995
 20
221.2500000000001
 41
208.4011264080101
 11
0.0
 21
0.0
 31
1.0
 12
0.0
 22
0.0
 32
0.0
 42
50.0
 43
0.0
 44
0.0
 50
0.0
 71
     0
281
     0
 72
     0
  0
VIEW
  5
293
330
6
100
AcDbSymbolTableRecord
100
AcDbViewTableRecord
  2
AM_VIEW3
 70
     0
 40
137.5
 10
124.200563204005
 20
83.75000000000001
 41
208.4011264080101
 11
0.0
 21
0.0
 31
1.0
 12
0.0
 22
0.0
 32
0.0
 42
50.0
 43
0.0
 44
0.0
 50
0.0
 71
     0
281
     0
 72
     0
  0
VIEW
  5
294
330
6
100
AcDbSymbolTableRecord
100
AcDbViewTableRecord
  2
AM_VIEW4
 70
     0
 40
137.5
 10
110.799436795995
 20
83.75000000000001
 41
208.4011264080101
 11
0.0
 21
0.0
 31
1.0
 12
0.0
 22
0.0
 32
0.0
 42
50.0
 43
0.0
 44
0.0
 50
0.0
 71
     0
281
     0
 72
     0
  0
VIEW
  5
295
330
6
100
AcDbSymbolTableRecord
100
AcDbViewTableRecord
  2
AM_VIEW5
 70
     0
 40
137.5
 10
117.5
 20
152.5
 41
208.40112640801
 11
0.0
 21
0.0
 31
1.0
 12
0.0
 22
0.0
 32
0.0
 42
50.0
 43
0.0
 44
0.0
 50
0.0
 71
     0
281
     0
 72
     0
  0
VIEW
  5
296
330
6
100
AcDbSymbolTableRecord
100
AcDbViewTableRecord
  2
AM_VIEW6
 70
     0
 40
274.9972500000001
 10
117.5
 20
152.5
 41
416.798084793492
 11
0.0
 21
0.0
 31
1.0
 12
0.0
 22
0.0
 32
0.0
 42
50.0
 43
0.0
 44
0.0
 50
0.0
 71
     0
281
     0
 72
     0
  0
ENDTAB
  0
TABLE
  2
UCS
  5
7
330
0
100
AcDbSymbolTable
 70
     0
  0
ENDTAB
  0
TABLE
  2
APPID
  5
9
330
0
100
AcDbSymbolTable
 70
    38
  0
APPID
  5
12
330
9
100
AcDbSymbolTableRecord
100
AcDbRegAppTableRecord
  2
ACAD
 70
     0
  0
APPID
  5
46
330
9
100
AcDbSymbolTableRecord
100
AcDbRegAppTableRecord
  2
MCAD_NO_VIS
 70
     0
  0
APPID
  5
47
330
9
100
AcDbSymbolTableRecord
100
AcDbRegAppTableRecord
  2
ACAD_TEMP_GRAPHIC
 70
     0
  0
APPID
  5
58
330
9
100
AcDbSymbolTableRecord
100
AcDbRegAppTableRecord
  2
ACATTRIBSERVICES
 70
     0
  0
APPID
  5
EE
330
9
100
AcDbSymbolTableRecord
100
AcDbRegAppTableRecord
  2
AD_DRAW
 70
     0
  0
APPID
  5
10C
330
9
100
AcDbSymbolTableRecord
100
AcDbRegAppTableRecord
  2
DESIGNERASSEMBLIES
 70
     0
  0
APPID
  5
111
330
9
100
AcDbSymbolTableRecord
100
AcDbRegAppTableRecord
  2
ACADM_DIM_EDIT
 70
     0
  0
APPID
  5
112
330
9
100
AcDbSymbolTableRecord
100
AcDbRegAppTableRecord
  2
AMDT_DM_ADJ
 70
     0
  0
APPID
  5
1E2
330
9
100
AcDbSymbolTableRecord
100
AcDbRegAppTableRecord
  2
GENIUS_GENREC_14
 70
     0
  0
APPID
  5
1E3
330
9
100
AcDbSymbolTableRecord
100
AcDbRegAppTableRecord
  2
GENIUS_GENODEF_13
 70
     0
  0
APPID
  5
1E4
330
9
100
AcDbSymbolTableRecord
100
AcDbRegAppTableRecord
  2
GENIUS_GENOBJ-N-REC_13
 70
     0
  0
APPID
  5
1E5
330
9
100
AcDbSymbolTableRecord
100
AcDbRegAppTableRecord
  2
GENIUS_GENDIMSH_14
 70
     0
  0
APPID
  5
1E6
330
9
100
AcDbSymbolTableRecord
100
AcDbRegAppTableRecord
  2
GENIUS_GENCFG_13
 70
     0
  0
APPID
  5
1E7
330
9
100
AcDbSymbolTableRecord
100
AcDbRegAppTableRecord
  2
GENIUS_GENCFG0_13
 70
     0
  0
APPID
  5
1E8
330
9
100
AcDbSymbolTableRecord
100
AcDbRegAppTableRecord
  2
GENIUS_GENCFG1_13
 70
     0
  0
APPID
  5
1E9
330
9
100
AcDbSymbolTableRecord
100
AcDbRegAppTableRecord
  2
GENIUS_GENCFG2_13
 70
     0
  0
APPID
  5
1EA
330
9
100
AcDbSymbolTableRecord
100
AcDbRegAppTableRecord
  2
GENIUS_GENCFG3_13
 70
     0
  0
APPID
  5
1EB
330
9
100
AcDbSymbolTableRecord
100
AcDbRegAppTableRecord
  2
GENIUS_GENCFG4_13
 70
     0
  0
APPID
  5
1EC
330
9
100
AcDbSymbolTableRecord
100
AcDbRegAppTableRecord
  2
GENIUS_GEVCFG0_13
 70
     0
  0
APPID
  5
1ED
330
9
100
AcDbSymbolTableRecord
100
AcDbRegAppTableRecord
  2
GENIUS_GENOENT_13
 70
     0
  0
APPID
  5
1EE
330
9
100
AcDbSymbolTableRecord
100
AcDbRegAppTableRecord
  2
GENIUS_GENOBJ-N-CRS_13
 70
     0
  0
APPID
  5
1EF
330
9
100
AcDbSymbolTableRecord
100
AcDbRegAppTableRecord
  2
GENIUS_GENOREF_13
 70
     0
  0
APPID
  5
1F0
330
9
100
AcDbSymbolTableRecord
100
AcDbRegAppTableRecord
  2
GENIUS_GENOLIS_13
 70
     0
  0
APPID
  5
1F1
330
9
100
AcDbSymbolTableRecord
100
AcDbRegAppTableRecord
  2
GENIUS_GENOBJ-N-TIT_13
 70
     0
  0
APPID
  5
1F2
330
9
100
AcDbSymbolTableRecord
100
AcDbRegAppTableRecord
  2
GENIUS_GENTITLE_13
 70
     0
  0
APPID
  5
1F3
330
9
100
AcDbSymbolTableRecord
100
AcDbRegAppTableRecord
  2
GENIUS_GENSCREG_15
 70
     0
  0
APPID
  5
1F4
330
9
100
AcDbSymbolTableRecord
100
AcDbRegAppTableRecord
  2
GENIUS_GENOBJ-N-SDF_13
 70
     0
  0
APPID
  5
1F5
330
9
100
AcDbSymbolTableRecord
100
AcDbRegAppTableRecord
  2
GENIUS_GENOBJ-N-CEN_13
 70
     0
  0
APPID
  5
1F6
330
9
100
AcDbSymbolTableRecord
100
AcDbRegAppTableRecord
  2
GENIUS_GENOBJ-N-HTC_13
 70
     0
  0
APPID
  5
1F7
330
9
100
AcDbSymbolTableRecord
100
AcDbRegAppTableRecord
  2
GENIUS_GENHATCH_13
 70
     0
  0
APPID
  5
484
330
9
100
AcDbSymbolTableRecord
100
AcDbRegAppTableRecord
  2
GENIUS_GENOBJ-N-ZOO_13
 70
     0
  0
APPID
  5
485
330
9
100
AcDbSymbolTableRecord
100
AcDbRegAppTableRecord
  2
GENIUS_GENZOO_17
 70
     0
  0
APPID
  5
5CB
330
9
100
AcDbSymbolTableRecord
100
AcDbRegAppTableRecord
  2
GEV_VCCNULL_SWITCH_OFF
 70
     0
  0
APPID
  5
5CC
330
9
100
AcDbSymbolTableRecord
100
AcDbRegAppTableRecord
  2
GENIUS_GENDTOL_13
 70
     0
  0
APPID
  5
6D0
330
9
100
AcDbSymbolTableRecord
100
AcDbRegAppTableRecord
  2
GENIUS_AMGTXT_16
 70
     0
  0
APPID
  5
6D1
330
9
100
AcDbSymbolTableRecord
100
AcDbRegAppTableRecord
  2
GENIUS_GENOBJ-N-FIL_13
 70
     0
  0
APPID
  5
2D81
330
9
100
AcDbSymbolTableRecord
100
AcDbRegAppTableRecord
  2
ACAD_NAV_VCDISPLAY
 70
     0
  0
APPID
  5
2E1F
330
9
100
AcDbSymbolTableRecord
100
AcDbRegAppTableRecord
  2
ACAD_MLEADERVER
 70
     0
  0
ENDTAB
  0
TABLE
  2
DIMSTYLE
  5
A
330
0
100
AcDbSymbolTable
 70
    16
100
AcDbDimStyleTable
 71
     1
340
81
  0
DIMSTYLE
105
81
330
A
100
AcDbSymbolTableRecord
100
AcDbDimStyleTableRecord
  2
AM_ISO
 70
     0
  4
"
 41
2.5
 42
1.0
 43
10.0
 44
1.0
 47
0.1
 48
0.1
 73
     0
 74
     0
 77
     1
 78
     8
 79
     2
140
3.5
141
0.0
143
0.0393701
146
0.71
147
1.5
172
     1
176
   256
177
   256
178
     2
271
     2
272
     2
283
     0
284
     8
340
11
341
407
342
407
371
    -1
372
    -1
  0
DIMSTYLE
105
82
102
{ACAD_REACTORS
330
2CB4
102
}
330
A
100
AcDbSymbolTableRecord
100
AcDbDimStyleTableRecord
  2
AM_ISO$3
 70
     0
  4
"
 41
2.5
 42
1.0
 43
10.0
 44
1.0
 47
0.1
 48
0.1
 73
     0
 77
     1
 78
     8
 79
     2
140
3.5
141
0.0
143
0.0393701
146
0.71
147
1.5
176
   256
177
   256
178
     2
271
     2
272
     2
283
     0
284
     8
288
     1
289
     0
340
11
341
407
342
407
371
    -1
372
    -1
  0
DIMSTYLE
105
83
102
{ACAD_REACTORS
330
2CA6
102
}
330
A
100
AcDbSymbolTableRecord
100
AcDbDimStyleTableRecord
  2
AM_ISO$4
 70
     0
  4
"
 41
2.5
 42
1.0
 43
10.0
 44
1.0
 47
0.1
 48
0.1
 73
     0
 77
     1
 78
     8
 79
     2
140
3.5
141
0.0
143
0.0393701
146
0.71
147
1.5
176
   256
177
   256
178
     2
271
     2
272
     2
283
     0
284
     8
288
     1
289
     0
340
11
341
407
342
407
371
    -1
372
    -1
  0
DIMSTYLE
105
84
330
A
100
AcDbSymbolTableRecord
100
AcDbDimStyleTableRecord
  2
AM_ISO$6
 70
     0
  4
"
 41
2.5
 42
1.0
 43
10.0
 44
1.0
 47
0.1
 48
0.1
 73
     0
 74
     0
 78
     8
 79
     2
140
3.5
141
0.0
143
0.0393701
146
0.71
147
1.5
172
     1
176
   256
177
   256
178
     2
271
     2
272
     2
283
     0
284
     8
340
11
341
407
342
407
371
    -1
372
    -1
  0
DIMSTYLE
105
85
330
A
100
AcDbSymbolTableRecord
100
AcDbDimStyleTableRecord
  2
AM_ISO$7
 70
     0
  4
"
 41
2.5
 42
1.0
 43
10.0
 44
1.0
 47
0.1
 48
0.1
 73
     0
 74
     0
 77
     1
 78
     8
 79
     2
140
5.0
141
0.0
143
0.0393701
146
0.71
147
1.5
172
     1
176
   256
177
   256
178
     2
271
     2
272
     2
283
     0
284
     8
340
11
341
407
342
407
371
    -1
372
    -1
  0
DIMSTYLE
105
86
330
A
100
AcDbSymbolTableRecord
100
AcDbDimStyleTableRecord
  2
AM_ISO$SF
 70
     0
  4
"
 41
2.5
 42
1.0
 43
10.0
 44
1.0
 47
0.1
 48
0.1
 73
     0
 74
     0
 75
     1
 76
     1
 77
     1
 78
     8
 79
     2
140
3.5
141
0.0
143
0.0393701
146
0.71
147
1.5
172
     1
176
   256
177
   256
178
     2
271
     2
272
     2
283
     0
284
     8
340
11
341
407
342
407
371
    -1
372
    -1
  0
DIMSTYLE
105
8B
330
A
100
AcDbSymbolTableRecord
100
AcDbDimStyleTableRecord
  2
AM_ISO$SH
 70
     0
  4
"
 41
2.5
 42
1.0
 43
10.0
 44
1.0
 47
0.1
 48
0.1
 73
     0
 74
     0
 75
     1
 76
     1
 77
     1
 78
     8
 79
     2
140
3.5
141
0.0
143
0.0393701
144
2.0
146
0.71
147
1.5
172
     1
173
     1
176
   256
177
   256
178
     2
271
     2
272
     2
283
     0
284
     8
340
11
341
407
343
87
344
407
371
    -1
372
    -1
  0
DIMSTYLE
105
5C3
330
A
100
AcDbSymbolTableRecord
100
AcDbDimStyleTableRecord
  2
GEN-ISO
 70
     0
  4
"
 41
2.5
 42
1.0
 43
10.0
 44
1.0
 47
0.1
 48
0.1
 73
     0
 74
     0
 77
     1
 78
     8
140
3.5
141
0.0
143
0.0393701
146
0.71
147
1.5
172
     1
176
   256
177
   256
178
     2
271
     2
272
     3
274
     4
283
     0
340
11
  0
DIMSTYLE
105
5C4
330
A
100
AcDbSymbolTableRecord
100
AcDbDimStyleTableRecord
  2
GEN-ISO$4
 70
     0
  4
"
 41
2.5
 42
1.0
 43
10.0
 44
1.0
 47
0.1
 48
0.1
 73
     0
 77
     1
 78
     8
140
3.5
141
0.0
143
0.0393701
146
0.71
147
1.5
176
   256
177
   256
178
     2
271
     2
272
     3
274
     4
283
     0
288
     1
289
     0
340
11
  0
DIMSTYLE
105
5C5
330
A
100
AcDbSymbolTableRecord
100
AcDbDimStyleTableRecord
  2
GEN-ISO$3
 70
     0
  4
"
 41
2.5
 42
1.0
 43
10.0
 44
1.0
 47
0.1
 48
0.1
 73
     0
 77
     1
 78
     8
140
3.5
141
0.0
143
0.0393701
146
0.71
147
1.5
176
   256
177
   256
178
     2
271
     2
272
     3
274
     4
283
     0
288
     1
289
     0
340
11
  0
DIMSTYLE
105
5C6
330
A
100
AcDbSymbolTableRecord
100
AcDbDimStyleTableRecord
  2
ISO-25
 70
     0
 41
2.5
 42
0.625
 43
3.75
 44
1.25
 74
     0
 77
     1
 78
     8
140
2.5
141
2.5
143
0.0394
145
1.0
147
0.625
172
     1
340
11
  0
DIMSTYLE
105
5C7
330
A
100
AcDbSymbolTableRecord
100
AcDbDimStyleTableRecord
  2
GEN-ISO$6
 70
     0
  4
"
 41
2.5
 42
1.0
 43
10.0
 44
1.0
 47
0.1
 48
0.1
 73
     0
 74
     0
 78
     8
140
3.5
141
0.0
143
0.0393701
146
0.71
147
1.5
176
   256
177
   256
178
     2
271
     2
272
     3
274
     4
283
     0
340
11
  0
DIMSTYLE
105
5C8
330
A
100
AcDbSymbolTableRecord
100
AcDbDimStyleTableRecord
  2
GEN-ISO-POS
 70
     0
  4
"
 41
2.5
 42
1.0
 43
10.0
 44
1.0
 47
0.1
 48
0.1
 73
     0
 74
     0
 78
     8
140
5.0
141
0.0
143
0.0393701
146
0.71
147
1.5
176
   256
177
   256
178
     2
271
     2
272
     3
274
     4
283
     0
340
11
  0
DIMSTYLE
105
5C9
330
A
100
AcDbSymbolTableRecord
100
AcDbDimStyleTableRecord
  2
GEN-ISO-AXE-F
 70
     0
  4
"
 41
2.5
 42
1.0
 43
10.0
 44
1.0
 47
0.1
 48
0.1
 73
     0
 74
     0
 75
     1
 76
     1
 77
     1
 78
     8
140
3.5
141
0.0
143
0.0393701
146
0.71
147
1.5
172
     1
176
   256
177
   256
178
     2
271
     2
272
     3
274
     4
283
     0
340
11
  0
DIMSTYLE
105
5CA
330
A
100
AcDbSymbolTableRecord
100
AcDbDimStyleTableRecord
  2
GEN-ISO-AXE-H
 70
     0
  4
"
 41
2.5
 42
1.0
 43
10.0
 44
1.0
 47
0.1
 48
0.1
 73
     0
 74
     0
 75
     1
 76
     1
 77
     1
 78
     8
140
3.5
141
0.0
143
0.0393701
144
2.0
146
0.71
147
1.5
172
     1
173
     1
176
   256
177
   256
178
     2
271
     2
272
     3
274
     4
283
     0
340
11
  0
DIMSTYLE
105
E03
102
{ACAD_REACTORS
330
2BA2
330
2BC6
330
2BEA
330
2C0E
330
2C36
330
2C5A
102
}
330
A
100
AcDbSymbolTableRecord
100
AcDbDimStyleTableRecord
  2
AM_ISO$0
 70
     0
  4
"
 41
2.5
 42
1.0
 43
10.0
 44
1.0
 47
0.1
 48
0.1
 73
     0
 74
     0
 77
     1
 78
     8
 79
     2
140
3.5
141
0.0
143
0.0393701
146
0.71
147
1.5
172
     1
176
   256
177
   256
178
     2
271
     2
272
     2
283
     0
284
     8
340
11
341
407
342
407
371
    -1
372
    -1
  0
ENDTAB
  0
TABLE
  2
BLOCK_RECORD
  5
1
330
0
100
AcDbSymbolTable
 70
    49
  0
BLOCK_RECORD
  5
1F
102
{ACAD_XDICTIONARY
360
8F
102
}
330
1
100
AcDbSymbolTableRecord
100
AcDbBlockTableRecord
  2
*Model_Space
340
22
  0
BLOCK_RECORD
  5
23
330
1
100
AcDbSymbolTableRecord
100
AcDbBlockTableRecord
  2
*Paper_Space
340
26
  0
BLOCK_RECORD
  5
1B
330
1
100
AcDbSymbolTableRecord
100
AcDbBlockTableRecord
  2
*Paper_Space0
340
1E
  0
BLOCK_RECORD
  5
87
330
1
100
AcDbSymbolTableRecord
100
AcDbBlockTableRecord
  2
GENAXEH
340
0
  0
BLOCK_RECORD
  5
407
330
1
100
AcDbSymbolTableRecord
100
AcDbBlockTableRecord
  2
_Open30
340
0
102
{BLKREFS
331
2CCB
331
2CCC
331
2CD4
331
2CD5
331
2CDD
331
2CDE
331
2CE8
331
2CE9
331
2CF1
331
2CF2
331
2CFC
331
2CFD
331
2D03
331
2D09
102
}
  0
BLOCK_RECORD
  5
5A7
330
1
100
AcDbSymbolTableRecord
100
AcDbBlockTableRecord
  2
GEVCON
340
0
  0
BLOCK_RECORD
  5
5AA
330
1
100
AcDbSymbolTableRecord
100
AcDbBlockTableRecord
  2
GEVEP
340
0
  0
BLOCK_RECORD
  5
5B3
330
1
100
AcDbSymbolTableRecord
100
AcDbBlockTableRecord
  2
GEVFRAME
340
0
  0
BLOCK_RECORD
  5
5CD
102
{ACAD_XDICTIONARY
360
5D9
102
}
330
1
100
AcDbSymbolTableRecord
100
AcDbBlockTableRecord
  2
TAKACHI-A4
340
0
102
{BLKREFS
331
5E3
102
}
  0
BLOCK_RECORD
  5
5E9
102
{ACAD_XDICTIONARY
360
63E
102
}
330
1
100
AcDbSymbolTableRecord
100
AcDbBlockTableRecord
  2
TAKACHI-TITLE
340
0
102
{BLKREFS
331
642
102
}
  0
BLOCK_RECORD
  5
6AC
330
1
100
AcDbSymbolTableRecord
100
AcDbBlockTableRecord
  2
GENDOT
340
0
  0
BLOCK_RECORD
  5
2BA3
330
1
100
AcDbSymbolTableRecord
100
AcDbBlockTableRecord
  2
*D38
340
0
  0
BLOCK_RECORD
  5
2BC7
330
1
100
AcDbSymbolTableRecord
100
AcDbBlockTableRecord
  2
*D39
340
0
  0
BLOCK_RECORD
  5
2BEB
330
1
100
AcDbSymbolTableRecord
100
AcDbBlockTableRecord
  2
*D40
340
0
  0
BLOCK_RECORD
  5
2C0F
330
1
100
AcDbSymbolTableRecord
100
AcDbBlockTableRecord
  2
*D41
340
0
  0
BLOCK_RECORD
  5
2C37
330
1
100
AcDbSymbolTableRecord
100
AcDbBlockTableRecord
  2
*D42
340
0
  0
BLOCK_RECORD
  5
2C5B
330
1
100
AcDbSymbolTableRecord
100
AcDbBlockTableRecord
  2
*D43
340
0
  0
BLOCK_RECORD
  5
2CA7
330
1
100
AcDbSymbolTableRecord
100
AcDbBlockTableRecord
  2
*D44
340
0
  0
BLOCK_RECORD
  5
2CB5
330
1
100
AcDbSymbolTableRecord
100
AcDbBlockTableRecord
  2
*D45
340
0
  0
BLOCK_RECORD
  5
2D82
330
1
100
AcDbSymbolTableRecord
100
AcDbBlockTableRecord
  2
*S46
340
0
  0
BLOCK_RECORD
  5
2DA3
330
1
100
AcDbSymbolTableRecord
100
AcDbBlockTableRecord
  2
*S47
340
0
  0
BLOCK_RECORD
  5
2DAA
330
1
100
AcDbSymbolTableRecord
100
AcDbBlockTableRecord
  2
*S48
340
0
  0
ENDTAB
  0
ENDSEC
  0
SECTION
  2
BLOCKS
  0
BLOCK
  5
20
330
1F
100
AcDbEntity
  8
0
100
AcDbBlockBegin
  2
*Model_Space
 70
     0
 10
0.0
 20
0.0
 30
0.0
  3
*Model_Space
  1

  0
ENDBLK
  5
21
330
1F
100
AcDbEntity
  8
0
100
AcDbBlockEnd
  0
BLOCK
  5
24
330
23
100
AcDbEntity
 67
     1
  8
0
100
AcDbBlockBegin
  2
*Paper_Space
 70
     0
 10
0.0
 20
0.0
 30
0.0
  3
*Paper_Space
  1

  0
ENDBLK
  5
25
330
23
100
AcDbEntity
 67
     1
  8
0
100
AcDbBlockEnd
  0
BLOCK
  5
1C
330
1B
100
AcDbEntity
 67
     1
  8
0
100
AcDbBlockBegin
  2
*Paper_Space0
 70
     0
 10
0.0
 20
0.0
 30
0.0
  3
*Paper_Space0
  1

  0
VIEWPORT
  5
178
102
{ACAD_XDICTIONARY
360
2DE2
102
}
330
1B
100
AcDbEntity
 67
     1
  8
0
100
AcDbViewport
 10
133.3499908447265
 20
101.5999970436096
 30
0.0
 40
370.2266912936524
 41
228.4221935424805
 68
     0
 69
     0
 12
133.3499908447265
 22
101.5999970436096
 13
0.0
 23
0.0
 14
10.0
 24
10.0
 15
10.0
 25
10.0
 16
0.0
 26
0.0
 36
1.0
 17
0.0
 27
0.0
 37
0.0
 42
50.0
 43
0.0
 44
0.0
 45
228.4221935424805
 50
0.0
 51
0.0
 72
   100
 90
    32800
  1

281
     0
 71
     1
 74
     0
110
0.0
120
0.0
130
0.0
111
1.0
121
0.0
131
0.0
112
0.0
122
1.0
132
0.0
 79
     0
146
0.0
  0
ENDBLK
  5
1D
330
1B
100
AcDbEntity
 67
     1
  8
0
100
AcDbBlockEnd
  0
BLOCK
  5
89
330
87
100
AcDbEntity
  8
0
100
AcDbBlockBegin
  2
GENAXEH
 70
     0
 10
0.0
 20
0.0
 30
0.0
  3
GENAXEH
  1

  0
LINE
  5
88
330
87
100
AcDbEntity
  8
0
100
AcDbLine
 10
-1.0
 20
0.0
 30
0.0
 11
1.0
 21
0.0
 31
0.0
  0
ENDBLK
  5
8A
330
87
100
AcDbEntity
  8
0
100
AcDbBlockEnd
  0
BLOCK
  5
40B
330
407
100
AcDbEntity
  8
0
100
AcDbBlockBegin
  2
_Open30
 70
     0
 10
0.0
 20
0.0
 30
0.0
  3
_Open30
  1

  0
LINE
  5
408
330
407
100
AcDbEntity
  8
0
  6
ByBlock
 62
     0
370
    -2
100
AcDbLine
 10
-1.0
 20
0.26794919
 30
0.0
 11
0.0
 21
0.0
 31
0.0
  0
LINE
  5
409
330
407
100
AcDbEntity
  8
0
  6
ByBlock
 62
     0
370
    -2
100
AcDbLine
 10
0.0
 20
0.0
 30
0.0
 11
-1.0
 21
-0.26794919
 31
0.0
  0
LINE
  5
40A
330
407
100
AcDbEntity
  8
0
  6
ByBlock
 62
     0
370
    -2
100
AcDbLine
 10
0.0
 20
0.0
 30
0.0
 11
-1.0
 21
0.0
 31
0.0
  0
ENDBLK
  5
40C
330
407
100
AcDbEntity
  8
0
100
AcDbBlockEnd
  0
BLOCK
  5
5A8
330
5A7
100
AcDbEntity
  8
0
100
AcDbBlockBegin
  2
GEVCON
 70
     0
 10
0.0
 20
0.0
 30
0.0
  3
GEVCON
  1
GEVCON
  0
ENDBLK
  5
5A9
330
5A7
100
AcDbEntity
  8
0
100
AcDbBlockEnd
  0
BLOCK
  5
5AB
330
5AA
100
AcDbEntity
  8
0
100
AcDbBlockBegin
  2
GEVEP
 70
     0
 10
0.0
 20
0.0
 30
0.0
  3
GEVEP
  1

  0
LINE
  5
5AC
330
5AA
100
AcDbEntity
  8
0
100
AcDbLine
 10
2.0
 20
-2.0
 30
0.0
 11
-2.0
 21
-2.0
 31
0.0
  0
LINE
  5
5AD
330
5AA
100
AcDbEntity
  8
0
100
AcDbLine
 10
-2.0
 20
2.0
 30
0.0
 11
2.0
 21
2.0
 31
0.0
  0
LINE
  5
5AE
330
5AA
100
AcDbEntity
  8
0
100
AcDbLine
 10
2.0
 20
-2.0
 30
0.0
 11
-2.0
 21
2.0
 31
0.0
  0
LINE
  5
5AF
330
5AA
100
AcDbEntity
  8
0
100
AcDbLine
 10
-2.0
 20
-2.0
 30
0.0
 11
2.0
 21
2.0
 31
0.0
  0
LINE
  5
5B0
330
5AA
100
AcDbEntity
  8
0
100
AcDbLine
 10
-2.0
 20
-2.0
 30
0.0
 11
-2.0
 21
2.0
 31
0.0
  0
LINE
  5
5B1
330
5AA
100
AcDbEntity
  8
0
100
AcDbLine
 10
2.0
 20
2.0
 30
0.0
 11
2.0
 21
-2.0
 31
0.0
  0
ENDBLK
  5
5B2
330
5AA
100
AcDbEntity
  8
0
100
AcDbBlockEnd
  0
BLOCK
  5
5B4
330
5B3
100
AcDbEntity
  8
0
100
AcDbBlockBegin
  2
GEVFRAME
 70
     0
 10
0.0
 20
0.0
 30
0.0
  3
GEVFRAME
  1
GEVFRAME
  0
LINE
  5
5B5
330
5B3
100
AcDbEntity
  8
0
100
AcDbLine
 10
0.0
 20
0.0
 30
0.0
 11
1.0
 21
0.0
 31
0.0
  0
LINE
  5
5B6
330
5B3
100
AcDbEntity
  8
0
100
AcDbLine
 10
1.0
 20
0.0
 30
0.0
 11
1.0
 21
1.0
 31
0.0
  0
LINE
  5
5B7
330
5B3
100
AcDbEntity
  8
0
100
AcDbLine
 10
1.0
 20
1.0
 30
0.0
 11
0.0
 21
1.0
 31
0.0
  0
LINE
  5
5B8
330
5B3
100
AcDbEntity
  8
0
100
AcDbLine
 10
0.0
 20
1.0
 30
0.0
 11
0.0
 21
0.0
 31
0.0
  0
ENDBLK
  5
5B9
330
5B3
100
AcDbEntity
  8
0
100
AcDbBlockEnd
  0
BLOCK
  5
5DA
330
5CD
100
AcDbEntity
  8
0
100
AcDbBlockBegin
  2
TAKACHI-A4
 70
     0
 10
0.0
 20
0.0
 30
0.0
  3
TAKACHI-A4
  1

  0
TEXT
  5
5CE
330
5CD
100
AcDbEntity
  8
0
 60
     1
100
AcDbText
 10
10.0
 20
54.99999999999994
 30
0.0
 40
2.5
  1
!GENTITLE-LL
100
AcDbText
  0
TEXT
  5
5CF
330
5CD
100
AcDbEntity
  8
0
 60
     1
100
AcDbText
 10
215.0
 20
15.0
 30
0.0
 40
2.5
  1
!GENTITLE-INSERT
100
AcDbText
  0
TEXT
  5
5D0
330
5CD
100
AcDbEntity
  8
0
 60
     1
100
AcDbText
 10
215.0
 20
285.0000000000001
 30
0.0
 40
2.5
  1
!GENTITLE-RU
100
AcDbText
  0
TEXT
  5
5D1
330
5CD
100
AcDbEntity
  8
0
 60
     1
100
AcDbText
 10
215.0000000000001
 20
290.0
 30
0.0
 40
2.5
  1
!GENTITLE-MAX
100
AcDbText
  0
LINE
  5
5D2
330
5CD
100
AcDbEntity
  8
0
100
AcDbLine
 10
215.0
 20
290.0000000000001
 30
0.0
 11
20.00000000000003
 21
290.0
 31
0.0
1001
GENIUS_GENREC_14
1002
{
1000
PYDIR
1011
15.00000000000003
1021
295.0
1031
0.0
1002
}
1002
{
1000
PXDIR
1011
215.0
1021
15.0
1031
0.0
1002
}
1002
{
1000
PORI
1011
15.0
1021
15.0
1031
0.0
1002
}
1002
{
1000
PINS
1011
115.0
1021
155.0
1031
0.0
1002
}
1002
{
1000
HVAL
1000
280
1002
}
1002
{
1000
H
1070
     2
1002
}
1002
{
1000
WVAL
1000
200
1002
}
1002
{
1000
W
1070
     2
1002
}
1002
{
1000
C
1070
     4
1002
}
  0
LINE
  5
5D3
330
5CD
100
AcDbEntity
  8
0
100
AcDbLine
 10
20.00000000000003
 20
290.0
 30
0.0
 11
19.99999999999997
 21
15.0
 31
0.0
1001
GENIUS_GENREC_14
1002
{
1000
PYDIR
1011
15.00000000000003
1021
295.0
1031
0.0
1002
}
1002
{
1000
PXDIR
1011
215.0
1021
15.0
1031
0.0
1002
}
1002
{
1000
PORI
1011
15.0
1021
15.0
1031
0.0
1002
}
1002
{
1000
PINS
1011
115.0
1021
155.0
1031
0.0
1002
}
1002
{
1000
HVAL
1000
280
1002
}
1002
{
1000
H
1070
     2
1002
}
1002
{
1000
WVAL
1000
200
1002
}
1002
{
1000
W
1070
     2
1002
}
1002
{
1000
C
1070
     4
1002
}
  0
LINE
  5
5D4
330
5CD
100
AcDbEntity
  8
0
100
AcDbLine
 10
19.99999999999997
 20
15.0
 30
0.0
 11
215.0
 21
15.0
 31
0.0
1001
GENIUS_GENREC_14
1002
{
1000
PYDIR
1011
15.00000000000003
1021
295.0
1031
0.0
1002
}
1002
{
1000
PXDIR
1011
215.0
1021
15.0
1031
0.0
1002
}
1002
{
1000
PORI
1011
15.0
1021
15.0
1031
0.0
1002
}
1002
{
1000
PINS
1011
115.0
1021
155.0
1031
0.0
1002
}
1002
{
1000
HVAL
1000
280
1002
}
1002
{
1000
H
1070
     2
1002
}
1002
{
1000
WVAL
1000
200
1002
}
1002
{
1000
W
1070
     2
1002
}
1002
{
1000
C
1070
     4
1002
}
  0
LINE
  5
5D5
330
5CD
100
AcDbEntity
  8
0
100
AcDbLine
 10
215.0
 20
15.0
 30
0.0
 11
215.0000000000001
 21
290.0000000000001
 31
0.0
1001
GENIUS_GENREC_14
1002
{
1000
PYDIR
1011
15.00000000000003
1021
295.0
1031
0.0
1002
}
1002
{
1000
PXDIR
1011
215.0
1021
15.0
1031
0.0
1002
}
1002
{
1000
PORI
1011
15.0
1021
15.0
1031
0.0
1002
}
1002
{
1000
PINS
1011
115.0
1021
155.0
1031
0.0
1002
}
1002
{
1000
HVAL
1000
280
1002
}
1002
{
1000
H
1070
     2
1002
}
1002
{
1000
WVAL
1000
200
1002
}
1002
{
1000
W
1070
     2
1002
}
1002
{
1000
C
1070
     4
1002
}
  0
LINE
  5
5D6
330
5CD
100
AcDbEntity
  8
0
100
AcDbLine
 10
171.0000000000001
 20
285.0000000000001
 30
0.0
 11
215.0000000000001
 21
285.0000000000001
 31
0.0
  0
LINE
  5
5D7
330
5CD
100
AcDbEntity
  8
0
100
AcDbLine
 10
171.0000000000001
 20
290.0000000000001
 30
0.0
 11
171.0000000000001
 21
285.0000000000001
 31
0.0
  0
MTEXT
  5
5D8
330
5CD
100
AcDbEntity
  8
0
100
AcDbMText
 10
214.3592953827349
 20
286.1085429872271
 30
0.0
 40
2.5
 41
43.07840397728298
 71
     9
 72
     5
  1
(文書番号：TY-34)2004.10.29
 73
     1
 44
1.0
1001
ACAD
1000
MTEXTBEGIN
1070
    73
1070
     1
1070
    44
1040
1.0
1070
    74
1070
     0
1000
MTEXTEND
  0
ENDBLK
  5
5DB
330
5CD
100
AcDbEntity
  8
0
100
AcDbBlockEnd
  0
BLOCK
  5
63F
330
5E9
100
AcDbEntity
  8
0
100
AcDbBlockBegin
  2
TAKACHI-TITLE
 70
     2
 10
0.0
 20
0.0
 30
0.0
  3
TAKACHI-TITLE
  1

  0
LINE
  5
5EA
330
5E9
100
AcDbEntity
  8
RAHM2
100
AcDbLine
 10
-195.0
 20
30.00000000000003
 30
0.0
 11
-94.0
 21
30.00000000000003
 31
0.0
  0
LINE
  5
5EB
330
5E9
100
AcDbEntity
  8
RAHM2
100
AcDbLine
 10
-195.0
 20
35.00000000000003
 30
0.0
 11
-94.0
 21
35.00000000000003
 31
0.0
  0
LINE
  5
5EC
330
5E9
100
AcDbEntity
  8
RAHM2
100
AcDbLine
 10
-195.0
 20
40.00000000000002
 30
0.0
 11
-94.0
 21
40.00000000000002
 31
0.0
  0
LINE
  5
5ED
330
5E9
100
AcDbEntity
  8
RAHM2
100
AcDbLine
 10
-195.0
 20
45.00000000000002
 30
0.0
 11
-94.0
 21
45.00000000000002
 31
0.0
  0
LINE
  5
5EE
330
5E9
100
AcDbEntity
  8
0
100
AcDbLine
 10
-195.0
 20
7.0
 30
0.0
 11
-94.0
 21
7.0
 31
0.0
  0
LINE
  5
5EF
330
5E9
100
AcDbEntity
  8
0
100
AcDbLine
 10
-195.0
 20
19.99999999999997
 30
0.0
 11
-94.0
 21
19.99999999999997
 31
0.0
  0
ATTDEF
  5
5F0
330
5E9
100
AcDbEntity
  8
0
100
AcDbText
 10
-183.2438527145607
 20
8.950850524428082
 30
0.0
 40
2.5
  1

 11
-183.2438527145607
 21
8.617517191094748
 31
0.0
100
AcDbAttributeDefinition
  3
サブタイトル
  2
GEN-TITLE-DES2
 70
     0
 74
     1
  0
ATTDEF
  5
5F1
330
5E9
100
AcDbEntity
  8
0
100
AcDbText
 10
-183.2438527145607
 20
2.017517191094748
 30
0.0
 40
3.0
  1

 11
-183.2438527145607
 21
1.617517191094748
 31
0.0
100
AcDbAttributeDefinition
  3
図番
  2
GEN-TITLE-NR
 70
     0
 74
     1
  0
MTEXT
  5
5F2
330
5E9
100
AcDbEntity
  8
RAHM2
100
AcDbMText
 10
-193.8002551371314
 20
5.801035407279641
 30
0.0
 40
2.5
 41
90.0
 71
     1
 72
     5
  1
図番
 73
     1
 44
1.0
1001
ACAD
1000
MTEXTBEGIN
1070
    73
1070
     1
1070
    44
1040
1.0
1070
    74
1070
     0
1000
MTEXTEND
  0
ATTDEF
  5
5F3
330
5E9
100
AcDbEntity
  8
0
100
AcDbText
 10
-183.2438527145607
 20
14.40728619501834
 30
0.0
 40
4.0
  1

 11
-183.2438527145607
 21
13.87395286168501
 31
0.0
100
AcDbAttributeDefinition
  3
品名
  2
GEN-TITLE-DES1
 70
     0
 74
     1
  0
LINE
  5
5F4
330
5E9
100
AcDbEntity
  8
RAHM2
100
AcDbLine
 10
-187.5751288694036
 20
30.40000000000004
 30
0.0
 11
-190.0
 21
34.60000000000003
 31
0.0
  0
LINE
  5
5F5
330
5E9
100
AcDbEntity
  8
RAHM2
100
AcDbLine
 10
-190.0
 20
34.60000000000003
 30
0.0
 11
-192.4248711305964
 21
30.40000000000004
 31
0.0
  0
LINE
  5
5F6
330
5E9
100
AcDbEntity
  8
RAHM2
100
AcDbLine
 10
-185.0
 20
50.00000000000003
 30
0.0
 11
-185.0
 21
19.99999999999994
 31
0.0
  0
LINE
  5
5F7
330
5E9
100
AcDbEntity
  8
RAHM2
100
AcDbLine
 10
-192.4248711305964
 20
30.40000000000004
 30
0.0
 11
-187.5751288694036
 21
30.40000000000004
 31
0.0
  0
MTEXT
  5
5F8
330
5E9
100
AcDbEntity
  8
RAHM2
100
AcDbMText
 10
-190.0
 20
22.49999999999997
 30
0.0
 40
2.5
 41
10.0
 71
     5
 72
     5
  1
符号
 73
     1
 44
1.0
1001
ACAD
1000
MTEXTBEGIN
1070
    73
1070
     1
1070
    44
1040
1.0
1070
    74
1070
     0
1000
MTEXTEND
  0
MTEXT
  5
5F9
330
5E9
100
AcDbEntity
  8
RAHM2
100
AcDbMText
 10
-193.8002551371314
 20
18.80103540727961
 30
0.0
 40
2.5
 41
90.0
 71
     1
 72
     5
  1
品名
 73
     1
 44
1.0
1001
ACAD
1000
MTEXTBEGIN
1070
    73
1070
     1
1070
    44
1040
1.0
1070
    74
1070
     0
1000
MTEXTEND
  0
LINE
  5
5FA
330
5E9
100
AcDbEntity
  8
RAHM2
100
AcDbLine
 10
-192.4248711305964
 20
45.40000000000003
 30
0.0
 11
-187.5751288694036
 21
45.40000000000003
 31
0.0
  0
LINE
  5
5FB
330
5E9
100
AcDbEntity
  8
RAHM2
100
AcDbLine
 10
-187.5751288694036
 20
45.40000000000003
 30
0.0
 11
-190.0
 21
49.60000000000002
 31
0.0
  0
LINE
  5
5FC
330
5E9
100
AcDbEntity
  8
RAHM2
100
AcDbLine
 10
-192.4248711305964
 20
40.40000000000003
 30
0.0
 11
-187.5751288694036
 21
40.40000000000003
 31
0.0
  0
LINE
  5
5FD
330
5E9
100
AcDbEntity
  8
RAHM2
100
AcDbLine
 10
-187.5751288694036
 20
40.40000000000003
 30
0.0
 11
-190.0
 21
44.60000000000002
 31
0.0
  0
LINE
  5
5FE
330
5E9
100
AcDbEntity
  8
RAHM2
100
AcDbLine
 10
-192.4248711305964
 20
35.40000000000004
 30
0.0
 11
-187.5751288694036
 21
35.40000000000004
 31
0.0
  0
LINE
  5
5FF
330
5E9
100
AcDbEntity
  8
RAHM2
100
AcDbLine
 10
-187.5751288694036
 20
35.40000000000004
 30
0.0
 11
-190.0
 21
39.60000000000002
 31
0.0
  0
LINE
  5
600
330
5E9
100
AcDbEntity
  8
RAHM2
100
AcDbLine
 10
-190.0
 20
39.60000000000002
 30
0.0
 11
-192.4248711305964
 21
35.40000000000004
 31
0.0
  0
LINE
  5
601
330
5E9
100
AcDbEntity
  8
RAHM2
100
AcDbLine
 10
-190.0
 20
44.60000000000002
 30
0.0
 11
-192.4248711305964
 21
40.40000000000003
 31
0.0
  0
LINE
  5
602
330
5E9
100
AcDbEntity
  8
RAHM2
100
AcDbLine
 10
-190.0
 20
49.60000000000002
 30
0.0
 11
-192.4248711305964
 21
45.40000000000003
 31
0.0
  0
LINE
  5
603
330
5E9
100
AcDbEntity
  8
RAHM2
100
AcDbLine
 10
-129.0
 20
50.00000000000003
 30
0.0
 11
-129.0
 21
19.99999999999994
 31
0.0
  0
MTEXT
  5
604
330
5E9
100
AcDbEntity
  8
RAHM2
100
AcDbMText
 10
-157.1448171868856
 20
22.49999999999997
 30
0.0
 40
2.5
 41
45.0
 71
     5
 72
     5
  1
変更記事
 73
     1
 44
1.0
1001
ACAD
1000
MTEXTBEGIN
1070
    73
1070
     1
1070
    44
1040
1.0
1070
    74
1070
     0
1000
MTEXTEND
  0
LINE
  5
605
330
5E9
100
AcDbEntity
  8
0
100
AcDbLine
 10
-34.0
 20
50.0
 30
0.0
 11
-34.0
 21
0.0
 31
0.0
  0
LINE
  5
606
330
5E9
100
AcDbEntity
  8
0
100
AcDbLine
 10
-94.0
 20
50.0
 30
0.0
 11
-94.0
 21
0.0
 31
0.0
  0
MTEXT
  5
607
330
5E9
100
AcDbEntity
  8
0
100
AcDbMText
 10
-64.0
 20
5.0
 30
0.0
 40
3.5
 41
60.0
 71
     5
 72
     5
  1
\fＭＳ ゴシック|b0|i0|c128|p49;株式会社タカチ電機工業
 73
     1
 44
1.0
1001
ACAD
1000
MTEXTBEGIN
1070
    73
1070
     1
1070
    44
1040
1.0
1070
    74
1070
     0
1000
MTEXTEND
  0
LINE
  5
608
330
5E9
100
AcDbEntity
  8
0
100
AcDbLine
 10
-94.0
 20
10.0
 30
0.0
 11
-34.0
 21
10.0
 31
0.0
  0
ATTDEF
  5
609
330
5E9
100
AcDbEntity
  8
0
100
AcDbText
 10
-58.01405119799745
 20
39.25500556178349
 30
0.0
 40
3.0
  1

 72
     2
 11
-58.01405119799745
 21
39.25500556178349
 31
0.0
100
AcDbAttributeDefinition
  3
尺度
  2
GEN-TITLE-SCA
 70
     0
  0
ATTDEF
  5
60A
330
5E9
100
AcDbEntity
  8
0
100
AcDbText
 10
-77.00284966649007
 20
31.02180787943475
 30
0.0
 40
3.0
  1

 11
-77.00284966649007
 21
30.62180787943475
 31
0.0
100
AcDbAttributeDefinition
  3
材質
  2
GEN-TITLE-MAT1
 70
     0
 74
     1
  0
ATTDEF
  5
60B
330
5E9
100
AcDbEntity
  8
0
100
AcDbText
 10
-77.00284966649007
 20
21.02180787943475
 30
0.0
 40
3.0
  1

 11
-77.00284966649007
 21
20.62180787943475
 31
0.0
100
AcDbAttributeDefinition
  3
表面処理
  2
GEN-TITLE-MAT2
 70
     0
 74
     1
  0
ATTDEF
  5
60C
330
5E9
100
AcDbEntity
  8
0
100
AcDbText
 10
-77.00284966649007
 20
12.01751719109475
 30
0.0
 40
3.0
  1

 11
-77.00284966649007
 21
11.61751719109475
 31
0.0
100
AcDbAttributeDefinition
  3
日付
  2
GEN-TITLE-DAT
 70
     0
 74
     1
  0
LINE
  5
60D
330
5E9
100
AcDbEntity
  8
0
100
AcDbLine
 10
-94.0
 20
37.5
 30
0.0
 11
-34.0
 21
37.5
 31
0.0
  0
LINE
  5
60E
330
5E9
100
AcDbEntity
  8
0
100
AcDbLine
 10
-94.0
 20
27.5
 30
0.0
 11
-34.0
 21
27.5
 31
0.0
  0
LINE
  5
60F
330
5E9
100
AcDbEntity
  8
0
100
AcDbLine
 10
-94.0
 20
17.5
 30
0.0
 11
-34.0
 21
17.5
 31
0.0
  0
LINE
  5
610
330
5E9
100
AcDbEntity
  8
RAHM2
100
AcDbLine
 10
-109.0
 20
50.00000000000003
 30
0.0
 11
-109.0
 21
19.99999999999994
 31
0.0
  0
MTEXT
  5
611
330
5E9
100
AcDbEntity
  8
RAHM2
100
AcDbMText
 10
-119.4582894723942
 20
32.50000000000003
 30
0.0
 40
2.5
 41
20.0
 71
     5
 72
     5
  1
・  ・   
 73
     1
 44
1.0
1001
ACAD
1000
MTEXTBEGIN
1070
    73
1070
     1
1070
    44
1040
1.0
1070
    74
1070
     0
1000
MTEXTEND
  0
MTEXT
  5
612
330
5E9
100
AcDbEntity
  8
RAHM2
100
AcDbMText
 10
-118.738119805002
 20
22.49999999999997
 30
0.0
 40
2.5
 41
20.0
 71
     5
 72
     5
  1
年・月・日
 73
     1
 44
1.0
1001
ACAD
1000
MTEXTBEGIN
1070
    73
1070
     1
1070
    44
1040
1.0
1070
    74
1070
     0
1000
MTEXTEND
  0
MTEXT
  5
613
330
5E9
100
AcDbEntity
  8
RAHM2
100
AcDbMText
 10
-101.5
 20
22.49999999999997
 30
0.0
 40
2.5
 41
15.0
 71
     5
 72
     5
  1
担当
 73
     1
 44
1.0
1001
ACAD
1000
MTEXTBEGIN
1070
    73
1070
     1
1070
    44
1040
1.0
1070
    74
1070
     0
1000
MTEXTEND
  0
MTEXT
  5
614
330
5E9
100
AcDbEntity
  8
RAHM2
100
AcDbMText
 10
-119.4582894723942
 20
42.50000000000002
 30
0.0
 40
2.5
 41
20.0
 71
     5
 72
     5
  1
・  ・   
 73
     1
 44
1.0
1001
ACAD
1000
MTEXTBEGIN
1070
    73
1070
     1
1070
    44
1040
1.0
1070
    74
1070
     0
1000
MTEXTEND
  0
MTEXT
  5
615
330
5E9
100
AcDbEntity
  8
RAHM2
100
AcDbMText
 10
-119.4582894723942
 20
37.50000000000003
 30
0.0
 40
2.5
 41
20.0
 71
     5
 72
     5
  1
・  ・   
 73
     1
 44
1.0
1001
ACAD
1000
MTEXTBEGIN
1070
    73
1070
     1
1070
    44
1040
1.0
1070
    74
1070
     0
1000
MTEXTEND
  0
MTEXT
  5
616
330
5E9
100
AcDbEntity
  8
RAHM2
100
AcDbMText
 10
-119.4582894723942
 20
47.50000000000002
 30
0.0
 40
2.5
 41
20.0
 71
     5
 72
     5
  1
・  ・   
 73
     1
 44
1.0
1001
ACAD
1000
MTEXTBEGIN
1070
    73
1070
     1
1070
    44
1040
1.0
1070
    74
1070
     0
1000
MTEXTEND
  0
MTEXT
  5
617
330
5E9
100
AcDbEntity
  8
RAHM2
100
AcDbMText
 10
-92.80025513713145
 20
16.30103540727964
 30
0.0
 40
2.5
 41
60.0
 71
     1
 72
     5
  1
日付
 73
     1
 44
1.0
1001
ACAD
1000
MTEXTBEGIN
1070
    73
1070
     1
1070
    44
1040
1.0
1070
    74
1070
     0
1000
MTEXTEND
  0
MTEXT
  5
618
330
5E9
100
AcDbEntity
  8
RAHM2
100
AcDbMText
 10
-92.80025513713145
 20
26.30103540727964
 30
0.0
 40
2.5
 41
60.0
 71
     1
 72
     5
  1
表面処理
 73
     1
 44
1.0
1001
ACAD
1000
MTEXTBEGIN
1070
    73
1070
     1
1070
    44
1040
1.0
1070
    74
1070
     0
1000
MTEXTEND
  0
LINE
  5
619
330
5E9
100
AcDbEntity
  8
7A
100
AcDbLine
 10
-89.0
 20
43.75
 30
0.0
 11
-75.2186915997147
 21
43.75
 31
0.0
1001
GENIUS_GENOREF_13
1005
62C
  0
LINE
  5
61A
330
5E9
100
AcDbEntity
  8
0
100
AcDbLine
 10
-84.0
 20
45.75
 30
0.0
 11
-76.0
 21
46.74999999999999
 31
0.0
  0
LINE
  5
61B
330
5E9
100
AcDbEntity
  8
0
100
AcDbLine
 10
-76.0
 20
40.75
 30
0.0
 11
-84.0
 21
41.74999999999999
 31
0.0
  0
LINE
  5
61C
330
5E9
100
AcDbEntity
  8
7A
100
AcDbLine
 10
-89.0
 20
43.75
 30
0.0
 11
-89.0
 21
47.32478664473148
 31
0.0
1001
GENIUS_GENOREF_13
1005
62C
  0
CIRCLE
  5
61D
330
5E9
100
AcDbEntity
  8
0
100
AcDbCircle
 10
-89.0
 20
43.75
 30
0.0
 40
2.0
  0
CIRCLE
  5
61E
330
5E9
100
AcDbEntity
  8
0
100
AcDbCircle
 10
-89.0
 20
43.75
 30
0.0
 40
3.0
  0
LINE
  5
61F
330
5E9
100
AcDbEntity
  8
0
100
AcDbLine
 10
-84.0
 20
41.74999999999999
 30
0.0
 11
-84.0
 21
45.75
 31
0.0
  0
MTEXT
  5
620
330
5E9
100
AcDbEntity
  8
RAHM2
100
AcDbMText
 10
-92.80025513713145
 20
36.30103540727964
 30
0.0
 40
2.5
 41
60.0
 71
     1
 72
     5
  1
材質
 73
     1
 44
1.0
1001
ACAD
1000
MTEXTBEGIN
1070
    73
1070
     1
1070
    44
1040
1.0
1070
    74
1070
     0
1000
MTEXTEND
  0
LINE
  5
621
330
5E9
100
AcDbEntity
  8
7A
100
AcDbLine
 10
-89.0
 20
43.75
 30
0.0
 11
-92.72303737125117
 21
43.75
 31
0.0
1001
GENIUS_GENOREF_13
1005
62C
  0
LINE
  5
622
330
5E9
100
AcDbEntity
  8
7A
100
AcDbLine
 10
-89.0
 20
43.75
 30
0.0
 11
-89.0
 21
40.03991724228479
 31
0.0
1001
GENIUS_GENOREF_13
1005
62C
  0
LINE
  5
623
330
5E9
100
AcDbEntity
  8
0
100
AcDbLine
 10
-76.0
 20
46.74999999999999
 30
0.0
 11
-76.0
 21
40.75
 31
0.0
  0
LINE
  5
624
330
5E9
100
AcDbEntity
  8
0
100
AcDbLine
 10
-74.0
 20
50.0
 30
0.0
 11
-74.0
 21
37.5
 31
0.0
  0
MTEXT
  5
625
330
5E9
100
AcDbEntity
  8
RAHM2
100
AcDbMText
 10
-72.80025513713145
 20
48.80103540727964
 30
0.0
 40
2.5
 41
20.0
 71
     1
 72
     5
  1
尺度
 73
     1
 44
1.0
1001
ACAD
1000
MTEXTBEGIN
1070
    73
1070
     1
1070
    44
1040
1.0
1070
    74
1070
     0
1000
MTEXTEND
  0
ATTDEF
  5
626
330
5E9
100
AcDbEntity
  8
0
100
AcDbText
 10
-37.76317379391503
 20
39.25500556178349
 30
0.0
 40
3.0
  1

 72
     2
 11
-37.76317379391503
 21
39.25500556178349
 31
0.0
100
AcDbAttributeDefinition
  3
数量
  2
GEN-TITLE-QTY
 70
     0
  0
LINE
  5
627
330
5E9
100
AcDbEntity
  8
0
100
AcDbLine
 10
-34.0
 20
25.0
 30
0.0
 11
0.0
 21
25.0
 31
0.0
  0
LINE
  5
628
330
5E9
100
AcDbEntity
  8
0
100
AcDbLine
 10
-54.0
 20
50.0
 30
0.0
 11
-54.0
 21
37.5
 31
0.0
  0
MTEXT
  5
629
330
5E9
100
AcDbEntity
  8
RAHM2
100
AcDbMText
 10
-52.80025513713145
 20
48.80103540727964
 30
0.0
 40
2.5
 41
20.0
 71
     1
 72
     5
  1
数量
 73
     1
 44
1.0
1001
ACAD
1000
MTEXTBEGIN
1070
    73
1070
     1
1070
    44
1040
1.0
1070
    74
1070
     0
1000
MTEXTEND
  0
MTEXT
  5
62A
330
5E9
100
AcDbEntity
  8
RAHM2
100
AcDbMText
 10
-25.5
 20
23.80103540727964
 30
0.0
 40
2.5
 41
17.0
 71
     2
 72
     5
  1
承認
 73
     1
 44
1.0
1001
ACAD
1000
MTEXTBEGIN
1070
    73
1070
     1
1070
    44
1040
1.0
1070
    74
1070
     0
1000
MTEXTEND
  0
MTEXT
  5
62B
330
5E9
100
AcDbEntity
  8
RAHM2
100
AcDbMText
 10
-25.5
 20
48.80103540727964
 30
0.0
 40
2.5
 41
17.0
 71
     2
 72
     5
  1
承認
 73
     1
 44
1.0
1001
ACAD
1000
MTEXTBEGIN
1070
    73
1070
     1
1070
    44
1040
1.0
1070
    74
1070
     0
1000
MTEXTEND
  0
POINT
  5
62C
330
5E9
100
AcDbEntity
  8
0
 60
     1
100
AcDbPoint
 10
-320.5355579819676
 20
-138.1104841268254
 30
0.0
1001
GENIUS_GENODEF_13
1002
{
1000
HIER
1070
    10
1002
}
1002
{
1000
MANEDIT
1070
     0
1002
}
1002
{
1000
NOSEL
1070
     0
1002
}
1002
{
1000
BEHIND
1070
     0
1002
}
1002
{
1000
REACTOR
1002
}
1001
GENIUS_GENOBJ-N-CRS_13
1002
{
1000
OWNER
1000
GEN
1002
}
1001
GENIUS_GENOENT_13
1002
{
1000
MYREF
1005
62C
1002
}
1002
{
1000
GRP
1005
0
1002
}
1001
GENIUS_GENOLIS_13
1002
{
1000
ENT
1005
622
1005
621
1005
61C
1005
619
1002
}
  0
LINE
  5
62D
330
5E9
100
AcDbEntity
  8
RAHM2
100
AcDbLine
 10
-190.0
 20
29.60000000000002
 30
0.0
 11
-192.4248711305964
 21
25.40000000000004
 31
0.0
  0
LINE
  5
62E
330
5E9
100
AcDbEntity
  8
RAHM2
100
AcDbLine
 10
-187.5751288694036
 20
25.40000000000004
 30
0.0
 11
-190.0
 21
29.60000000000002
 31
0.0
  0
LINE
  5
62F
330
5E9
100
AcDbEntity
  8
RAHM2
100
AcDbLine
 10
-192.4248711305964
 20
25.40000000000004
 30
0.0
 11
-187.5751288694036
 21
25.40000000000004
 31
0.0
  0
LINE
  5
630
330
5E9
100
AcDbEntity
  8
RAHM2
100
AcDbLine
 10
-195.0
 20
25.00000000000003
 30
0.0
 11
-94.0
 21
25.00000000000003
 31
0.0
  0
MTEXT
  5
631
330
5E9
100
AcDbEntity
  8
RAHM2
100
AcDbMText
 10
-119.4582894723942
 20
27.50000000000003
 30
0.0
 40
2.5
 41
20.0
 71
     5
 72
     5
  1
・  ・   
 73
     1
 44
1.0
1001
ACAD
1000
MTEXTBEGIN
1070
    73
1070
     1
1070
    44
1040
1.0
1070
    74
1070
     0
1000
MTEXTEND
  0
TEXT
  5
632
330
5E9
100
AcDbEntity
  8
RAHM2
100
AcDbText
 10
-190.8155863565801
 20
25.98333333333337
 30
0.0
 40
2.5
  1
1
 72
     1
 11
-190.1905863565802
 21
25.65000000000003
 31
0.0
100
AcDbText
 73
     1
  0
TEXT
  5
633
330
5E9
100
AcDbEntity
  8
RAHM2
100
AcDbText
 10
-190.9183316929134
 20
30.98333333333337
 30
0.0
 40
2.5
  1
2
 72
     1
 11
-190.0
 21
30.65000000000003
 31
0.0
100
AcDbText
 73
     1
  0
TEXT
  5
634
330
5E9
100
AcDbEntity
  8
RAHM2
100
AcDbText
 10
-190.9267766952966
 20
35.98333333333334
 30
0.0
 40
2.5
  1
3
 72
     1
 11
-190.0
 21
35.65000000000001
 31
0.0
100
AcDbText
 73
     1
  0
TEXT
  5
635
330
5E9
100
AcDbEntity
  8
RAHM2
100
AcDbText
 10
-191.0
 20
40.98333333333337
 30
0.0
 40
2.5
  1
4
 72
     1
 11
-190.0
 21
40.65000000000003
 31
0.0
100
AcDbText
 73
     1
  0
TEXT
  5
636
330
5E9
100
AcDbEntity
  8
RAHM2
100
AcDbText
 10
-190.9267766952966
 20
45.98333333333337
 30
0.0
 40
2.5
  1
5
 72
     1
 11
-190.0
 21
45.65000000000003
 31
0.0
100
AcDbText
 73
     1
  0
LINE
  5
637
330
5E9
100
AcDbEntity
  8
0
100
AcDbLine
 10
-17.0
 20
50.0
 30
0.0
 11
-17.0
 21
0.0
 31
0.0
  0
LINE
  5
638
330
5E9
100
AcDbEntity
  8
0
100
AcDbLine
 10
-195.0
 20
0.0
 30
0.0
 11
0.0
 21
0.0
 31
0.0
1001
GENIUS_GENREC_14
1002
{
1000
PYDIR
1011
-184.0
1021
50.0
1031
0.0
1002
}
1002
{
1000
PXDIR
1011
0.0
1021
0.0
1031
0.0
1002
}
1002
{
1000
PORI
1011
-184.0
1021
0.0
1031
0.0
1002
}
1002
{
1000
PINS
1011
-100.5
1021
25.0
1031
0.0
1002
}
1002
{
1000
HVAL
1000
50
1002
}
1002
{
1000
H
1070
     2
1002
}
1002
{
1000
WVAL
1000
167
1002
}
1002
{
1000
W
1070
     2
1002
}
1002
{
1000
C
1070
     4
1002
}
1001
GENIUS_GENODEF_13
1002
{
1000
HIER
1070
     0
1002
}
1002
{
1000
MANEDIT
1070
     0
1002
}
1002
{
1000
NOSEL
1070
     0
1002
}
1002
{
1000
BEHIND
1070
     0
1002
}
1002
{
1000
REACTOR
1002
}
1001
GENIUS_GENOBJ-N-REC_13
1002
{
1000
OWNER
1000
GEN
1002
}
  0
LINE
  5
639
330
5E9
100
AcDbEntity
  8
0
100
AcDbLine
 10
0.0
 20
0.0
 30
0.0
 11
0.0
 21
50.0
 31
0.0
1001
GENIUS_GENREC_14
1002
{
1000
PYDIR
1011
-184.0
1021
50.0
1031
0.0
1002
}
1002
{
1000
PXDIR
1011
0.0
1021
0.0
1031
0.0
1002
}
1002
{
1000
PORI
1011
-184.0
1021
0.0
1031
0.0
1002
}
1002
{
1000
PINS
1011
-100.5
1021
25.0
1031
0.0
1002
}
1002
{
1000
HVAL
1000
50
1002
}
1002
{
1000
H
1070
     2
1002
}
1002
{
1000
WVAL
1000
167
1002
}
1002
{
1000
W
1070
     2
1002
}
1002
{
1000
C
1070
     4
1002
}
1001
GENIUS_GENODEF_13
1002
{
1000
HIER
1070
     0
1002
}
1002
{
1000
MANEDIT
1070
     0
1002
}
1002
{
1000
NOSEL
1070
     0
1002
}
1002
{
1000
BEHIND
1070
     0
1002
}
1002
{
1000
REACTOR
1002
}
1001
GENIUS_GENOBJ-N-REC_13
1002
{
1000
OWNER
1000
GEN
1002
}
  0
LINE
  5
63A
330
5E9
100
AcDbEntity
  8
0
100
AcDbLine
 10
0.0
 20
50.0
 30
0.0
 11
-195.0
 21
50.00000000000003
 31
0.0
1001
GENIUS_GENREC_14
1002
{
1000
PYDIR
1011
-184.0
1021
50.0
1031
0.0
1002
}
1002
{
1000
PXDIR
1011
0.0
1021
0.0
1031
0.0
1002
}
1002
{
1000
PORI
1011
-184.0
1021
0.0
1031
0.0
1002
}
1002
{
1000
PINS
1011
-100.5
1021
25.0
1031
0.0
1002
}
1002
{
1000
HVAL
1000
50
1002
}
1002
{
1000
H
1070
     2
1002
}
1002
{
1000
WVAL
1000
167
1002
}
1002
{
1000
W
1070
     2
1002
}
1002
{
1000
C
1070
     4
1002
}
1001
GENIUS_GENODEF_13
1002
{
1000
HIER
1070
     0
1002
}
1002
{
1000
MANEDIT
1070
     0
1002
}
1002
{
1000
NOSEL
1070
     0
1002
}
1002
{
1000
BEHIND
1070
     0
1002
}
1002
{
1000
REACTOR
1002
}
1001
GENIUS_GENOBJ-N-REC_13
1002
{
1000
OWNER
1000
GEN
1002
}
  0
LINE
  5
63B
330
5E9
100
AcDbEntity
  8
0
100
AcDbLine
 10
-195.0
 20
50.00000000000003
 30
0.0
 11
-195.0
 21
0.0
 31
0.0
1001
GENIUS_GENREC_14
1002
{
1000
PYDIR
1011
-195.0
1021
50.0
1031
0.0
1002
}
1002
{
1000
PXDIR
1011
-11.0
1021
0.0
1031
0.0
1002
}
1002
{
1000
PORI
1011
-195.0
1021
0.0
1031
0.0
1002
}
1002
{
1000
PINS
1011
-111.5
1021
25.0
1031
0.0
1002
}
1002
{
1000
HVAL
1000
50
1002
}
1002
{
1000
H
1070
     2
1002
}
1002
{
1000
WVAL
1000
167
1002
}
1002
{
1000
W
1070
     2
1002
}
1002
{
1000
C
1070
     4
1002
}
1001
GENIUS_GENODEF_13
1002
{
1000
HIER
1070
     0
1002
}
1002
{
1000
MANEDIT
1070
     0
1002
}
1002
{
1000
NOSEL
1070
     0
1002
}
1002
{
1000
BEHIND
1070
     0
1002
}
1002
{
1000
REACTOR
1002
}
1001
GENIUS_GENOBJ-N-REC_13
1002
{
1000
OWNER
1000
GEN
1002
}
  0
MTEXT
  5
63C
330
5E9
100
AcDbEntity
  8
RAHM2
100
AcDbMText
 10
-8.5
 20
48.80103540727964
 30
0.0
 40
2.5
 41
17.0
 71
     2
 72
     5
  1
検図
 73
     1
 44
1.0
1001
ACAD
1000
MTEXTBEGIN
1070
    73
1070
     1
1070
    44
1040
1.0
1070
    74
1070
     0
1000
MTEXTEND
  0
MTEXT
  5
63D
330
5E9
100
AcDbEntity
  8
RAHM2
100
AcDbMText
 10
-8.5
 20
23.80103540727964
 30
0.0
 40
2.5
 41
17.0
 71
     2
 72
     5
  1
製図
 73
     1
 44
1.0
1001
ACAD
1000
MTEXTBEGIN
1070
    73
1070
     1
1070
    44
1040
1.0
1070
    74
1070
     0
1000
MTEXTEND
  0
ENDBLK
  5
640
330
5E9
100
AcDbEntity
  8
0
100
AcDbBlockEnd
  0
BLOCK
  5
6AD
330
6AC
100
AcDbEntity
  8
0
100
AcDbBlockBegin
  2
GENDOT
 70
     0
 10
0.0
 20
0.0
 30
0.0
  3
GENDOT
  1

  0
LINE
  5
6AE
330
6AC
100
AcDbEntity
  8
0
100
AcDbLine
 10
0.0
 20
0.0
 30
0.0
 11
-1.0
 21
0.0
 31
0.0
  0
LWPOLYLINE
  5
6AF
330
6AC
100
AcDbEntity
  8
0
100
AcDbPolyline
 90
        2
 70
     1
 43
0.25
 10
-0.125
 20
0.0
 42
1.0
 10
0.125
 20
0.0
 42
1.0
  0
ENDBLK
  5
6B0
330
6AC
100
AcDbEntity
  8
0
100
AcDbBlockEnd
  0
BLOCK
  5
2C77
330
2BA3
100
AcDbEntity
  8
0
100
AcDbBlockBegin
  2
*D38
 70
     1
 10
0.0
 20
0.0
 30
0.0
  3
*D38
  1

  0
LINE
  5
2CC8
330
2BA3
100
AcDbEntity
  8
AM_5
100
AcDbLine
 10
100.6221112054106
 20
249.4734759414343
 30
0.0
 11
100.6221112054106
 21
260.2834769414344
 31
0.0
  0
LINE
  5
2CC9
330
2BA3
100
AcDbEntity
  8
AM_5
100
AcDbLine
 10
128.5621112054107
 20
249.4734759414343
 30
0.0
 11
128.5621112054107
 21
260.2834769414344
 31
0.0
  0
LINE
  5
2CCA
330
2BA3
100
AcDbEntity
  8
AM_5
100
AcDbLine
 10
103.1221112054106
 20
259.2834769414344
 30
0.0
 11
126.0621112054107
 21
259.2834769414344
 31
0.0
  0
INSERT
  5
2CCB
330
2BA3
100
AcDbEntity
  8
AM_5
100
AcDbBlockReference
  2
_Open30
 10
100.6221112054106
 20
259.2834769414344
 30
0.0
 41
2.5
 42
2.5
 43
2.5
 50
180.0
  0
INSERT
  5
2CCC
330
2BA3
100
AcDbEntity
  8
AM_5
100
AcDbBlockReference
  2
_Open30
 10
128.5621112054107
 20
259.2834769414344
 30
0.0
 41
2.5
 42
2.5
 43
2.5
  0
MTEXT
  5
2CCD
330
2BA3
100
AcDbEntity
  8
AM_5
 62
     2
100
AcDbMText
 10
114.5921112054107
 20
262.5338214296234
 30
0.0
 40
3.5
 41
0.0
 71
     5
 72
     1
  1
27.94
 73
     1
 44
1.0
1001
ACAD
1000
MTEXTBEGIN
1070
    73
1070
     1
1070
    44
1040
1.0
1070
    74
1070
     0
1000
MTEXTEND
  0
POINT
  5
2CCE
330
2BA3
100
AcDbEntity
  8
Defpoints
 62
     0
100
AcDbPoint
 10
100.6221112054106
 20
248.4734759414343
 30
0.0
  0
POINT
  5
2CCF
330
2BA3
100
AcDbEntity
  8
Defpoints
 62
     0
100
AcDbPoint
 10
128.5621112054107
 20
248.4734759414343
 30
0.0
  0
POINT
  5
2CD0
330
2BA3
100
AcDbEntity
  8
Defpoints
 62
     0
100
AcDbPoint
 10
128.5621112054107
 20
259.2834769414344
 30
0.0
  0
ENDBLK
  5
2C78
330
2BA3
100
AcDbEntity
  8
0
100
AcDbBlockEnd
  0
BLOCK
  5
2C79
330
2BC7
100
AcDbEntity
  8
0
100
AcDbBlockBegin
  2
*D39
 70
     1
 10
0.0
 20
0.0
 30
0.0
  3
*D39
  1

  0
LINE
  5
2CD1
330
2BC7
100
AcDbEntity
  8
AM_5
100
AcDbLine
 10
131.5921112054102
 20
247.2834759414341
 30
0.0
 11
143.5921112054101
 21
247.2834759414341
 31
0.0
  0
LINE
  5
2CD2
330
2BC7
100
AcDbEntity
  8
AM_5
100
AcDbLine
 10
131.5921112054097
 20
123.2834759414341
 30
0.0
 11
143.59211120541
 21
123.2834759414341
 31
0.0
  0
LINE
  5
2CD3
330
2BC7
100
AcDbEntity
  8
AM_5
100
AcDbLine
 10
142.5921112054101
 20
244.7834759414341
 30
0.0
 11
142.59211120541
 21
125.7834759414341
 31
0.0
  0
INSERT
  5
2CD4
330
2BC7
100
AcDbEntity
  8
AM_5
100
AcDbBlockReference
  2
_Open30
 10
142.5921112054101
 20
247.2834759414341
 30
0.0
 41
2.5
 42
2.5
 43
2.5
 50
90.0
  0
INSERT
  5
2CD5
330
2BC7
100
AcDbEntity
  8
AM_5
100
AcDbBlockReference
  2
_Open30
 10
142.59211120541
 20
123.2834759414341
 30
0.0
 41
2.5
 42
2.5
 43
2.5
 50
270.0
  0
MTEXT
  5
2CD6
330
2BC7
100
AcDbEntity
  8
AM_5
 62
     2
100
AcDbMText
 10
139.341766717221
 20
185.2834759414341
 30
0.0
 40
3.5
 41
0.0
 71
     5
 72
     1
  1
124
 11
0.0000000000000001
 21
1.0
 31
0.0
 73
     1
 44
1.0
1001
ACAD
1000
MTEXTBEGIN
1070
    73
1070
     1
1070
    44
1040
1.0
1070
    74
1070
     0
1000
MTEXTEND
  0
POINT
  5
2CD7
330
2BC7
100
AcDbEntity
  8
Defpoints
 62
     0
100
AcDbPoint
 10
130.5921112054102
 20
247.2834759414341
 30
0.0
  0
POINT
  5
2CD8
330
2BC7
100
AcDbEntity
  8
Defpoints
 62
     0
100
AcDbPoint
 10
130.5921112054097
 20
123.2834759414341
 30
0.0
  0
POINT
  5
2CD9
330
2BC7
100
AcDbEntity
  8
Defpoints
 62
     0
100
AcDbPoint
 10
142.59211120541
 20
123.2834759414341
 30
0.0
  0
ENDBLK
  5
2C7A
330
2BC7
100
AcDbEntity
  8
0
100
AcDbBlockEnd
  0
BLOCK
  5
2C7B
330
2BEB
100
AcDbEntity
  8
0
100
AcDbBlockBegin
  2
*D40
 70
     1
 10
0.0
 20
0.0
 30
0.0
  3
*D40
  1

  0
LINE
  5
2CDA
330
2BEB
100
AcDbEntity
  8
AM_5
100
AcDbLine
 10
97.5921112054101
 20
123.2834759414343
 30
0.0
 11
97.5921112054101
 21
111.2834759414341
 31
0.0
  0
LINE
  5
2CDB
330
2BEB
100
AcDbEntity
  8
AM_5
100
AcDbLine
 10
131.5921112054102
 20
123.2834759414341
 30
0.0
 11
131.5921112054102
 21
111.2834759414341
 31
0.0
  0
LINE
  5
2CDC
330
2BEB
100
AcDbEntity
  8
AM_5
100
AcDbLine
 10
100.0921112054101
 20
112.2834759414341
 30
0.0
 11
129.0921112054102
 21
112.2834759414341
 31
0.0
  0
INSERT
  5
2CDD
330
2BEB
100
AcDbEntity
  8
AM_5
100
AcDbBlockReference
  2
_Open30
 10
97.5921112054101
 20
112.2834759414341
 30
0.0
 41
2.5
 42
2.5
 43
2.5
 50
180.0
  0
INSERT
  5
2CDE
330
2BEB
100
AcDbEntity
  8
AM_5
100
AcDbBlockReference
  2
_Open30
 10
131.5921112054102
 20
112.2834759414341
 30
0.0
 41
2.5
 42
2.5
 43
2.5
  0
MTEXT
  5
2CDF
330
2BEB
100
AcDbEntity
  8
AM_5
 62
     2
100
AcDbMText
 10
114.5921112054101
 20
115.5334759414341
 30
0.0
 40
3.5
 41
0.0
 71
     5
 72
     1
  1
34
 73
     1
 44
1.0
1001
ACAD
1000
MTEXTBEGIN
1070
    73
1070
     1
1070
    44
1040
1.0
1070
    74
1070
     0
1000
MTEXTEND
  0
POINT
  5
2CE0
330
2BEB
100
AcDbEntity
  8
Defpoints
 62
     0
100
AcDbPoint
 10
97.5921112054101
 20
124.2834759414343
 30
0.0
  0
POINT
  5
2CE1
330
2BEB
100
AcDbEntity
  8
Defpoints
 62
     0
100
AcDbPoint
 10
131.5921112054102
 20
124.2834759414341
 30
0.0
  0
POINT
  5
2CE2
330
2BEB
100
AcDbEntity
  8
Defpoints
 62
     0
100
AcDbPoint
 10
131.5921112054102
 20
112.2834759414341
 30
0.0
  0
ENDBLK
  5
2C7C
330
2BEB
100
AcDbEntity
  8
0
100
AcDbBlockEnd
  0
BLOCK
  5
2C7D
330
2C0F
100
AcDbEntity
  8
0
100
AcDbBlockBegin
  2
*D41
 70
     1
 10
0.0
 20
0.0
 30
0.0
  3
*D41
  1

  0
LINE
  5
2CE3
330
2C0F
100
AcDbEntity
  8
AM_5
100
AcDbLine
 10
97.5921112054101
 20
123.2834759414342
 30
0.0
 11
84.59211020541021
 21
123.2834759414342
 31
0.0
  0
LINE
  5
2CE4
330
2C0F
100
AcDbEntity
  8
AM_5
100
AcDbLine
 10
96.11100283676808
 20
128.1334759414343
 30
0.0
 11
84.59211020541021
 21
128.1334759414343
 31
0.0
  0
LINE
  5
2CE5
330
2C0F
100
AcDbEntity
  8
AM_5
100
AcDbLine
 10
85.5921102054102
 20
120.7834759414342
 30
0.0
 11
85.5921102054102
 21
118.2834759414342
 31
0.0
  0
LINE
  5
2CE6
330
2C0F
100
AcDbEntity
  8
AM_5
100
AcDbLine
 10
85.5921102054102
 20
130.6334759414343
 30
0.0
 11
85.5921102054102
 21
133.1334759414342
 31
0.0
  0
LINE
  5
2CE7
330
2C0F
100
AcDbEntity
  8
AM_5
100
AcDbLine
 10
85.5921102054102
 20
123.2834759414342
 30
0.0
 11
85.5921102054102
 21
128.1334759414343
 31
0.0
  0
INSERT
  5
2CE8
330
2C0F
100
AcDbEntity
  8
AM_5
100
AcDbBlockReference
  2
_Open30
 10
85.5921102054102
 20
123.2834759414342
 30
0.0
 41
2.5
 42
2.5
 43
2.5
 50
90.0
  0
INSERT
  5
2CE9
330
2C0F
100
AcDbEntity
  8
AM_5
100
AcDbBlockReference
  2
_Open30
 10
85.5921102054102
 20
128.1334759414343
 30
0.0
 41
2.5
 42
2.5
 43
2.5
 50
270.0
  0
MTEXT
  5
2CEA
330
2C0F
100
AcDbEntity
  8
AM_5
 62
     2
100
AcDbMText
 10
82.34211020541019
 20
125.7084759414343
 30
0.0
 40
3.5
 41
0.0
 71
     5
 72
     1
  1
4.85
 11
0.0000000000000001
 21
1.0
 31
0.0
 73
     1
 44
1.0
1001
ACAD
1000
MTEXTBEGIN
1070
    73
1070
     1
1070
    44
1040
1.0
1070
    74
1070
     0
1000
MTEXTEND
  0
POINT
  5
2CEB
330
2C0F
100
AcDbEntity
  8
Defpoints
 62
     0
100
AcDbPoint
 10
98.59211120541012
 20
123.2834759414342
 30
0.0
  0
POINT
  5
2CEC
330
2C0F
100
AcDbEntity
  8
Defpoints
 62
     0
100
AcDbPoint
 10
97.11100283676808
 20
128.1334759414343
 30
0.0
  0
POINT
  5
2CED
330
2C0F
100
AcDbEntity
  8
Defpoints
 62
     0
100
AcDbPoint
 10
85.5921102054102
 20
128.1334759414343
 30
0.0
  0
ENDBLK
  5
2C7E
330
2C0F
100
AcDbEntity
  8
0
100
AcDbBlockEnd
  0
BLOCK
  5
2C7F
330
2C37
100
AcDbEntity
  8
0
100
AcDbBlockBegin
  2
*D42
 70
     1
 10
0.0
 20
0.0
 30
0.0
  3
*D42
  1

  0
LINE
  5
2CEE
330
2C37
100
AcDbEntity
  8
AM_5
100
AcDbLine
 10
96.11100283676808
 20
128.1334759414343
 30
0.0
 11
84.59211020541014
 21
128.1334759414343
 31
0.0
  0
LINE
  5
2CEF
330
2C37
100
AcDbEntity
  8
AM_5
100
AcDbLine
 10
96.11100283676805
 20
244.9734759414343
 30
0.0
 11
84.59211020541017
 21
244.9734759414343
 31
0.0
  0
LINE
  5
2CF0
330
2C37
100
AcDbEntity
  8
AM_5
100
AcDbLine
 10
85.59211020541013
 20
130.6334759414343
 30
0.0
 11
85.59211020541017
 21
242.4734759414343
 31
0.0
  0
INSERT
  5
2CF1
330
2C37
100
AcDbEntity
  8
AM_5
100
AcDbBlockReference
  2
_Open30
 10
85.59211020541013
 20
128.1334759414343
 30
0.0
 41
2.5
 42
2.5
 43
2.5
 50
270.0
  0
INSERT
  5
2CF2
330
2C37
100
AcDbEntity
  8
AM_5
100
AcDbBlockReference
  2
_Open30
 10
85.59211020541017
 20
244.9734759414343
 30
0.0
 41
2.5
 42
2.5
 43
2.5
 50
90.0
  0
MTEXT
  5
2CF3
330
2C37
100
AcDbEntity
  8
AM_5
 62
     2
100
AcDbMText
 10
82.34211020541012
 20
186.5534759414343
 30
0.0
 40
3.5
 41
0.0
 71
     5
 72
     1
  1
116.84
 11
0.0000000000000001
 21
1.0
 31
0.0
 73
     1
 44
1.0
1001
ACAD
1000
MTEXTBEGIN
1070
    73
1070
     1
1070
    44
1040
1.0
1070
    74
1070
     0
1000
MTEXTEND
  0
POINT
  5
2CF4
330
2C37
100
AcDbEntity
  8
Defpoints
 62
     0
100
AcDbPoint
 10
97.11100283676808
 20
128.1334759414343
 30
0.0
  0
POINT
  5
2CF5
330
2C37
100
AcDbEntity
  8
Defpoints
 62
     0
100
AcDbPoint
 10
97.11100283676806
 20
244.9734759414343
 30
0.0
  0
POINT
  5
2CF6
330
2C37
100
AcDbEntity
  8
Defpoints
 62
     0
100
AcDbPoint
 10
85.59211020541017
 20
244.9734759414343
 30
0.0
  0
ENDBLK
  5
2C80
330
2C37
100
AcDbEntity
  8
0
100
AcDbBlockEnd
  0
BLOCK
  5
2C81
330
2C5B
100
AcDbEntity
  8
0
100
AcDbBlockBegin
  2
*D43
 70
     1
 10
0.0
 20
0.0
 30
0.0
  3
*D43
  1

  0
LINE
  5
2CF7
330
2C5B
100
AcDbEntity
  8
AM_5
100
AcDbLine
 10
96.12211120541065
 20
244.9734759414343
 30
0.0
 11
84.59211020541021
 21
244.9734759414343
 31
0.0
  0
LINE
  5
2CF8
330
2C5B
100
AcDbEntity
  8
AM_5
100
AcDbLine
 10
97.59211120541023
 20
247.2834759414344
 30
0.0
 11
84.59211020541021
 21
247.2834759414344
 31
0.0
  0
LINE
  5
2CF9
330
2C5B
100
AcDbEntity
  8
AM_5
100
AcDbLine
 10
85.5921102054102
 20
242.4734759414343
 30
0.0
 11
85.5921102054102
 21
239.9734759414343
 31
0.0
  0
LINE
  5
2CFA
330
2C5B
100
AcDbEntity
  8
AM_5
100
AcDbLine
 10
85.5921102054102
 20
249.7834759414344
 30
0.0
 11
85.5921102054102
 21
252.2834759414344
 31
0.0
  0
LINE
  5
2CFB
330
2C5B
100
AcDbEntity
  8
AM_5
100
AcDbLine
 10
85.5921102054102
 20
244.9734759414343
 30
0.0
 11
85.5921102054102
 21
247.2834759414344
 31
0.0
  0
INSERT
  5
2CFC
330
2C5B
100
AcDbEntity
  8
AM_5
100
AcDbBlockReference
  2
_Open30
 10
85.5921102054102
 20
244.9734759414343
 30
0.0
 41
2.5
 42
2.5
 43
2.5
 50
90.0
  0
INSERT
  5
2CFD
330
2C5B
100
AcDbEntity
  8
AM_5
100
AcDbBlockReference
  2
_Open30
 10
85.5921102054102
 20
247.2834759414344
 30
0.0
 41
2.5
 42
2.5
 43
2.5
 50
270.0
  0
MTEXT
  5
2CFE
330
2C5B
100
AcDbEntity
  8
AM_5
 62
     2
100
AcDbMText
 10
82.3417657172212
 20
246.1284759414344
 30
0.0
 40
3.5
 41
0.0
 71
     5
 72
     1
  1
2.31
 11
0.0000000000000001
 21
1.0
 31
0.0
 73
     1
 44
1.0
1001
ACAD
1000
MTEXTBEGIN
1070
    73
1070
     1
1070
    44
1040
1.0
1070
    74
1070
     0
1000
MTEXTEND
  0
POINT
  5
2CFF
330
2C5B
100
AcDbEntity
  8
Defpoints
 62
     0
100
AcDbPoint
 10
97.12211120541065
 20
244.9734759414343
 30
0.0
  0
POINT
  5
2D00
330
2C5B
100
AcDbEntity
  8
Defpoints
 62
     0
100
AcDbPoint
 10
98.59211120541022
 20
247.2834759414344
 30
0.0
  0
POINT
  5
2D01
330
2C5B
100
AcDbEntity
  8
Defpoints
 62
     0
100
AcDbPoint
 10
85.5921102054102
 20
247.2834759414344
 30
0.0
  0
ENDBLK
  5
2C82
330
2C5B
100
AcDbEntity
  8
0
100
AcDbBlockEnd
  0
BLOCK
  5
2CB2
330
2CA7
100
AcDbEntity
  8
0
100
AcDbBlockBegin
  2
*D44
 70
     1
 10
0.0
 20
0.0
 30
0.0
  3
*D44
  1

  0
LINE
  5
2D02
330
2CA7
100
AcDbEntity
  8
AM_5
100
AcDbLine
 10
132.8709171980335
 20
121.6269663427344
 30
0.0
 11
143.4100217184664
 21
109.3410444999509
 31
0.0
  0
INSERT
  5
2D03
330
2CA7
100
AcDbEntity
  8
AM_5
100
AcDbBlockReference
  2
_Open30
 10
131.2431986318742
 20
123.5244731989487
 30
0.0
 41
2.5
 42
2.5
 43
2.5
 50
130.6236394277963
  0
MTEXT
  5
2D04
330
2CA7
100
AcDbEntity
  8
AM_5
 62
     2
100
AcDbMText
 10
142.0516420010708
 20
115.9162197480617
 30
0.0
 40
3.5
 41
0.0
 71
     5
 72
     1
  1
4-R1
 11
0.6510874264637174
 21
-0.7590027424857261
 31
0.0
 73
     1
 44
1.0
1001
ACAD
1000
MTEXTBEGIN
1070
    73
1070
     1
1070
    44
1040
1.0
1070
    74
1070
     0
1000
MTEXTEND
  0
POINT
  5
2D05
330
2CA7
100
AcDbEntity
  8
Defpoints
 62
     0
100
AcDbPoint
 10
131.2431986318742
 20
123.5244731989487
 30
0.0
  0
POINT
  5
2D06
330
2CA7
100
AcDbEntity
  8
Defpoints
 62
     0
100
AcDbPoint
 10
130.5921112054105
 20
124.2834759414344
 30
0.0
  0
ENDBLK
  5
2CB3
330
2CA7
100
AcDbEntity
  8
0
100
AcDbBlockEnd
  0
BLOCK
  5
2CC2
330
2CB5
100
AcDbEntity
  8
0
100
AcDbBlockBegin
  2
*D45
 70
     1
 10
0.0
 20
0.0
 30
0.0
  3
*D45
  1

  0
LINE
  5
2D07
330
2CB5
100
AcDbEntity
  8
AM_5
100
AcDbLine
 10
130.747868820848
 20
247.0283393545491
 30
0.0
 11
135.4463609158098
 21
251.4454620192753
 31
0.0
  0
LINE
  5
2D08
330
2CB5
100
AcDbEntity
  8
AM_5
100
AcDbLine
 10
135.4463609158098
 20
251.4454620192753
 30
0.0
 11
140.7963609158099
 21
251.4454620192753
 31
0.0
  0
INSERT
  5
2D09
330
2CB5
100
AcDbEntity
  8
AM_5
100
AcDbBlockReference
  2
_Open30
 10
128.9264041413169
 20
245.3159531769535
 30
0.0
 41
2.5
 42
2.5
 43
2.5
 50
223.2320266595917
  0
MTEXT
  5
2D0A
102
{ACAD_XDICTIONARY
360
2DEA
102
}
330
2CB5
100
AcDbEntity
  8
AM_5
 62
     2
100
AcDbMText
 10
138.8713609158097
 20
254.6954620192755
 30
0.0
 40
3.5
 41
0.0
 71
     5
 72
     1
  1
\U+22051
 73
     1
 44
1.0
1001
ACAD
1000
MTEXTBEGIN
1070
    73
1070
     1
1070
    44
1040
1.0
1070
    74
1070
     0
1000
MTEXTEND
  0
POINT
  5
2D0B
330
2CB5
100
AcDbEntity
  8
Defpoints
 62
     0
100
AcDbPoint
 10
128.9264041413169
 20
245.3159531769535
 30
0.0
  0
POINT
  5
2D0C
330
2CB5
100
AcDbEntity
  8
Defpoints
 62
     0
100
AcDbPoint
 10
128.1978182695043
 20
244.6309987059151
 30
0.0
  0
ENDBLK
  5
2CC3
330
2CB5
100
AcDbEntity
  8
0
100
AcDbBlockEnd
  0
BLOCK
  5
2DA0
330
2D82
100
AcDbEntity
  8
0
100
AcDbBlockBegin
  2
*S46
 70
     1
 10
0.0
 20
0.0
 30
0.0
  3
*S46
  1

  0
MTEXT
  5
2D83
330
2D82
100
AcDbEntity
  8
0
 62
     2
100
AcDbMText
 10
27.80456374381072
 20
69.82500000000005
 30
0.0
 40
3.5
 41
13.80912748762142
 71
     2
 72
     5
  1
1
  7
ACISOTS
 73
     1
 44
1.0
1001
ACAD
1000
MTEXTBEGIN
1070
    73
1070
     1
1070
    44
1040
1.0
1070
    74
1070
     0
1000
MTEXTEND
  0
LINE
  5
2D84
330
2D82
100
AcDbEntity
  8
0
 62
     1
100
AcDbLine
 10
35.60912748762141
 20
71.17500000000005
 30
0.0
 11
35.60912748762141
 21
65.00000000000006
 31
0.0
  0
MTEXT
  5
2D85
330
2D82
100
AcDbEntity
  8
0
 62
     2
100
AcDbMText
 10
36.50912748762142
 20
69.82500000000005
 30
0.0
 40
3.5
 41
35.08685604297112
 71
     1
 72
     5
  1
基板
  7
ACISOTS
 73
     1
 44
1.0
1001
ACAD
1000
MTEXTBEGIN
1070
    73
1070
     1
1070
    44
1040
1.0
1070
    74
1070
     0
1000
MTEXTEND
  0
LINE
  5
2D86
330
2D82
100
AcDbEntity
  8
0
 62
     1
100
AcDbLine
 10
72.49598353059255
 20
71.17500000000005
 30
0.0
 11
72.49598353059255
 21
65.00000000000006
 31
0.0
  0
MTEXT
  5
2D87
330
2D82
100
AcDbEntity
  8
0
 62
     2
100
AcDbMText
 10
73.39598353059253
 20
69.82500000000005
 30
0.0
 40
3.5
 41
18.04190281897469
 71
     1
 72
     5
  1
1
  7
ACISOTS
 73
     1
 44
1.0
1001
ACAD
1000
MTEXTBEGIN
1070
    73
1070
     1
1070
    44
1040
1.0
1070
    74
1070
     0
1000
MTEXTEND
  0
LINE
  5
2D88
330
2D82
100
AcDbEntity
  8
0
 62
     1
100
AcDbLine
 10
92.33788634956722
 20
71.17500000000005
 30
0.0
 11
92.33788634956722
 21
65.00000000000006
 31
0.0
  0
MTEXT
  5
2D89
330
2D82
100
AcDbEntity
  8
0
 62
     2
100
AcDbMText
 10
93.23788634956722
 20
69.82500000000005
 30
0.0
 40
3.5
 41
64.69408586978296
 71
     1
 72
     5
  1
ガラスエポキシ　1.6ｔ (FR-4)
  7
ACISOTS
 73
     1
 44
1.0
1001
ACAD
1000
MTEXTBEGIN
1070
    73
1070
     1
1070
    44
1040
1.0
1070
    74
1070
     0
1000
MTEXTEND
  0
LINE
  5
2D8A
330
2D82
100
AcDbEntity
  8
0
 62
     1
100
AcDbLine
 10
158.8319722193502
 20
71.17500000000005
 30
0.0
 11
158.8319722193502
 21
65.00000000000006
 31
0.0
  0
MTEXT
  5
2D8B
330
2D82
100
AcDbEntity
  8
0
 62
     2
100
AcDbMText
 10
159.7319722193502
 20
69.82500000000005
 30
0.0
 40
3.5
 41
54.19416352558842
 71
     1
 72
     5
  1
ｽﾙｰﾎｰﾙ 鉛ﾌﾘｰﾊﾝﾀﾞ ﾚｼﾞｽﾄ
  7
ACISOTS
 73
     1
 44
1.0
1001
ACAD
1000
MTEXTBEGIN
1070
    73
1070
     1
1070
    44
1040
1.0
1070
    74
1070
     0
1000
MTEXTEND
  0
LINE
  5
2D8C
330
2D82
100
AcDbEntity
  8
0
 62
     1
100
AcDbLine
 10
20.0
 20
71.17500000000005
 30
0.0
 11
214.8261357449386
 21
71.17500000000005
 31
0.0
  0
MTEXT
  5
2D8D
330
2D82
100
AcDbEntity
  8
0
 62
     2
100
AcDbMText
 10
27.80456374381072
 20
76.00000000000004
 30
0.0
 40
3.5
 41
13.80912748762142
 71
     2
 72
     5
  1
照番
  7
ACISOTS
 73
     1
 44
1.0
1001
ACAD
1000
MTEXTBEGIN
1070
    73
1070
     1
1070
    44
1040
1.0
1070
    74
1070
     0
1000
MTEXTEND
  0
LINE
  5
2D8E
330
2D82
100
AcDbEntity
  8
0
 62
     1
100
AcDbLine
 10
35.60912748762141
 20
77.35000000000005
 30
0.0
 11
35.60912748762141
 21
71.17500000000005
 31
0.0
  0
MTEXT
  5
2D8F
330
2D82
100
AcDbEntity
  8
0
 62
     2
100
AcDbMText
 10
54.05255550910698
 20
76.00000000000004
 30
0.0
 40
3.5
 41
35.08685604297112
 71
     2
 72
     5
  1
名称
  7
ACISOTS
 73
     1
 44
1.0
1001
ACAD
1000
MTEXTBEGIN
1070
    73
1070
     1
1070
    44
1040
1.0
1070
    74
1070
     0
1000
MTEXTEND
  0
LINE
  5
2D90
330
2D82
100
AcDbEntity
  8
0
 62
     1
100
AcDbLine
 10
72.49598353059255
 20
77.35000000000005
 30
0.0
 11
72.49598353059255
 21
71.17500000000005
 31
0.0
  0
MTEXT
  5
2D91
330
2D82
100
AcDbEntity
  8
0
 62
     2
100
AcDbMText
 10
82.41693494007988
 20
76.00000000000004
 30
0.0
 40
3.5
 41
18.04190281897469
 71
     2
 72
     5
  1
個数
  7
ACISOTS
 73
     1
 44
1.0
1001
ACAD
1000
MTEXTBEGIN
1070
    73
1070
     1
1070
    44
1040
1.0
1070
    74
1070
     0
1000
MTEXTEND
  0
LINE
  5
2D92
330
2D82
100
AcDbEntity
  8
0
 62
     1
100
AcDbLine
 10
92.33788634956722
 20
77.35000000000005
 30
0.0
 11
92.33788634956722
 21
71.17500000000005
 31
0.0
  0
MTEXT
  5
2D93
330
2D82
100
AcDbEntity
  8
0
 62
     2
100
AcDbMText
 10
125.5849292844587
 20
76.00000000000004
 30
0.0
 40
3.5
 41
64.69408586978296
 71
     2
 72
     5
  1
材質
  7
ACISOTS
 73
     1
 44
1.0
1001
ACAD
1000
MTEXTBEGIN
1070
    73
1070
     1
1070
    44
1040
1.0
1070
    74
1070
     0
1000
MTEXTEND
  0
LINE
  5
2D94
330
2D82
100
AcDbEntity
  8
0
 62
     1
100
AcDbLine
 10
158.8319722193502
 20
77.35000000000005
 30
0.0
 11
158.8319722193502
 21
71.17500000000005
 31
0.0
  0
MTEXT
  5
2D95
330
2D82
100
AcDbEntity
  8
0
 62
     2
100
AcDbMText
 10
186.8290539821444
 20
76.00000000000004
 30
0.0
 40
3.5
 41
54.19416352558842
 71
     2
 72
     5
  1
色・表面処理
  7
ACISOTS
 73
     1
 44
1.0
1001
ACAD
1000
MTEXTBEGIN
1070
    73
1070
     1
1070
    44
1040
1.0
1070
    74
1070
     0
1000
MTEXTEND
  0
MTEXT
  5
2D96
330
2D82
100
AcDbEntity
  8
0
 62
     2
100
AcDbMText
 10
117.4130678724693
 20
80.43750000000004
 30
0.0
 40
3.5
 41
0.0
 71
     5
 72
     5
  1
構成内容
  7
ACISOTS
 73
     1
 44
1.0
1001
ACAD
1000
MTEXTBEGIN
1070
    73
1070
     1
1070
    44
1040
1.0
1070
    74
1070
     0
1000
MTEXTEND
  0
LINE
  5
2D97
330
2D82
100
AcDbEntity
  8
0
 62
     1
100
AcDbLine
 10
20.0
 20
77.35000000000005
 30
0.0
 11
214.8261357449386
 21
77.35000000000005
 31
0.0
  0
LINE
  5
2D98
330
2D82
100
AcDbEntity
  8
0
 62
     7
100
AcDbLine
 10
20.0
 20
83.52500000000004
 30
0.0
 11
214.8261357449386
 21
83.52500000000004
 31
0.0
  0
LINE
  5
2D99
330
2D82
100
AcDbEntity
  8
0
 62
     7
100
AcDbLine
 10
214.8261357449386
 20
83.52500000000004
 30
0.0
 11
214.8261357449386
 21
65.00000000000006
 31
0.0
  0
LINE
  5
2D9A
330
2D82
100
AcDbEntity
  8
0
 62
     7
100
AcDbLine
 10
214.8261357449386
 20
65.00000000000006
 30
0.0
 11
20.0
 21
65.00000000000006
 31
0.0
  0
LINE
  5
2D9B
330
2D82
100
AcDbEntity
  8
0
 62
     7
100
AcDbLine
 10
20.0
 20
65.00000000000006
 30
0.0
 11
20.0
 21
83.52500000000004
 31
0.0
  0
LINE
  5
2D9C
330
2D82
100
AcDbEntity
  8
0
 62
     2
100
AcDbLine
 10
20.0
 20
83.52500000000004
 30
0.0
 11
19.99999999999997
 21
83.52500000000004
 31
0.0
  0
LINE
  5
2D9D
330
2D82
100
AcDbEntity
  8
0
 62
     2
100
AcDbLine
 10
19.99999999999997
 20
83.52500000000004
 30
0.0
 11
19.99999999999997
 21
65.00000000000003
 31
0.0
  0
LINE
  5
2D9E
330
2D82
100
AcDbEntity
  8
0
 62
     2
100
AcDbLine
 10
19.99999999999997
 20
65.00000000000003
 30
0.0
 11
214.8261357449386
 21
65.00000000000003
 31
0.0
  0
LINE
  5
2D9F
330
2D82
100
AcDbEntity
  8
0
 62
     2
100
AcDbLine
 10
214.8261357449386
 20
65.00000000000003
 30
0.0
 11
214.8261357449386
 21
65.00000000000006
 31
0.0
  0
ENDBLK
  5
2DA1
330
2D82
100
AcDbEntity
  8
0
100
AcDbBlockEnd
  0
BLOCK
  5
2DA7
330
2DA3
100
AcDbEntity
  8
0
100
AcDbBlockBegin
  2
*S47
 70
     1
 10
0.0
 20
0.0
 30
0.0
  3
*S47
  1

  0
CIRCLE
  5
2DA4
330
2DA3
100
AcDbEntity
  8
AM_12
 62
     4
100
AcDbCircle
 10
102.7647774868752
 20
242.1299534280769
 30
0.0
 40
1.75
  0
LINE
  5
2DA5
330
2DA3
100
AcDbEntity
  8
AM_12
 62
     4
100
AcDbLine
 10
101.0147774868752
 20
240.3799534280769
 30
0.0
 11
104.5147774868752
 21
243.8799534280769
 31
0.0
  0
LINE
  5
2DA6
330
2DA3
100
AcDbEntity
  8
AM_12
 62
     4
100
AcDbLine
 10
101.0147774868752
 20
243.8799534280769
 30
0.0
 11
104.5147774868752
 21
240.3799534280769
 31
0.0
  0
ENDBLK
  5
2DA8
330
2DA3
100
AcDbEntity
  8
0
100
AcDbBlockEnd
  0
BLOCK
  5
2DAF
330
2DAA
100
AcDbEntity
  8
0
100
AcDbBlockBegin
  2
*S48
 70
     1
 10
0.0
 20
0.0
 30
0.0
  3
*S48
  1

  0
LINE
  5
2DAB
330
2DAA
100
AcDbEntity
  8
AM_5
100
AcDbLine
 10
78.98806869916119
 20
263.2096551432947
 30
0.0
 11
100.145830670602
 21
244.4518314553497
 31
0.0
  0
TRACE
  5
2DAC
330
2DAA
100
AcDbEntity
  8
AM_5
  6
Continuous
100
AcDbTrace
 10
99.84014963058211
 20
244.1070405674771
 30
0.0
 11
100.4515117106219
 21
244.7966223432223
 31
0.0
 12
102.7647774868752
 22
242.1299534280769
 32
0.0
 13
102.7647774868752
 23
242.1299534280769
 33
0.0
  0
MTEXT
  5
2DAD
330
2DAA
100
AcDbEntity
  8
AM_5
 62
     7
100
AcDbMText
 10
71.50536350980917
 20
269.8435923640742
 30
0.0
 40
5.0
 41
0.0
 71
     5
 72
     5
  1
1
  7
ACISOTS
 73
     1
 44
1.0
1001
ACAD
1000
MTEXTBEGIN
1070
    73
1070
     1
1070
    44
1040
1.0
1070
    74
1070
     0
1000
MTEXTEND
  0
CIRCLE
  5
2DAE
330
2DAA
100
AcDbEntity
  8
AM_5
 62
     3
100
AcDbCircle
 10
71.50536350980917
 20
269.8435923640742
 30
0.0
 40
10.0
  0
ENDBLK
  5
2DB0
330
2DAA
100
AcDbEntity
  8
0
100
AcDbBlockEnd
  0
ENDSEC
  0
SECTION
  2
ENTITIES
  0
INSERT
  5
5E3
330
1F
100
AcDbEntity
  8
0
370
     0
100
AcDbBlockReference
  2
TAKACHI-A4
 10
0.0
 20
0.0
 30
0.0
1001
GENIUS_GENOREF_13
1005
64C
1001
GENIUS_GENOBJ-N-SDF_13
1002
{
1000
OWNER
1000
GEN
1002
}
1001
GENIUS_GENODEF_13
1002
{
1000
HIER
1070
     0
1002
}
1002
{
1000
MANEDIT
1070
     0
1002
}
1002
{
1000
NOSEL
1070
     0
1002
}
1002
{
1000
BEHIND
1070
     0
1002
}
1002
{
1000
OTHER
1070
     0
1002
}
1002
{
1000
REACTOR
1002
}
1001
GENIUS_GENSCREG_15
1040
1.0
1040
1.0
1011
19.99999999999997
1021
15.0
1031
0.0
1011
215.0000000000001
1021
290.0000000000001
1031
0.0
1070
     3
  0
INSERT
  5
642
330
1F
100
AcDbEntity
  8
0
370
     0
100
AcDbBlockReference
 66
     1
  2
TAKACHI-TITLE
 10
215.0
 20
15.0
 30
0.0
1001
GENIUS_GENOREF_13
1005
64C
  0
ATTRIB
  5
644
330
642
100
AcDbEntity
  8
0
100
AcDbText
 10
31.75614728543931
 20
23.95085052442808
 30
0.0
 40
2.5
  1

 11
31.75614728543931
 21
23.61751719109475
 31
0.0
100
AcDbAttribute
  2
GEN-TITLE-DES2
 70
     0
 74
     1
  0
ATTRIB
  5
645
330
642
100
AcDbEntity
  8
0
100
AcDbText
 10
31.75614728543931
 20
17.01751719109475
 30
0.0
 40
3.0
  1

 11
31.75614728543931
 21
16.61751719109475
 31
0.0
100
AcDbAttribute
  2
GEN-TITLE-NR
 70
     0
 74
     1
  0
ATTRIB
  5
646
330
642
100
AcDbEntity
  8
0
100
AcDbText
 10
31.75614728543931
 20
29.40728619501835
 30
0.0
 40
4.0
  1
TNF34-124
 11
31.75614728543931
 21
28.87395286168501
 31
0.0
100
AcDbAttribute
  2
GEN-TITLE-DES1
 70
     0
 74
     1
  0
ATTRIB
  5
647
330
642
100
AcDbEntity
  8
0
100
AcDbText
 10
153.5359488020026
 20
54.25500556178349
 30
0.0
 40
3.0
  1
1:1
 72
     2
 11
156.9859488020026
 21
54.25500556178349
 31
0.0
100
AcDbAttribute
  2
GEN-TITLE-SCA
 70
     0
  0
ATTRIB
  5
648
330
642
100
AcDbEntity
  8
0
100
AcDbText
 10
137.9971503335099
 20
46.02180787943475
 30
0.0
 40
3.0
  1

 11
137.9971503335099
 21
45.62180787943475
 31
0.0
100
AcDbAttribute
  2
GEN-TITLE-MAT1
 70
     0
 74
     1
  0
ATTRIB
  5
649
330
642
100
AcDbEntity
  8
0
100
AcDbText
 10
137.9971503335099
 20
36.02180787943475
 30
0.0
 40
3.0
  1

 11
137.9971503335099
 21
35.62180787943475
 31
0.0
100
AcDbAttribute
  2
GEN-TITLE-MAT2
 70
     0
 74
     1
  0
ATTRIB
  5
64A
330
642
100
AcDbEntity
  8
0
100
AcDbText
 10
137.9971503335099
 20
27.01751719109475
 30
0.0
 40
3.0
  1
2006/02/28
 11
137.9971503335099
 21
26.61751719109475
 31
0.0
100
AcDbAttribute
  2
GEN-TITLE-DAT
 70
     0
 74
     1
  0
ATTRIB
  5
64B
330
642
100
AcDbEntity
  8
0
100
AcDbText
 10
177.236826206085
 20
54.25500556178349
 30
0.0
 40
3.0
  1

 72
     2
 11
177.236826206085
 21
54.25500556178349
 31
0.0
100
AcDbAttribute
  2
GEN-TITLE-QTY
 70
     0
  0
SEQEND
  5
643
330
642
100
AcDbEntity
  8
0
370
     0
  0
POINT
  5
64C
330
1F
100
AcDbEntity
  8
0
 60
     1
100
AcDbPoint
 10
0.0
 20
0.0
 30
0.0
1001
GENIUS_GENOENT_13
1002
{
1000
MYREF
1005
64C
1002
}
1002
{
1000
GRP
1005
0
1002
}
1001
GENIUS_GENOBJ-N-TIT_13
1002
{
1000
OWNER
1000
GEN
1002
}
1001
GENIUS_GENOLIS_13
1002
{
1000
ENT
1005
642
1005
5E3
1002
}
1001
GENIUS_GENODEF_13
1002
{
1000
HIER
1070
     1
1002
}
1002
{
1000
MANEDIT
1070
     0
1002
}
1002
{
1000
NOSEL
1070
     0
1002
}
1002
{
1000
BEHIND
1070
     0
1002
}
1002
{
1000
OTHER
1070
     0
1002
}
1002
{
1000
REACTOR
1002
}
1001
GENIUS_GENTITLE_13
1002
{
1000
BORDER
1000
TAKACHI-A4
1002
}
1002
{
1000
TITLE
1000
TAKACHI-TITLE
1002
}
1002
{
1000
SCALE
1000
1:1
1002
}
1002
{
1000
TITLESTD
1000
ISO
1002
}
1002
{
1000
HRA
1005
5E3
1002
}
1002
{
1000
HTIT
1005
642
1002
}
1002
{
1000
INVTXTID
1005
0
1002
}
1002
{
1000
UNCHG
1002
{
1000
GEN-TITLE-SIZ
1000
GEN-TITLE-SCA
1002
}
1002
}
1002
{
1000
GENIUSID
1005
64C
1002
}
  0
INSERT
  5
F60
102
{ACAD_REACTORS
330
F5F
102
}
330
1F
100
AcDbEntity
  8
0
100
AcDbBlockReference
  2
*S46
 10
0.0
 20
0.0
 30
0.0
  0
INSERT
  5
F6A
102
{ACAD_REACTORS
330
F67
102
}
330
1F
100
AcDbEntity
  8
AM_12
100
AcDbBlockReference
  2
*S47
 10
0.0
 20
0.0
 30
0.0
  0
INSERT
  5
F6C
102
{ACAD_REACTORS
330
F6B
102
}
330
1F
100
AcDbEntity
  8
AM_5
100
AcDbBlockReference
  2
*S48
 10
0.0
 20
0.0
 30
0.0
  0
CIRCLE
  5
2893
330
1F
100
AcDbEntity
  8
TK1
100
AcDbCircle
 10
128.5621112054106
 20
244.9734759414343
 30
0.0
 40
0.5
  0
LINE
  5
2894
330
1F
100
AcDbEntity
  8
AM_7
  6
AM_ISO08W050x2
100
AcDbLine
 10
128.5621112054107
 20
244.9734759414343
 30
0.0
 11
132.0621112054107
 21
244.9734759414343
 31
0.0
1001
GENIUS_GENOREF_13
1005
2B01
  0
LINE
  5
2895
330
1F
100
AcDbEntity
  8
AM_7
  6
AM_ISO08W050x2
100
AcDbLine
 10
128.5621112054107
 20
244.9734759414343
 30
0.0
 11
128.5621112054107
 21
241.4734759414343
 31
0.0
1001
GENIUS_GENOREF_13
1005
2B01
  0
LINE
  5
2896
330
1F
100
AcDbEntity
  8
AM_7
  6
AM_ISO08W050x2
100
AcDbLine
 10
128.5621112054107
 20
244.9734759414343
 30
0.0
 11
125.0621112054107
 21
244.9734759414343
 31
0.0
1001
GENIUS_GENOREF_13
1005
2B01
  0
LINE
  5
2897
102
{ACAD_REACTORS
330
2BAE
102
}
330
1F
100
AcDbEntity
  8
AM_7
  6
AM_ISO08W050x2
100
AcDbLine
 10
128.5621112054107
 20
244.9734759414343
 30
0.0
 11
128.5621112054107
 21
248.4734759414343
 31
0.0
1001
GENIUS_GENOREF_13
1005
2B01
  0
CIRCLE
  5
2898
330
1F
100
AcDbEntity
  8
TK1
100
AcDbCircle
 10
128.5621112054106
 20
128.1334759414343
 30
0.0
 40
0.5
  0
LINE
  5
2899
330
1F
100
AcDbEntity
  8
AM_7
  6
AM_ISO08W050x2
100
AcDbLine
 10
128.5621112054107
 20
128.1334759414343
 30
0.0
 11
132.0621112054107
 21
128.1334759414343
 31
0.0
1001
GENIUS_GENOREF_13
1005
2B00
  0
LINE
  5
289A
330
1F
100
AcDbEntity
  8
AM_7
  6
AM_ISO08W050x2
100
AcDbLine
 10
128.5621112054107
 20
128.1334759414343
 30
0.0
 11
128.5621112054107
 21
124.6334759414343
 31
0.0
1001
GENIUS_GENOREF_13
1005
2B00
  0
LINE
  5
289B
330
1F
100
AcDbEntity
  8
AM_7
  6
AM_ISO08W050x2
100
AcDbLine
 10
128.5621112054107
 20
128.1334759414343
 30
0.0
 11
125.0621112054107
 21
128.1334759414343
 31
0.0
1001
GENIUS_GENOREF_13
1005
2B00
  0
LINE
  5
289C
330
1F
100
AcDbEntity
  8
AM_7
  6
AM_ISO08W050x2
100
AcDbLine
 10
128.5621112054107
 20
128.1334759414343
 30
0.0
 11
128.5621112054107
 21
131.6334759414343
 31
0.0
1001
GENIUS_GENOREF_13
1005
2B00
  0
CIRCLE
  5
289D
330
1F
100
AcDbEntity
  8
TK1
100
AcDbCircle
 10
100.611002836768
 20
128.1334759414343
 30
0.0
 40
0.5
  0
LINE
  5
289E
330
1F
100
AcDbEntity
  8
AM_7
  6
AM_ISO08W050x2
100
AcDbLine
 10
100.611002836768
 20
128.1334759414343
 30
0.0
 11
104.1110028367681
 21
128.1334759414343
 31
0.0
1001
GENIUS_GENOREF_13
1005
2AFF
  0
LINE
  5
289F
330
1F
100
AcDbEntity
  8
AM_7
  6
AM_ISO08W050x2
100
AcDbLine
 10
100.611002836768
 20
128.1334759414343
 30
0.0
 11
100.611002836768
 21
124.6334759414343
 31
0.0
1001
GENIUS_GENOREF_13
1005
2AFF
  0
LINE
  5
28A0
102
{ACAD_REACTORS
330
2C1C
330
2C42
102
}
330
1F
100
AcDbEntity
  8
AM_7
  6
AM_ISO08W050x2
100
AcDbLine
 10
100.611002836768
 20
128.1334759414343
 30
0.0
 11
97.11100283676808
 21
128.1334759414343
 31
0.0
1001
GENIUS_GENOREF_13
1005
2AFF
  0
LINE
  5
28A1
330
1F
100
AcDbEntity
  8
AM_7
  6
AM_ISO08W050x2
100
AcDbLine
 10
100.611002836768
 20
128.1334759414343
 30
0.0
 11
100.611002836768
 21
131.6334759414343
 31
0.0
1001
GENIUS_GENOREF_13
1005
2AFF
  0
CIRCLE
  5
28A2
330
1F
100
AcDbEntity
  8
TK1
100
AcDbCircle
 10
113.3221112054106
 20
237.3534759414343
 30
0.0
 40
0.5
  0
CIRCLE
  5
28A3
330
1F
100
AcDbEntity
  8
TK1
100
AcDbCircle
 10
110.7821112054106
 20
237.3534759414343
 30
0.0
 40
0.5
  0
CIRCLE
  5
28A4
330
1F
100
AcDbEntity
  8
TK1
100
AcDbCircle
 10
108.2421112054105
 20
237.3534759414343
 30
0.0
 40
0.5
  0
CIRCLE
  5
28A5
330
1F
100
AcDbEntity
  8
TK1
100
AcDbCircle
 10
105.7021112054105
 20
237.3534759414343
 30
0.0
 40
0.5
  0
CIRCLE
  5
28A6
330
1F
100
AcDbEntity
  8
TK1
100
AcDbCircle
 10
103.1621112054106
 20
237.3534759414343
 30
0.0
 40
0.5
  0
CIRCLE
  5
28A7
330
1F
100
AcDbEntity
  8
TK1
100
AcDbCircle
 10
100.6221112054106
 20
237.3534759414343
 30
0.0
 40
0.5
  0
CIRCLE
  5
28A8
330
1F
100
AcDbEntity
  8
TK1
100
AcDbCircle
 10
113.3221112054106
 20
239.8934759414343
 30
0.0
 40
0.5
  0
CIRCLE
  5
28A9
330
1F
100
AcDbEntity
  8
TK1
100
AcDbCircle
 10
110.7821112054106
 20
239.8934759414343
 30
0.0
 40
0.5
  0
CIRCLE
  5
28AA
330
1F
100
AcDbEntity
  8
TK1
100
AcDbCircle
 10
108.2421112054105
 20
239.8934759414343
 30
0.0
 40
0.5
  0
CIRCLE
  5
28AB
330
1F
100
AcDbEntity
  8
TK1
100
AcDbCircle
 10
105.7021112054105
 20
239.8934759414343
 30
0.0
 40
0.5
  0
CIRCLE
  5
28AC
330
1F
100
AcDbEntity
  8
TK1
100
AcDbCircle
 10
103.1621112054106
 20
239.8934759414343
 30
0.0
 40
0.5
  0
CIRCLE
  5
28AD
330
1F
100
AcDbEntity
  8
TK1
100
AcDbCircle
 10
100.6221112054106
 20
239.8934759414343
 30
0.0
 40
0.5
  0
CIRCLE
  5
28AE
330
1F
100
AcDbEntity
  8
TK1
100
AcDbCircle
 10
113.3221112054106
 20
242.4334759414343
 30
0.0
 40
0.5
  0
CIRCLE
  5
28AF
330
1F
100
AcDbEntity
  8
TK1
100
AcDbCircle
 10
110.7821112054106
 20
242.4334759414343
 30
0.0
 40
0.5
  0
CIRCLE
  5
28B0
330
1F
100
AcDbEntity
  8
TK1
100
AcDbCircle
 10
108.2421112054105
 20
242.4334759414343
 30
0.0
 40
0.5
  0
CIRCLE
  5
28B1
330
1F
100
AcDbEntity
  8
TK1
100
AcDbCircle
 10
105.7021112054105
 20
242.4334759414343
 30
0.0
 40
0.5
  0
CIRCLE
  5
28B2
330
1F
100
AcDbEntity
  8
TK1
100
AcDbCircle
 10
103.1621112054106
 20
242.4334759414343
 30
0.0
 40
0.5
  0
CIRCLE
  5
28B3
330
1F
100
AcDbEntity
  8
TK1
100
AcDbCircle
 10
100.6221112054106
 20
242.4334759414343
 30
0.0
 40
0.5
  0
CIRCLE
  5
28B4
330
1F
100
AcDbEntity
  8
TK1
100
AcDbCircle
 10
113.3221112054106
 20
244.9734759414343
 30
0.0
 40
0.5
  0
CIRCLE
  5
28B5
330
1F
100
AcDbEntity
  8
TK1
100
AcDbCircle
 10
110.7821112054106
 20
244.9734759414343
 30
0.0
 40
0.5
  0
CIRCLE
  5
28B6
330
1F
100
AcDbEntity
  8
TK1
100
AcDbCircle
 10
108.2421112054105
 20
244.9734759414343
 30
0.0
 40
0.5
  0
CIRCLE
  5
28B7
330
1F
100
AcDbEntity
  8
TK1
100
AcDbCircle
 10
105.7021112054105
 20
244.9734759414343
 30
0.0
 40
0.5
  0
CIRCLE
  5
28B8
330
1F
100
AcDbEntity
  8
TK1
100
AcDbCircle
 10
103.1621112054106
 20
244.9734759414343
 30
0.0
 40
0.5
  0
CIRCLE
  5
28B9
330
1F
100
AcDbEntity
  8
TK1
100
AcDbCircle
 10
126.0221112054106
 20
244.9734759414343
 30
0.0
 40
0.5
  0
CIRCLE
  5
28BA
330
1F
100
AcDbEntity
  8
TK1
100
AcDbCircle
 10
123.4821112054106
 20
244.9734759414343
 30
0.0
 40
0.5
  0
CIRCLE
  5
28BB
330
1F
100
AcDbEntity
  8
TK1
100
AcDbCircle
 10
120.9421112054107
 20
244.9734759414343
 30
0.0
 40
0.5
  0
CIRCLE
  5
28BC
330
1F
100
AcDbEntity
  8
TK1
100
AcDbCircle
 10
118.4021112054106
 20
244.9734759414343
 30
0.0
 40
0.5
  0
CIRCLE
  5
28BD
330
1F
100
AcDbEntity
  8
TK1
100
AcDbCircle
 10
115.8621112054106
 20
244.9734759414343
 30
0.0
 40
0.5
  0
CIRCLE
  5
28BE
330
1F
100
AcDbEntity
  8
TK1
100
AcDbCircle
 10
128.5621112054106
 20
242.4334759414343
 30
0.0
 40
0.5
  0
CIRCLE
  5
28BF
330
1F
100
AcDbEntity
  8
TK1
100
AcDbCircle
 10
126.0221112054106
 20
242.4334759414343
 30
0.0
 40
0.5
  0
CIRCLE
  5
28C0
330
1F
100
AcDbEntity
  8
TK1
100
AcDbCircle
 10
123.4821112054106
 20
242.4334759414343
 30
0.0
 40
0.5
  0
CIRCLE
  5
28C1
330
1F
100
AcDbEntity
  8
TK1
100
AcDbCircle
 10
120.9421112054107
 20
242.4334759414343
 30
0.0
 40
0.5
  0
CIRCLE
  5
28C2
330
1F
100
AcDbEntity
  8
TK1
100
AcDbCircle
 10
118.4021112054106
 20
242.4334759414343
 30
0.0
 40
0.5
  0
CIRCLE
  5
28C3
330
1F
100
AcDbEntity
  8
TK1
100
AcDbCircle
 10
115.8621112054106
 20
242.4334759414343
 30
0.0
 40
0.5
  0
CIRCLE
  5
28C4
330
1F
100
AcDbEntity
  8
TK1
100
AcDbCircle
 10
128.5621112054106
 20
239.8934759414343
 30
0.0
 40
0.5
  0
CIRCLE
  5
28C5
330
1F
100
AcDbEntity
  8
TK1
100
AcDbCircle
 10
126.0221112054106
 20
239.8934759414343
 30
0.0
 40
0.5
  0
CIRCLE
  5
28C6
330
1F
100
AcDbEntity
  8
TK1
100
AcDbCircle
 10
123.4821112054106
 20
239.8934759414343
 30
0.0
 40
0.5
  0
CIRCLE
  5
28C7
330
1F
100
AcDbEntity
  8
TK1
100
AcDbCircle
 10
120.9421112054107
 20
239.8934759414343
 30
0.0
 40
0.5
  0
CIRCLE
  5
28C8
330
1F
100
AcDbEntity
  8
TK1
100
AcDbCircle
 10
118.4021112054106
 20
239.8934759414343
 30
0.0
 40
0.5
  0
CIRCLE
  5
28C9
330
1F
100
AcDbEntity
  8
TK1
100
AcDbCircle
 10
115.8621112054106
 20
239.8934759414343
 30
0.0
 40
0.5
  0
CIRCLE
  5
28CA
330
1F
100
AcDbEntity
  8
TK1
100
AcDbCircle
 10
128.5621112054106
 20
237.3534759414343
 30
0.0
 40
0.5
  0
CIRCLE
  5
28CB
330
1F
100
AcDbEntity
  8
TK1
100
AcDbCircle
 10
126.0221112054106
 20
237.3534759414343
 30
0.0
 40
0.5
  0
CIRCLE
  5
28CC
330
1F
100
AcDbEntity
  8
TK1
100
AcDbCircle
 10
123.4821112054106
 20
237.3534759414343
 30
0.0
 40
0.5
  0
CIRCLE
  5
28CD
330
1F
100
AcDbEntity
  8
TK1
100
AcDbCircle
 10
120.9421112054107
 20
237.3534759414343
 30
0.0
 40
0.5
  0
CIRCLE
  5
28CE
330
1F
100
AcDbEntity
  8
TK1
100
AcDbCircle
 10
118.4021112054106
 20
237.3534759414343
 30
0.0
 40
0.5
  0
CIRCLE
  5
28CF
330
1F
100
AcDbEntity
  8
TK1
100
AcDbCircle
 10
115.8621112054106
 20
237.3534759414343
 30
0.0
 40
0.5
  0
CIRCLE
  5
28D0
330
1F
100
AcDbEntity
  8
TK1
100
AcDbCircle
 10
103.1621112054106
 20
128.1334759414344
 30
0.0
 40
0.5
  0
CIRCLE
  5
28D1
330
1F
100
AcDbEntity
  8
TK1
100
AcDbCircle
 10
105.7021112054105
 20
128.1334759414344
 30
0.0
 40
0.5
  0
CIRCLE
  5
28D2
330
1F
100
AcDbEntity
  8
TK1
100
AcDbCircle
 10
108.2421112054105
 20
128.1334759414344
 30
0.0
 40
0.5
  0
CIRCLE
  5
28D3
330
1F
100
AcDbEntity
  8
TK1
100
AcDbCircle
 10
110.7821112054106
 20
128.1334759414344
 30
0.0
 40
0.5
  0
CIRCLE
  5
28D4
330
1F
100
AcDbEntity
  8
TK1
100
AcDbCircle
 10
100.6221112054106
 20
130.6734759414344
 30
0.0
 40
0.5
  0
CIRCLE
  5
28D5
330
1F
100
AcDbEntity
  8
TK1
100
AcDbCircle
 10
103.1621112054106
 20
130.6734759414344
 30
0.0
 40
0.5
  0
CIRCLE
  5
28D6
330
1F
100
AcDbEntity
  8
TK1
100
AcDbCircle
 10
105.7021112054105
 20
130.6734759414344
 30
0.0
 40
0.5
  0
CIRCLE
  5
28D7
330
1F
100
AcDbEntity
  8
TK1
100
AcDbCircle
 10
108.2421112054105
 20
130.6734759414344
 30
0.0
 40
0.5
  0
CIRCLE
  5
28D8
330
1F
100
AcDbEntity
  8
TK1
100
AcDbCircle
 10
110.7821112054106
 20
130.6734759414344
 30
0.0
 40
0.5
  0
CIRCLE
  5
28D9
330
1F
100
AcDbEntity
  8
TK1
100
AcDbCircle
 10
100.6221112054106
 20
133.2134759414343
 30
0.0
 40
0.5
  0
CIRCLE
  5
28DA
330
1F
100
AcDbEntity
  8
TK1
100
AcDbCircle
 10
103.1621112054106
 20
133.2134759414343
 30
0.0
 40
0.5
  0
CIRCLE
  5
28DB
330
1F
100
AcDbEntity
  8
TK1
100
AcDbCircle
 10
105.7021112054105
 20
133.2134759414343
 30
0.0
 40
0.5
  0
CIRCLE
  5
28DC
330
1F
100
AcDbEntity
  8
TK1
100
AcDbCircle
 10
108.2421112054105
 20
133.2134759414343
 30
0.0
 40
0.5
  0
CIRCLE
  5
28DD
330
1F
100
AcDbEntity
  8
TK1
100
AcDbCircle
 10
110.7821112054106
 20
133.2134759414343
 30
0.0
 40
0.5
  0
CIRCLE
  5
28DE
330
1F
100
AcDbEntity
  8
TK1
100
AcDbCircle
 10
113.3221112054106
 20
128.1334759414344
 30
0.0
 40
0.5
  0
CIRCLE
  5
28DF
330
1F
100
AcDbEntity
  8
TK1
100
AcDbCircle
 10
113.3221112054106
 20
130.6734759414344
 30
0.0
 40
0.5
  0
CIRCLE
  5
28E0
330
1F
100
AcDbEntity
  8
TK1
100
AcDbCircle
 10
113.3221112054106
 20
133.2134759414343
 30
0.0
 40
0.5
  0
CIRCLE
  5
28E1
330
1F
100
AcDbEntity
  8
TK1
100
AcDbCircle
 10
115.8621112054106
 20
133.2134759414343
 30
0.0
 40
0.5
  0
CIRCLE
  5
28E2
330
1F
100
AcDbEntity
  8
TK1
100
AcDbCircle
 10
115.8621112054106
 20
130.6734759414344
 30
0.0
 40
0.5
  0
CIRCLE
  5
28E3
330
1F
100
AcDbEntity
  8
TK1
100
AcDbCircle
 10
115.8621112054106
 20
128.1334759414344
 30
0.0
 40
0.5
  0
CIRCLE
  5
28E4
330
1F
100
AcDbEntity
  8
TK1
100
AcDbCircle
 10
118.4021112054106
 20
133.2134759414343
 30
0.0
 40
0.5
  0
CIRCLE
  5
28E5
330
1F
100
AcDbEntity
  8
TK1
100
AcDbCircle
 10
120.9421112054107
 20
133.2134759414343
 30
0.0
 40
0.5
  0
CIRCLE
  5
28E6
330
1F
100
AcDbEntity
  8
TK1
100
AcDbCircle
 10
123.4821112054106
 20
133.2134759414343
 30
0.0
 40
0.5
  0
CIRCLE
  5
28E7
330
1F
100
AcDbEntity
  8
TK1
100
AcDbCircle
 10
126.0221112054106
 20
133.2134759414343
 30
0.0
 40
0.5
  0
CIRCLE
  5
28E8
330
1F
100
AcDbEntity
  8
TK1
100
AcDbCircle
 10
128.5621112054106
 20
133.2134759414343
 30
0.0
 40
0.5
  0
CIRCLE
  5
28E9
330
1F
100
AcDbEntity
  8
TK1
100
AcDbCircle
 10
118.4021112054106
 20
130.6734759414344
 30
0.0
 40
0.5
  0
CIRCLE
  5
28EA
330
1F
100
AcDbEntity
  8
TK1
100
AcDbCircle
 10
120.9421112054107
 20
130.6734759414344
 30
0.0
 40
0.5
  0
CIRCLE
  5
28EB
330
1F
100
AcDbEntity
  8
TK1
100
AcDbCircle
 10
123.4821112054106
 20
130.6734759414344
 30
0.0
 40
0.5
  0
CIRCLE
  5
28EC
330
1F
100
AcDbEntity
  8
TK1
100
AcDbCircle
 10
126.0221112054106
 20
130.6734759414344
 30
0.0
 40
0.5
  0
CIRCLE
  5
28ED
330
1F
100
AcDbEntity
  8
TK1
100
AcDbCircle
 10
128.5621112054106
 20
130.6734759414344
 30
0.0
 40
0.5
  0
CIRCLE
  5
28EE
330
1F
100
AcDbEntity
  8
TK1
100
AcDbCircle
 10
118.4021112054106
 20
128.1334759414344
 30
0.0
 40
0.5
  0
CIRCLE
  5
28EF
330
1F
100
AcDbEntity
  8
TK1
100
AcDbCircle
 10
120.9421112054107
 20
128.1334759414344
 30
0.0
 40
0.5
  0
CIRCLE
  5
28F0
330
1F
100
AcDbEntity
  8
TK1
100
AcDbCircle
 10
123.4821112054106
 20
128.1334759414344
 30
0.0
 40
0.5
  0
CIRCLE
  5
28F1
330
1F
100
AcDbEntity
  8
TK1
100
AcDbCircle
 10
126.0221112054106
 20
128.1334759414344
 30
0.0
 40
0.5
  0
CIRCLE
  5
28F2
330
1F
100
AcDbEntity
  8
TK1
100
AcDbCircle
 10
115.8621112054106
 20
186.5534759414343
 30
0.0
 40
0.5
  0
CIRCLE
  5
28F3
330
1F
100
AcDbEntity
  8
TK1
100
AcDbCircle
 10
115.8621112054106
 20
184.0134759414343
 30
0.0
 40
0.5
  0
CIRCLE
  5
28F4
330
1F
100
AcDbEntity
  8
TK1
100
AcDbCircle
 10
118.4021112054106
 20
186.5534759414343
 30
0.0
 40
0.5
  0
CIRCLE
  5
28F5
330
1F
100
AcDbEntity
  8
TK1
100
AcDbCircle
 10
120.9421112054107
 20
186.5534759414343
 30
0.0
 40
0.5
  0
CIRCLE
  5
28F6
330
1F
100
AcDbEntity
  8
TK1
100
AcDbCircle
 10
123.4821112054106
 20
186.5534759414343
 30
0.0
 40
0.5
  0
CIRCLE
  5
28F7
330
1F
100
AcDbEntity
  8
TK1
100
AcDbCircle
 10
126.0221112054106
 20
186.5534759414343
 30
0.0
 40
0.5
  0
CIRCLE
  5
28F8
330
1F
100
AcDbEntity
  8
TK1
100
AcDbCircle
 10
128.5621112054106
 20
186.5534759414343
 30
0.0
 40
0.5
  0
CIRCLE
  5
28F9
330
1F
100
AcDbEntity
  8
TK1
100
AcDbCircle
 10
115.8621112054106
 20
189.0934759414343
 30
0.0
 40
0.5
  0
CIRCLE
  5
28FA
330
1F
100
AcDbEntity
  8
TK1
100
AcDbCircle
 10
118.4021112054106
 20
189.0934759414343
 30
0.0
 40
0.5
  0
CIRCLE
  5
28FB
330
1F
100
AcDbEntity
  8
TK1
100
AcDbCircle
 10
120.9421112054107
 20
189.0934759414343
 30
0.0
 40
0.5
  0
CIRCLE
  5
28FC
330
1F
100
AcDbEntity
  8
TK1
100
AcDbCircle
 10
123.4821112054106
 20
189.0934759414343
 30
0.0
 40
0.5
  0
CIRCLE
  5
28FD
330
1F
100
AcDbEntity
  8
TK1
100
AcDbCircle
 10
126.0221112054106
 20
189.0934759414343
 30
0.0
 40
0.5
  0
CIRCLE
  5
28FE
330
1F
100
AcDbEntity
  8
TK1
100
AcDbCircle
 10
128.5621112054106
 20
189.0934759414343
 30
0.0
 40
0.5
  0
CIRCLE
  5
28FF
330
1F
100
AcDbEntity
  8
TK1
100
AcDbCircle
 10
115.8621112054106
 20
191.6334759414343
 30
0.0
 40
0.5
  0
CIRCLE
  5
2900
330
1F
100
AcDbEntity
  8
TK1
100
AcDbCircle
 10
118.4021112054106
 20
191.6334759414343
 30
0.0
 40
0.5
  0
CIRCLE
  5
2901
330
1F
100
AcDbEntity
  8
TK1
100
AcDbCircle
 10
120.9421112054107
 20
191.6334759414343
 30
0.0
 40
0.5
  0
CIRCLE
  5
2902
330
1F
100
AcDbEntity
  8
TK1
100
AcDbCircle
 10
123.4821112054106
 20
191.6334759414343
 30
0.0
 40
0.5
  0
CIRCLE
  5
2903
330
1F
100
AcDbEntity
  8
TK1
100
AcDbCircle
 10
126.0221112054106
 20
191.6334759414343
 30
0.0
 40
0.5
  0
CIRCLE
  5
2904
330
1F
100
AcDbEntity
  8
TK1
100
AcDbCircle
 10
128.5621112054106
 20
191.6334759414343
 30
0.0
 40
0.5
  0
CIRCLE
  5
2905
330
1F
100
AcDbEntity
  8
TK1
100
AcDbCircle
 10
115.8621112054106
 20
194.1734759414344
 30
0.0
 40
0.5
  0
CIRCLE
  5
2906
330
1F
100
AcDbEntity
  8
TK1
100
AcDbCircle
 10
118.4021112054106
 20
194.1734759414344
 30
0.0
 40
0.5
  0
CIRCLE
  5
2907
330
1F
100
AcDbEntity
  8
TK1
100
AcDbCircle
 10
120.9421112054107
 20
194.1734759414344
 30
0.0
 40
0.5
  0
CIRCLE
  5
2908
330
1F
100
AcDbEntity
  8
TK1
100
AcDbCircle
 10
123.4821112054106
 20
194.1734759414344
 30
0.0
 40
0.5
  0
CIRCLE
  5
2909
330
1F
100
AcDbEntity
  8
TK1
100
AcDbCircle
 10
126.0221112054106
 20
194.1734759414344
 30
0.0
 40
0.5
  0
CIRCLE
  5
290A
330
1F
100
AcDbEntity
  8
TK1
100
AcDbCircle
 10
128.5621112054106
 20
194.1734759414344
 30
0.0
 40
0.5
  0
CIRCLE
  5
290B
330
1F
100
AcDbEntity
  8
TK1
100
AcDbCircle
 10
115.8621112054106
 20
196.7134759414343
 30
0.0
 40
0.5
  0
CIRCLE
  5
290C
330
1F
100
AcDbEntity
  8
TK1
100
AcDbCircle
 10
118.4021112054106
 20
196.7134759414343
 30
0.0
 40
0.5
  0
CIRCLE
  5
290D
330
1F
100
AcDbEntity
  8
TK1
100
AcDbCircle
 10
120.9421112054107
 20
196.7134759414343
 30
0.0
 40
0.5
  0
CIRCLE
  5
290E
330
1F
100
AcDbEntity
  8
TK1
100
AcDbCircle
 10
123.4821112054106
 20
196.7134759414343
 30
0.0
 40
0.5
  0
CIRCLE
  5
290F
330
1F
100
AcDbEntity
  8
TK1
100
AcDbCircle
 10
126.0221112054106
 20
196.7134759414343
 30
0.0
 40
0.5
  0
CIRCLE
  5
2910
330
1F
100
AcDbEntity
  8
TK1
100
AcDbCircle
 10
128.5621112054106
 20
196.7134759414343
 30
0.0
 40
0.5
  0
CIRCLE
  5
2911
330
1F
100
AcDbEntity
  8
TK1
100
AcDbCircle
 10
115.8621112054106
 20
199.2534759414343
 30
0.0
 40
0.5
  0
CIRCLE
  5
2912
330
1F
100
AcDbEntity
  8
TK1
100
AcDbCircle
 10
118.4021112054106
 20
199.2534759414343
 30
0.0
 40
0.5
  0
CIRCLE
  5
2913
330
1F
100
AcDbEntity
  8
TK1
100
AcDbCircle
 10
120.9421112054107
 20
199.2534759414343
 30
0.0
 40
0.5
  0
CIRCLE
  5
2914
330
1F
100
AcDbEntity
  8
TK1
100
AcDbCircle
 10
123.4821112054106
 20
199.2534759414343
 30
0.0
 40
0.5
  0
CIRCLE
  5
2915
330
1F
100
AcDbEntity
  8
TK1
100
AcDbCircle
 10
126.0221112054106
 20
199.2534759414343
 30
0.0
 40
0.5
  0
CIRCLE
  5
2916
330
1F
100
AcDbEntity
  8
TK1
100
AcDbCircle
 10
128.5621112054106
 20
199.2534759414343
 30
0.0
 40
0.5
  0
CIRCLE
  5
2917
330
1F
100
AcDbEntity
  8
TK1
100
AcDbCircle
 10
115.8621112054106
 20
201.7934759414343
 30
0.0
 40
0.5
  0
CIRCLE
  5
2918
330
1F
100
AcDbEntity
  8
TK1
100
AcDbCircle
 10
118.4021112054106
 20
201.7934759414343
 30
0.0
 40
0.5
  0
CIRCLE
  5
2919
330
1F
100
AcDbEntity
  8
TK1
100
AcDbCircle
 10
120.9421112054107
 20
201.7934759414343
 30
0.0
 40
0.5
  0
CIRCLE
  5
291A
330
1F
100
AcDbEntity
  8
TK1
100
AcDbCircle
 10
123.4821112054106
 20
201.7934759414343
 30
0.0
 40
0.5
  0
CIRCLE
  5
291B
330
1F
100
AcDbEntity
  8
TK1
100
AcDbCircle
 10
126.0221112054106
 20
201.7934759414343
 30
0.0
 40
0.5
  0
CIRCLE
  5
291C
330
1F
100
AcDbEntity
  8
TK1
100
AcDbCircle
 10
128.5621112054106
 20
201.7934759414343
 30
0.0
 40
0.5
  0
CIRCLE
  5
291D
330
1F
100
AcDbEntity
  8
TK1
100
AcDbCircle
 10
115.8621112054106
 20
204.3334759414342
 30
0.0
 40
0.5
  0
CIRCLE
  5
291E
330
1F
100
AcDbEntity
  8
TK1
100
AcDbCircle
 10
118.4021112054106
 20
204.3334759414342
 30
0.0
 40
0.5
  0
CIRCLE
  5
291F
330
1F
100
AcDbEntity
  8
TK1
100
AcDbCircle
 10
120.9421112054107
 20
204.3334759414342
 30
0.0
 40
0.5
  0
CIRCLE
  5
2920
330
1F
100
AcDbEntity
  8
TK1
100
AcDbCircle
 10
123.4821112054106
 20
204.3334759414342
 30
0.0
 40
0.5
  0
CIRCLE
  5
2921
330
1F
100
AcDbEntity
  8
TK1
100
AcDbCircle
 10
126.0221112054106
 20
204.3334759414342
 30
0.0
 40
0.5
  0
CIRCLE
  5
2922
330
1F
100
AcDbEntity
  8
TK1
100
AcDbCircle
 10
128.5621112054106
 20
204.3334759414342
 30
0.0
 40
0.5
  0
CIRCLE
  5
2923
330
1F
100
AcDbEntity
  8
TK1
100
AcDbCircle
 10
115.8621112054106
 20
206.8734759414343
 30
0.0
 40
0.5
  0
CIRCLE
  5
2924
330
1F
100
AcDbEntity
  8
TK1
100
AcDbCircle
 10
118.4021112054106
 20
206.8734759414343
 30
0.0
 40
0.5
  0
CIRCLE
  5
2925
330
1F
100
AcDbEntity
  8
TK1
100
AcDbCircle
 10
120.9421112054107
 20
206.8734759414343
 30
0.0
 40
0.5
  0
CIRCLE
  5
2926
330
1F
100
AcDbEntity
  8
TK1
100
AcDbCircle
 10
123.4821112054106
 20
206.8734759414343
 30
0.0
 40
0.5
  0
CIRCLE
  5
2927
330
1F
100
AcDbEntity
  8
TK1
100
AcDbCircle
 10
126.0221112054106
 20
206.8734759414343
 30
0.0
 40
0.5
  0
CIRCLE
  5
2928
330
1F
100
AcDbEntity
  8
TK1
100
AcDbCircle
 10
128.5621112054106
 20
206.8734759414343
 30
0.0
 40
0.5
  0
CIRCLE
  5
2929
330
1F
100
AcDbEntity
  8
TK1
100
AcDbCircle
 10
115.8621112054106
 20
209.4134759414344
 30
0.0
 40
0.5
  0
CIRCLE
  5
292A
330
1F
100
AcDbEntity
  8
TK1
100
AcDbCircle
 10
118.4021112054106
 20
209.4134759414344
 30
0.0
 40
0.5
  0
CIRCLE
  5
292B
330
1F
100
AcDbEntity
  8
TK1
100
AcDbCircle
 10
120.9421112054107
 20
209.4134759414344
 30
0.0
 40
0.5
  0
CIRCLE
  5
292C
330
1F
100
AcDbEntity
  8
TK1
100
AcDbCircle
 10
123.4821112054106
 20
209.4134759414344
 30
0.0
 40
0.5
  0
CIRCLE
  5
292D
330
1F
100
AcDbEntity
  8
TK1
100
AcDbCircle
 10
126.0221112054106
 20
209.4134759414344
 30
0.0
 40
0.5
  0
CIRCLE
  5
292E
330
1F
100
AcDbEntity
  8
TK1
100
AcDbCircle
 10
128.5621112054106
 20
209.4134759414344
 30
0.0
 40
0.5
  0
CIRCLE
  5
292F
330
1F
100
AcDbEntity
  8
TK1
100
AcDbCircle
 10
115.8621112054106
 20
211.9534759414344
 30
0.0
 40
0.5
  0
CIRCLE
  5
2930
330
1F
100
AcDbEntity
  8
TK1
100
AcDbCircle
 10
118.4021112054106
 20
211.9534759414344
 30
0.0
 40
0.5
  0
CIRCLE
  5
2931
330
1F
100
AcDbEntity
  8
TK1
100
AcDbCircle
 10
120.9421112054107
 20
211.9534759414344
 30
0.0
 40
0.5
  0
CIRCLE
  5
2932
330
1F
100
AcDbEntity
  8
TK1
100
AcDbCircle
 10
123.4821112054106
 20
211.9534759414344
 30
0.0
 40
0.5
  0
CIRCLE
  5
2933
330
1F
100
AcDbEntity
  8
TK1
100
AcDbCircle
 10
126.0221112054106
 20
211.9534759414344
 30
0.0
 40
0.5
  0
CIRCLE
  5
2934
330
1F
100
AcDbEntity
  8
TK1
100
AcDbCircle
 10
128.5621112054106
 20
211.9534759414344
 30
0.0
 40
0.5
  0
CIRCLE
  5
2935
330
1F
100
AcDbEntity
  8
TK1
100
AcDbCircle
 10
115.8621112054106
 20
214.4934759414343
 30
0.0
 40
0.5
  0
CIRCLE
  5
2936
330
1F
100
AcDbEntity
  8
TK1
100
AcDbCircle
 10
118.4021112054106
 20
214.4934759414343
 30
0.0
 40
0.5
  0
CIRCLE
  5
2937
330
1F
100
AcDbEntity
  8
TK1
100
AcDbCircle
 10
120.9421112054107
 20
214.4934759414343
 30
0.0
 40
0.5
  0
CIRCLE
  5
2938
330
1F
100
AcDbEntity
  8
TK1
100
AcDbCircle
 10
123.4821112054106
 20
214.4934759414343
 30
0.0
 40
0.5
  0
CIRCLE
  5
2939
330
1F
100
AcDbEntity
  8
TK1
100
AcDbCircle
 10
126.0221112054106
 20
214.4934759414343
 30
0.0
 40
0.5
  0
CIRCLE
  5
293A
330
1F
100
AcDbEntity
  8
TK1
100
AcDbCircle
 10
128.5621112054106
 20
214.4934759414343
 30
0.0
 40
0.5
  0
CIRCLE
  5
293B
330
1F
100
AcDbEntity
  8
TK1
100
AcDbCircle
 10
115.8621112054106
 20
217.0334759414343
 30
0.0
 40
0.5
  0
CIRCLE
  5
293C
330
1F
100
AcDbEntity
  8
TK1
100
AcDbCircle
 10
118.4021112054106
 20
217.0334759414343
 30
0.0
 40
0.5
  0
CIRCLE
  5
293D
330
1F
100
AcDbEntity
  8
TK1
100
AcDbCircle
 10
120.9421112054107
 20
217.0334759414343
 30
0.0
 40
0.5
  0
CIRCLE
  5
293E
330
1F
100
AcDbEntity
  8
TK1
100
AcDbCircle
 10
123.4821112054106
 20
217.0334759414343
 30
0.0
 40
0.5
  0
CIRCLE
  5
293F
330
1F
100
AcDbEntity
  8
TK1
100
AcDbCircle
 10
126.0221112054106
 20
217.0334759414343
 30
0.0
 40
0.5
  0
CIRCLE
  5
2940
330
1F
100
AcDbEntity
  8
TK1
100
AcDbCircle
 10
128.5621112054106
 20
217.0334759414343
 30
0.0
 40
0.5
  0
CIRCLE
  5
2941
330
1F
100
AcDbEntity
  8
TK1
100
AcDbCircle
 10
115.8621112054106
 20
219.5734759414342
 30
0.0
 40
0.5
  0
CIRCLE
  5
2942
330
1F
100
AcDbEntity
  8
TK1
100
AcDbCircle
 10
118.4021112054106
 20
219.5734759414342
 30
0.0
 40
0.5
  0
CIRCLE
  5
2943
330
1F
100
AcDbEntity
  8
TK1
100
AcDbCircle
 10
120.9421112054107
 20
219.5734759414342
 30
0.0
 40
0.5
  0
CIRCLE
  5
2944
330
1F
100
AcDbEntity
  8
TK1
100
AcDbCircle
 10
123.4821112054106
 20
219.5734759414342
 30
0.0
 40
0.5
  0
CIRCLE
  5
2945
330
1F
100
AcDbEntity
  8
TK1
100
AcDbCircle
 10
126.0221112054106
 20
219.5734759414342
 30
0.0
 40
0.5
  0
CIRCLE
  5
2946
330
1F
100
AcDbEntity
  8
TK1
100
AcDbCircle
 10
128.5621112054106
 20
219.5734759414342
 30
0.0
 40
0.5
  0
CIRCLE
  5
2947
330
1F
100
AcDbEntity
  8
TK1
100
AcDbCircle
 10
115.8621112054106
 20
222.1134759414344
 30
0.0
 40
0.5
  0
CIRCLE
  5
2948
330
1F
100
AcDbEntity
  8
TK1
100
AcDbCircle
 10
118.4021112054106
 20
222.1134759414344
 30
0.0
 40
0.5
  0
CIRCLE
  5
2949
330
1F
100
AcDbEntity
  8
TK1
100
AcDbCircle
 10
120.9421112054107
 20
222.1134759414344
 30
0.0
 40
0.5
  0
CIRCLE
  5
294A
330
1F
100
AcDbEntity
  8
TK1
100
AcDbCircle
 10
123.4821112054106
 20
222.1134759414344
 30
0.0
 40
0.5
  0
CIRCLE
  5
294B
330
1F
100
AcDbEntity
  8
TK1
100
AcDbCircle
 10
126.0221112054106
 20
222.1134759414344
 30
0.0
 40
0.5
  0
CIRCLE
  5
294C
330
1F
100
AcDbEntity
  8
TK1
100
AcDbCircle
 10
128.5621112054106
 20
222.1134759414344
 30
0.0
 40
0.5
  0
CIRCLE
  5
294D
330
1F
100
AcDbEntity
  8
TK1
100
AcDbCircle
 10
115.8621112054106
 20
224.6534759414344
 30
0.0
 40
0.5
  0
CIRCLE
  5
294E
330
1F
100
AcDbEntity
  8
TK1
100
AcDbCircle
 10
118.4021112054106
 20
224.6534759414344
 30
0.0
 40
0.5
  0
CIRCLE
  5
294F
330
1F
100
AcDbEntity
  8
TK1
100
AcDbCircle
 10
120.9421112054107
 20
224.6534759414344
 30
0.0
 40
0.5
  0
CIRCLE
  5
2950
330
1F
100
AcDbEntity
  8
TK1
100
AcDbCircle
 10
123.4821112054106
 20
224.6534759414344
 30
0.0
 40
0.5
  0
CIRCLE
  5
2951
330
1F
100
AcDbEntity
  8
TK1
100
AcDbCircle
 10
126.0221112054106
 20
224.6534759414344
 30
0.0
 40
0.5
  0
CIRCLE
  5
2952
330
1F
100
AcDbEntity
  8
TK1
100
AcDbCircle
 10
128.5621112054106
 20
224.6534759414344
 30
0.0
 40
0.5
  0
CIRCLE
  5
2953
330
1F
100
AcDbEntity
  8
TK1
100
AcDbCircle
 10
115.8621112054106
 20
227.1934759414344
 30
0.0
 40
0.5
  0
CIRCLE
  5
2954
330
1F
100
AcDbEntity
  8
TK1
100
AcDbCircle
 10
118.4021112054106
 20
227.1934759414344
 30
0.0
 40
0.5
  0
CIRCLE
  5
2955
330
1F
100
AcDbEntity
  8
TK1
100
AcDbCircle
 10
120.9421112054107
 20
227.1934759414344
 30
0.0
 40
0.5
  0
CIRCLE
  5
2956
330
1F
100
AcDbEntity
  8
TK1
100
AcDbCircle
 10
123.4821112054106
 20
227.1934759414344
 30
0.0
 40
0.5
  0
CIRCLE
  5
2957
330
1F
100
AcDbEntity
  8
TK1
100
AcDbCircle
 10
126.0221112054106
 20
227.1934759414344
 30
0.0
 40
0.5
  0
CIRCLE
  5
2958
330
1F
100
AcDbEntity
  8
TK1
100
AcDbCircle
 10
128.5621112054106
 20
227.1934759414344
 30
0.0
 40
0.5
  0
CIRCLE
  5
2959
330
1F
100
AcDbEntity
  8
TK1
100
AcDbCircle
 10
115.8621112054106
 20
229.7334759414344
 30
0.0
 40
0.5
  0
CIRCLE
  5
295A
330
1F
100
AcDbEntity
  8
TK1
100
AcDbCircle
 10
118.4021112054106
 20
229.7334759414344
 30
0.0
 40
0.5
  0
CIRCLE
  5
295B
330
1F
100
AcDbEntity
  8
TK1
100
AcDbCircle
 10
120.9421112054107
 20
229.7334759414344
 30
0.0
 40
0.5
  0
CIRCLE
  5
295C
330
1F
100
AcDbEntity
  8
TK1
100
AcDbCircle
 10
123.4821112054106
 20
229.7334759414344
 30
0.0
 40
0.5
  0
CIRCLE
  5
295D
330
1F
100
AcDbEntity
  8
TK1
100
AcDbCircle
 10
126.0221112054106
 20
229.7334759414344
 30
0.0
 40
0.5
  0
CIRCLE
  5
295E
330
1F
100
AcDbEntity
  8
TK1
100
AcDbCircle
 10
128.5621112054106
 20
229.7334759414344
 30
0.0
 40
0.5
  0
CIRCLE
  5
295F
330
1F
100
AcDbEntity
  8
TK1
100
AcDbCircle
 10
115.8621112054106
 20
232.2734759414343
 30
0.0
 40
0.5
  0
CIRCLE
  5
2960
330
1F
100
AcDbEntity
  8
TK1
100
AcDbCircle
 10
118.4021112054106
 20
232.2734759414343
 30
0.0
 40
0.5
  0
CIRCLE
  5
2961
330
1F
100
AcDbEntity
  8
TK1
100
AcDbCircle
 10
120.9421112054107
 20
232.2734759414343
 30
0.0
 40
0.5
  0
CIRCLE
  5
2962
330
1F
100
AcDbEntity
  8
TK1
100
AcDbCircle
 10
123.4821112054106
 20
232.2734759414343
 30
0.0
 40
0.5
  0
CIRCLE
  5
2963
330
1F
100
AcDbEntity
  8
TK1
100
AcDbCircle
 10
126.0221112054106
 20
232.2734759414343
 30
0.0
 40
0.5
  0
CIRCLE
  5
2964
330
1F
100
AcDbEntity
  8
TK1
100
AcDbCircle
 10
128.5621112054106
 20
232.2734759414343
 30
0.0
 40
0.5
  0
CIRCLE
  5
2965
330
1F
100
AcDbEntity
  8
TK1
100
AcDbCircle
 10
115.8621112054106
 20
234.8134759414342
 30
0.0
 40
0.5
  0
CIRCLE
  5
2966
330
1F
100
AcDbEntity
  8
TK1
100
AcDbCircle
 10
118.4021112054106
 20
234.8134759414342
 30
0.0
 40
0.5
  0
CIRCLE
  5
2967
330
1F
100
AcDbEntity
  8
TK1
100
AcDbCircle
 10
120.9421112054107
 20
234.8134759414342
 30
0.0
 40
0.5
  0
CIRCLE
  5
2968
330
1F
100
AcDbEntity
  8
TK1
100
AcDbCircle
 10
123.4821112054106
 20
234.8134759414342
 30
0.0
 40
0.5
  0
CIRCLE
  5
2969
330
1F
100
AcDbEntity
  8
TK1
100
AcDbCircle
 10
126.0221112054106
 20
234.8134759414342
 30
0.0
 40
0.5
  0
CIRCLE
  5
296A
330
1F
100
AcDbEntity
  8
TK1
100
AcDbCircle
 10
128.5621112054106
 20
234.8134759414342
 30
0.0
 40
0.5
  0
CIRCLE
  5
296B
330
1F
100
AcDbEntity
  8
TK1
100
AcDbCircle
 10
128.5621112054106
 20
135.7534759414343
 30
0.0
 40
0.5
  0
CIRCLE
  5
296C
330
1F
100
AcDbEntity
  8
TK1
100
AcDbCircle
 10
126.0221112054106
 20
135.7534759414343
 30
0.0
 40
0.5
  0
CIRCLE
  5
296D
330
1F
100
AcDbEntity
  8
TK1
100
AcDbCircle
 10
123.4821112054106
 20
135.7534759414343
 30
0.0
 40
0.5
  0
CIRCLE
  5
296E
330
1F
100
AcDbEntity
  8
TK1
100
AcDbCircle
 10
120.9421112054107
 20
135.7534759414343
 30
0.0
 40
0.5
  0
CIRCLE
  5
296F
330
1F
100
AcDbEntity
  8
TK1
100
AcDbCircle
 10
118.4021112054106
 20
135.7534759414343
 30
0.0
 40
0.5
  0
CIRCLE
  5
2970
330
1F
100
AcDbEntity
  8
TK1
100
AcDbCircle
 10
128.5621112054106
 20
138.2934759414343
 30
0.0
 40
0.5
  0
CIRCLE
  5
2971
330
1F
100
AcDbEntity
  8
TK1
100
AcDbCircle
 10
126.0221112054106
 20
138.2934759414343
 30
0.0
 40
0.5
  0
CIRCLE
  5
2972
330
1F
100
AcDbEntity
  8
TK1
100
AcDbCircle
 10
123.4821112054106
 20
138.2934759414343
 30
0.0
 40
0.5
  0
CIRCLE
  5
2973
330
1F
100
AcDbEntity
  8
TK1
100
AcDbCircle
 10
120.9421112054107
 20
138.2934759414343
 30
0.0
 40
0.5
  0
CIRCLE
  5
2974
330
1F
100
AcDbEntity
  8
TK1
100
AcDbCircle
 10
118.4021112054106
 20
138.2934759414343
 30
0.0
 40
0.5
  0
CIRCLE
  5
2975
330
1F
100
AcDbEntity
  8
TK1
100
AcDbCircle
 10
128.5621112054106
 20
140.8334759414343
 30
0.0
 40
0.5
  0
CIRCLE
  5
2976
330
1F
100
AcDbEntity
  8
TK1
100
AcDbCircle
 10
126.0221112054106
 20
140.8334759414343
 30
0.0
 40
0.5
  0
CIRCLE
  5
2977
330
1F
100
AcDbEntity
  8
TK1
100
AcDbCircle
 10
123.4821112054106
 20
140.8334759414343
 30
0.0
 40
0.5
  0
CIRCLE
  5
2978
330
1F
100
AcDbEntity
  8
TK1
100
AcDbCircle
 10
120.9421112054107
 20
140.8334759414343
 30
0.0
 40
0.5
  0
CIRCLE
  5
2979
330
1F
100
AcDbEntity
  8
TK1
100
AcDbCircle
 10
118.4021112054106
 20
140.8334759414343
 30
0.0
 40
0.5
  0
CIRCLE
  5
297A
330
1F
100
AcDbEntity
  8
TK1
100
AcDbCircle
 10
128.5621112054106
 20
143.3734759414344
 30
0.0
 40
0.5
  0
CIRCLE
  5
297B
330
1F
100
AcDbEntity
  8
TK1
100
AcDbCircle
 10
126.0221112054106
 20
143.3734759414344
 30
0.0
 40
0.5
  0
CIRCLE
  5
297C
330
1F
100
AcDbEntity
  8
TK1
100
AcDbCircle
 10
123.4821112054106
 20
143.3734759414344
 30
0.0
 40
0.5
  0
CIRCLE
  5
297D
330
1F
100
AcDbEntity
  8
TK1
100
AcDbCircle
 10
120.9421112054107
 20
143.3734759414344
 30
0.0
 40
0.5
  0
CIRCLE
  5
297E
330
1F
100
AcDbEntity
  8
TK1
100
AcDbCircle
 10
118.4021112054106
 20
143.3734759414344
 30
0.0
 40
0.5
  0
CIRCLE
  5
297F
330
1F
100
AcDbEntity
  8
TK1
100
AcDbCircle
 10
128.5621112054106
 20
145.9134759414344
 30
0.0
 40
0.5
  0
CIRCLE
  5
2980
330
1F
100
AcDbEntity
  8
TK1
100
AcDbCircle
 10
126.0221112054106
 20
145.9134759414344
 30
0.0
 40
0.5
  0
CIRCLE
  5
2981
330
1F
100
AcDbEntity
  8
TK1
100
AcDbCircle
 10
123.4821112054106
 20
145.9134759414344
 30
0.0
 40
0.5
  0
CIRCLE
  5
2982
330
1F
100
AcDbEntity
  8
TK1
100
AcDbCircle
 10
120.9421112054107
 20
145.9134759414344
 30
0.0
 40
0.5
  0
CIRCLE
  5
2983
330
1F
100
AcDbEntity
  8
TK1
100
AcDbCircle
 10
118.4021112054106
 20
145.9134759414344
 30
0.0
 40
0.5
  0
CIRCLE
  5
2984
330
1F
100
AcDbEntity
  8
TK1
100
AcDbCircle
 10
128.5621112054106
 20
148.4534759414343
 30
0.0
 40
0.5
  0
CIRCLE
  5
2985
330
1F
100
AcDbEntity
  8
TK1
100
AcDbCircle
 10
126.0221112054106
 20
148.4534759414343
 30
0.0
 40
0.5
  0
CIRCLE
  5
2986
330
1F
100
AcDbEntity
  8
TK1
100
AcDbCircle
 10
123.4821112054106
 20
148.4534759414343
 30
0.0
 40
0.5
  0
CIRCLE
  5
2987
330
1F
100
AcDbEntity
  8
TK1
100
AcDbCircle
 10
120.9421112054107
 20
148.4534759414343
 30
0.0
 40
0.5
  0
CIRCLE
  5
2988
330
1F
100
AcDbEntity
  8
TK1
100
AcDbCircle
 10
118.4021112054106
 20
148.4534759414343
 30
0.0
 40
0.5
  0
CIRCLE
  5
2989
330
1F
100
AcDbEntity
  8
TK1
100
AcDbCircle
 10
128.5621112054106
 20
150.9934759414343
 30
0.0
 40
0.5
  0
CIRCLE
  5
298A
330
1F
100
AcDbEntity
  8
TK1
100
AcDbCircle
 10
126.0221112054106
 20
150.9934759414343
 30
0.0
 40
0.5
  0
CIRCLE
  5
298B
330
1F
100
AcDbEntity
  8
TK1
100
AcDbCircle
 10
123.4821112054106
 20
150.9934759414343
 30
0.0
 40
0.5
  0
CIRCLE
  5
298C
330
1F
100
AcDbEntity
  8
TK1
100
AcDbCircle
 10
120.9421112054107
 20
150.9934759414343
 30
0.0
 40
0.5
  0
CIRCLE
  5
298D
330
1F
100
AcDbEntity
  8
TK1
100
AcDbCircle
 10
118.4021112054106
 20
150.9934759414343
 30
0.0
 40
0.5
  0
CIRCLE
  5
298E
330
1F
100
AcDbEntity
  8
TK1
100
AcDbCircle
 10
128.5621112054106
 20
153.5334759414343
 30
0.0
 40
0.5
  0
CIRCLE
  5
298F
330
1F
100
AcDbEntity
  8
TK1
100
AcDbCircle
 10
126.0221112054106
 20
153.5334759414343
 30
0.0
 40
0.5
  0
CIRCLE
  5
2990
330
1F
100
AcDbEntity
  8
TK1
100
AcDbCircle
 10
123.4821112054106
 20
153.5334759414343
 30
0.0
 40
0.5
  0
CIRCLE
  5
2991
330
1F
100
AcDbEntity
  8
TK1
100
AcDbCircle
 10
120.9421112054107
 20
153.5334759414343
 30
0.0
 40
0.5
  0
CIRCLE
  5
2992
330
1F
100
AcDbEntity
  8
TK1
100
AcDbCircle
 10
118.4021112054106
 20
153.5334759414343
 30
0.0
 40
0.5
  0
CIRCLE
  5
2993
330
1F
100
AcDbEntity
  8
TK1
100
AcDbCircle
 10
128.5621112054106
 20
156.0734759414343
 30
0.0
 40
0.5
  0
CIRCLE
  5
2994
330
1F
100
AcDbEntity
  8
TK1
100
AcDbCircle
 10
126.0221112054106
 20
156.0734759414343
 30
0.0
 40
0.5
  0
CIRCLE
  5
2995
330
1F
100
AcDbEntity
  8
TK1
100
AcDbCircle
 10
123.4821112054106
 20
156.0734759414343
 30
0.0
 40
0.5
  0
CIRCLE
  5
2996
330
1F
100
AcDbEntity
  8
TK1
100
AcDbCircle
 10
120.9421112054107
 20
156.0734759414343
 30
0.0
 40
0.5
  0
CIRCLE
  5
2997
330
1F
100
AcDbEntity
  8
TK1
100
AcDbCircle
 10
118.4021112054106
 20
156.0734759414343
 30
0.0
 40
0.5
  0
CIRCLE
  5
2998
330
1F
100
AcDbEntity
  8
TK1
100
AcDbCircle
 10
128.5621112054106
 20
158.6134759414344
 30
0.0
 40
0.5
  0
CIRCLE
  5
2999
330
1F
100
AcDbEntity
  8
TK1
100
AcDbCircle
 10
126.0221112054106
 20
158.6134759414344
 30
0.0
 40
0.5
  0
CIRCLE
  5
299A
330
1F
100
AcDbEntity
  8
TK1
100
AcDbCircle
 10
123.4821112054106
 20
158.6134759414344
 30
0.0
 40
0.5
  0
CIRCLE
  5
299B
330
1F
100
AcDbEntity
  8
TK1
100
AcDbCircle
 10
120.9421112054107
 20
158.6134759414344
 30
0.0
 40
0.5
  0
CIRCLE
  5
299C
330
1F
100
AcDbEntity
  8
TK1
100
AcDbCircle
 10
118.4021112054106
 20
158.6134759414344
 30
0.0
 40
0.5
  0
CIRCLE
  5
299D
330
1F
100
AcDbEntity
  8
TK1
100
AcDbCircle
 10
128.5621112054106
 20
161.1534759414344
 30
0.0
 40
0.5
  0
CIRCLE
  5
299E
330
1F
100
AcDbEntity
  8
TK1
100
AcDbCircle
 10
126.0221112054106
 20
161.1534759414344
 30
0.0
 40
0.5
  0
CIRCLE
  5
299F
330
1F
100
AcDbEntity
  8
TK1
100
AcDbCircle
 10
123.4821112054106
 20
161.1534759414344
 30
0.0
 40
0.5
  0
CIRCLE
  5
29A0
330
1F
100
AcDbEntity
  8
TK1
100
AcDbCircle
 10
120.9421112054107
 20
161.1534759414344
 30
0.0
 40
0.5
  0
CIRCLE
  5
29A1
330
1F
100
AcDbEntity
  8
TK1
100
AcDbCircle
 10
118.4021112054106
 20
161.1534759414344
 30
0.0
 40
0.5
  0
CIRCLE
  5
29A2
330
1F
100
AcDbEntity
  8
TK1
100
AcDbCircle
 10
128.5621112054106
 20
163.6934759414343
 30
0.0
 40
0.5
  0
CIRCLE
  5
29A3
330
1F
100
AcDbEntity
  8
TK1
100
AcDbCircle
 10
126.0221112054106
 20
163.6934759414343
 30
0.0
 40
0.5
  0
CIRCLE
  5
29A4
330
1F
100
AcDbEntity
  8
TK1
100
AcDbCircle
 10
123.4821112054106
 20
163.6934759414343
 30
0.0
 40
0.5
  0
CIRCLE
  5
29A5
330
1F
100
AcDbEntity
  8
TK1
100
AcDbCircle
 10
120.9421112054107
 20
163.6934759414343
 30
0.0
 40
0.5
  0
CIRCLE
  5
29A6
330
1F
100
AcDbEntity
  8
TK1
100
AcDbCircle
 10
118.4021112054106
 20
163.6934759414343
 30
0.0
 40
0.5
  0
CIRCLE
  5
29A7
330
1F
100
AcDbEntity
  8
TK1
100
AcDbCircle
 10
128.5621112054106
 20
166.2334759414343
 30
0.0
 40
0.5
  0
CIRCLE
  5
29A8
330
1F
100
AcDbEntity
  8
TK1
100
AcDbCircle
 10
126.0221112054106
 20
166.2334759414343
 30
0.0
 40
0.5
  0
CIRCLE
  5
29A9
330
1F
100
AcDbEntity
  8
TK1
100
AcDbCircle
 10
123.4821112054106
 20
166.2334759414343
 30
0.0
 40
0.5
  0
CIRCLE
  5
29AA
330
1F
100
AcDbEntity
  8
TK1
100
AcDbCircle
 10
120.9421112054107
 20
166.2334759414343
 30
0.0
 40
0.5
  0
CIRCLE
  5
29AB
330
1F
100
AcDbEntity
  8
TK1
100
AcDbCircle
 10
118.4021112054106
 20
166.2334759414343
 30
0.0
 40
0.5
  0
CIRCLE
  5
29AC
330
1F
100
AcDbEntity
  8
TK1
100
AcDbCircle
 10
128.5621112054106
 20
168.7734759414343
 30
0.0
 40
0.5
  0
CIRCLE
  5
29AD
330
1F
100
AcDbEntity
  8
TK1
100
AcDbCircle
 10
126.0221112054106
 20
168.7734759414343
 30
0.0
 40
0.5
  0
CIRCLE
  5
29AE
330
1F
100
AcDbEntity
  8
TK1
100
AcDbCircle
 10
123.4821112054106
 20
168.7734759414343
 30
0.0
 40
0.5
  0
CIRCLE
  5
29AF
330
1F
100
AcDbEntity
  8
TK1
100
AcDbCircle
 10
120.9421112054107
 20
168.7734759414343
 30
0.0
 40
0.5
  0
CIRCLE
  5
29B0
330
1F
100
AcDbEntity
  8
TK1
100
AcDbCircle
 10
118.4021112054106
 20
168.7734759414343
 30
0.0
 40
0.5
  0
CIRCLE
  5
29B1
330
1F
100
AcDbEntity
  8
TK1
100
AcDbCircle
 10
128.5621112054106
 20
171.3134759414344
 30
0.0
 40
0.5
  0
CIRCLE
  5
29B2
330
1F
100
AcDbEntity
  8
TK1
100
AcDbCircle
 10
126.0221112054106
 20
171.3134759414344
 30
0.0
 40
0.5
  0
CIRCLE
  5
29B3
330
1F
100
AcDbEntity
  8
TK1
100
AcDbCircle
 10
123.4821112054106
 20
171.3134759414344
 30
0.0
 40
0.5
  0
CIRCLE
  5
29B4
330
1F
100
AcDbEntity
  8
TK1
100
AcDbCircle
 10
120.9421112054107
 20
171.3134759414344
 30
0.0
 40
0.5
  0
CIRCLE
  5
29B5
330
1F
100
AcDbEntity
  8
TK1
100
AcDbCircle
 10
118.4021112054106
 20
171.3134759414344
 30
0.0
 40
0.5
  0
CIRCLE
  5
29B6
330
1F
100
AcDbEntity
  8
TK1
100
AcDbCircle
 10
128.5621112054106
 20
173.8534759414343
 30
0.0
 40
0.5
  0
CIRCLE
  5
29B7
330
1F
100
AcDbEntity
  8
TK1
100
AcDbCircle
 10
126.0221112054106
 20
173.8534759414343
 30
0.0
 40
0.5
  0
CIRCLE
  5
29B8
330
1F
100
AcDbEntity
  8
TK1
100
AcDbCircle
 10
123.4821112054106
 20
173.8534759414343
 30
0.0
 40
0.5
  0
CIRCLE
  5
29B9
330
1F
100
AcDbEntity
  8
TK1
100
AcDbCircle
 10
120.9421112054107
 20
173.8534759414343
 30
0.0
 40
0.5
  0
CIRCLE
  5
29BA
330
1F
100
AcDbEntity
  8
TK1
100
AcDbCircle
 10
118.4021112054106
 20
173.8534759414343
 30
0.0
 40
0.5
  0
CIRCLE
  5
29BB
330
1F
100
AcDbEntity
  8
TK1
100
AcDbCircle
 10
128.5621112054106
 20
176.3934759414344
 30
0.0
 40
0.5
  0
CIRCLE
  5
29BC
330
1F
100
AcDbEntity
  8
TK1
100
AcDbCircle
 10
126.0221112054106
 20
176.3934759414344
 30
0.0
 40
0.5
  0
CIRCLE
  5
29BD
330
1F
100
AcDbEntity
  8
TK1
100
AcDbCircle
 10
123.4821112054106
 20
176.3934759414344
 30
0.0
 40
0.5
  0
CIRCLE
  5
29BE
330
1F
100
AcDbEntity
  8
TK1
100
AcDbCircle
 10
120.9421112054107
 20
176.3934759414344
 30
0.0
 40
0.5
  0
CIRCLE
  5
29BF
330
1F
100
AcDbEntity
  8
TK1
100
AcDbCircle
 10
118.4021112054106
 20
176.3934759414344
 30
0.0
 40
0.5
  0
CIRCLE
  5
29C0
330
1F
100
AcDbEntity
  8
TK1
100
AcDbCircle
 10
128.5621112054106
 20
178.9334759414344
 30
0.0
 40
0.5
  0
CIRCLE
  5
29C1
330
1F
100
AcDbEntity
  8
TK1
100
AcDbCircle
 10
126.0221112054106
 20
178.9334759414344
 30
0.0
 40
0.5
  0
CIRCLE
  5
29C2
330
1F
100
AcDbEntity
  8
TK1
100
AcDbCircle
 10
123.4821112054106
 20
178.9334759414344
 30
0.0
 40
0.5
  0
CIRCLE
  5
29C3
330
1F
100
AcDbEntity
  8
TK1
100
AcDbCircle
 10
120.9421112054107
 20
178.9334759414344
 30
0.0
 40
0.5
  0
CIRCLE
  5
29C4
330
1F
100
AcDbEntity
  8
TK1
100
AcDbCircle
 10
118.4021112054106
 20
178.9334759414344
 30
0.0
 40
0.5
  0
CIRCLE
  5
29C5
330
1F
100
AcDbEntity
  8
TK1
100
AcDbCircle
 10
128.5621112054106
 20
181.4734759414343
 30
0.0
 40
0.5
  0
CIRCLE
  5
29C6
330
1F
100
AcDbEntity
  8
TK1
100
AcDbCircle
 10
126.0221112054106
 20
181.4734759414343
 30
0.0
 40
0.5
  0
CIRCLE
  5
29C7
330
1F
100
AcDbEntity
  8
TK1
100
AcDbCircle
 10
123.4821112054106
 20
181.4734759414343
 30
0.0
 40
0.5
  0
CIRCLE
  5
29C8
330
1F
100
AcDbEntity
  8
TK1
100
AcDbCircle
 10
120.9421112054107
 20
181.4734759414343
 30
0.0
 40
0.5
  0
CIRCLE
  5
29C9
330
1F
100
AcDbEntity
  8
TK1
100
AcDbCircle
 10
118.4021112054106
 20
181.4734759414343
 30
0.0
 40
0.5
  0
CIRCLE
  5
29CA
330
1F
100
AcDbEntity
  8
TK1
100
AcDbCircle
 10
128.5621112054106
 20
184.0134759414343
 30
0.0
 40
0.5
  0
CIRCLE
  5
29CB
330
1F
100
AcDbEntity
  8
TK1
100
AcDbCircle
 10
126.0221112054106
 20
184.0134759414343
 30
0.0
 40
0.5
  0
CIRCLE
  5
29CC
330
1F
100
AcDbEntity
  8
TK1
100
AcDbCircle
 10
123.4821112054106
 20
184.0134759414343
 30
0.0
 40
0.5
  0
CIRCLE
  5
29CD
330
1F
100
AcDbEntity
  8
TK1
100
AcDbCircle
 10
120.9421112054107
 20
184.0134759414343
 30
0.0
 40
0.5
  0
CIRCLE
  5
29CE
330
1F
100
AcDbEntity
  8
TK1
100
AcDbCircle
 10
118.4021112054106
 20
184.0134759414343
 30
0.0
 40
0.5
  0
CIRCLE
  5
29CF
330
1F
100
AcDbEntity
  8
TK1
100
AcDbCircle
 10
115.8621112054106
 20
135.7534759414343
 30
0.0
 40
0.5
  0
CIRCLE
  5
29D0
330
1F
100
AcDbEntity
  8
TK1
100
AcDbCircle
 10
115.8621112054106
 20
138.2934759414343
 30
0.0
 40
0.5
  0
CIRCLE
  5
29D1
330
1F
100
AcDbEntity
  8
TK1
100
AcDbCircle
 10
115.8621112054106
 20
140.8334759414343
 30
0.0
 40
0.5
  0
CIRCLE
  5
29D2
330
1F
100
AcDbEntity
  8
TK1
100
AcDbCircle
 10
115.8621112054106
 20
143.3734759414344
 30
0.0
 40
0.5
  0
CIRCLE
  5
29D3
330
1F
100
AcDbEntity
  8
TK1
100
AcDbCircle
 10
115.8621112054106
 20
145.9134759414344
 30
0.0
 40
0.5
  0
CIRCLE
  5
29D4
330
1F
100
AcDbEntity
  8
TK1
100
AcDbCircle
 10
115.8621112054106
 20
148.4534759414343
 30
0.0
 40
0.5
  0
CIRCLE
  5
29D5
330
1F
100
AcDbEntity
  8
TK1
100
AcDbCircle
 10
115.8621112054106
 20
150.9934759414343
 30
0.0
 40
0.5
  0
CIRCLE
  5
29D6
330
1F
100
AcDbEntity
  8
TK1
100
AcDbCircle
 10
115.8621112054106
 20
153.5334759414343
 30
0.0
 40
0.5
  0
CIRCLE
  5
29D7
330
1F
100
AcDbEntity
  8
TK1
100
AcDbCircle
 10
115.8621112054106
 20
156.0734759414343
 30
0.0
 40
0.5
  0
CIRCLE
  5
29D8
330
1F
100
AcDbEntity
  8
TK1
100
AcDbCircle
 10
115.8621112054106
 20
158.6134759414344
 30
0.0
 40
0.5
  0
CIRCLE
  5
29D9
330
1F
100
AcDbEntity
  8
TK1
100
AcDbCircle
 10
115.8621112054106
 20
161.1534759414344
 30
0.0
 40
0.5
  0
CIRCLE
  5
29DA
330
1F
100
AcDbEntity
  8
TK1
100
AcDbCircle
 10
115.8621112054106
 20
163.6934759414343
 30
0.0
 40
0.5
  0
CIRCLE
  5
29DB
330
1F
100
AcDbEntity
  8
TK1
100
AcDbCircle
 10
115.8621112054106
 20
166.2334759414343
 30
0.0
 40
0.5
  0
CIRCLE
  5
29DC
330
1F
100
AcDbEntity
  8
TK1
100
AcDbCircle
 10
115.8621112054106
 20
168.7734759414343
 30
0.0
 40
0.5
  0
CIRCLE
  5
29DD
330
1F
100
AcDbEntity
  8
TK1
100
AcDbCircle
 10
115.8621112054106
 20
171.3134759414344
 30
0.0
 40
0.5
  0
CIRCLE
  5
29DE
330
1F
100
AcDbEntity
  8
TK1
100
AcDbCircle
 10
115.8621112054106
 20
173.8534759414343
 30
0.0
 40
0.5
  0
CIRCLE
  5
29DF
330
1F
100
AcDbEntity
  8
TK1
100
AcDbCircle
 10
115.8621112054106
 20
176.3934759414344
 30
0.0
 40
0.5
  0
CIRCLE
  5
29E0
330
1F
100
AcDbEntity
  8
TK1
100
AcDbCircle
 10
115.8621112054106
 20
178.9334759414344
 30
0.0
 40
0.5
  0
CIRCLE
  5
29E1
330
1F
100
AcDbEntity
  8
TK1
100
AcDbCircle
 10
115.8621112054106
 20
181.4734759414343
 30
0.0
 40
0.5
  0
CIRCLE
  5
29E2
330
1F
100
AcDbEntity
  8
TK1
100
AcDbCircle
 10
115.8621112054106
 20
184.0134759414343
 30
0.0
 40
0.5
  0
CIRCLE
  5
29E3
330
1F
100
AcDbEntity
  8
TK1
100
AcDbCircle
 10
113.3221112054106
 20
184.0134759414343
 30
0.0
 40
0.5
  0
CIRCLE
  5
29E4
330
1F
100
AcDbEntity
  8
TK1
100
AcDbCircle
 10
113.3221112054106
 20
181.4734759414343
 30
0.0
 40
0.5
  0
CIRCLE
  5
29E5
330
1F
100
AcDbEntity
  8
TK1
100
AcDbCircle
 10
113.3221112054106
 20
178.9334759414344
 30
0.0
 40
0.5
  0
CIRCLE
  5
29E6
330
1F
100
AcDbEntity
  8
TK1
100
AcDbCircle
 10
113.3221112054106
 20
176.3934759414344
 30
0.0
 40
0.5
  0
CIRCLE
  5
29E7
330
1F
100
AcDbEntity
  8
TK1
100
AcDbCircle
 10
113.3221112054106
 20
173.8534759414343
 30
0.0
 40
0.5
  0
CIRCLE
  5
29E8
330
1F
100
AcDbEntity
  8
TK1
100
AcDbCircle
 10
113.3221112054106
 20
171.3134759414344
 30
0.0
 40
0.5
  0
CIRCLE
  5
29E9
330
1F
100
AcDbEntity
  8
TK1
100
AcDbCircle
 10
113.3221112054106
 20
168.7734759414343
 30
0.0
 40
0.5
  0
CIRCLE
  5
29EA
330
1F
100
AcDbEntity
  8
TK1
100
AcDbCircle
 10
113.3221112054106
 20
166.2334759414343
 30
0.0
 40
0.5
  0
CIRCLE
  5
29EB
330
1F
100
AcDbEntity
  8
TK1
100
AcDbCircle
 10
113.3221112054106
 20
163.6934759414343
 30
0.0
 40
0.5
  0
CIRCLE
  5
29EC
330
1F
100
AcDbEntity
  8
TK1
100
AcDbCircle
 10
113.3221112054106
 20
161.1534759414344
 30
0.0
 40
0.5
  0
CIRCLE
  5
29ED
330
1F
100
AcDbEntity
  8
TK1
100
AcDbCircle
 10
113.3221112054106
 20
158.6134759414344
 30
0.0
 40
0.5
  0
CIRCLE
  5
29EE
330
1F
100
AcDbEntity
  8
TK1
100
AcDbCircle
 10
113.3221112054106
 20
156.0734759414343
 30
0.0
 40
0.5
  0
CIRCLE
  5
29EF
330
1F
100
AcDbEntity
  8
TK1
100
AcDbCircle
 10
113.3221112054106
 20
153.5334759414343
 30
0.0
 40
0.5
  0
CIRCLE
  5
29F0
330
1F
100
AcDbEntity
  8
TK1
100
AcDbCircle
 10
113.3221112054106
 20
150.9934759414343
 30
0.0
 40
0.5
  0
CIRCLE
  5
29F1
330
1F
100
AcDbEntity
  8
TK1
100
AcDbCircle
 10
113.3221112054106
 20
148.4534759414343
 30
0.0
 40
0.5
  0
CIRCLE
  5
29F2
330
1F
100
AcDbEntity
  8
TK1
100
AcDbCircle
 10
113.3221112054106
 20
145.9134759414344
 30
0.0
 40
0.5
  0
CIRCLE
  5
29F3
330
1F
100
AcDbEntity
  8
TK1
100
AcDbCircle
 10
113.3221112054106
 20
143.3734759414344
 30
0.0
 40
0.5
  0
CIRCLE
  5
29F4
330
1F
100
AcDbEntity
  8
TK1
100
AcDbCircle
 10
113.3221112054106
 20
140.8334759414343
 30
0.0
 40
0.5
  0
CIRCLE
  5
29F5
330
1F
100
AcDbEntity
  8
TK1
100
AcDbCircle
 10
113.3221112054106
 20
138.2934759414343
 30
0.0
 40
0.5
  0
CIRCLE
  5
29F6
330
1F
100
AcDbEntity
  8
TK1
100
AcDbCircle
 10
113.3221112054106
 20
135.7534759414343
 30
0.0
 40
0.5
  0
CIRCLE
  5
29F7
330
1F
100
AcDbEntity
  8
TK1
100
AcDbCircle
 10
110.7821112054106
 20
184.0134759414343
 30
0.0
 40
0.5
  0
CIRCLE
  5
29F8
330
1F
100
AcDbEntity
  8
TK1
100
AcDbCircle
 10
108.2421112054105
 20
184.0134759414343
 30
0.0
 40
0.5
  0
CIRCLE
  5
29F9
330
1F
100
AcDbEntity
  8
TK1
100
AcDbCircle
 10
105.7021112054105
 20
184.0134759414343
 30
0.0
 40
0.5
  0
CIRCLE
  5
29FA
330
1F
100
AcDbEntity
  8
TK1
100
AcDbCircle
 10
103.1621112054106
 20
184.0134759414343
 30
0.0
 40
0.5
  0
CIRCLE
  5
29FB
330
1F
100
AcDbEntity
  8
TK1
100
AcDbCircle
 10
100.6221112054106
 20
184.0134759414343
 30
0.0
 40
0.5
  0
CIRCLE
  5
29FC
330
1F
100
AcDbEntity
  8
TK1
100
AcDbCircle
 10
110.7821112054106
 20
181.4734759414343
 30
0.0
 40
0.5
  0
CIRCLE
  5
29FD
330
1F
100
AcDbEntity
  8
TK1
100
AcDbCircle
 10
108.2421112054105
 20
181.4734759414343
 30
0.0
 40
0.5
  0
CIRCLE
  5
29FE
330
1F
100
AcDbEntity
  8
TK1
100
AcDbCircle
 10
105.7021112054105
 20
181.4734759414343
 30
0.0
 40
0.5
  0
CIRCLE
  5
29FF
330
1F
100
AcDbEntity
  8
TK1
100
AcDbCircle
 10
103.1621112054106
 20
181.4734759414343
 30
0.0
 40
0.5
  0
CIRCLE
  5
2A00
330
1F
100
AcDbEntity
  8
TK1
100
AcDbCircle
 10
100.6221112054106
 20
181.4734759414343
 30
0.0
 40
0.5
  0
CIRCLE
  5
2A01
330
1F
100
AcDbEntity
  8
TK1
100
AcDbCircle
 10
110.7821112054106
 20
178.9334759414344
 30
0.0
 40
0.5
  0
CIRCLE
  5
2A02
330
1F
100
AcDbEntity
  8
TK1
100
AcDbCircle
 10
108.2421112054105
 20
178.9334759414344
 30
0.0
 40
0.5
  0
CIRCLE
  5
2A03
330
1F
100
AcDbEntity
  8
TK1
100
AcDbCircle
 10
105.7021112054105
 20
178.9334759414344
 30
0.0
 40
0.5
  0
CIRCLE
  5
2A04
330
1F
100
AcDbEntity
  8
TK1
100
AcDbCircle
 10
103.1621112054106
 20
178.9334759414344
 30
0.0
 40
0.5
  0
CIRCLE
  5
2A05
330
1F
100
AcDbEntity
  8
TK1
100
AcDbCircle
 10
100.6221112054106
 20
178.9334759414344
 30
0.0
 40
0.5
  0
CIRCLE
  5
2A06
330
1F
100
AcDbEntity
  8
TK1
100
AcDbCircle
 10
110.7821112054106
 20
176.3934759414344
 30
0.0
 40
0.5
  0
CIRCLE
  5
2A07
330
1F
100
AcDbEntity
  8
TK1
100
AcDbCircle
 10
108.2421112054105
 20
176.3934759414344
 30
0.0
 40
0.5
  0
CIRCLE
  5
2A08
330
1F
100
AcDbEntity
  8
TK1
100
AcDbCircle
 10
105.7021112054105
 20
176.3934759414344
 30
0.0
 40
0.5
  0
CIRCLE
  5
2A09
330
1F
100
AcDbEntity
  8
TK1
100
AcDbCircle
 10
103.1621112054106
 20
176.3934759414344
 30
0.0
 40
0.5
  0
CIRCLE
  5
2A0A
330
1F
100
AcDbEntity
  8
TK1
100
AcDbCircle
 10
100.6221112054106
 20
176.3934759414344
 30
0.0
 40
0.5
  0
CIRCLE
  5
2A0B
330
1F
100
AcDbEntity
  8
TK1
100
AcDbCircle
 10
110.7821112054106
 20
173.8534759414343
 30
0.0
 40
0.5
  0
CIRCLE
  5
2A0C
330
1F
100
AcDbEntity
  8
TK1
100
AcDbCircle
 10
108.2421112054105
 20
173.8534759414343
 30
0.0
 40
0.5
  0
CIRCLE
  5
2A0D
330
1F
100
AcDbEntity
  8
TK1
100
AcDbCircle
 10
105.7021112054105
 20
173.8534759414343
 30
0.0
 40
0.5
  0
CIRCLE
  5
2A0E
330
1F
100
AcDbEntity
  8
TK1
100
AcDbCircle
 10
103.1621112054106
 20
173.8534759414343
 30
0.0
 40
0.5
  0
CIRCLE
  5
2A0F
330
1F
100
AcDbEntity
  8
TK1
100
AcDbCircle
 10
100.6221112054106
 20
173.8534759414343
 30
0.0
 40
0.5
  0
CIRCLE
  5
2A10
330
1F
100
AcDbEntity
  8
TK1
100
AcDbCircle
 10
110.7821112054106
 20
171.3134759414344
 30
0.0
 40
0.5
  0
CIRCLE
  5
2A11
330
1F
100
AcDbEntity
  8
TK1
100
AcDbCircle
 10
108.2421112054105
 20
171.3134759414344
 30
0.0
 40
0.5
  0
CIRCLE
  5
2A12
330
1F
100
AcDbEntity
  8
TK1
100
AcDbCircle
 10
105.7021112054105
 20
171.3134759414344
 30
0.0
 40
0.5
  0
CIRCLE
  5
2A13
330
1F
100
AcDbEntity
  8
TK1
100
AcDbCircle
 10
103.1621112054106
 20
171.3134759414344
 30
0.0
 40
0.5
  0
CIRCLE
  5
2A14
330
1F
100
AcDbEntity
  8
TK1
100
AcDbCircle
 10
100.6221112054106
 20
171.3134759414344
 30
0.0
 40
0.5
  0
CIRCLE
  5
2A15
330
1F
100
AcDbEntity
  8
TK1
100
AcDbCircle
 10
110.7821112054106
 20
168.7734759414343
 30
0.0
 40
0.5
  0
CIRCLE
  5
2A16
330
1F
100
AcDbEntity
  8
TK1
100
AcDbCircle
 10
108.2421112054105
 20
168.7734759414343
 30
0.0
 40
0.5
  0
CIRCLE
  5
2A17
330
1F
100
AcDbEntity
  8
TK1
100
AcDbCircle
 10
105.7021112054105
 20
168.7734759414343
 30
0.0
 40
0.5
  0
CIRCLE
  5
2A18
330
1F
100
AcDbEntity
  8
TK1
100
AcDbCircle
 10
103.1621112054106
 20
168.7734759414343
 30
0.0
 40
0.5
  0
CIRCLE
  5
2A19
330
1F
100
AcDbEntity
  8
TK1
100
AcDbCircle
 10
100.6221112054106
 20
168.7734759414343
 30
0.0
 40
0.5
  0
CIRCLE
  5
2A1A
330
1F
100
AcDbEntity
  8
TK1
100
AcDbCircle
 10
110.7821112054106
 20
166.2334759414343
 30
0.0
 40
0.5
  0
CIRCLE
  5
2A1B
330
1F
100
AcDbEntity
  8
TK1
100
AcDbCircle
 10
108.2421112054105
 20
166.2334759414343
 30
0.0
 40
0.5
  0
CIRCLE
  5
2A1C
330
1F
100
AcDbEntity
  8
TK1
100
AcDbCircle
 10
105.7021112054105
 20
166.2334759414343
 30
0.0
 40
0.5
  0
CIRCLE
  5
2A1D
330
1F
100
AcDbEntity
  8
TK1
100
AcDbCircle
 10
103.1621112054106
 20
166.2334759414343
 30
0.0
 40
0.5
  0
CIRCLE
  5
2A1E
330
1F
100
AcDbEntity
  8
TK1
100
AcDbCircle
 10
100.6221112054106
 20
166.2334759414343
 30
0.0
 40
0.5
  0
CIRCLE
  5
2A1F
330
1F
100
AcDbEntity
  8
TK1
100
AcDbCircle
 10
110.7821112054106
 20
163.6934759414343
 30
0.0
 40
0.5
  0
CIRCLE
  5
2A20
330
1F
100
AcDbEntity
  8
TK1
100
AcDbCircle
 10
108.2421112054105
 20
163.6934759414343
 30
0.0
 40
0.5
  0
CIRCLE
  5
2A21
330
1F
100
AcDbEntity
  8
TK1
100
AcDbCircle
 10
105.7021112054105
 20
163.6934759414343
 30
0.0
 40
0.5
  0
CIRCLE
  5
2A22
330
1F
100
AcDbEntity
  8
TK1
100
AcDbCircle
 10
103.1621112054106
 20
163.6934759414343
 30
0.0
 40
0.5
  0
CIRCLE
  5
2A23
330
1F
100
AcDbEntity
  8
TK1
100
AcDbCircle
 10
100.6221112054106
 20
163.6934759414343
 30
0.0
 40
0.5
  0
CIRCLE
  5
2A24
330
1F
100
AcDbEntity
  8
TK1
100
AcDbCircle
 10
110.7821112054106
 20
161.1534759414344
 30
0.0
 40
0.5
  0
CIRCLE
  5
2A25
330
1F
100
AcDbEntity
  8
TK1
100
AcDbCircle
 10
108.2421112054105
 20
161.1534759414344
 30
0.0
 40
0.5
  0
CIRCLE
  5
2A26
330
1F
100
AcDbEntity
  8
TK1
100
AcDbCircle
 10
105.7021112054105
 20
161.1534759414344
 30
0.0
 40
0.5
  0
CIRCLE
  5
2A27
330
1F
100
AcDbEntity
  8
TK1
100
AcDbCircle
 10
103.1621112054106
 20
161.1534759414344
 30
0.0
 40
0.5
  0
CIRCLE
  5
2A28
330
1F
100
AcDbEntity
  8
TK1
100
AcDbCircle
 10
100.6221112054106
 20
161.1534759414344
 30
0.0
 40
0.5
  0
CIRCLE
  5
2A29
330
1F
100
AcDbEntity
  8
TK1
100
AcDbCircle
 10
110.7821112054106
 20
158.6134759414344
 30
0.0
 40
0.5
  0
CIRCLE
  5
2A2A
330
1F
100
AcDbEntity
  8
TK1
100
AcDbCircle
 10
108.2421112054105
 20
158.6134759414344
 30
0.0
 40
0.5
  0
CIRCLE
  5
2A2B
330
1F
100
AcDbEntity
  8
TK1
100
AcDbCircle
 10
105.7021112054105
 20
158.6134759414344
 30
0.0
 40
0.5
  0
CIRCLE
  5
2A2C
330
1F
100
AcDbEntity
  8
TK1
100
AcDbCircle
 10
103.1621112054106
 20
158.6134759414344
 30
0.0
 40
0.5
  0
CIRCLE
  5
2A2D
330
1F
100
AcDbEntity
  8
TK1
100
AcDbCircle
 10
100.6221112054106
 20
158.6134759414344
 30
0.0
 40
0.5
  0
CIRCLE
  5
2A2E
330
1F
100
AcDbEntity
  8
TK1
100
AcDbCircle
 10
110.7821112054106
 20
156.0734759414343
 30
0.0
 40
0.5
  0
CIRCLE
  5
2A2F
330
1F
100
AcDbEntity
  8
TK1
100
AcDbCircle
 10
108.2421112054105
 20
156.0734759414343
 30
0.0
 40
0.5
  0
CIRCLE
  5
2A30
330
1F
100
AcDbEntity
  8
TK1
100
AcDbCircle
 10
105.7021112054105
 20
156.0734759414343
 30
0.0
 40
0.5
  0
CIRCLE
  5
2A31
330
1F
100
AcDbEntity
  8
TK1
100
AcDbCircle
 10
103.1621112054106
 20
156.0734759414343
 30
0.0
 40
0.5
  0
CIRCLE
  5
2A32
330
1F
100
AcDbEntity
  8
TK1
100
AcDbCircle
 10
100.6221112054106
 20
156.0734759414343
 30
0.0
 40
0.5
  0
CIRCLE
  5
2A33
330
1F
100
AcDbEntity
  8
TK1
100
AcDbCircle
 10
110.7821112054106
 20
153.5334759414343
 30
0.0
 40
0.5
  0
CIRCLE
  5
2A34
330
1F
100
AcDbEntity
  8
TK1
100
AcDbCircle
 10
108.2421112054105
 20
153.5334759414343
 30
0.0
 40
0.5
  0
CIRCLE
  5
2A35
330
1F
100
AcDbEntity
  8
TK1
100
AcDbCircle
 10
105.7021112054105
 20
153.5334759414343
 30
0.0
 40
0.5
  0
CIRCLE
  5
2A36
330
1F
100
AcDbEntity
  8
TK1
100
AcDbCircle
 10
103.1621112054106
 20
153.5334759414343
 30
0.0
 40
0.5
  0
CIRCLE
  5
2A37
330
1F
100
AcDbEntity
  8
TK1
100
AcDbCircle
 10
100.6221112054106
 20
153.5334759414343
 30
0.0
 40
0.5
  0
CIRCLE
  5
2A38
330
1F
100
AcDbEntity
  8
TK1
100
AcDbCircle
 10
110.7821112054106
 20
150.9934759414343
 30
0.0
 40
0.5
  0
CIRCLE
  5
2A39
330
1F
100
AcDbEntity
  8
TK1
100
AcDbCircle
 10
108.2421112054105
 20
150.9934759414343
 30
0.0
 40
0.5
  0
CIRCLE
  5
2A3A
330
1F
100
AcDbEntity
  8
TK1
100
AcDbCircle
 10
105.7021112054105
 20
150.9934759414343
 30
0.0
 40
0.5
  0
CIRCLE
  5
2A3B
330
1F
100
AcDbEntity
  8
TK1
100
AcDbCircle
 10
103.1621112054106
 20
150.9934759414343
 30
0.0
 40
0.5
  0
CIRCLE
  5
2A3C
330
1F
100
AcDbEntity
  8
TK1
100
AcDbCircle
 10
100.6221112054106
 20
150.9934759414343
 30
0.0
 40
0.5
  0
CIRCLE
  5
2A3D
330
1F
100
AcDbEntity
  8
TK1
100
AcDbCircle
 10
110.7821112054106
 20
148.4534759414343
 30
0.0
 40
0.5
  0
CIRCLE
  5
2A3E
330
1F
100
AcDbEntity
  8
TK1
100
AcDbCircle
 10
108.2421112054105
 20
148.4534759414343
 30
0.0
 40
0.5
  0
CIRCLE
  5
2A3F
330
1F
100
AcDbEntity
  8
TK1
100
AcDbCircle
 10
105.7021112054105
 20
148.4534759414343
 30
0.0
 40
0.5
  0
CIRCLE
  5
2A40
330
1F
100
AcDbEntity
  8
TK1
100
AcDbCircle
 10
103.1621112054106
 20
148.4534759414343
 30
0.0
 40
0.5
  0
CIRCLE
  5
2A41
330
1F
100
AcDbEntity
  8
TK1
100
AcDbCircle
 10
100.6221112054106
 20
148.4534759414343
 30
0.0
 40
0.5
  0
CIRCLE
  5
2A42
330
1F
100
AcDbEntity
  8
TK1
100
AcDbCircle
 10
110.7821112054106
 20
145.9134759414344
 30
0.0
 40
0.5
  0
CIRCLE
  5
2A43
330
1F
100
AcDbEntity
  8
TK1
100
AcDbCircle
 10
108.2421112054105
 20
145.9134759414344
 30
0.0
 40
0.5
  0
CIRCLE
  5
2A44
330
1F
100
AcDbEntity
  8
TK1
100
AcDbCircle
 10
105.7021112054105
 20
145.9134759414344
 30
0.0
 40
0.5
  0
CIRCLE
  5
2A45
330
1F
100
AcDbEntity
  8
TK1
100
AcDbCircle
 10
103.1621112054106
 20
145.9134759414344
 30
0.0
 40
0.5
  0
CIRCLE
  5
2A46
330
1F
100
AcDbEntity
  8
TK1
100
AcDbCircle
 10
100.6221112054106
 20
145.9134759414344
 30
0.0
 40
0.5
  0
CIRCLE
  5
2A47
330
1F
100
AcDbEntity
  8
TK1
100
AcDbCircle
 10
110.7821112054106
 20
143.3734759414344
 30
0.0
 40
0.5
  0
CIRCLE
  5
2A48
330
1F
100
AcDbEntity
  8
TK1
100
AcDbCircle
 10
108.2421112054105
 20
143.3734759414344
 30
0.0
 40
0.5
  0
CIRCLE
  5
2A49
330
1F
100
AcDbEntity
  8
TK1
100
AcDbCircle
 10
105.7021112054105
 20
143.3734759414344
 30
0.0
 40
0.5
  0
CIRCLE
  5
2A4A
330
1F
100
AcDbEntity
  8
TK1
100
AcDbCircle
 10
103.1621112054106
 20
143.3734759414344
 30
0.0
 40
0.5
  0
CIRCLE
  5
2A4B
330
1F
100
AcDbEntity
  8
TK1
100
AcDbCircle
 10
100.6221112054106
 20
143.3734759414344
 30
0.0
 40
0.5
  0
CIRCLE
  5
2A4C
330
1F
100
AcDbEntity
  8
TK1
100
AcDbCircle
 10
110.7821112054106
 20
140.8334759414343
 30
0.0
 40
0.5
  0
CIRCLE
  5
2A4D
330
1F
100
AcDbEntity
  8
TK1
100
AcDbCircle
 10
108.2421112054105
 20
140.8334759414343
 30
0.0
 40
0.5
  0
CIRCLE
  5
2A4E
330
1F
100
AcDbEntity
  8
TK1
100
AcDbCircle
 10
105.7021112054105
 20
140.8334759414343
 30
0.0
 40
0.5
  0
CIRCLE
  5
2A4F
330
1F
100
AcDbEntity
  8
TK1
100
AcDbCircle
 10
103.1621112054106
 20
140.8334759414343
 30
0.0
 40
0.5
  0
CIRCLE
  5
2A50
330
1F
100
AcDbEntity
  8
TK1
100
AcDbCircle
 10
100.6221112054106
 20
140.8334759414343
 30
0.0
 40
0.5
  0
CIRCLE
  5
2A51
330
1F
100
AcDbEntity
  8
TK1
100
AcDbCircle
 10
110.7821112054106
 20
138.2934759414343
 30
0.0
 40
0.5
  0
CIRCLE
  5
2A52
330
1F
100
AcDbEntity
  8
TK1
100
AcDbCircle
 10
108.2421112054105
 20
138.2934759414343
 30
0.0
 40
0.5
  0
CIRCLE
  5
2A53
330
1F
100
AcDbEntity
  8
TK1
100
AcDbCircle
 10
105.7021112054105
 20
138.2934759414343
 30
0.0
 40
0.5
  0
CIRCLE
  5
2A54
330
1F
100
AcDbEntity
  8
TK1
100
AcDbCircle
 10
103.1621112054106
 20
138.2934759414343
 30
0.0
 40
0.5
  0
CIRCLE
  5
2A55
330
1F
100
AcDbEntity
  8
TK1
100
AcDbCircle
 10
100.6221112054106
 20
138.2934759414343
 30
0.0
 40
0.5
  0
CIRCLE
  5
2A56
330
1F
100
AcDbEntity
  8
TK1
100
AcDbCircle
 10
110.7821112054106
 20
135.7534759414343
 30
0.0
 40
0.5
  0
CIRCLE
  5
2A57
330
1F
100
AcDbEntity
  8
TK1
100
AcDbCircle
 10
108.2421112054105
 20
135.7534759414343
 30
0.0
 40
0.5
  0
CIRCLE
  5
2A58
330
1F
100
AcDbEntity
  8
TK1
100
AcDbCircle
 10
105.7021112054105
 20
135.7534759414343
 30
0.0
 40
0.5
  0
CIRCLE
  5
2A59
330
1F
100
AcDbEntity
  8
TK1
100
AcDbCircle
 10
103.1621112054106
 20
135.7534759414343
 30
0.0
 40
0.5
  0
CIRCLE
  5
2A5A
330
1F
100
AcDbEntity
  8
TK1
100
AcDbCircle
 10
100.6221112054106
 20
135.7534759414343
 30
0.0
 40
0.5
  0
CIRCLE
  5
2A5B
330
1F
100
AcDbEntity
  8
TK1
100
AcDbCircle
 10
100.6221112054106
 20
234.8134759414342
 30
0.0
 40
0.5
  0
CIRCLE
  5
2A5C
330
1F
100
AcDbEntity
  8
TK1
100
AcDbCircle
 10
103.1621112054106
 20
234.8134759414342
 30
0.0
 40
0.5
  0
CIRCLE
  5
2A5D
330
1F
100
AcDbEntity
  8
TK1
100
AcDbCircle
 10
105.7021112054105
 20
234.8134759414342
 30
0.0
 40
0.5
  0
CIRCLE
  5
2A5E
330
1F
100
AcDbEntity
  8
TK1
100
AcDbCircle
 10
108.2421112054105
 20
234.8134759414342
 30
0.0
 40
0.5
  0
CIRCLE
  5
2A5F
330
1F
100
AcDbEntity
  8
TK1
100
AcDbCircle
 10
110.7821112054106
 20
234.8134759414342
 30
0.0
 40
0.5
  0
CIRCLE
  5
2A60
330
1F
100
AcDbEntity
  8
TK1
100
AcDbCircle
 10
113.3221112054106
 20
234.8134759414342
 30
0.0
 40
0.5
  0
CIRCLE
  5
2A61
330
1F
100
AcDbEntity
  8
TK1
100
AcDbCircle
 10
100.6221112054106
 20
232.2734759414343
 30
0.0
 40
0.5
  0
CIRCLE
  5
2A62
330
1F
100
AcDbEntity
  8
TK1
100
AcDbCircle
 10
103.1621112054106
 20
232.2734759414343
 30
0.0
 40
0.5
  0
CIRCLE
  5
2A63
330
1F
100
AcDbEntity
  8
TK1
100
AcDbCircle
 10
105.7021112054105
 20
232.2734759414343
 30
0.0
 40
0.5
  0
CIRCLE
  5
2A64
330
1F
100
AcDbEntity
  8
TK1
100
AcDbCircle
 10
108.2421112054105
 20
232.2734759414343
 30
0.0
 40
0.5
  0
CIRCLE
  5
2A65
330
1F
100
AcDbEntity
  8
TK1
100
AcDbCircle
 10
110.7821112054106
 20
232.2734759414343
 30
0.0
 40
0.5
  0
CIRCLE
  5
2A66
330
1F
100
AcDbEntity
  8
TK1
100
AcDbCircle
 10
113.3221112054106
 20
232.2734759414343
 30
0.0
 40
0.5
  0
CIRCLE
  5
2A67
330
1F
100
AcDbEntity
  8
TK1
100
AcDbCircle
 10
100.6221112054106
 20
229.7334759414344
 30
0.0
 40
0.5
  0
CIRCLE
  5
2A68
330
1F
100
AcDbEntity
  8
TK1
100
AcDbCircle
 10
103.1621112054106
 20
229.7334759414344
 30
0.0
 40
0.5
  0
CIRCLE
  5
2A69
330
1F
100
AcDbEntity
  8
TK1
100
AcDbCircle
 10
105.7021112054105
 20
229.7334759414344
 30
0.0
 40
0.5
  0
CIRCLE
  5
2A6A
330
1F
100
AcDbEntity
  8
TK1
100
AcDbCircle
 10
108.2421112054105
 20
229.7334759414344
 30
0.0
 40
0.5
  0
CIRCLE
  5
2A6B
330
1F
100
AcDbEntity
  8
TK1
100
AcDbCircle
 10
110.7821112054106
 20
229.7334759414344
 30
0.0
 40
0.5
  0
CIRCLE
  5
2A6C
330
1F
100
AcDbEntity
  8
TK1
100
AcDbCircle
 10
113.3221112054106
 20
229.7334759414344
 30
0.0
 40
0.5
  0
CIRCLE
  5
2A6D
330
1F
100
AcDbEntity
  8
TK1
100
AcDbCircle
 10
100.6221112054106
 20
227.1934759414344
 30
0.0
 40
0.5
  0
CIRCLE
  5
2A6E
330
1F
100
AcDbEntity
  8
TK1
100
AcDbCircle
 10
103.1621112054106
 20
227.1934759414344
 30
0.0
 40
0.5
  0
CIRCLE
  5
2A6F
330
1F
100
AcDbEntity
  8
TK1
100
AcDbCircle
 10
105.7021112054105
 20
227.1934759414344
 30
0.0
 40
0.5
  0
CIRCLE
  5
2A70
330
1F
100
AcDbEntity
  8
TK1
100
AcDbCircle
 10
108.2421112054105
 20
227.1934759414344
 30
0.0
 40
0.5
  0
CIRCLE
  5
2A71
330
1F
100
AcDbEntity
  8
TK1
100
AcDbCircle
 10
110.7821112054106
 20
227.1934759414344
 30
0.0
 40
0.5
  0
CIRCLE
  5
2A72
330
1F
100
AcDbEntity
  8
TK1
100
AcDbCircle
 10
113.3221112054106
 20
227.1934759414344
 30
0.0
 40
0.5
  0
CIRCLE
  5
2A73
330
1F
100
AcDbEntity
  8
TK1
100
AcDbCircle
 10
100.6221112054106
 20
224.6534759414344
 30
0.0
 40
0.5
  0
CIRCLE
  5
2A74
330
1F
100
AcDbEntity
  8
TK1
100
AcDbCircle
 10
103.1621112054106
 20
224.6534759414344
 30
0.0
 40
0.5
  0
CIRCLE
  5
2A75
330
1F
100
AcDbEntity
  8
TK1
100
AcDbCircle
 10
105.7021112054105
 20
224.6534759414344
 30
0.0
 40
0.5
  0
CIRCLE
  5
2A76
330
1F
100
AcDbEntity
  8
TK1
100
AcDbCircle
 10
108.2421112054105
 20
224.6534759414344
 30
0.0
 40
0.5
  0
CIRCLE
  5
2A77
330
1F
100
AcDbEntity
  8
TK1
100
AcDbCircle
 10
110.7821112054106
 20
224.6534759414344
 30
0.0
 40
0.5
  0
CIRCLE
  5
2A78
330
1F
100
AcDbEntity
  8
TK1
100
AcDbCircle
 10
113.3221112054106
 20
224.6534759414344
 30
0.0
 40
0.5
  0
CIRCLE
  5
2A79
330
1F
100
AcDbEntity
  8
TK1
100
AcDbCircle
 10
100.6221112054106
 20
222.1134759414344
 30
0.0
 40
0.5
  0
CIRCLE
  5
2A7A
330
1F
100
AcDbEntity
  8
TK1
100
AcDbCircle
 10
103.1621112054106
 20
222.1134759414344
 30
0.0
 40
0.5
  0
CIRCLE
  5
2A7B
330
1F
100
AcDbEntity
  8
TK1
100
AcDbCircle
 10
105.7021112054105
 20
222.1134759414344
 30
0.0
 40
0.5
  0
CIRCLE
  5
2A7C
330
1F
100
AcDbEntity
  8
TK1
100
AcDbCircle
 10
108.2421112054105
 20
222.1134759414344
 30
0.0
 40
0.5
  0
CIRCLE
  5
2A7D
330
1F
100
AcDbEntity
  8
TK1
100
AcDbCircle
 10
110.7821112054106
 20
222.1134759414344
 30
0.0
 40
0.5
  0
CIRCLE
  5
2A7E
330
1F
100
AcDbEntity
  8
TK1
100
AcDbCircle
 10
113.3221112054106
 20
222.1134759414344
 30
0.0
 40
0.5
  0
CIRCLE
  5
2A7F
330
1F
100
AcDbEntity
  8
TK1
100
AcDbCircle
 10
100.6221112054106
 20
219.5734759414342
 30
0.0
 40
0.5
  0
CIRCLE
  5
2A80
330
1F
100
AcDbEntity
  8
TK1
100
AcDbCircle
 10
103.1621112054106
 20
219.5734759414342
 30
0.0
 40
0.5
  0
CIRCLE
  5
2A81
330
1F
100
AcDbEntity
  8
TK1
100
AcDbCircle
 10
105.7021112054105
 20
219.5734759414342
 30
0.0
 40
0.5
  0
CIRCLE
  5
2A82
330
1F
100
AcDbEntity
  8
TK1
100
AcDbCircle
 10
108.2421112054105
 20
219.5734759414342
 30
0.0
 40
0.5
  0
CIRCLE
  5
2A83
330
1F
100
AcDbEntity
  8
TK1
100
AcDbCircle
 10
110.7821112054106
 20
219.5734759414342
 30
0.0
 40
0.5
  0
CIRCLE
  5
2A84
330
1F
100
AcDbEntity
  8
TK1
100
AcDbCircle
 10
113.3221112054106
 20
219.5734759414342
 30
0.0
 40
0.5
  0
CIRCLE
  5
2A85
330
1F
100
AcDbEntity
  8
TK1
100
AcDbCircle
 10
100.6221112054106
 20
217.0334759414343
 30
0.0
 40
0.5
  0
CIRCLE
  5
2A86
330
1F
100
AcDbEntity
  8
TK1
100
AcDbCircle
 10
103.1621112054106
 20
217.0334759414343
 30
0.0
 40
0.5
  0
CIRCLE
  5
2A87
330
1F
100
AcDbEntity
  8
TK1
100
AcDbCircle
 10
105.7021112054105
 20
217.0334759414343
 30
0.0
 40
0.5
  0
CIRCLE
  5
2A88
330
1F
100
AcDbEntity
  8
TK1
100
AcDbCircle
 10
108.2421112054105
 20
217.0334759414343
 30
0.0
 40
0.5
  0
CIRCLE
  5
2A89
330
1F
100
AcDbEntity
  8
TK1
100
AcDbCircle
 10
110.7821112054106
 20
217.0334759414343
 30
0.0
 40
0.5
  0
CIRCLE
  5
2A8A
330
1F
100
AcDbEntity
  8
TK1
100
AcDbCircle
 10
113.3221112054106
 20
217.0334759414343
 30
0.0
 40
0.5
  0
CIRCLE
  5
2A8B
330
1F
100
AcDbEntity
  8
TK1
100
AcDbCircle
 10
100.6221112054106
 20
214.4934759414343
 30
0.0
 40
0.5
  0
CIRCLE
  5
2A8C
330
1F
100
AcDbEntity
  8
TK1
100
AcDbCircle
 10
103.1621112054106
 20
214.4934759414343
 30
0.0
 40
0.5
  0
CIRCLE
  5
2A8D
330
1F
100
AcDbEntity
  8
TK1
100
AcDbCircle
 10
105.7021112054105
 20
214.4934759414343
 30
0.0
 40
0.5
  0
CIRCLE
  5
2A8E
330
1F
100
AcDbEntity
  8
TK1
100
AcDbCircle
 10
108.2421112054105
 20
214.4934759414343
 30
0.0
 40
0.5
  0
CIRCLE
  5
2A8F
330
1F
100
AcDbEntity
  8
TK1
100
AcDbCircle
 10
110.7821112054106
 20
214.4934759414343
 30
0.0
 40
0.5
  0
CIRCLE
  5
2A90
330
1F
100
AcDbEntity
  8
TK1
100
AcDbCircle
 10
113.3221112054106
 20
214.4934759414343
 30
0.0
 40
0.5
  0
CIRCLE
  5
2A91
330
1F
100
AcDbEntity
  8
TK1
100
AcDbCircle
 10
100.6221112054106
 20
211.9534759414344
 30
0.0
 40
0.5
  0
CIRCLE
  5
2A92
330
1F
100
AcDbEntity
  8
TK1
100
AcDbCircle
 10
103.1621112054106
 20
211.9534759414344
 30
0.0
 40
0.5
  0
CIRCLE
  5
2A93
330
1F
100
AcDbEntity
  8
TK1
100
AcDbCircle
 10
105.7021112054105
 20
211.9534759414344
 30
0.0
 40
0.5
  0
CIRCLE
  5
2A94
330
1F
100
AcDbEntity
  8
TK1
100
AcDbCircle
 10
108.2421112054105
 20
211.9534759414344
 30
0.0
 40
0.5
  0
CIRCLE
  5
2A95
330
1F
100
AcDbEntity
  8
TK1
100
AcDbCircle
 10
110.7821112054106
 20
211.9534759414344
 30
0.0
 40
0.5
  0
CIRCLE
  5
2A96
330
1F
100
AcDbEntity
  8
TK1
100
AcDbCircle
 10
113.3221112054106
 20
211.9534759414344
 30
0.0
 40
0.5
  0
CIRCLE
  5
2A97
330
1F
100
AcDbEntity
  8
TK1
100
AcDbCircle
 10
100.6221112054106
 20
209.4134759414344
 30
0.0
 40
0.5
  0
CIRCLE
  5
2A98
330
1F
100
AcDbEntity
  8
TK1
100
AcDbCircle
 10
103.1621112054106
 20
209.4134759414344
 30
0.0
 40
0.5
  0
CIRCLE
  5
2A99
330
1F
100
AcDbEntity
  8
TK1
100
AcDbCircle
 10
105.7021112054105
 20
209.4134759414344
 30
0.0
 40
0.5
  0
CIRCLE
  5
2A9A
330
1F
100
AcDbEntity
  8
TK1
100
AcDbCircle
 10
108.2421112054105
 20
209.4134759414344
 30
0.0
 40
0.5
  0
CIRCLE
  5
2A9B
330
1F
100
AcDbEntity
  8
TK1
100
AcDbCircle
 10
110.7821112054106
 20
209.4134759414344
 30
0.0
 40
0.5
  0
CIRCLE
  5
2A9C
330
1F
100
AcDbEntity
  8
TK1
100
AcDbCircle
 10
113.3221112054106
 20
209.4134759414344
 30
0.0
 40
0.5
  0
CIRCLE
  5
2A9D
330
1F
100
AcDbEntity
  8
TK1
100
AcDbCircle
 10
100.6221112054106
 20
206.8734759414343
 30
0.0
 40
0.5
  0
CIRCLE
  5
2A9E
330
1F
100
AcDbEntity
  8
TK1
100
AcDbCircle
 10
103.1621112054106
 20
206.8734759414343
 30
0.0
 40
0.5
  0
CIRCLE
  5
2A9F
330
1F
100
AcDbEntity
  8
TK1
100
AcDbCircle
 10
105.7021112054105
 20
206.8734759414343
 30
0.0
 40
0.5
  0
CIRCLE
  5
2AA0
330
1F
100
AcDbEntity
  8
TK1
100
AcDbCircle
 10
108.2421112054105
 20
206.8734759414343
 30
0.0
 40
0.5
  0
CIRCLE
  5
2AA1
330
1F
100
AcDbEntity
  8
TK1
100
AcDbCircle
 10
110.7821112054106
 20
206.8734759414343
 30
0.0
 40
0.5
  0
CIRCLE
  5
2AA2
330
1F
100
AcDbEntity
  8
TK1
100
AcDbCircle
 10
113.3221112054106
 20
206.8734759414343
 30
0.0
 40
0.5
  0
CIRCLE
  5
2AA3
330
1F
100
AcDbEntity
  8
TK1
100
AcDbCircle
 10
100.6221112054106
 20
204.3334759414342
 30
0.0
 40
0.5
  0
CIRCLE
  5
2AA4
330
1F
100
AcDbEntity
  8
TK1
100
AcDbCircle
 10
103.1621112054106
 20
204.3334759414342
 30
0.0
 40
0.5
  0
CIRCLE
  5
2AA5
330
1F
100
AcDbEntity
  8
TK1
100
AcDbCircle
 10
105.7021112054105
 20
204.3334759414342
 30
0.0
 40
0.5
  0
CIRCLE
  5
2AA6
330
1F
100
AcDbEntity
  8
TK1
100
AcDbCircle
 10
108.2421112054105
 20
204.3334759414342
 30
0.0
 40
0.5
  0
CIRCLE
  5
2AA7
330
1F
100
AcDbEntity
  8
TK1
100
AcDbCircle
 10
110.7821112054106
 20
204.3334759414342
 30
0.0
 40
0.5
  0
CIRCLE
  5
2AA8
330
1F
100
AcDbEntity
  8
TK1
100
AcDbCircle
 10
113.3221112054106
 20
204.3334759414342
 30
0.0
 40
0.5
  0
CIRCLE
  5
2AA9
330
1F
100
AcDbEntity
  8
TK1
100
AcDbCircle
 10
100.6221112054106
 20
201.7934759414343
 30
0.0
 40
0.5
  0
CIRCLE
  5
2AAA
330
1F
100
AcDbEntity
  8
TK1
100
AcDbCircle
 10
103.1621112054106
 20
201.7934759414343
 30
0.0
 40
0.5
  0
CIRCLE
  5
2AAB
330
1F
100
AcDbEntity
  8
TK1
100
AcDbCircle
 10
105.7021112054105
 20
201.7934759414343
 30
0.0
 40
0.5
  0
CIRCLE
  5
2AAC
330
1F
100
AcDbEntity
  8
TK1
100
AcDbCircle
 10
108.2421112054105
 20
201.7934759414343
 30
0.0
 40
0.5
  0
CIRCLE
  5
2AAD
330
1F
100
AcDbEntity
  8
TK1
100
AcDbCircle
 10
110.7821112054106
 20
201.7934759414343
 30
0.0
 40
0.5
  0
CIRCLE
  5
2AAE
330
1F
100
AcDbEntity
  8
TK1
100
AcDbCircle
 10
113.3221112054106
 20
201.7934759414343
 30
0.0
 40
0.5
  0
CIRCLE
  5
2AAF
330
1F
100
AcDbEntity
  8
TK1
100
AcDbCircle
 10
100.6221112054106
 20
199.2534759414343
 30
0.0
 40
0.5
  0
CIRCLE
  5
2AB0
330
1F
100
AcDbEntity
  8
TK1
100
AcDbCircle
 10
103.1621112054106
 20
199.2534759414343
 30
0.0
 40
0.5
  0
CIRCLE
  5
2AB1
330
1F
100
AcDbEntity
  8
TK1
100
AcDbCircle
 10
105.7021112054105
 20
199.2534759414343
 30
0.0
 40
0.5
  0
CIRCLE
  5
2AB2
330
1F
100
AcDbEntity
  8
TK1
100
AcDbCircle
 10
108.2421112054105
 20
199.2534759414343
 30
0.0
 40
0.5
  0
CIRCLE
  5
2AB3
330
1F
100
AcDbEntity
  8
TK1
100
AcDbCircle
 10
110.7821112054106
 20
199.2534759414343
 30
0.0
 40
0.5
  0
CIRCLE
  5
2AB4
330
1F
100
AcDbEntity
  8
TK1
100
AcDbCircle
 10
113.3221112054106
 20
199.2534759414343
 30
0.0
 40
0.5
  0
CIRCLE
  5
2AB5
330
1F
100
AcDbEntity
  8
TK1
100
AcDbCircle
 10
100.6221112054106
 20
196.7134759414343
 30
0.0
 40
0.5
  0
CIRCLE
  5
2AB6
330
1F
100
AcDbEntity
  8
TK1
100
AcDbCircle
 10
103.1621112054106
 20
196.7134759414343
 30
0.0
 40
0.5
  0
CIRCLE
  5
2AB7
330
1F
100
AcDbEntity
  8
TK1
100
AcDbCircle
 10
105.7021112054105
 20
196.7134759414343
 30
0.0
 40
0.5
  0
CIRCLE
  5
2AB8
330
1F
100
AcDbEntity
  8
TK1
100
AcDbCircle
 10
108.2421112054105
 20
196.7134759414343
 30
0.0
 40
0.5
  0
CIRCLE
  5
2AB9
330
1F
100
AcDbEntity
  8
TK1
100
AcDbCircle
 10
110.7821112054106
 20
196.7134759414343
 30
0.0
 40
0.5
  0
CIRCLE
  5
2ABA
330
1F
100
AcDbEntity
  8
TK1
100
AcDbCircle
 10
113.3221112054106
 20
196.7134759414343
 30
0.0
 40
0.5
  0
CIRCLE
  5
2ABB
330
1F
100
AcDbEntity
  8
TK1
100
AcDbCircle
 10
100.6221112054106
 20
194.1734759414344
 30
0.0
 40
0.5
  0
CIRCLE
  5
2ABC
330
1F
100
AcDbEntity
  8
TK1
100
AcDbCircle
 10
103.1621112054106
 20
194.1734759414344
 30
0.0
 40
0.5
  0
CIRCLE
  5
2ABD
330
1F
100
AcDbEntity
  8
TK1
100
AcDbCircle
 10
105.7021112054105
 20
194.1734759414344
 30
0.0
 40
0.5
  0
CIRCLE
  5
2ABE
330
1F
100
AcDbEntity
  8
TK1
100
AcDbCircle
 10
108.2421112054105
 20
194.1734759414344
 30
0.0
 40
0.5
  0
CIRCLE
  5
2ABF
330
1F
100
AcDbEntity
  8
TK1
100
AcDbCircle
 10
110.7821112054106
 20
194.1734759414344
 30
0.0
 40
0.5
  0
CIRCLE
  5
2AC0
330
1F
100
AcDbEntity
  8
TK1
100
AcDbCircle
 10
113.3221112054106
 20
194.1734759414344
 30
0.0
 40
0.5
  0
CIRCLE
  5
2AC1
330
1F
100
AcDbEntity
  8
TK1
100
AcDbCircle
 10
100.6221112054106
 20
191.6334759414343
 30
0.0
 40
0.5
  0
CIRCLE
  5
2AC2
330
1F
100
AcDbEntity
  8
TK1
100
AcDbCircle
 10
103.1621112054106
 20
191.6334759414343
 30
0.0
 40
0.5
  0
CIRCLE
  5
2AC3
330
1F
100
AcDbEntity
  8
TK1
100
AcDbCircle
 10
105.7021112054105
 20
191.6334759414343
 30
0.0
 40
0.5
  0
CIRCLE
  5
2AC4
330
1F
100
AcDbEntity
  8
TK1
100
AcDbCircle
 10
108.2421112054105
 20
191.6334759414343
 30
0.0
 40
0.5
  0
CIRCLE
  5
2AC5
330
1F
100
AcDbEntity
  8
TK1
100
AcDbCircle
 10
110.7821112054106
 20
191.6334759414343
 30
0.0
 40
0.5
  0
CIRCLE
  5
2AC6
330
1F
100
AcDbEntity
  8
TK1
100
AcDbCircle
 10
113.3221112054106
 20
191.6334759414343
 30
0.0
 40
0.5
  0
CIRCLE
  5
2AC7
330
1F
100
AcDbEntity
  8
TK1
100
AcDbCircle
 10
100.6221112054106
 20
189.0934759414343
 30
0.0
 40
0.5
  0
CIRCLE
  5
2AC8
330
1F
100
AcDbEntity
  8
TK1
100
AcDbCircle
 10
103.1621112054106
 20
189.0934759414343
 30
0.0
 40
0.5
  0
CIRCLE
  5
2AC9
330
1F
100
AcDbEntity
  8
TK1
100
AcDbCircle
 10
105.7021112054105
 20
189.0934759414343
 30
0.0
 40
0.5
  0
CIRCLE
  5
2ACA
330
1F
100
AcDbEntity
  8
TK1
100
AcDbCircle
 10
108.2421112054105
 20
189.0934759414343
 30
0.0
 40
0.5
  0
CIRCLE
  5
2ACB
330
1F
100
AcDbEntity
  8
TK1
100
AcDbCircle
 10
110.7821112054106
 20
189.0934759414343
 30
0.0
 40
0.5
  0
CIRCLE
  5
2ACC
330
1F
100
AcDbEntity
  8
TK1
100
AcDbCircle
 10
113.3221112054106
 20
189.0934759414343
 30
0.0
 40
0.5
  0
CIRCLE
  5
2ACD
330
1F
100
AcDbEntity
  8
TK1
100
AcDbCircle
 10
100.6221112054106
 20
186.5534759414343
 30
0.0
 40
0.5
  0
CIRCLE
  5
2ACE
330
1F
100
AcDbEntity
  8
TK1
100
AcDbCircle
 10
103.1621112054106
 20
186.5534759414343
 30
0.0
 40
0.5
  0
CIRCLE
  5
2ACF
330
1F
100
AcDbEntity
  8
TK1
100
AcDbCircle
 10
105.7021112054105
 20
186.5534759414343
 30
0.0
 40
0.5
  0
CIRCLE
  5
2AD0
330
1F
100
AcDbEntity
  8
TK1
100
AcDbCircle
 10
108.2421112054105
 20
186.5534759414343
 30
0.0
 40
0.5
  0
CIRCLE
  5
2AD1
330
1F
100
AcDbEntity
  8
TK1
100
AcDbCircle
 10
110.7821112054106
 20
186.5534759414343
 30
0.0
 40
0.5
  0
CIRCLE
  5
2AD2
330
1F
100
AcDbEntity
  8
TK1
100
AcDbCircle
 10
113.3221112054106
 20
184.0134759414343
 30
0.0
 40
0.5
  0
CIRCLE
  5
2AD3
330
1F
100
AcDbEntity
  8
TK1
100
AcDbCircle
 10
113.3221112054106
 20
186.5534759414343
 30
0.0
 40
0.5
  0
ARC
  5
2AD5
330
1F
100
AcDbEntity
  8
TK1
100
AcDbCircle
 10
130.5921112054102
 20
124.2834759414342
 30
0.0
 40
1.0
100
AcDbArc
 50
270.0
 51
0.0
1001
GENIUS_GENREC_14
1002
{
1000
PYDIR
1011
96.59211120541034
1021
123.2834759414342
1031
0.0
1002
}
1002
{
1000
PXDIR
1011
131.5921112054103
1021
248.2834759414342
1031
0.0
1002
}
1002
{
1000
PORI
1011
131.5921112054103
1021
123.2834759414342
1031
0.0
1002
}
1002
{
1000
PINS
1011
114.0921112054103
1021
185.7834759414342
1031
0.0
1002
}
1002
{
1000
HVAL
1000
35
1002
}
1002
{
1000
H
1070
     2
1002
}
1002
{
1000
WVAL
1000
125
1002
}
1002
{
1000
W
1070
     2
1002
}
1002
{
1000
C
1070
     4
1002
}
1001
GENIUS_GENOBJ-N-REC_13
1002
{
1000
OWNER
1000
GEN
1002
}
1001
GENIUS_GENODEF_13
1002
{
1000
HIER
1070
     0
1002
}
1002
{
1000
MANEDIT
1070
     0
1002
}
1002
{
1000
NOSEL
1070
     0
1002
}
1002
{
1000
BEHIND
1070
     0
1002
}
1002
{
1000
OTHER
1070
     0
1002
}
1002
{
1000
REACTOR
1002
}
  0
LINE
  5
2AD6
102
{ACAD_REACTORS
330
2BD2
330
2C1C
102
}
330
1F
100
AcDbEntity
  8
TK1
100
AcDbLine
 10
98.59211120541022
 20
123.2834759414342
 30
0.0
 11
130.5921112054102
 21
123.2834759414341
 31
0.0
1001
GENIUS_GENREC_14
1002
{
1000
PYDIR
1011
97.09211120540977
1021
123.2834759414342
1031
0.0
1002
}
1002
{
1000
PXDIR
1011
132.0921112054097
1021
248.2834759414342
1031
0.0
1002
}
1002
{
1000
PORI
1011
132.0921112054097
1021
123.2834759414342
1031
0.0
1002
}
1002
{
1000
PINS
1011
114.5921112054097
1021
185.7834759414342
1031
0.0
1002
}
1002
{
1000
HVAL
1000
35
1002
}
1002
{
1000
H
1070
     2
1002
}
1002
{
1000
WVAL
1000
125
1002
}
1002
{
1000
W
1070
     2
1002
}
1002
{
1000
C
1070
     4
1002
}
1001
GENIUS_GENOBJ-N-REC_13
1002
{
1000
OWNER
1000
GEN
1002
}
1001
GENIUS_GENODEF_13
1002
{
1000
HIER
1070
     0
1002
}
1002
{
1000
MANEDIT
1070
     0
1002
}
1002
{
1000
NOSEL
1070
     0
1002
}
1002
{
1000
BEHIND
1070
     0
1002
}
1002
{
1000
OTHER
1070
     0
1002
}
1002
{
1000
REACTOR
1002
}
  0
ARC
  5
2AD7
102
{ACAD_REACTORS
330
2BF6
330
2C1C
102
}
330
1F
100
AcDbEntity
  8
TK1
100
AcDbCircle
 10
98.59211120541012
 20
124.2834759414343
 30
0.0
 40
1.0
100
AcDbArc
 50
180.0
 51
270.0
1001
GENIUS_GENREC_14
1002
{
1000
PYDIR
1011
97.59211120541023
1021
123.2834759414342
1031
0.0
1002
}
1002
{
1000
PXDIR
1011
132.5921112054102
1021
248.2834759414342
1031
0.0
1002
}
1002
{
1000
PORI
1011
132.5921112054102
1021
123.2834759414342
1031
0.0
1002
}
1002
{
1000
PINS
1011
115.0921112054102
1021
185.7834759414342
1031
0.0
1002
}
1002
{
1000
HVAL
1000
35
1002
}
1002
{
1000
H
1070
     2
1002
}
1002
{
1000
WVAL
1000
125
1002
}
1002
{
1000
W
1070
     2
1002
}
1002
{
1000
C
1070
     4
1002
}
1001
GENIUS_GENOBJ-N-REC_13
1002
{
1000
OWNER
1000
GEN
1002
}
1001
GENIUS_GENODEF_13
1002
{
1000
HIER
1070
     0
1002
}
1002
{
1000
MANEDIT
1070
     0
1002
}
1002
{
1000
NOSEL
1070
     0
1002
}
1002
{
1000
BEHIND
1070
     0
1002
}
1002
{
1000
OTHER
1070
     0
1002
}
1002
{
1000
REACTOR
1002
}
  0
LINE
  5
2AD8
330
1F
100
AcDbEntity
  8
TK1
100
AcDbLine
 10
97.59211120541023
 20
246.2834759414344
 30
0.0
 11
97.59211120541023
 21
124.2834759414342
 31
0.0
1001
GENIUS_GENREC_14
1002
{
1000
PYDIR
1011
97.59211120541023
1021
122.7834759414342
1031
0.0
1002
}
1002
{
1000
PXDIR
1011
132.5921112054102
1021
247.7834759414343
1031
0.0
1002
}
1002
{
1000
PORI
1011
132.5921112054102
1021
122.7834759414342
1031
0.0
1002
}
1002
{
1000
PINS
1011
115.0921112054102
1021
185.2834759414342
1031
0.0
1002
}
1002
{
1000
HVAL
1000
35
1002
}
1002
{
1000
H
1070
     2
1002
}
1002
{
1000
WVAL
1000
125
1002
}
1002
{
1000
W
1070
     2
1002
}
1002
{
1000
C
1070
     4
1002
}
1001
GENIUS_GENOBJ-N-REC_13
1002
{
1000
OWNER
1000
GEN
1002
}
1001
GENIUS_GENODEF_13
1002
{
1000
HIER
1070
     0
1002
}
1002
{
1000
MANEDIT
1070
     0
1002
}
1002
{
1000
NOSEL
1070
     0
1002
}
1002
{
1000
BEHIND
1070
     0
1002
}
1002
{
1000
OTHER
1070
     0
1002
}
1002
{
1000
REACTOR
1002
}
  0
ARC
  5
2AD9
330
1F
100
AcDbEntity
  8
TK1
100
AcDbCircle
 10
98.59211120541012
 20
246.2834759414344
 30
0.0
 40
1.0
100
AcDbArc
 50
90.0
 51
180.0
1001
GENIUS_GENREC_14
1002
{
1000
PYDIR
1011
97.59211120541023
1021
122.2834759414342
1031
0.0
1002
}
1002
{
1000
PXDIR
1011
132.5921112054102
1021
247.2834759414343
1031
0.0
1002
}
1002
{
1000
PORI
1011
132.5921112054102
1021
122.2834759414342
1031
0.0
1002
}
1002
{
1000
PINS
1011
115.0921112054102
1021
184.7834759414342
1031
0.0
1002
}
1002
{
1000
HVAL
1000
35
1002
}
1002
{
1000
H
1070
     2
1002
}
1002
{
1000
WVAL
1000
125
1002
}
1002
{
1000
W
1070
     2
1002
}
1002
{
1000
C
1070
     4
1002
}
1001
GENIUS_GENOBJ-N-REC_13
1002
{
1000
OWNER
1000
GEN
1002
}
1001
GENIUS_GENODEF_13
1002
{
1000
HIER
1070
     0
1002
}
1002
{
1000
MANEDIT
1070
     0
1002
}
1002
{
1000
NOSEL
1070
     0
1002
}
1002
{
1000
BEHIND
1070
     0
1002
}
1002
{
1000
OTHER
1070
     0
1002
}
1002
{
1000
REACTOR
1002
}
  0
LINE
  5
2ADA
102
{ACAD_REACTORS
330
2C68
102
}
330
1F
100
AcDbEntity
  8
TK1
100
AcDbLine
 10
130.5921112054103
 20
247.2834759414341
 30
0.0
 11
98.59211120541022
 21
247.2834759414344
 31
0.0
1001
GENIUS_GENREC_14
1002
{
1000
PYDIR
1011
97.09211120540977
1021
122.2834759414342
1031
0.0
1002
}
1002
{
1000
PXDIR
1011
132.0921112054097
1021
247.2834759414343
1031
0.0
1002
}
1002
{
1000
PORI
1011
132.0921112054097
1021
122.2834759414342
1031
0.0
1002
}
1002
{
1000
PINS
1011
114.5921112054097
1021
184.7834759414342
1031
0.0
1002
}
1002
{
1000
HVAL
1000
35
1002
}
1002
{
1000
H
1070
     2
1002
}
1002
{
1000
WVAL
1000
125
1002
}
1002
{
1000
W
1070
     2
1002
}
1002
{
1000
C
1070
     4
1002
}
1001
GENIUS_GENOBJ-N-REC_13
1002
{
1000
OWNER
1000
GEN
1002
}
1001
GENIUS_GENODEF_13
1002
{
1000
HIER
1070
     0
1002
}
1002
{
1000
MANEDIT
1070
     0
1002
}
1002
{
1000
NOSEL
1070
     0
1002
}
1002
{
1000
BEHIND
1070
     0
1002
}
1002
{
1000
OTHER
1070
     0
1002
}
1002
{
1000
REACTOR
1002
}
  0
ARC
  5
2ADB
102
{ACAD_REACTORS
330
2BD2
102
}
330
1F
100
AcDbEntity
  8
TK1
100
AcDbCircle
 10
130.5921112054102
 20
246.2834759414342
 30
0.0
 40
1.0
100
AcDbArc
 50
0.0
 51
90.0
1001
GENIUS_GENREC_14
1002
{
1000
PYDIR
1011
96.59211120541023
1021
122.2834759414342
1031
0.0
1002
}
1002
{
1000
PXDIR
1011
131.5921112054103
1021
247.2834759414343
1031
0.0
1002
}
1002
{
1000
PORI
1011
131.5921112054102
1021
122.2834759414342
1031
0.0
1002
}
1002
{
1000
PINS
1011
114.0921112054103
1021
184.7834759414342
1031
0.0
1002
}
1002
{
1000
HVAL
1000
35
1002
}
1002
{
1000
H
1070
     2
1002
}
1002
{
1000
WVAL
1000
125
1002
}
1002
{
1000
W
1070
     2
1002
}
1002
{
1000
C
1070
     4
1002
}
1001
GENIUS_GENOBJ-N-REC_13
1002
{
1000
OWNER
1000
GEN
1002
}
1001
GENIUS_GENODEF_13
1002
{
1000
HIER
1070
     0
1002
}
1002
{
1000
MANEDIT
1070
     0
1002
}
1002
{
1000
NOSEL
1070
     0
1002
}
1002
{
1000
BEHIND
1070
     0
1002
}
1002
{
1000
OTHER
1070
     0
1002
}
1002
{
1000
REACTOR
1002
}
  0
LINE
  5
2ADC
102
{ACAD_REACTORS
330
2BF6
102
}
330
1F
100
AcDbEntity
  8
TK1
100
AcDbLine
 10
131.5921112054102
 20
124.2834759414341
 30
0.0
 11
131.5921112054103
 21
246.2834759414342
 31
0.0
1001
GENIUS_GENREC_14
1002
{
1000
PYDIR
1011
96.59211120541034
1021
122.7834759414342
1031
0.0
1002
}
1002
{
1000
PXDIR
1011
131.5921112054103
1021
247.7834759414343
1031
0.0
1002
}
1002
{
1000
PORI
1011
131.5921112054103
1021
122.7834759414342
1031
0.0
1002
}
1002
{
1000
PINS
1011
114.0921112054103
1021
185.2834759414342
1031
0.0
1002
}
1002
{
1000
HVAL
1000
35
1002
}
1002
{
1000
H
1070
     2
1002
}
1002
{
1000
WVAL
1000
125
1002
}
1002
{
1000
W
1070
     2
1002
}
1002
{
1000
C
1070
     4
1002
}
1001
GENIUS_GENOBJ-N-REC_13
1002
{
1000
OWNER
1000
GEN
1002
}
1001
GENIUS_GENODEF_13
1002
{
1000
HIER
1070
     0
1002
}
1002
{
1000
MANEDIT
1070
     0
1002
}
1002
{
1000
NOSEL
1070
     0
1002
}
1002
{
1000
BEHIND
1070
     0
1002
}
1002
{
1000
OTHER
1070
     0
1002
}
1002
{
1000
REACTOR
1002
}
  0
MTEXT
  5
2ADD
330
1F
100
AcDbEntity
  8
AM_6
100
AcDbMText
 10
101.6669372736919
 20
125.8516887654449
 30
0.0
 40
2.0
 41
17.06294954997611
 71
     1
 72
     5
  1
{\fArial|b0|i0|c0|p32;TAKACHI}
 73
     1
 44
1.0
1001
GENIUS_AMGTXT_16
1040
3.5
1040
0.12
1001
ACAD
1000
MTEXTBEGIN
1070
    73
1070
     1
1070
    44
1040
1.0
1070
    74
1070
     0
1000
MTEXTEND
  0
MTEXT
  5
2ADE
330
1F
100
AcDbEntity
  8
AM_6
100
AcDbMText
 10
115.1450800282759
 20
125.8516887654449
 30
0.0
 40
2.0
 41
17.06294954997611
 71
     1
 72
     5
  1
{\fArial|b0|i0|c0|p32;TNF34-124}
 73
     1
 44
1.0
1001
GENIUS_AMGTXT_16
1040
3.5
1040
0.12
1001
ACAD
1000
MTEXTBEGIN
1070
    73
1070
     1
1070
    44
1040
1.0
1070
    74
1070
     0
1000
MTEXTEND
  0
LINE
  5
2AE2
330
1F
100
AcDbEntity
  8
AM_7
  6
AM_ISO08W050x2
100
AcDbLine
 10
100.6221112054106
 20
244.9734759414343
 30
0.0
 11
104.1221112054106
 21
244.9734759414343
 31
0.0
1001
GENIUS_GENOREF_13
1005
2AFE
  0
LINE
  5
2AE3
102
{ACAD_REACTORS
330
2BAE
102
}
330
1F
100
AcDbEntity
  8
AM_7
  6
AM_ISO08W050x2
100
AcDbLine
 10
100.6221112054106
 20
244.9734759414343
 30
0.0
 11
100.6221112054106
 21
248.4734759414343
 31
0.0
1001
GENIUS_GENOREF_13
1005
2AFE
  0
LINE
  5
2AE4
102
{ACAD_REACTORS
330
2C42
330
2C68
102
}
330
1F
100
AcDbEntity
  8
AM_7
  6
AM_ISO08W050x2
100
AcDbLine
 10
100.6221112054106
 20
244.9734759414343
 30
0.0
 11
97.12211120541065
 21
244.9734759414343
 31
0.0
1001
GENIUS_GENOREF_13
1005
2AFE
  0
LINE
  5
2AE5
330
1F
100
AcDbEntity
  8
AM_7
  6
AM_ISO08W050x2
100
AcDbLine
 10
100.6221112054106
 20
244.9734759414343
 30
0.0
 11
100.6221112054106
 21
241.4734759414343
 31
0.0
1001
GENIUS_GENOREF_13
1005
2AFE
  0
CIRCLE
  5
2AE6
330
1F
100
AcDbEntity
  8
0
100
AcDbCircle
 10
100.6221112054106
 20
244.9734759414343
 30
0.0
 40
0.5
  0
POINT
  5
2AFE
330
1F
100
AcDbEntity
  8
0
 60
     1
100
AcDbPoint
 10
-703.739649600081
 20
-1.5612375549114
 30
0.0
1001
GENIUS_GENOBJ-N-CRS_13
1002
{
1000
OWNER
1000
GEN
1002
}
1001
GENIUS_GENODEF_13
1002
{
1000
HIER
1070
    10
1002
}
1002
{
1000
MANEDIT
1070
     0
1002
}
1002
{
1000
NOSEL
1070
     0
1002
}
1002
{
1000
BEHIND
1070
     0
1002
}
1002
{
1000
OTHER
1070
     0
1002
}
1002
{
1000
REACTOR
1002
}
1001
GENIUS_GENOENT_13
1002
{
1000
MYREF
1005
2AFE
1002
}
1002
{
1000
GRP
1005
0
1002
}
1001
GENIUS_GENOLIS_13
1002
{
1000
ENT
1005
2AE5
1005
2AE4
1005
2AE3
1005
2AE2
1002
}
  0
POINT
  5
2AFF
330
1F
100
AcDbEntity
  8
0
 60
     1
100
AcDbPoint
 10
-503.3881450532804
 20
78.3671128201222
 30
0.0
1001
GENIUS_GENOBJ-N-CRS_13
1002
{
1000
OWNER
1000
GEN
1002
}
1001
GENIUS_GENOENT_13
1002
{
1000
MYREF
1005
2AFF
1002
}
1002
{
1000
GRP
1005
0
1002
}
1001
GENIUS_GENODEF_13
1002
{
1000
HIER
1070
    10
1002
}
1002
{
1000
MANEDIT
1070
     0
1002
}
1002
{
1000
NOSEL
1070
     0
1002
}
1002
{
1000
BEHIND
1070
     0
1002
}
1002
{
1000
OTHER
1070
     0
1002
}
1002
{
1000
REACTOR
1002
}
1001
GENIUS_GENOLIS_13
1002
{
1000
ENT
1005
289E
1005
289F
1005
28A0
1005
28A1
1002
}
  0
POINT
  5
2B00
330
1F
100
AcDbEntity
  8
0
 60
     1
100
AcDbPoint
 10
-503.3881450532804
 20
78.3671128201222
 30
0.0
1001
GENIUS_GENOENT_13
1002
{
1000
MYREF
1005
2B00
1002
}
1002
{
1000
GRP
1005
0
1002
}
1001
GENIUS_GENODEF_13
1002
{
1000
HIER
1070
    10
1002
}
1002
{
1000
MANEDIT
1070
     0
1002
}
1002
{
1000
NOSEL
1070
     0
1002
}
1002
{
1000
BEHIND
1070
     0
1002
}
1002
{
1000
OTHER
1070
     0
1002
}
1002
{
1000
REACTOR
1002
}
1001
GENIUS_GENOBJ-N-CRS_13
1002
{
1000
OWNER
1000
GEN
1002
}
1001
GENIUS_GENOLIS_13
1002
{
1000
ENT
1005
2899
1005
289A
1005
289B
1005
289C
1002
}
  0
POINT
  5
2B01
330
1F
100
AcDbEntity
  8
0
 60
     1
100
AcDbPoint
 10
-503.3881450532804
 20
78.3671128201222
 30
0.0
1001
GENIUS_GENODEF_13
1002
{
1000
HIER
1070
    10
1002
}
1002
{
1000
MANEDIT
1070
     0
1002
}
1002
{
1000
NOSEL
1070
     0
1002
}
1002
{
1000
BEHIND
1070
     0
1002
}
1002
{
1000
OTHER
1070
     0
1002
}
1002
{
1000
REACTOR
1002
}
1001
GENIUS_GENOLIS_13
1002
{
1000
ENT
1005
2894
1005
2895
1005
2896
1005
2897
1002
}
1001
GENIUS_GENOENT_13
1002
{
1000
MYREF
1005
2B01
1002
}
1002
{
1000
GRP
1005
0
1002
}
1001
GENIUS_GENOBJ-N-CRS_13
1002
{
1000
OWNER
1000
GEN
1002
}
  0
DIMENSION
  5
2BA2
102
{ACAD_XDICTIONARY
360
2BAD
102
}
102
{ACAD_REACTORS
330
2BAE
102
}
330
1F
100
AcDbEntity
  8
AM_5
100
AcDbDimension
  2
*D38
 10
128.5621112054107
 20
259.2834769414344
 30
0.0
 11
114.5921112054107
 21
262.5338214296234
 31
0.0
 70
    32
 71
     5
 42
27.94000000000006
  3
AM_ISO$0
100
AcDbAlignedDimension
 13
100.6221112054106
 23
248.4734759414343
 33
0.0
 14
128.5621112054107
 24
248.4734759414343
 34
0.0
100
AcDbRotatedDimension
1001
ACAD
1000
DSTYLE
1002
{
1070
    40
1040
1.0
1070
   144
1040
1.0
1002
}
  0
DIMENSION
  5
2BC6
102
{ACAD_XDICTIONARY
360
2BD1
102
}
102
{ACAD_REACTORS
330
2BD2
102
}
330
1F
100
AcDbEntity
  8
AM_5
100
AcDbDimension
  2
*D39
 10
142.59211120541
 20
123.2834759414341
 30
0.0
 11
139.341766717221
 21
185.2834759414341
 31
0.0
 70
    32
 71
     5
 42
124.0
  3
AM_ISO$0
100
AcDbAlignedDimension
 13
130.5921112054102
 23
247.2834759414341
 33
0.0
 14
130.5921112054097
 24
123.2834759414341
 34
0.0
 50
90.0
100
AcDbRotatedDimension
1001
ACAD
1000
DSTYLE
1002
{
1070
    40
1040
1.0
1070
   144
1040
1.0
1002
}
  0
DIMENSION
  5
2BEA
102
{ACAD_XDICTIONARY
360
2BF5
102
}
102
{ACAD_REACTORS
330
2BF6
102
}
330
1F
100
AcDbEntity
  8
AM_5
100
AcDbDimension
  2
*D40
 10
131.5921112054102
 20
112.2834759414341
 30
0.0
 11
114.5921112054101
 21
115.5334759414341
 31
0.0
 70
    32
 71
     5
 42
34.00000000000011
  3
AM_ISO$0
100
AcDbAlignedDimension
 13
97.5921112054101
 23
124.2834759414343
 33
0.0
 14
131.5921112054102
 24
124.2834759414341
 34
0.0
 50
0.0000000000002036
100
AcDbRotatedDimension
1001
ACAD
1000
DSTYLE
1002
{
1070
    40
1040
1.0
1070
   144
1040
1.0
1002
}
  0
DIMENSION
  5
2C0E
102
{ACAD_XDICTIONARY
360
2C1B
102
}
102
{ACAD_REACTORS
330
2C1C
102
}
330
1F
100
AcDbEntity
  8
AM_5
100
AcDbDimension
  2
*D41
 10
85.5921102054102
 20
128.1334759414343
 30
0.0
 11
85.59211020541019
 21
125.7084759414343
 31
0.0
 70
   160
 71
     5
 42
4.850000000000051
  3
AM_ISO$0
100
AcDbAlignedDimension
 13
98.59211120541012
 23
123.2834759414342
 33
0.0
 14
97.11100283676808
 24
128.1334759414343
 34
0.0
 50
90.0
100
AcDbRotatedDimension
1001
ACAD
1000
DSTYLE
1002
{
1070
    40
1040
1.0
1070
   144
1040
1.0
1002
}
  0
DIMENSION
  5
2C36
102
{ACAD_XDICTIONARY
360
2C41
102
}
102
{ACAD_REACTORS
330
2C42
102
}
330
1F
100
AcDbEntity
  8
AM_5
100
AcDbDimension
  2
*D42
 10
85.59211020541017
 20
244.9734759414343
 30
0.0
 11
82.34211020541012
 21
186.5534759414343
 31
0.0
 70
    32
 71
     5
 42
116.84
  3
AM_ISO$0
100
AcDbAlignedDimension
 13
97.11100283676808
 23
128.1334759414343
 33
0.0
 14
97.11100283676806
 24
244.9734759414343
 34
0.0
 50
90.0
100
AcDbRotatedDimension
1001
ACAD
1000
DSTYLE
1002
{
1070
    40
1040
1.0
1070
   144
1040
1.0
1002
}
  0
DIMENSION
  5
2C5A
102
{ACAD_XDICTIONARY
360
2C67
102
}
102
{ACAD_REACTORS
330
2C68
102
}
330
1F
100
AcDbEntity
  8
AM_5
100
AcDbDimension
  2
*D43
 10
85.5921102054102
 20
247.2834759414344
 30
0.0
 11
85.59211020541017
 21
246.1284759414344
 31
0.0
 70
   160
 71
     5
 42
2.310000000000059
  3
AM_ISO$0
100
AcDbAlignedDimension
 13
97.12211120541065
 23
244.9734759414343
 33
0.0
 14
98.59211120541022
 24
247.2834759414344
 34
0.0
 50
90.0
100
AcDbRotatedDimension
1001
ACAD
1000
DSTYLE
1002
{
1070
    40
1040
1.0
1070
   144
1040
1.0
1002
}
  0
DIMENSION
  5
2CA6
330
1F
100
AcDbEntity
  8
AM_5
100
AcDbDimension
  2
*D44
 10
130.5921112054105
 20
124.2834759414344
 30
0.0
 11
139.5848830879922
 21
113.8001856120546
 31
0.0
 70
   164
  1
4-<>
 71
     5
 42
0.9999999999999431
  3
AM_ISO$4
100
AcDbRadialDimension
 15
131.2431986318742
 25
123.5244731989487
 35
0.0
 40
0.0
1001
ACAD
1000
DSTYLE
1002
{
1070
    74
1070
     0
1002
}
  0
DIMENSION
  5
2CB4
330
1F
100
AcDbEntity
  8
AM_5
100
AcDbDimension
  2
*D45
 10
128.1978182695043
 20
244.6309987059151
 30
0.0
 11
138.8713609158097
 21
251.4454620192755
 31
0.0
 70
   163
 71
     5
 42
1.00000000000017
  3
AM_ISO$3
100
AcDbDiametricDimension
 15
128.9264041413169
 25
245.3159531769535
 35
0.0
 40
0.0
1001
ACAD
1000
DSTYLE
1002
{
1070
    40
1040
1.0
1070
   144
1040
1.0
1002
}
  0
VIEWPORT
  5
17C
102
{ACAD_XDICTIONARY
360
2DE4
102
}
330
23
100
AcDbEntity
 67
     1
  8
0
100
AcDbViewport
 10
133.3499908447265
 20
101.5999970436096
 30
0.0
 40
370.2266912936524
 41
228.4221935424805
 68
     1
 69
     1
 12
133.3499908447265
 22
101.5999970436096
 13
0.0
 23
0.0
 14
10.0
 24
10.0
 15
10.0
 25
10.0
 16
0.0
 26
0.0
 36
1.0
 17
0.0
 27
0.0
 37
0.0
 42
50.0
 43
0.0
 44
0.0
 45
228.4221935424805
 50
0.0
 51
0.0
 72
   100
 90
    32800
  1

281
     0
 71
     1
 74
     0
110
0.0
120
0.0
130
0.0
111
1.0
121
0.0
131
0.0
112
0.0
122
1.0
132
0.0
 79
     0
146
0.0
  0
ENDSEC
  0
SECTION
  2
OBJECTS
  0
DICTIONARY
  5
C
330
0
100
AcDbDictionary
281
     1
  3
ACAD_CIP_PREVIOUS_PRODUCT_INFO
350
2D66
  3
ACAD_COLOR
350
BE
  3
ACAD_DETAILVIEWSTYLE
350
2D5A
  3
ACAD_GROUP
350
D
  3
ACAD_LAYOUT
350
1A
  3
ACAD_MATERIAL
350
BD
  3
ACAD_MLEADERSTYLE
350
2D56
  3
ACAD_MLINESTYLE
350
17
  3
ACAD_PLOTSETTINGS
350
19
  3
ACAD_PLOTSTYLENAME
350
E
  3
ACAD_SCALELIST
350
2D44
  3
ACAD_SECTIONVIEWSTYLE
350
2D58
  3
ACAD_TABLESTYLE
350
583
  3
ACAD_VISUALSTYLE
350
2D2B
  3
ACDB_RECOMPOSE_DATA
350
2DDA
  3
AcDbVariableDictionary
350
94
  3
AcmDictionary
350
5B
  3
AMG
350
41
  3
AMGSNAPSETTINGS
350
220
  3
DWGPROPS
350
2DDB
  0
DICTIONARY
  5
35D
330
2
100
AcDbDictionary
280
     1
281
     1
  3
ACAD_LAYERFILTERS
360
451
  3
ACAD_LAYERSTATES
360
35E
  3
AMLAYER_GROUPCOLORS
360
4A4
  0
DICTIONARY
  5
2DB2
330
10
100
AcDbDictionary
280
     1
281
     1
  3
ADSK_XREC_LAYER_RECONCILED
360
2DB3
  0
DICTIONARY
  5
2DB4
330
518
100
AcDbDictionary
280
     1
281
     1
  3
ADSK_XREC_LAYER_RECONCILED
360
2DB5
  0
DICTIONARY
  5
2DB6
330
519
100
AcDbDictionary
280
     1
281
     1
  3
ADSK_XREC_LAYER_RECONCILED
360
2DB7
  0
DICTIONARY
  5
2DB8
330
51A
100
AcDbDictionary
280
     1
281
     1
  3
ADSK_XREC_LAYER_RECONCILED
360
2DB9
  0
DICTIONARY
  5
2DBA
330
51B
100
AcDbDictionary
280
     1
281
     1
  3
ADSK_XREC_LAYER_RECONCILED
360
2DBB
  0
DICTIONARY
  5
2DBC
330
51C
100
AcDbDictionary
280
     1
281
     1
  3
ADSK_XREC_LAYER_RECONCILED
360
2DBD
  0
DICTIONARY
  5
2DBE
330
51D
100
AcDbDictionary
280
     1
281
     1
  3
ADSK_XREC_LAYER_RECONCILED
360
2DBF
  0
DICTIONARY
  5
2DC0
330
5E5
100
AcDbDictionary
280
     1
281
     1
  3
ADSK_XREC_LAYER_RECONCILED
360
2DC1
  0
DICTIONARY
  5
2DC2
330
5E6
100
AcDbDictionary
280
     1
281
     1
  3
ADSK_XREC_LAYER_RECONCILED
360
2DC3
  0
DICTIONARY
  5
2DC4
330
5E7
100
AcDbDictionary
280
     1
281
     1
  3
ADSK_XREC_LAYER_RECONCILED
360
2DC5
  0
DICTIONARY
  5
2DC6
330
6CD
100
AcDbDictionary
280
     1
281
     1
  3
ADSK_XREC_LAYER_RECONCILED
360
2DC7
  0
DICTIONARY
  5
2DC8
330
6CE
100
AcDbDictionary
280
     1
281
     1
  3
ADSK_XREC_LAYER_RECONCILED
360
2DC9
  0
DICTIONARY
  5
2DCA
330
6CF
100
AcDbDictionary
280
     1
281
     1
  3
ADSK_XREC_LAYER_RECONCILED
360
2DCB
  0
DICTIONARY
  5
2DCC
330
F33
100
AcDbDictionary
280
     1
281
     1
  3
ADSK_XREC_LAYER_RECONCILED
360
2DCD
  0
DICTIONARY
  5
2DCE
330
F68
100
AcDbDictionary
280
     1
281
     1
  3
ADSK_XREC_LAYER_RECONCILED
360
2DCF
  0
DICTIONARY
  5
2DD0
330
F69
100
AcDbDictionary
280
     1
281
     1
  3
ADSK_XREC_LAYER_RECONCILED
360
2DD1
  0
DICTIONARY
  5
8F
330
1F
100
AcDbDictionary
280
     1
281
     1
  0
DICTIONARY
  5
5D9
330
5CD
100
AcDbDictionary
280
     1
281
     1
  0
DICTIONARY
  5
63E
330
5E9
100
AcDbDictionary
280
     1
281
     1
  0
DICTIONARY
  5
2DE2
330
178
100
AcDbDictionary
280
     1
281
     1
  3
ACAD_XREC_ROUNDTRIP
360
2DE3
  0
DICTIONARY
  5
2DEA
330
2D0A
100
AcDbDictionary
280
     1
281
     1
  3
ACAD_MTEXT_RT
360
2DEB
  0
DICTIONARY
  5
2BAD
330
2BA2
100
AcDbDictionary
280
     1
281
     1
  3
ACAD_DIMASSOC
360
2BAE
  0
DICTIONARY
  5
2BD1
330
2BC6
100
AcDbDictionary
280
     1
281
     1
  3
ACAD_DIMASSOC
360
2BD2
  0
DICTIONARY
  5
2BF5
330
2BEA
100
AcDbDictionary
280
     1
281
     1
  3
ACAD_DIMASSOC
360
2BF6
  0
DICTIONARY
  5
2C1B
330
2C0E
100
AcDbDictionary
280
     1
281
     1
  3
ACAD_DIMASSOC
360
2C1C
  0
DICTIONARY
  5
2C41
330
2C36
100
AcDbDictionary
280
     1
281
     1
  3
ACAD_DIMASSOC
360
2C42
  0
DICTIONARY
  5
2C67
330
2C5A
100
AcDbDictionary
280
     1
281
     1
  3
ACAD_DIMASSOC
360
2C68
  0
DICTIONARY
  5
2DE4
330
17C
100
AcDbDictionary
280
     1
281
     1
  3
ACAD_XREC_ROUNDTRIP
360
2DE5
  0
XRECORD
  5
2D66
102
{ACAD_REACTORS
330
C
102
}
330
C
100
AcDbXrecord
280
     1
300
AMECH_PP
300
2013
300
PDSS_F_S
  0
DICTIONARY
  5
BE
102
{ACAD_REACTORS
330
C
102
}
330
C
100
AcDbDictionary
281
     1
  0
DICTIONARY
  5
2D5A
102
{ACAD_REACTORS
330
C
102
}
330
C
100
AcDbDictionary
281
     1
  3
Metric50
350
2D5B
  0
DICTIONARY
  5
D
102
{ACAD_REACTORS
330
C
102
}
330
C
100
AcDbDictionary
281
     1
  0
DICTIONARY
  5
1A
102
{ACAD_REACTORS
330
C
102
}
330
C
100
AcDbDictionary
281
     1
  3
Model
350
22
  3
レイアウト1
350
1E
  3
レイアウト2
350
26
  0
DICTIONARY
  5
BD
102
{ACAD_REACTORS
330
C
102
}
330
C
100
AcDbDictionary
281
     1
  3
ByBlock
350
2D1B
  3
ByLayer
350
2D13
  3
Global
350
2D23
  0
DICTIONARY
  5
2D56
102
{ACAD_REACTORS
330
C
102
}
330
C
100
AcDbDictionary
281
     1
  3
Standard
350
2D57
  0
DICTIONARY
  5
17
102
{ACAD_REACTORS
330
C
102
}
330
C
100
AcDbDictionary
281
     1
  3
Standard
350
18
  0
DICTIONARY
  5
19
102
{ACAD_REACTORS
330
C
102
}
330
C
100
AcDbDictionary
281
     1
  0
ACDBDICTIONARYWDFLT
  5
E
102
{ACAD_REACTORS
330
C
102
}
330
C
100
AcDbDictionary
281
     1
  3
Normal
350
F
100
AcDbDictionaryWithDefault
340
F
  0
DICTIONARY
  5
2D44
102
{ACAD_REACTORS
330
C
102
}
330
C
100
AcDbDictionary
281
     1
  3
A0
350
2D45
  3
A1
350
2D46
  3
A2
350
2D47
  3
A3
350
2D48
  3
A4
350
2D49
  3
A5
350
2D4A
  3
A6
350
2D4B
  3
A7
350
2D4C
  3
A8
350
2D4D
  3
A9
350
2D4E
  3
B0
350
2D4F
  3
B1
350
2D50
  3
B2
350
2D51
  3
B3
350
2D52
  3
B4
350
2D53
  3
B5
350
2D54
  3
B6
350
2D55
  0
DICTIONARY
  5
2D58
102
{ACAD_REACTORS
330
C
102
}
330
C
100
AcDbDictionary
281
     1
  3
Metric50
350
2D59
  0
DICTIONARY
  5
583
102
{ACAD_REACTORS
330
C
102
}
330
C
100
AcDbDictionary
281
     1
  3
Standard
350
584
  0
DICTIONARY
  5
2D2B
102
{ACAD_REACTORS
330
C
102
}
330
C
100
AcDbDictionary
281
     1
  3
2dWireframe
350
2D31
  3
Basic
350
2D30
  3
Brighten
350
2D37
  3
ColorChange
350
2D3B
  3
Conceptual
350
2D34
  3
Dim
350
2D36
  3
EdgeColorOff
350
2D43
  3
Facepattern
350
2D3A
  3
Flat
350
2D2C
  3
FlatWithEdges
350
2D2D
  3
Gouraud
350
2D2E
  3
GouraudWithEdges
350
2D2F
  3
Hidden
350
2D33
  3
JitterOff
350
2D41
  3
Linepattern
350
2D39
  3
OverhangOff
350
2D42
  3
Realistic
350
2D35
  3
Shaded
350
2D40
  3
Shaded with edges
350
2D3F
  3
Shades of Gray
350
2D3C
  3
Sketchy
350
2D3D
  3
Thicken
350
2D38
  3
Wireframe
350
2D32
  3
X-Ray
350
2D3E
  0
XRECORD
  5
2DDA
102
{ACAD_REACTORS
330
C
102
}
330
C
100
AcDbXrecord
280
     1
 90
        1
330
584
  0
DICTIONARY
  5
94
102
{ACAD_REACTORS
330
C
102
}
330
C
100
AcDbDictionary
281
     1
  3
CANNOSCALE
350
2DD5
  3
CMLEADERSTYLE
350
2DD2
  3
CTABLESTYLE
350
F96
  3
CVIEWDETAILSTYLE
350
2DD3
  3
CVIEWSECTIONSTYLE
350
2DD4
  3
DIMASSOC
350
96
  3
INDEXCTL
350
95
  3
SORTENTS
350
2DD6
  3
XCLIPFRAME
350
2DD7
  0
DICTIONARY
  5
5B
102
{ACAD_REACTORS
330
C
102
}
330
C
100
AcDbDictionary
281
     1
  3
AcmBOM
350
F5D
  3
AcmStdDictionary
350
61
  3
AMDTSECTSYM_ARROWCOLOR
350
58F
  0
DICTIONARY
  5
41
102
{ACAD_REACTORS
330
C
102
}
330
C
100
AcDbDictionary
281
     1
  0
DICTIONARY
  5
220
102
{ACAD_REACTORS
330
C
102
}
330
C
100
AcDbDictionary
281
     1
  0
XRECORD
  5
2DDB
102
{ACAD_REACTORS
330
C
102
}
330
C
100
AcDbXrecord
280
     1
  1
DWGPROPS COOKIE
  2

  3

  4

  6

  7

  8
中根
  9

300
AmdtFileType=84
301
=
302
=
303
=
304
=
305
=
306
=
307
=
308
=
309
=
 40
0.0151005208333333
 41
2453795.640654468
 42
2457008.412309549
  1

 90
        1
  0
DICTIONARY
  5
451
102
{ACAD_REACTORS
330
35D
102
}
330
35D
100
AcDbDictionary
281
     1
  0
DICTIONARY
  5
35E
102
{ACAD_REACTORS
330
35D
102
}
330
35D
100
AcDbDictionary
281
     1
  3
takachi1
350
35F
  0
DICTIONARY
  5
4A4
102
{ACAD_REACTORS
330
35D
102
}
330
35D
100
AcDbDictionary
280
     1
281
     1
  0
XRECORD
  5
2DB3
102
{ACAD_REACTORS
330
2DB2
102
}
330
2DB2
100
AcDbXrecord
280
     1
290
     1
  0
XRECORD
  5
2DB5
102
{ACAD_REACTORS
330
2DB4
102
}
330
2DB4
100
AcDbXrecord
280
     1
290
     1
  0
XRECORD
  5
2DB7
102
{ACAD_REACTORS
330
2DB6
102
}
330
2DB6
100
AcDbXrecord
280
     1
290
     1
  0
XRECORD
  5
2DB9
102
{ACAD_REACTORS
330
2DB8
102
}
330
2DB8
100
AcDbXrecord
280
     1
290
     1
  0
XRECORD
  5
2DBB
102
{ACAD_REACTORS
330
2DBA
102
}
330
2DBA
100
AcDbXrecord
280
     1
290
     1
  0
XRECORD
  5
2DBD
102
{ACAD_REACTORS
330
2DBC
102
}
330
2DBC
100
AcDbXrecord
280
     1
290
     1
  0
XRECORD
  5
2DBF
102
{ACAD_REACTORS
330
2DBE
102
}
330
2DBE
100
AcDbXrecord
280
     1
290
     1
  0
XRECORD
  5
2DC1
102
{ACAD_REACTORS
330
2DC0
102
}
330
2DC0
100
AcDbXrecord
280
     1
290
     1
  0
XRECORD
  5
2DC3
102
{ACAD_REACTORS
330
2DC2
102
}
330
2DC2
100
AcDbXrecord
280
     1
290
     1
  0
XRECORD
  5
2DC5
102
{ACAD_REACTORS
330
2DC4
102
}
330
2DC4
100
AcDbXrecord
280
     1
290
     1
  0
XRECORD
  5
2DC7
102
{ACAD_REACTORS
330
2DC6
102
}
330
2DC6
100
AcDbXrecord
280
     1
290
     1
  0
XRECORD
  5
2DC9
102
{ACAD_REACTORS
330
2DC8
102
}
330
2DC8
100
AcDbXrecord
280
     1
290
     1
  0
XRECORD
  5
2DCB
102
{ACAD_REACTORS
330
2DCA
102
}
330
2DCA
100
AcDbXrecord
280
     1
290
     1
  0
XRECORD
  5
2DCD
102
{ACAD_REACTORS
330
2DCC
102
}
330
2DCC
100
AcDbXrecord
280
     1
290
     1
  0
XRECORD
  5
2DCF
102
{ACAD_REACTORS
330
2DCE
102
}
330
2DCE
100
AcDbXrecord
280
     1
290
     1
  0
XRECORD
  5
2DD1
102
{ACAD_REACTORS
330
2DD0
102
}
330
2DD0
100
AcDbXrecord
280
     1
290
     1
  0
XRECORD
  5
2DE3
102
{ACAD_REACTORS
330
2DE2
102
}
330
2DE2
100
AcDbXrecord
280
     1
102
SHADEPLOT
 70
     0
  0
XRECORD
  5
2DEB
102
{ACAD_REACTORS
330
2DEA
102
}
330
2DEA
100
AcDbXrecord
280
     1
 40
1892.0
  1
\U+22051
  0
DIMASSOC
  5
2BAE
102
{ACAD_REACTORS
330
2BAD
102
}
330
2BAD
100
AcDbDimAssoc
330
2BA2
 90
        3
 70
     0
 71
     0
  1
AcDbOsnapPointRef
 72
     1
331
2AE3
 73
     0
 91
        0
 40
0.0
 10
0.0
 20
0.0
 30
2.000000000000000E+50
 75
     0
  1
AcDbOsnapPointRef
 72
     1
331
2897
 73
     0
 91
        0
 40
0.0
 10
0.0
 20
0.0
 30
2.000000000000000E+50
 75
     0
  0
DIMASSOC
  5
2BD2
102
{ACAD_REACTORS
330
2BD1
102
}
330
2BD1
100
AcDbDimAssoc
330
2BC6
 90
        3
 70
     0
 71
     0
  1
AcDbOsnapPointRef
 72
     1
331
2ADB
 73
     0
 91
        0
 40
0.0
 10
0.0
 20
0.0
 30
2.000000000000000E+50
 75
     0
  1
AcDbOsnapPointRef
 72
     8
331
2AD6
 73
     0
 91
        0
 40
0.9999999999999857
 10
0.0
 20
0.0
 30
0.0
 75
     1
  1
AcDbOsnapPointRef
 72
     1
331
2ADB
 73
     0
 91
        0
 40
0.0
 10
0.0
 20
0.0
 30
2.000000000000000E+50
 75
     0
  0
DIMASSOC
  5
2BF6
102
{ACAD_REACTORS
330
2BF5
102
}
330
2BF5
100
AcDbDimAssoc
330
2BEA
 90
        3
 70
     0
 71
     0
  1
AcDbOsnapPointRef
 72
    13
331
2AD7
 73
     0
 91
        0
 40
0.0
 10
0.0
 20
0.0
 30
2.000000000000000E+50
 75
     0
  1
AcDbOsnapPointRef
 72
    13
331
2ADC
 73
     0
 91
        0
 40
0.0
 10
0.0
 20
0.0
 30
2.000000000000000E+50
 75
     0
  0
DIMASSOC
  5
2C1C
102
{ACAD_REACTORS
330
2C1B
102
}
330
2C1B
100
AcDbDimAssoc
330
2C0E
 90
        3
 70
     0
 71
     0
  1
AcDbOsnapPointRef
 72
     6
331
2AD6
 73
     0
 91
        0
 40
-0.0000000000000036
 10
0.0
 20
0.0
 30
0.0
332
2AD7
 74
     0
 92
        0
 75
     0
  1
AcDbOsnapPointRef
 72
     1
331
28A0
 73
     0
 91
        0
 40
0.0
 10
0.0
 20
0.0
 30
2.000000000000000E+50
 75
     0
  0
DIMASSOC
  5
2C42
102
{ACAD_REACTORS
330
2C41
102
}
330
2C41
100
AcDbDimAssoc
330
2C36
 90
        3
 70
     0
 71
     0
  1
AcDbOsnapPointRef
 72
     1
331
28A0
 73
     0
 91
        0
 40
0.0
 10
0.0
 20
0.0
 30
2.000000000000000E+50
 75
     0
  1
AcDbOsnapPointRef
 72
     8
331
2AE4
 73
     0
 91
        0
 40
1.00317381961217
 10
0.0
 20
0.0
 30
0.0
 75
     1
  1
AcDbOsnapPointRef
 72
     1
331
28A0
 73
     0
 91
        0
 40
0.0
 10
0.0
 20
0.0
 30
2.000000000000000E+50
 75
     0
  0
DIMASSOC
  5
2C68
102
{ACAD_REACTORS
330
2C67
102
}
330
2C67
100
AcDbDimAssoc
330
2C5A
 90
        3
 70
     0
 71
     0
  1
AcDbOsnapPointRef
 72
     1
331
2AE4
 73
     0
 91
        0
 40
0.0
 10
0.0
 20
0.0
 30
2.000000000000000E+50
 75
     0
  1
AcDbOsnapPointRef
 72
     1
331
2ADA
 73
     0
 91
        0
 40
0.0
 10
0.0
 20
0.0
 30
2.000000000000000E+50
 75
     0
  0
XRECORD
  5
2DE5
102
{ACAD_REACTORS
330
2DE4
102
}
330
2DE4
100
AcDbXrecord
280
     1
102
SHADEPLOT
 70
     0
  0
ACDBDETAILVIEWSTYLE
  5
2D5B
102
{ACAD_REACTORS
330
2D5A
102
}
330
2D5A
100
AcDbModelDocViewStyle
 70
     0
  3
Metric50
290
     0
100
AcDbDetailViewStyle
 70
     0
 71
     0
 90
        3
 71
     1
340
11
 40
5.0
340
0
 40
5.0
300

 40
0.0
280
     1
 71
     2
340
16
 90
       25
 71
     3
340
11
 40
5.0
 90
        0
 40
15.0
 90
        1
300
%<\AcVar ViewDetailId>% (%<\AcVar ViewScale \f "%sn">%)
 71
     4
340
16
 90
       25
340
16
 90
       25
280
     0
  0
LAYOUT
  5
22
102
{ACAD_XDICTIONARY
360
2DDE
102
}
102
{ACAD_REACTORS
330
1A
102
}
330
1A
100
AcDbPlotSettings
  1

  2
RICOH IPSiO CX7200 RPCS
  4
A3
  6
AM_VIEW1
 40
5.873749732971191
 41
5.873747825622558
 42
5.873748779296875
 43
5.873748779296875
 44
296.9259948730469
 45
419.9466552734374
 46
2.589999999999999
 47
4.099999999999999
 48
10.0
 49
0.0
140
410.0
141
280.0
142
1.0
143
1.0
 70
 11956
 72
     1
 73
     1
 74
     4
  7
takachi-1.ctb
 75
    16
147
1.0
148
-10.0
149
0.0
100
AcDbLayout
  1
Model
 70
     1
 71
     0
 10
0.0
 20
0.0
 11
12.0
 21
9.0
 12
0.0
 22
0.0
 32
0.0
 14
0.0
 24
0.0
 34
0.0
 15
0.0
 25
0.0
 35
0.0
146
0.0
 13
0.0
 23
0.0
 33
0.0
 16
1.0
 26
0.0
 36
0.0
 17
0.0
 27
1.0
 37
0.0
 76
     0
330
1F
331
2D11
  0
LAYOUT
  5
1E
102
{ACAD_XDICTIONARY
360
2DDC
102
}
102
{ACAD_REACTORS
330
1A
102
}
330
1A
100
AcDbPlotSettings
  1

  2
none_device
  4
Letter_(8.50_x_11.00_Inches)
  6

 40
6.349999904632568
 41
6.349999904632568
 42
6.350006103515625
 43
6.350006103515625
 44
215.8999938964844
 45
279.3999938964844
 46
0.0
 47
0.0
 48
0.0
 49
0.0
140
0.0
141
0.0
142
1.0
143
1.0
 70
   688
 72
     1
 73
     1
 74
     5
  7
takachi-1.ctb
 75
    16
147
1.0
148
0.0
149
0.0
100
AcDbLayout
  1
レイアウト1
 70
     1
 71
     1
 10
-6.350006103515625
 20
-6.349999904632568
 11
273.0499877929688
 21
209.5499939918518
 12
0.0
 22
0.0
 32
0.0
 14
1.000000000000000E+20
 24
1.000000000000000E+20
 34
1.000000000000000E+20
 15
-1.000000000000000E+20
 25
-1.000000000000000E+20
 35
-1.000000000000000E+20
146
0.0
 13
0.0
 23
0.0
 33
0.0
 16
1.0
 26
0.0
 36
0.0
 17
0.0
 27
1.0
 37
0.0
 76
     0
330
1B
331
178
  0
LAYOUT
  5
26
102
{ACAD_XDICTIONARY
360
2DE0
102
}
102
{ACAD_REACTORS
330
1A
102
}
330
1A
100
AcDbPlotSettings
  1

  2
none_device
  4
Letter_(8.50_x_11.00_Inches)
  6

 40
6.349999904632568
 41
6.349999904632568
 42
6.350006103515625
 43
6.350006103515625
 44
215.8999938964844
 45
279.3999938964844
 46
0.0
 47
0.0
 48
0.0
 49
0.0
140
0.0
141
0.0
142
1.0
143
1.0
 70
   688
 72
     1
 73
     1
 74
     5
  7
takachi-1.ctb
 75
    16
147
1.0
148
0.0
149
0.0
100
AcDbLayout
  1
レイアウト2
 70
     1
 71
     2
 10
-6.350006103515625
 20
-6.349999904632568
 11
273.0499877929688
 21
209.5499939918518
 12
0.0
 22
0.0
 32
0.0
 14
1.000000000000000E+20
 24
1.000000000000000E+20
 34
1.000000000000000E+20
 15
-1.000000000000000E+20
 25
-1.000000000000000E+20
 35
-1.000000000000000E+20
146
0.0
 13
0.0
 23
0.0
 33
0.0
 16
1.0
 26
0.0
 36
0.0
 17
0.0
 27
1.0
 37
0.0
 76
     0
330
23
331
17C
  0
MATERIAL
  5
2D1B
102
{ACAD_XDICTIONARY
360
2D1C
102
}
102
{ACAD_REACTORS
330
BD
102
}
330
BD
100
AcDbMaterial
  1
ByBlock
 72
     0
 43
0.0008202099737533
 43
0.0
 43
0.0
 43
0.0
 43
0.0
 43
0.0008202099737533
 43
0.0
 43
0.0
 43
0.0
 43
0.0
 43
1.0
 43
0.0
 43
0.0
 43
0.0
 43
0.0
 43
1.0
 77
     0
 47
0.0008202099737533
 47
0.0
 47
0.0
 47
0.0
 47
0.0
 47
0.0008202099737533
 47
0.0
 47
0.0
 47
0.0
 47
0.0
 47
1.0
 47
0.0
 47
0.0
 47
0.0
 47
0.0
 47
1.0
171
     0
 49
0.0008202099737533
 49
0.0
 49
0.0
 49
0.0
 49
0.0
 49
0.0008202099737533
 49
0.0
 49
0.0
 49
0.0
 49
0.0
 49
1.0
 49
0.0
 49
0.0
 49
0.0
 49
0.0
 49
1.0
175
     0
142
0.0008202099737533
142
0.0
142
0.0
142
0.0
142
0.0
142
0.0008202099737533
142
0.0
142
0.0
142
0.0
142
0.0
142
1.0
142
0.0
142
0.0
142
0.0
142
0.0
142
1.0
179
     0
144
0.0008202099737533
144
0.0
144
0.0
144
0.0
144
0.0
144
0.0008202099737533
144
0.0
144
0.0
144
0.0
144
0.0
144
1.0
144
0.0
144
0.0
144
0.0
144
0.0
144
1.0
147
0.0008202099737533
147
0.0
147
0.0
147
0.0
147
0.0
147
0.0008202099737533
147
0.0
147
0.0
147
0.0
147
0.0
147
1.0
147
0.0
147
0.0
147
0.0
147
0.0
147
1.0
  0
MATERIAL
  5
2D13
102
{ACAD_XDICTIONARY
360
2D14
102
}
102
{ACAD_REACTORS
330
BD
102
}
330
BD
100
AcDbMaterial
  1
ByLayer
 72
     0
 43
0.0008202099737533
 43
0.0
 43
0.0
 43
0.0
 43
0.0
 43
0.0008202099737533
 43
0.0
 43
0.0
 43
0.0
 43
0.0
 43
1.0
 43
0.0
 43
0.0
 43
0.0
 43
0.0
 43
1.0
 77
     0
 47
0.0008202099737533
 47
0.0
 47
0.0
 47
0.0
 47
0.0
 47
0.0008202099737533
 47
0.0
 47
0.0
 47
0.0
 47
0.0
 47
1.0
 47
0.0
 47
0.0
 47
0.0
 47
0.0
 47
1.0
171
     0
 49
0.0008202099737533
 49
0.0
 49
0.0
 49
0.0
 49
0.0
 49
0.0008202099737533
 49
0.0
 49
0.0
 49
0.0
 49
0.0
 49
1.0
 49
0.0
 49
0.0
 49
0.0
 49
0.0
 49
1.0
175
     0
142
0.0008202099737533
142
0.0
142
0.0
142
0.0
142
0.0
142
0.0008202099737533
142
0.0
142
0.0
142
0.0
142
0.0
142
1.0
142
0.0
142
0.0
142
0.0
142
0.0
142
1.0
179
     0
144
0.0008202099737533
144
0.0
144
0.0
144
0.0
144
0.0
144
0.0008202099737533
144
0.0
144
0.0
144
0.0
144
0.0
144
1.0
144
0.0
144
0.0
144
0.0
144
0.0
144
1.0
147
0.0008202099737533
147
0.0
147
0.0
147
0.0
147
0.0
147
0.0008202099737533
147
0.0
147
0.0
147
0.0
147
0.0
147
1.0
147
0.0
147
0.0
147
0.0
147
0.0
147
1.0
  0
MATERIAL
  5
2D23
102
{ACAD_XDICTIONARY
360
2D24
102
}
102
{ACAD_REACTORS
330
BD
102
}
330
BD
100
AcDbMaterial
  1
Global
 72
     0
 43
0.0008202099737533
 43
0.0
 43
0.0
 43
0.0
 43
0.0
 43
0.0008202099737533
 43
0.0
 43
0.0
 43
0.0
 43
0.0
 43
1.0
 43
0.0
 43
0.0
 43
0.0
 43
0.0
 43
1.0
 77
     0
 47
0.0008202099737533
 47
0.0
 47
0.0
 47
0.0
 47
0.0
 47
0.0008202099737533
 47
0.0
 47
0.0
 47
0.0
 47
0.0
 47
1.0
 47
0.0
 47
0.0
 47
0.0
 47
0.0
 47
1.0
171
     0
 49
0.0008202099737533
 49
0.0
 49
0.0
 49
0.0
 49
0.0
 49
0.0008202099737533
 49
0.0
 49
0.0
 49
0.0
 49
0.0
 49
1.0
 49
0.0
 49
0.0
 49
0.0
 49
0.0
 49
1.0
175
     0
142
0.0008202099737533
142
0.0
142
0.0
142
0.0
142
0.0
142
0.0008202099737533
142
0.0
142
0.0
142
0.0
142
0.0
142
1.0
142
0.0
142
0.0
142
0.0
142
0.0
142
1.0
179
     0
144
0.0008202099737533
144
0.0
144
0.0
144
0.0
144
0.0
144
0.0008202099737533
144
0.0
144
0.0
144
0.0
144
0.0
144
1.0
144
0.0
144
0.0
144
0.0
144
0.0
144
1.0
147
0.0008202099737533
147
0.0
147
0.0
147
0.0
147
0.0
147
0.0008202099737533
147
0.0
147
0.0
147
0.0
147
0.0
147
1.0
147
0.0
147
0.0
147
0.0
147
0.0
147
1.0
  0
MLEADERSTYLE
  5
2D57
102
{ACAD_XDICTIONARY
360
2E20
102
}
102
{ACAD_REACTORS
330
2D56
102
}
330
2D56
100
AcDbMLeaderStyle
170
     2
171
     1
172
     0
 90
        2
 40
0.0
 41
0.0
173
     1
 91
-1056964608
340
14
 92
       -2
290
     1
 42
2.0
291
     1
 43
0.36
  3
Standard
 44
4.0
300

342
11
174
     1
178
     6
175
     1
176
     0
 93
-1056964608
 45
4.0
292
     0
297
     0
 46
4.0
 94
-1056964608
 47
1.0
 49
1.0
140
1.0
293
     1
141
0.0
294
     1
177
     0
142
1.0
295
     0
296
     0
143
0.125
1001
ACAD_MLEADERVER
1070
     2
  0
MLINESTYLE
  5
18
102
{ACAD_REACTORS
330
17
102
}
330
17
100
AcDbMlineStyle
  2
STANDARD
 70
     0
  3

 62
   256
 51
90.0
 52
90.0
 71
     2
 49
0.5
 62
   256
  6
BYLAYER
 49
-0.5
 62
   256
  6
BYLAYER
  0
ACDBPLACEHOLDER
  5
F
102
{ACAD_REACTORS
330
E
102
}
330
E
  0
SCALE
  5
2D45
102
{ACAD_REACTORS
330
2D44
102
}
330
2D44
100
AcDbScale
 70
     0
300
1:1
140
1.0
141
1.0
290
     1
  0
SCALE
  5
2D46
102
{ACAD_REACTORS
330
2D44
102
}
330
2D44
100
AcDbScale
 70
     0
300
1:2
140
1.0
141
2.0
290
     0
  0
SCALE
  5
2D47
102
{ACAD_REACTORS
330
2D44
102
}
330
2D44
100
AcDbScale
 70
     0
300
1:4
140
1.0
141
4.0
290
     0
  0
SCALE
  5
2D48
102
{ACAD_REACTORS
330
2D44
102
}
330
2D44
100
AcDbScale
 70
     0
300
1:5
140
1.0
141
5.0
290
     0
  0
SCALE
  5
2D49
102
{ACAD_REACTORS
330
2D44
102
}
330
2D44
100
AcDbScale
 70
     0
300
1:8
140
1.0
141
8.0
290
     0
  0
SCALE
  5
2D4A
102
{ACAD_REACTORS
330
2D44
102
}
330
2D44
100
AcDbScale
 70
     0
300
1:10
140
1.0
141
10.0
290
     0
  0
SCALE
  5
2D4B
102
{ACAD_REACTORS
330
2D44
102
}
330
2D44
100
AcDbScale
 70
     0
300
1:16
140
1.0
141
16.0
290
     0
  0
SCALE
  5
2D4C
102
{ACAD_REACTORS
330
2D44
102
}
330
2D44
100
AcDbScale
 70
     0
300
1:20
140
1.0
141
20.0
290
     0
  0
SCALE
  5
2D4D
102
{ACAD_REACTORS
330
2D44
102
}
330
2D44
100
AcDbScale
 70
     0
300
1:30
140
1.0
141
30.0
290
     0
  0
SCALE
  5
2D4E
102
{ACAD_REACTORS
330
2D44
102
}
330
2D44
100
AcDbScale
 70
     0
300
1:40
140
1.0
141
40.0
290
     0
  0
SCALE
  5
2D4F
102
{ACAD_REACTORS
330
2D44
102
}
330
2D44
100
AcDbScale
 70
     0
300
1:50
140
1.0
141
50.0
290
     0
  0
SCALE
  5
2D50
102
{ACAD_REACTORS
330
2D44
102
}
330
2D44
100
AcDbScale
 70
     0
300
1:100
140
1.0
141
100.0
290
     0
  0
SCALE
  5
2D51
102
{ACAD_REACTORS
330
2D44
102
}
330
2D44
100
AcDbScale
 70
     0
300
2:1
140
2.0
141
1.0
290
     0
  0
SCALE
  5
2D52
102
{ACAD_REACTORS
330
2D44
102
}
330
2D44
100
AcDbScale
 70
     0
300
4:1
140
4.0
141
1.0
290
     0
  0
SCALE
  5
2D53
102
{ACAD_REACTORS
330
2D44
102
}
330
2D44
100
AcDbScale
 70
     0
300
8:1
140
8.0
141
1.0
290
     0
  0
SCALE
  5
2D54
102
{ACAD_REACTORS
330
2D44
102
}
330
2D44
100
AcDbScale
 70
     0
300
10:1
140
10.0
141
1.0
290
     0
  0
SCALE
  5
2D55
102
{ACAD_REACTORS
330
2D44
102
}
330
2D44
100
AcDbScale
 70
     0
300
100:1
140
100.0
141
1.0
290
     0
  0
ACDBSECTIONVIEWSTYLE
  5
2D59
102
{ACAD_REACTORS
330
2D58
102
}
330
2D58
100
AcDbModelDocViewStyle
 70
     0
  3
Metric50
290
     0
100
AcDbSectionViewStyle
 70
     0
 71
     0
 90
      102
 71
     1
340
11
 40
5.0
340
0
340
0
 40
5.0
300
I, O, Q, S, X, Z
 40
10.0
 90
        0
 40
2.5
 90
        0
 71
     2
340
16
 90
       25
340
16
 90
       50
 40
5.0
 40
2.5
 40
5.0
 71
     3
340
11
 40
5.0
 90
        0
 40
15.0
 90
        1
300
%<\AcVar ViewSectionStartId>%-%<\AcVar ViewSectionEndId>% (%<\AcVar ViewScale \f "%sn">%)
 71
     4
300
ANSI31
 40
1.0
 90
        0
290
     0
290
     0
 90
        6
 40
0.0
 40
1.570796326794896
 40
0.2617993877991494
 40
1.308996938995747
 40
-0.2617993877991494
 40
1.832595714594046
  0
TABLESTYLE
  5
584
102
{ACAD_XDICTIONARY
360
2DD8
102
}
102
{ACAD_REACTORS
330
583
102
}
330
583
100
AcDbTableStyle
  3
Standard
 70
     0
 71
     0
 40
1.5
 41
1.5
280
     0
281
     0
  7
STANDARD
140
4.5
170
     2
 62
     0
 63
     7
283
     0
274
    -2
284
     1
 64
     0
275
    -2
285
     1
 65
     0
276
    -2
286
     1
 66
     0
277
    -2
287
     1
 67
     0
278
    -2
288
     1
 68
     0
279
    -2
289
     1
 69
     0
  7
STANDARD
140
6.0
170
     5
 62
     0
 63
     7
283
     0
274
    -2
284
     1
 64
     0
275
    -2
285
     1
 65
     0
276
    -2
286
     1
 66
     0
277
    -2
287
     1
 67
     0
278
    -2
288
     1
 68
     0
279
    -2
289
     1
 69
     0
  7
STANDARD
140
4.5
170
     5
 62
     0
 63
     7
283
     0
274
    -2
284
     1
 64
     0
275
    -2
285
     1
 65
     0
276
    -2
286
     1
 66
     0
277
    -2
287
     1
 67
     0
278
    -2
288
     1
 68
     0
279
    -2
289
     1
 69
     0
  0
VISUALSTYLE
  5
2D31
102
{ACAD_XDICTIONARY
360
2DF9
102
}
102
{ACAD_REACTORS
330
2D2B
102
}
330
2D2B
100
AcDbVisualStyle
  2
2dWireframe
 70
     4
 71
     0
 72
     2
 73
     0
 90
        0
 40
-0.6
 41
-30.0
 62
     5
 63
     7
 74
     1
 91
        4
 64
     7
 65
   257
 75
     1
175
     1
 42
1.0
 92
        0
 66
   257
 43
1.0
 76
     1
 77
     6
 78
     2
 67
     7
 79
     5
170
     0
171
     0
290
     0
174
     0
 93
        1
 44
0.0
173
     0
291
     0
 45
0.0
1001
ACAD
1000
AcDbSavedByObjectVersion
1070
     0
  0
VISUALSTYLE
  5
2D30
102
{ACAD_XDICTIONARY
360
2DF7
102
}
102
{ACAD_REACTORS
330
2D2B
102
}
330
2D2B
100
AcDbVisualStyle
  2
Basic
 70
     7
 71
     1
 72
     0
 73
     1
 90
        0
 40
-0.6
 41
-30.0
 62
     5
 63
     7
 74
     0
 91
        4
 64
     7
 65
   257
 75
     1
175
     1
 42
1.0
 92
        8
 66
     7
 43
1.0
 76
     1
 77
     6
 78
     2
 67
     7
 79
     5
170
     0
171
     0
290
     0
174
     0
 93
        1
 44
0.0
173
     0
291
     1
 45
0.0
1001
ACAD
1000
AcDbSavedByObjectVersion
1070
     0
  0
VISUALSTYLE
  5
2D37
102
{ACAD_XDICTIONARY
360
2E05
102
}
102
{ACAD_REACTORS
330
2D2B
102
}
330
2D2B
100
AcDbVisualStyle
  2
Brighten
 70
    12
 71
     2
 72
     2
 73
     0
 90
        0
 40
-0.6
 41
-30.0
 62
     5
 63
     7
 74
     1
 91
        4
 64
     7
 65
   257
 75
     1
175
     1
 42
1.0
 92
        8
 66
     7
 43
1.0
 76
     1
 77
     6
 78
     2
 67
     7
 79
     5
170
     0
171
     0
290
     0
174
     0
 93
        1
 44
50.0
173
     0
291
     1
 45
0.0
1001
ACAD
1000
AcDbSavedByObjectVersion
1070
     0
  0
VISUALSTYLE
  5
2D3B
102
{ACAD_XDICTIONARY
360
2E0D
102
}
102
{ACAD_REACTORS
330
2D2B
102
}
330
2D2B
100
AcDbVisualStyle
  2
ColorChange
 70
    16
 71
     2
 72
     2
 73
     3
 90
        0
 40
-0.6
 41
-30.0
 62
     5
 63
     8
 74
     1
 91
        4
 64
     7
 65
   257
 75
     1
175
     1
 42
1.0
 92
        8
 66
     8
 43
1.0
 76
     1
 77
     6
 78
     2
 67
     7
 79
     5
170
     0
171
     0
290
     0
174
     0
 93
        1
 44
0.0
173
     0
291
     1
 45
0.0
1001
ACAD
1000
AcDbSavedByObjectVersion
1070
     0
  0
VISUALSTYLE
  5
2D34
102
{ACAD_XDICTIONARY
360
2DFF
102
}
102
{ACAD_REACTORS
330
2D2B
102
}
330
2D2B
100
AcDbVisualStyle
  2
Conceptual
 70
     9
 71
     3
 72
     2
 73
     0
 90
        0
 40
-0.6
 41
-30.0
 62
     5
 63
     7
 74
     2
 91
        2
 64
     7
 65
   257
 75
     1
175
     1
 42
179.0
 92
        8
 66
     7
 43
1.0
 76
     1
 77
     6
 78
     2
 67
     7
 79
     3
170
     0
171
     0
290
     0
174
     0
 93
        1
 44
0.0
173
     0
291
     0
 45
0.0
1001
ACAD
1000
AcDbSavedByObjectVersion
1070
     0
  0
VISUALSTYLE
  5
2D36
102
{ACAD_XDICTIONARY
360
2E03
102
}
102
{ACAD_REACTORS
330
2D2B
102
}
330
2D2B
100
AcDbVisualStyle
  2
Dim
 70
    11
 71
     2
 72
     2
 73
     0
 90
        0
 40
-0.6
 41
-30.0
 62
     5
 63
     7
 74
     1
 91
        4
 64
     7
 65
   257
 75
     1
175
     1
 42
1.0
 92
        8
 66
     7
 43
1.0
 76
     1
 77
     6
 78
     2
 67
     7
 79
     5
170
     0
171
     0
290
     0
174
     0
 93
        1
 44
-50.0
173
     0
291
     1
 45
0.0
1001
ACAD
1000
AcDbSavedByObjectVersion
1070
     0
  0
VISUALSTYLE
  5
2D43
102
{ACAD_XDICTIONARY
360
2E1D
102
}
102
{ACAD_REACTORS
330
2D2B
102
}
330
2D2B
100
AcDbVisualStyle
  2
EdgeColorOff
 70
    22
 71
     2
 72
     2
 73
     0
 90
        0
 40
-0.6
 41
-30.0
 62
     5
 63
     7
 74
     1
 91
        4
 64
     7
 65
   257
 75
     1
175
     1
 42
1.0
 92
        8
 66
     7
 43
1.0
 76
     1
 77
     6
 78
     2
 67
     7
 79
     5
170
     0
171
     0
290
     0
174
     0
 93
        1
 44
0.0
173
     0
291
     1
 45
0.0
1001
ACAD
1000
AcDbSavedByObjectVersion
1070
     0
  0
VISUALSTYLE
  5
2D3A
102
{ACAD_XDICTIONARY
360
2E0B
102
}
102
{ACAD_REACTORS
330
2D2B
102
}
330
2D2B
100
AcDbVisualStyle
  2
Facepattern
 70
    15
 71
     2
 72
     2
 73
     0
 90
        0
 40
-0.6
 41
-30.0
 62
     5
 63
     7
 74
     1
 91
        4
 64
     7
 65
   257
 75
     1
175
     1
 42
1.0
 92
        8
 66
     7
 43
1.0
 76
     1
 77
     6
 78
     2
 67
     7
 79
     5
170
     0
171
     0
290
     0
174
     0
 93
        1
 44
0.0
173
     0
291
     1
 45
0.0
1001
ACAD
1000
AcDbSavedByObjectVersion
1070
     0
  0
VISUALSTYLE
  5
2D2C
102
{ACAD_XDICTIONARY
360
2DEF
102
}
102
{ACAD_REACTORS
330
2D2B
102
}
330
2D2B
100
AcDbVisualStyle
  2
Flat
 70
     0
 71
     2
 72
     1
 73
     1
 90
        2
 40
-0.6
 41
30.0
 62
     5
 63
     7
 74
     0
 91
        0
 64
     7
 65
   257
 75
     1
175
     1
 42
1.0
 92
        8
 66
     7
 43
1.0
 76
     1
 77
     6
 78
     2
 67
     7
 79
     5
170
     0
171
     0
290
     0
174
     0
 93
       13
 44
0.0
173
     0
291
     1
 45
0.0
1001
ACAD
1000
AcDbSavedByObjectVersion
1070
     0
  0
VISUALSTYLE
  5
2D2D
102
{ACAD_XDICTIONARY
360
2DF1
102
}
102
{ACAD_REACTORS
330
2D2B
102
}
330
2D2B
100
AcDbVisualStyle
  2
FlatWithEdges
 70
     1
 71
     2
 72
     1
 73
     1
 90
        2
 40
-0.6
 41
30.0
 62
     5
 63
     7
 74
     1
 91
        0
 64
     7
 65
   257
 75
     1
175
     1
 42
1.0
 92
        0
 66
   257
 43
1.0
 76
     1
 77
     6
 78
     2
 67
     7
 79
     5
170
     0
171
     0
290
     0
174
     0
 93
       13
 44
0.0
173
     0
291
     1
 45
0.0
1001
ACAD
1000
AcDbSavedByObjectVersion
1070
     0
  0
VISUALSTYLE
  5
2D2E
102
{ACAD_XDICTIONARY
360
2DF3
102
}
102
{ACAD_REACTORS
330
2D2B
102
}
330
2D2B
100
AcDbVisualStyle
  2
Gouraud
 70
     2
 71
     2
 72
     2
 73
     1
 90
        2
 40
-0.6
 41
30.0
 62
     5
 63
     7
 74
     0
 91
        0
 64
     7
 65
   257
 75
     1
175
     1
 42
1.0
 92
        0
 66
     7
 43
1.0
 76
     1
 77
     6
 78
     2
 67
     7
 79
     5
170
     0
171
     0
290
     0
174
     0
 93
       13
 44
0.0
173
     0
291
     1
 45
0.0
1001
ACAD
1000
AcDbSavedByObjectVersion
1070
     0
  0
VISUALSTYLE
  5
2D2F
102
{ACAD_XDICTIONARY
360
2DF5
102
}
102
{ACAD_REACTORS
330
2D2B
102
}
330
2D2B
100
AcDbVisualStyle
  2
GouraudWithEdges
 70
     3
 71
     2
 72
     2
 73
     1
 90
        2
 40
-0.6
 41
30.0
 62
     5
 63
     7
 74
     1
 91
        0
 64
     7
 65
   257
 75
     1
175
     1
 42
1.0
 92
        0
 66
   257
 43
1.0
 76
     1
 77
     6
 78
     2
 67
     7
 79
     5
170
     0
171
     0
290
     0
174
     0
 93
       13
 44
0.0
173
     0
291
     1
 45
0.0
1001
ACAD
1000
AcDbSavedByObjectVersion
1070
     0
  0
VISUALSTYLE
  5
2D33
102
{ACAD_XDICTIONARY
360
2DFD
102
}
102
{ACAD_REACTORS
330
2D2B
102
}
330
2D2B
100
AcDbVisualStyle
  2
Hidden
 70
     6
 71
     1
 72
     2
 73
     2
 90
        0
 40
-0.6
 41
-30.0
 62
     5
 63
     7
 74
     2
 91
        2
 64
     7
 65
   257
 75
     2
175
     1
 42
40.0
 92
        0
 66
   257
 43
1.0
 76
     1
 77
     6
 78
     2
 67
     7
 79
     3
170
     0
171
     0
290
     0
174
     0
 93
        1
 44
0.0
173
     0
291
     0
 45
0.0
1001
ACAD
1000
AcDbSavedByObjectVersion
1070
     0
  0
VISUALSTYLE
  5
2D41
102
{ACAD_XDICTIONARY
360
2E19
102
}
102
{ACAD_REACTORS
330
2D2B
102
}
330
2D2B
100
AcDbVisualStyle
  2
JitterOff
 70
    20
 71
     2
 72
     2
 73
     0
 90
        0
 40
-0.6
 41
-30.0
 62
     5
 63
     7
 74
     1
 91
        4
 64
     7
 65
   257
 75
     1
175
     1
 42
1.0
 92
       10
 66
     7
 43
1.0
 76
     1
 77
     6
 78
     2
 67
     7
 79
     5
170
     0
171
     0
290
     0
174
     0
 93
        1
 44
0.0
173
     0
291
     1
 45
0.0
1001
ACAD
1000
AcDbSavedByObjectVersion
1070
     0
  0
VISUALSTYLE
  5
2D39
102
{ACAD_XDICTIONARY
360
2E09
102
}
102
{ACAD_REACTORS
330
2D2B
102
}
330
2D2B
100
AcDbVisualStyle
  2
Linepattern
 70
    14
 71
     2
 72
     2
 73
     0
 90
        0
 40
-0.6
 41
-30.0
 62
     5
 63
     7
 74
     1
 91
        4
 64
     7
 65
   257
 75
     7
175
     7
 42
1.0
 92
        8
 66
     7
 43
1.0
 76
     1
 77
     6
 78
     2
 67
     7
 79
     5
170
     0
171
     0
290
     0
174
     0
 93
        1
 44
0.0
173
     0
291
     1
 45
0.0
1001
ACAD
1000
AcDbSavedByObjectVersion
1070
     0
  0
VISUALSTYLE
  5
2D42
102
{ACAD_XDICTIONARY
360
2E1B
102
}
102
{ACAD_REACTORS
330
2D2B
102
}
330
2D2B
100
AcDbVisualStyle
  2
OverhangOff
 70
    21
 71
     2
 72
     2
 73
     0
 90
        0
 40
-0.6
 41
-30.0
 62
     5
 63
     7
 74
     1
 91
        4
 64
     7
 65
   257
 75
     1
175
     1
 42
1.0
 92
        9
 66
     7
 43
1.0
 76
     1
 77
     6
 78
     2
 67
     7
 79
     5
170
     0
171
     0
290
     0
174
     0
 93
        1
 44
0.0
173
     0
291
     1
 45
0.0
1001
ACAD
1000
AcDbSavedByObjectVersion
1070
     0
  0
VISUALSTYLE
  5
2D35
102
{ACAD_XDICTIONARY
360
2E01
102
}
102
{ACAD_REACTORS
330
2D2B
102
}
330
2D2B
100
AcDbVisualStyle
  2
Realistic
 70
     8
 71
     2
 72
     3
 73
     0
 90
        2
 40
-0.6
 41
30.0
 62
     5
 63
     7
 74
     0
 91
        0
 64
     7
 65
   257
 75
     1
175
     1
 42
1.0
 92
        8
 66
   257
 43
1.0
 76
     1
 77
     6
 78
     2
 67
     7
 79
     3
170
     0
171
     0
290
     0
174
     0
 93
       13
 44
0.0
173
     0
291
     0
 45
0.0
1001
ACAD
1000
AcDbSavedByObjectVersion
1070
     0
  0
VISUALSTYLE
  5
2D40
102
{ACAD_XDICTIONARY
360
2E17
102
}
102
{ACAD_REACTORS
330
2D2B
102
}
330
2D2B
100
AcDbVisualStyle
  2
Shaded
 70
    27
 71
     2
 72
     2
 73
     1
 90
        2
 40
-0.6
 41
30.0
 62
     5
 63
     7
 74
     0
 91
        4
 64
     7
 65
   257
 75
     1
175
     1
 42
1.0
 92
        8
 66
   257
 43
1.0
 76
     1
 77
     6
 78
     2
 67
     8
 79
     3
170
     0
171
     0
290
     0
174
     0
 93
        5
 44
0.0
173
     0
291
     0
 45
0.0
1001
ACAD
1000
AcDbSavedByObjectVersion
1070
     0
  0
VISUALSTYLE
  5
2D3F
102
{ACAD_XDICTIONARY
360
2E15
102
}
102
{ACAD_REACTORS
330
2D2B
102
}
330
2D2B
100
AcDbVisualStyle
  2
Shaded with edges
 70
    26
 71
     2
 72
     2
 73
     1
 90
        2
 40
-0.6
 41
30.0
 62
     5
 63
     7
 74
     1
 91
       10
 64
     7
 65
   257
 75
     2
175
     1
 42
1.0
 92
        8
 66
   257
 43
1.0
 76
     1
 77
     6
 78
     2
 67
     7
 79
     3
170
     0
171
     0
290
     0
174
     0
 93
        5
 44
0.0
173
     0
291
     0
 45
0.0
1001
ACAD
1000
AcDbSavedByObjectVersion
1070
     0
  0
VISUALSTYLE
  5
2D3C
102
{ACAD_XDICTIONARY
360
2E0F
102
}
102
{ACAD_REACTORS
330
2D2B
102
}
330
2D2B
100
AcDbVisualStyle
  2
Shades of Gray
 70
    23
 71
     2
 72
     2
 73
     3
 90
        0
 40
-0.6
 41
-30.0
 62
     5
 63
     7
 74
     2
 91
        2
 64
     7
 65
     7
 75
     1
175
     1
 42
40.0
 92
        8
 66
     7
 43
1.0
 76
     1
 77
     6
 78
     2
 67
     7
 79
     3
170
     0
171
     0
290
     0
174
     0
 93
        1
 44
0.0
173
     0
291
     0
 45
0.0
1001
ACAD
1000
AcDbSavedByObjectVersion
1070
     0
  0
VISUALSTYLE
  5
2D3D
102
{ACAD_XDICTIONARY
360
2E11
102
}
102
{ACAD_REACTORS
330
2D2B
102
}
330
2D2B
100
AcDbVisualStyle
  2
Sketchy
 70
    24
 71
     1
 72
     2
 73
     2
 90
        0
 40
-0.6
 41
-30.0
 62
     5
 63
     7
 74
     2
 91
        2
 64
     7
 65
     7
 75
     1
175
     1
 42
40.0
 92
       11
 66
     7
 43
1.0
 76
     1
 77
     6
 78
     2
 67
     7
 79
     6
170
     0
171
     0
290
     0
174
     0
 93
        1
 44
0.0
173
     0
291
     0
 45
0.0
1001
ACAD
1000
AcDbSavedByObjectVersion
1070
     0
  0
VISUALSTYLE
  5
2D38
102
{ACAD_XDICTIONARY
360
2E07
102
}
102
{ACAD_REACTORS
330
2D2B
102
}
330
2D2B
100
AcDbVisualStyle
  2
Thicken
 70
    13
 71
     2
 72
     2
 73
     0
 90
        0
 40
-0.6
 41
-30.0
 62
     5
 63
     7
 74
     1
 91
        4
 64
     7
 65
   257
 75
     1
175
     1
 42
1.0
 92
       12
 66
     7
 43
1.0
 76
     1
 77
     6
 78
     2
 67
     7
 79
     5
170
     0
171
     0
290
     0
174
     0
 93
        1
 44
0.0
173
     0
291
     1
 45
0.0
1001
ACAD
1000
AcDbSavedByObjectVersion
1070
     0
  0
VISUALSTYLE
  5
2D32
102
{ACAD_XDICTIONARY
360
2DFB
102
}
102
{ACAD_REACTORS
330
2D2B
102
}
330
2D2B
100
AcDbVisualStyle
  2
Wireframe
 70
     5
 71
     0
 72
     2
 73
     0
 90
        0
 40
-0.6
 41
-30.0
 62
     5
 63
     7
 74
     1
 91
        4
 64
     7
 65
   257
 75
     1
175
     1
 42
1.0
 92
        0
 66
   257
 43
1.0
 76
     1
 77
     6
 78
     2
 67
     7
 79
     3
170
     0
171
     0
290
     0
174
     0
 93
        1
 44
0.0
173
     0
291
     0
 45
0.0
1001
ACAD
1000
AcDbSavedByObjectVersion
1070
     0
  0
VISUALSTYLE
  5
2D3E
102
{ACAD_XDICTIONARY
360
2E13
102
}
102
{ACAD_REACTORS
330
2D2B
102
}
330
2D2B
100
AcDbVisualStyle
  2
X-Ray
 70
    25
 71
     2
 72
     2
 73
     1
 90
        1
 40
0.5
 41
-30.0
 62
     5
 63
     7
 74
     1
 91
        0
 64
     7
 65
   257
 75
     1
175
     1
 42
1.0
 92
        8
 66
     7
 43
1.0
 76
     1
 77
     6
 78
     2
 67
     7
 79
     3
170
     0
171
     0
290
     0
174
     0
 93
       13
 44
0.0
173
     0
291
     0
 45
0.0
1001
ACAD
1000
AcDbSavedByObjectVersion
1070
     0
  0
DICTIONARYVAR
  5
2DD5
102
{ACAD_REACTORS
330
94
102
}
330
94
100
DictionaryVariables
280
     0
  1
1:1
  0
DICTIONARYVAR
  5
2DD2
102
{ACAD_REACTORS
330
94
102
}
330
94
100
DictionaryVariables
280
     0
  1
STANDARD
  0
DICTIONARYVAR
  5
F96
102
{ACAD_REACTORS
330
94
102
}
330
94
100
DictionaryVariables
280
     0
  1
STANDARD
  0
DICTIONARYVAR
  5
2DD3
102
{ACAD_REACTORS
330
94
102
}
330
94
100
DictionaryVariables
280
     0
  1
Metric50
  0
DICTIONARYVAR
  5
2DD4
102
{ACAD_REACTORS
330
94
102
}
330
94
100
DictionaryVariables
280
     0
  1
Metric50
  0
DICTIONARYVAR
  5
96
102
{ACAD_REACTORS
330
94
102
}
330
94
100
DictionaryVariables
280
     0
  1
2
  0
DICTIONARYVAR
  5
95
102
{ACAD_REACTORS
330
94
102
}
330
94
100
DictionaryVariables
280
     0
  1
0
  0
DICTIONARYVAR
  5
2DD6
102
{ACAD_REACTORS
330
94
102
}
330
94
100
DictionaryVariables
280
     0
  1
127
  0
DICTIONARYVAR
  5
2DD7
102
{ACAD_REACTORS
330
94
102
}
330
94
100
DictionaryVariables
280
     0
  1
0
  0
DICTIONARY
  5
F5D
102
{ACAD_REACTORS
330
5B
102
}
330
5B
100
AcDbDictionary
281
     1
  0
DICTIONARY
  5
61
102
{ACAD_REACTORS
330
5B
102
}
330
5B
100
AcDbDictionary
281
     1
  0
XRECORD
  5
58F
102
{ACAD_REACTORS
330
5B
102
}
330
5B
100
AcDbXrecord
280
     1
 90
-1023410169
  0
XRECORD
  5
35F
102
{ACAD_REACTORS
330
35E
102
}
330
35E
100
AcDbXrecord
280
     1
 91
       16
330
1E1
 90
        0
 62
     7
370
    -3
331
16
  1
色_7
330
10
 90
        8
 62
     7
370
    -3
331
16
  1
色_7
  0
DICTIONARY
  5
2DDE
330
22
100
AcDbDictionary
280
     1
281
     1
  3
ACAD_XREC_ROUNDTRIP
360
2DDF
  0
DICTIONARY
  5
2DDC
330
1E
100
AcDbDictionary
280
     1
281
     1
  3
ACAD_XREC_ROUNDTRIP
360
2DDD
  0
DICTIONARY
  5
2DE0
330
26
100
AcDbDictionary
280
     1
281
     1
  3
ACAD_XREC_ROUNDTRIP
360
2DE1
  0
DICTIONARY
  5
2D1C
330
2D1B
100
AcDbDictionary
280
     1
281
     1
  3
ACAD_XREC_ROUNDTRIP
360
2DED
  3
BUMPTILE
360
2D1E
  3
DIFFUSETILE
360
2D1D
  3
OPACITYTILE
360
2D21
  3
REFLECTIONTILE
360
2D20
  3
REFRACTIONTILE
360
2D22
  3
SPECULARTILE
360
2D1F
  0
DICTIONARY
  5
2D14
330
2D13
100
AcDbDictionary
280
     1
281
     1
  3
ACAD_XREC_ROUNDTRIP
360
2DEC
  3
BUMPTILE
360
2D16
  3
DIFFUSETILE
360
2D15
  3
OPACITYTILE
360
2D19
  3
REFLECTIONTILE
360
2D18
  3
REFRACTIONTILE
360
2D1A
  3
SPECULARTILE
360
2D17
  0
DICTIONARY
  5
2D24
330
2D23
100
AcDbDictionary
280
     1
281
     1
  3
ACAD_XREC_ROUNDTRIP
360
2DEE
  3
BUMPTILE
360
2D26
  3
DIFFUSETILE
360
2D25
  3
OPACITYTILE
360
2D29
  3
REFLECTIONTILE
360
2D28
  3
REFRACTIONTILE
360
2D2A
  3
SPECULARTILE
360
2D27
  0
DICTIONARY
  5
2E20
330
2D57
100
AcDbDictionary
280
     1
281
     1
  3
ACAD_XREC_ROUNDTRIP
360
2E21
  0
DICTIONARY
  5
2DD8
330
584
100
AcDbDictionary
280
     1
281
     1
  3
ACAD_ROUNDTRIP_2008_TABLESTYLE_CELLSTYLEMAP
360
2DD9
  3
ACAD_XREC_ROUNDTRIP
360
2DE6
  0
DICTIONARY
  5
2DF9
330
2D31
100
AcDbDictionary
280
     1
281
     1
  3
ACAD_XREC_ROUNDTRIP
360
2DFA
  0
DICTIONARY
  5
2DF7
330
2D30
100
AcDbDictionary
280
     1
281
     1
  3
ACAD_XREC_ROUNDTRIP
360
2DF8
  0
DICTIONARY
  5
2E05
330
2D37
100
AcDbDictionary
280
     1
281
     1
  3
ACAD_XREC_ROUNDTRIP
360
2E06
  0
DICTIONARY
  5
2E0D
330
2D3B
100
AcDbDictionary
280
     1
281
     1
  3
ACAD_XREC_ROUNDTRIP
360
2E0E
  0
DICTIONARY
  5
2DFF
330
2D34
100
AcDbDictionary
280
     1
281
     1
  3
ACAD_XREC_ROUNDTRIP
360
2E00
  0
DICTIONARY
  5
2E03
330
2D36
100
AcDbDictionary
280
     1
281
     1
  3
ACAD_XREC_ROUNDTRIP
360
2E04
  0
DICTIONARY
  5
2E1D
330
2D43
100
AcDbDictionary
280
     1
281
     1
  3
ACAD_XREC_ROUNDTRIP
360
2E1E
  0
DICTIONARY
  5
2E0B
330
2D3A
100
AcDbDictionary
280
     1
281
     1
  3
ACAD_XREC_ROUNDTRIP
360
2E0C
  0
DICTIONARY
  5
2DEF
330
2D2C
100
AcDbDictionary
280
     1
281
     1
  3
ACAD_XREC_ROUNDTRIP
360
2DF0
  0
DICTIONARY
  5
2DF1
330
2D2D
100
AcDbDictionary
280
     1
281
     1
  3
ACAD_XREC_ROUNDTRIP
360
2DF2
  0
DICTIONARY
  5
2DF3
330
2D2E
100
AcDbDictionary
280
     1
281
     1
  3
ACAD_XREC_ROUNDTRIP
360
2DF4
  0
DICTIONARY
  5
2DF5
330
2D2F
100
AcDbDictionary
280
     1
281
     1
  3
ACAD_XREC_ROUNDTRIP
360
2DF6
  0
DICTIONARY
  5
2DFD
330
2D33
100
AcDbDictionary
280
     1
281
     1
  3
ACAD_XREC_ROUNDTRIP
360
2DFE
  0
DICTIONARY
  5
2E19
330
2D41
100
AcDbDictionary
280
     1
281
     1
  3
ACAD_XREC_ROUNDTRIP
360
2E1A
  0
DICTIONARY
  5
2E09
330
2D39
100
AcDbDictionary
280
     1
281
     1
  3
ACAD_XREC_ROUNDTRIP
360
2E0A
  0
DICTIONARY
  5
2E1B
330
2D42
100
AcDbDictionary
280
     1
281
     1
  3
ACAD_XREC_ROUNDTRIP
360
2E1C
  0
DICTIONARY
  5
2E01
330
2D35
100
AcDbDictionary
280
     1
281
     1
  3
ACAD_XREC_ROUNDTRIP
360
2E02
  0
DICTIONARY
  5
2E17
330
2D40
100
AcDbDictionary
280
     1
281
     1
  3
ACAD_XREC_ROUNDTRIP
360
2E18
  0
DICTIONARY
  5
2E15
330
2D3F
100
AcDbDictionary
280
     1
281
     1
  3
ACAD_XREC_ROUNDTRIP
360
2E16
  0
DICTIONARY
  5
2E0F
330
2D3C
100
AcDbDictionary
280
     1
281
     1
  3
ACAD_XREC_ROUNDTRIP
360
2E10
  0
DICTIONARY
  5
2E11
330
2D3D
100
AcDbDictionary
280
     1
281
     1
  3
ACAD_XREC_ROUNDTRIP
360
2E12
  0
DICTIONARY
  5
2E07
330
2D38
100
AcDbDictionary
280
     1
281
     1
  3
ACAD_XREC_ROUNDTRIP
360
2E08
  0
DICTIONARY
  5
2DFB
330
2D32
100
AcDbDictionary
280
     1
281
     1
  3
ACAD_XREC_ROUNDTRIP
360
2DFC
  0
DICTIONARY
  5
2E13
330
2D3E
100
AcDbDictionary
280
     1
281
     1
  3
ACAD_XREC_ROUNDTRIP
360
2E14
  0
XRECORD
  5
2DDF
102
{ACAD_REACTORS
330
2DDE
102
}
330
2DDE
100
AcDbXrecord
280
     1
102
SHADEPLOT
 70
     0
102
SHADEPLOTRESLEVEL
 70
     2
102
SHADEPLOTCUSTOMDPI
 70
   300
  0
XRECORD
  5
2DDD
102
{ACAD_REACTORS
330
2DDC
102
}
330
2DDC
100
AcDbXrecord
280
     1
102
SHADEPLOT
 70
     1
102
SHADEPLOTRESLEVEL
 70
     2
102
SHADEPLOTCUSTOMDPI
 70
   300
  0
XRECORD
  5
2DE1
102
{ACAD_REACTORS
330
2DE0
102
}
330
2DE0
100
AcDbXrecord
280
     1
102
SHADEPLOT
 70
     1
102
SHADEPLOTRESLEVEL
 70
     2
102
SHADEPLOTCUSTOMDPI
 70
   300
  0
XRECORD
  5
2DED
102
{ACAD_REACTORS
330
2D1C
102
}
330
2D1C
100
AcDbXrecord
280
     1
102
MATERIAL
148
0.0
149
0.0
149
0.0
 93
        0
 94
      127
282
     0
 72
     0
 77
     0
171
     0
175
     0
179
     0
273
     0
  0
XRECORD
  5
2D1E
102
{ACAD_REACTORS
330
2D1C
102
}
330
2D1C
100
AcDbXrecord
280
     1
270
     1
271
     1
  0
XRECORD
  5
2D1D
102
{ACAD_REACTORS
330
2D1C
102
}
330
2D1C
100
AcDbXrecord
280
     1
270
     1
271
     1
  0
XRECORD
  5
2D21
102
{ACAD_REACTORS
330
2D1C
102
}
330
2D1C
100
AcDbXrecord
280
     1
270
     1
271
     1
  0
XRECORD
  5
2D20
102
{ACAD_REACTORS
330
2D1C
102
}
330
2D1C
100
AcDbXrecord
280
     1
270
     1
271
     1
  0
XRECORD
  5
2D22
102
{ACAD_REACTORS
330
2D1C
102
}
330
2D1C
100
AcDbXrecord
280
     1
270
     1
271
     1
  0
XRECORD
  5
2D1F
102
{ACAD_REACTORS
330
2D1C
102
}
330
2D1C
100
AcDbXrecord
280
     1
270
     1
271
     1
  0
XRECORD
  5
2DEC
102
{ACAD_REACTORS
330
2D14
102
}
330
2D14
100
AcDbXrecord
280
     1
102
MATERIAL
148
0.0
149
0.0
149
0.0
 93
        0
 94
      127
282
     0
 72
     0
 77
     0
171
     0
175
     0
179
     0
273
     0
  0
XRECORD
  5
2D16
102
{ACAD_REACTORS
330
2D14
102
}
330
2D14
100
AcDbXrecord
280
     1
270
     1
271
     1
  0
XRECORD
  5
2D15
102
{ACAD_REACTORS
330
2D14
102
}
330
2D14
100
AcDbXrecord
280
     1
270
     1
271
     1
  0
XRECORD
  5
2D19
102
{ACAD_REACTORS
330
2D14
102
}
330
2D14
100
AcDbXrecord
280
     1
270
     1
271
     1
  0
XRECORD
  5
2D18
102
{ACAD_REACTORS
330
2D14
102
}
330
2D14
100
AcDbXrecord
280
     1
270
     1
271
     1
  0
XRECORD
  5
2D1A
102
{ACAD_REACTORS
330
2D14
102
}
330
2D14
100
AcDbXrecord
280
     1
270
     1
271
     1
  0
XRECORD
  5
2D17
102
{ACAD_REACTORS
330
2D14
102
}
330
2D14
100
AcDbXrecord
280
     1
270
     1
271
     1
  0
XRECORD
  5
2DEE
102
{ACAD_REACTORS
330
2D24
102
}
330
2D24
100
AcDbXrecord
280
     1
102
MATERIAL
148
0.0
149
0.0
149
0.0
 93
        0
 94
      127
282
     0
 72
     0
 77
     0
171
     0
175
     0
179
     0
273
     0
  0
XRECORD
  5
2D26
102
{ACAD_REACTORS
330
2D24
102
}
330
2D24
100
AcDbXrecord
280
     1
270
     1
271
     1
  0
XRECORD
  5
2D25
102
{ACAD_REACTORS
330
2D24
102
}
330
2D24
100
AcDbXrecord
280
     1
270
     1
271
     1
  0
XRECORD
  5
2D29
102
{ACAD_REACTORS
330
2D24
102
}
330
2D24
100
AcDbXrecord
280
     1
270
     1
271
     1
  0
XRECORD
  5
2D28
102
{ACAD_REACTORS
330
2D24
102
}
330
2D24
100
AcDbXrecord
280
     1
270
     1
271
     1
  0
XRECORD
  5
2D2A
102
{ACAD_REACTORS
330
2D24
102
}
330
2D24
100
AcDbXrecord
280
     1
270
     1
271
     1
  0
XRECORD
  5
2D27
102
{ACAD_REACTORS
330
2D24
102
}
330
2D24
100
AcDbXrecord
280
     1
270
     1
271
     1
  0
XRECORD
  5
2E21
102
{ACAD_REACTORS
330
2E20
102
}
330
2E20
100
AcDbXrecord
280
     1
102
ACAD_ROUNDTRIP_2012_MLEADER_STYLE
298
     1
  0
CELLSTYLEMAP
  5
2DD9
102
{ACAD_REACTORS
330
2DD8
102
}
330
2DD8
100
AcDbCellStyleMap
 90
        3
300
CELLSTYLE
  1
TABLEFORMAT_BEGIN
 90
        5
170
     1
 91
        0
 92
    32768
 62
   257
 93
        1
300
CONTENTFORMAT
  1
CONTENTFORMAT_BEGIN
 90
        0
 91
        0
 92
        4
 93
        0
300

 40
0.0
140
1.0
 94
        5
 62
     0
340
11
144
6.0
309
CONTENTFORMAT_END
171
     1
301
MARGIN
  1
CELLMARGIN_BEGIN
 40
1.5
 40
1.5
 40
1.5
 40
1.5
 40
0.18
 40
0.18
309
CELLMARGIN_END
 94
        6
 95
        1
302
GRIDFORMAT
  1
GRIDFORMAT_BEGIN
 90
        0
 91
        1
 62
     0
 92
       -2
340
0
 93
        0
 40
0.045
309
GRIDFORMAT_END
 95
        2
302
GRIDFORMAT
  1
GRIDFORMAT_BEGIN
 90
        0
 91
        1
 62
     0
 92
       -2
340
0
 93
        0
 40
0.045
309
GRIDFORMAT_END
 95
        4
302
GRIDFORMAT
  1
GRIDFORMAT_BEGIN
 90
        0
 91
        1
 62
     0
 92
       -2
340
0
 93
        0
 40
0.045
309
GRIDFORMAT_END
 95
        8
302
GRIDFORMAT
  1
GRIDFORMAT_BEGIN
 90
        0
 91
        1
 62
     0
 92
       -2
340
0
 93
        0
 40
0.045
309
GRIDFORMAT_END
 95
       16
302
GRIDFORMAT
  1
GRIDFORMAT_BEGIN
 90
        0
 91
        1
 62
     0
 92
       -2
340
0
 93
        0
 40
0.045
309
GRIDFORMAT_END
 95
       32
302
GRIDFORMAT
  1
GRIDFORMAT_BEGIN
 90
        0
 91
        1
 62
     0
 92
       -2
340
0
 93
        0
 40
0.045
309
GRIDFORMAT_END
309
TABLEFORMAT_END
  1
CELLSTYLE_BEGIN
 90
        1
 91
        1
300
_TITLE
309
CELLSTYLE_END
300
CELLSTYLE
  1
TABLEFORMAT_BEGIN
 90
        5
170
     1
 91
        0
 92
        0
 62
   257
 93
        1
300
CONTENTFORMAT
  1
CONTENTFORMAT_BEGIN
 90
        0
 91
        0
 92
        4
 93
        0
300

 40
0.0
140
1.0
 94
        5
 62
     0
340
11
144
4.5
309
CONTENTFORMAT_END
171
     1
301
MARGIN
  1
CELLMARGIN_BEGIN
 40
1.5
 40
1.5
 40
1.5
 40
1.5
 40
0.18
 40
0.18
309
CELLMARGIN_END
 94
        6
 95
        1
302
GRIDFORMAT
  1
GRIDFORMAT_BEGIN
 90
        0
 91
        1
 62
     0
 92
       -2
340
0
 93
        0
 40
0.045
309
GRIDFORMAT_END
 95
        2
302
GRIDFORMAT
  1
GRIDFORMAT_BEGIN
 90
        0
 91
        1
 62
     0
 92
       -2
340
0
 93
        0
 40
0.045
309
GRIDFORMAT_END
 95
        4
302
GRIDFORMAT
  1
GRIDFORMAT_BEGIN
 90
        0
 91
        1
 62
     0
 92
       -2
340
0
 93
        0
 40
0.045
309
GRIDFORMAT_END
 95
        8
302
GRIDFORMAT
  1
GRIDFORMAT_BEGIN
 90
        0
 91
        1
 62
     0
 92
       -2
340
0
 93
        0
 40
0.045
309
GRIDFORMAT_END
 95
       16
302
GRIDFORMAT
  1
GRIDFORMAT_BEGIN
 90
        0
 91
        1
 62
     0
 92
       -2
340
0
 93
        0
 40
0.045
309
GRIDFORMAT_END
 95
       32
302
GRIDFORMAT
  1
GRIDFORMAT_BEGIN
 90
        0
 91
        1
 62
     0
 92
       -2
340
0
 93
        0
 40
0.045
309
GRIDFORMAT_END
309
TABLEFORMAT_END
  1
CELLSTYLE_BEGIN
 90
        2
 91
        1
300
_HEADER
309
CELLSTYLE_END
300
CELLSTYLE
  1
TABLEFORMAT_BEGIN
 90
        5
170
     1
 91
        0
 92
        0
 62
   257
 93
        1
300
CONTENTFORMAT
  1
CONTENTFORMAT_BEGIN
 90
        0
 91
        0
 92
        4
 93
        0
300

 40
0.0
140
1.0
 94
        2
 62
     0
340
11
144
4.5
309
CONTENTFORMAT_END
171
     1
301
MARGIN
  1
CELLMARGIN_BEGIN
 40
1.5
 40
1.5
 40
1.5
 40
1.5
 40
0.18
 40
0.18
309
CELLMARGIN_END
 94
        6
 95
        1
302
GRIDFORMAT
  1
GRIDFORMAT_BEGIN
 90
        0
 91
        1
 62
     0
 92
       -2
340
0
 93
        0
 40
0.045
309
GRIDFORMAT_END
 95
        2
302
GRIDFORMAT
  1
GRIDFORMAT_BEGIN
 90
        0
 91
        1
 62
     0
 92
       -2
340
0
 93
        0
 40
0.045
309
GRIDFORMAT_END
 95
        4
302
GRIDFORMAT
  1
GRIDFORMAT_BEGIN
 90
        0
 91
        1
 62
     0
 92
       -2
340
0
 93
        0
 40
0.045
309
GRIDFORMAT_END
 95
        8
302
GRIDFORMAT
  1
GRIDFORMAT_BEGIN
 90
        0
 91
        1
 62
     0
 92
       -2
340
0
 93
        0
 40
0.045
309
GRIDFORMAT_END
 95
       16
302
GRIDFORMAT
  1
GRIDFORMAT_BEGIN
 90
        0
 91
        1
 62
     0
 92
       -2
340
0
 93
        0
 40
0.045
309
GRIDFORMAT_END
 95
       32
302
GRIDFORMAT
  1
GRIDFORMAT_BEGIN
 90
        0
 91
        1
 62
     0
 92
       -2
340
0
 93
        0
 40
0.045
309
GRIDFORMAT_END
309
TABLEFORMAT_END
  1
CELLSTYLE_BEGIN
 90
        3
 91
        2
300
_DATA
309
CELLSTYLE_END
  0
XRECORD
  5
2DE6
102
{ACAD_REACTORS
330
2DD8
102
}
330
2DD8
100
AcDbXrecord
280
     1
102
ACAD_ROUNDTRIP_PRE2007_TABLESTYLE
 90
        4
 91
        0
  1

 92
        4
 93
        0
  2

 94
        4
 95
        0
  3

  0
XRECORD
  5
2DFA
102
{ACAD_REACTORS
330
2DF9
102
}
330
2DF9
100
AcDbXrecord
280
     1
102
RTVSPost2010Prop28
280
     1
102
RTVSPost2010PropOp28
 70
     1
102
RTVSPost2010Prop29
280
     1
102
RTVSPost2010PropOp29
 70
     1
102
RTVSPost2010Prop30
280
     0
102
RTVSPost2010PropOp30
 70
     1
102
RTVSPost2010Prop31
280
     0
102
RTVSPost2010PropOp31
 70
     1
102
RTVSPost2010Prop32
280
     0
102
RTVSPost2010PropOp32
 70
     1
102
RTVSPost2010Prop33
280
     0
102
RTVSPost2010PropOp33
 70
     1
102
RTVSPost2010Prop34
280
     0
102
RTVSPost2010PropOp34
 70
     1
102
RTVSPost2010Prop35
280
     0
102
RTVSPost2010PropOp35
 70
     1
102
RTVSPost2010Prop36
280
     0
102
RTVSPost2010PropOp36
 70
     1
102
RTVSPost2010Prop37
 90
       50
102
RTVSPost2010PropOp37
 70
     1
102
RTVSPost2010Prop38
140
0.0
102
RTVSPost2010PropOp38
 70
     1
102
RTVSPost2010Prop39
140
1.0
102
RTVSPost2010PropOp39
 70
     1
102
RTVSPost2010Prop40
 90
        0
102
RTVSPost2010PropOp40
 70
     1
102
RTVSPost2010Prop41ColorIndex
 90
       18
102
RTVSPost2010Prop41ColorRGB
 90
        0
102
RTVSPost2010PropOp41
 70
     1
102
RTVSPost2010Prop42
 90
       50
102
RTVSPost2010PropOp42
 70
     1
102
RTVSPost2010Prop43
 90
        3
102
RTVSPost2010PropOp43
 70
     1
102
RTVSPost2010Prop44ColorIndex
 90
        5
102
RTVSPost2010Prop44ColorRGB
 90
      255
102
RTVSPost2010PropOp44
 70
     1
102
RTVSPost2010Prop45
280
     0
102
RTVSPost2010PropOp45
 70
     1
102
RTVSPost2010Prop46
 90
       50
102
RTVSPost2010PropOp46
 70
     1
102
RTVSPost2010Prop47
 90
       50
102
RTVSPost2010PropOp47
 70
     1
102
RTVSPost2010Prop48
 90
       50
102
RTVSPost2010PropOp48
 70
     1
102
RTVSPost2010Prop49
280
     0
102
RTVSPost2010PropOp49
 70
     1
102
RTVSPost2010Prop50
 90
       50
102
RTVSPost2010PropOp50
 70
     1
102
RTVSPost2010Prop51ColorIndex
 90
      256
102
RTVSPost2010Prop51ColorRGB
 90
-16777216
102
RTVSPost2010PropOp51
 70
     0
102
RTVSPost2010Prop52
140
1.0
102
RTVSPost2010PropOp52
 70
     0
102
RTVSPost2010Prop53
 90
        2
102
RTVSPost2010PropOp53
 70
     1
102
RTVSPost2010Prop54
  1
strokes_ogs.tif
102
RTVSPost2010PropOp54
 70
     1
102
RTVSPost2010Prop55
280
     0
102
RTVSPost2010PropOp55
 70
     1
102
RTVSPost2010Prop56
140
1.0
102
RTVSPost2010PropOp56
 70
     1
102
RTVSPost2010Prop57
140
1.0
102
RTVSPost2010PropOp57
 70
     1
102
RTVSPropertyOp0
 70
     1
102
RTVSPropertyOp1
 70
     1
102
RTVSPropertyOp2
 70
     1
102
RTVSPropertyOp3
 70
     1
102
RTVSPropertyOp4
 70
     1
102
RTVSPropertyOp5
 70
     1
102
RTVSPropertyOp6
 70
     1
102
RTVSPropertyOp7
 70
     1
102
RTVSPropertyOp8
 70
     1
102
RTVSPropertyOp9
 70
     1
102
RTVSPropertyOp10
 70
     1
102
RTVSPropertyOp11
 70
     1
102
RTVSPropertyOp12
 70
     1
102
RTVSPropertyOp13
 70
     1
102
RTVSPropertyOp14
 70
     1
102
RTVSPropertyOp15
 70
     1
102
RTVSPropertyOp16
 70
     1
102
RTVSPropertyOp17
 70
     1
102
RTVSPropertyOp18
 70
     1
102
RTVSPropertyOp19
 70
     1
102
RTVSPropertyOp20
 70
     1
102
RTVSPropertyOp21
 70
     1
102
RTVSPropertyOp22
 70
     1
102
RTVSPropertyOp23
 70
     1
102
RTVSPropertyOp24
 70
     1
102
RTVSPropertyOp25
 70
     1
102
RTVSPropertyOp26
 70
     1
102
RTVSPropertyOp27
 70
     1
102
RTVSPropertyOp28
 70
     1
102
RTVSPropertyOp29
 70
     1
102
RTVSPropertyOp30
 70
     1
102
RTVSPropertyOp31
 70
     1
102
RTVSPropertyOp32
 70
     1
102
RTVSPropertyOp33
 70
     1
102
RTVSPropertyOp34
 70
     1
102
RTVSPropertyOp35
 70
     1
102
RTVSPropertyOp36
 70
     1
102
RTVSPropertyOp37
 70
     1
102
RTVSPropertyOp38
 70
     1
102
RTVSPropertyOp39
 70
     1
102
RTVSPropertyOp40
 70
     1
102
RTVSPropertyOp41
 70
     1
102
RTVSPropertyOp42
 70
     1
102
RTVSPropertyOp43
 70
     1
102
RTVSPropertyOp44
 70
     1
102
RTVSPropertyOp45
 70
     1
102
RTVSPropertyOp46
 70
     1
102
RTVSPropertyOp47
 70
     1
102
RTVSPropertyOp48
 70
     1
102
RTVSPropertyOp49
 70
     1
102
RTVSPropertyOp50
 70
     1
102
RTVSPropertyOp51
 70
     0
102
RTVSPropertyOp52
 70
     0
102
RTVSPropertyOp53
 70
     1
102
RTVSPropertyOp54
 70
     1
102
RTVSPropertyOp55
 70
     1
102
RTVSPropertyOp56
 70
     1
102
RTVSPropertyOp57
 70
     1
102
RTVSPropertyOp58
 70
     1
102
RTVSPropertyOp59
 70
     1
102
RTVSPropertyOp60
 70
     1
102
RTVSPropertyOp61
 70
     1
102
RTVSPropertyOp62
 70
     1
  0
XRECORD
  5
2DF8
102
{ACAD_REACTORS
330
2DF7
102
}
330
2DF7
100
AcDbXrecord
280
     1
102
RTVSPost2010Prop28
280
     0
102
RTVSPost2010PropOp28
 70
     1
102
RTVSPost2010Prop29
280
     1
102
RTVSPost2010PropOp29
 70
     1
102
RTVSPost2010Prop30
280
     1
102
RTVSPost2010PropOp30
 70
     1
102
RTVSPost2010Prop31
280
     0
102
RTVSPost2010PropOp31
 70
     1
102
RTVSPost2010Prop32
280
     0
102
RTVSPost2010PropOp32
 70
     1
102
RTVSPost2010Prop33
280
     0
102
RTVSPost2010PropOp33
 70
     1
102
RTVSPost2010Prop34
280
     0
102
RTVSPost2010PropOp34
 70
     1
102
RTVSPost2010Prop35
280
     0
102
RTVSPost2010PropOp35
 70
     1
102
RTVSPost2010Prop36
280
     0
102
RTVSPost2010PropOp36
 70
     1
102
RTVSPost2010Prop37
 90
       50
102
RTVSPost2010PropOp37
 70
     1
102
RTVSPost2010Prop38
140
0.0
102
RTVSPost2010PropOp38
 70
     1
102
RTVSPost2010Prop39
140
1.0
102
RTVSPost2010PropOp39
 70
     1
102
RTVSPost2010Prop40
 90
        0
102
RTVSPost2010PropOp40
 70
     1
102
RTVSPost2010Prop41ColorIndex
 90
       18
102
RTVSPost2010Prop41ColorRGB
 90
        0
102
RTVSPost2010PropOp41
 70
     1
102
RTVSPost2010Prop42
 90
       50
102
RTVSPost2010PropOp42
 70
     1
102
RTVSPost2010Prop43
 90
        3
102
RTVSPost2010PropOp43
 70
     1
102
RTVSPost2010Prop44ColorIndex
 90
        5
102
RTVSPost2010Prop44ColorRGB
 90
      255
102
RTVSPost2010PropOp44
 70
     1
102
RTVSPost2010Prop45
280
     0
102
RTVSPost2010PropOp45
 70
     1
102
RTVSPost2010Prop46
 90
       50
102
RTVSPost2010PropOp46
 70
     1
102
RTVSPost2010Prop47
 90
       50
102
RTVSPost2010PropOp47
 70
     1
102
RTVSPost2010Prop48
 90
       50
102
RTVSPost2010PropOp48
 70
     1
102
RTVSPost2010Prop49
280
     0
102
RTVSPost2010PropOp49
 70
     1
102
RTVSPost2010Prop50
 90
       50
102
RTVSPost2010PropOp50
 70
     1
102
RTVSPost2010Prop51ColorIndex
 90
      256
102
RTVSPost2010Prop51ColorRGB
 90
-16777216
102
RTVSPost2010PropOp51
 70
     0
102
RTVSPost2010Prop52
140
1.0
102
RTVSPost2010PropOp52
 70
     0
102
RTVSPost2010Prop53
 90
        2
102
RTVSPost2010PropOp53
 70
     1
102
RTVSPost2010Prop54
  1
strokes_ogs.tif
102
RTVSPost2010PropOp54
 70
     1
102
RTVSPost2010Prop55
280
     0
102
RTVSPost2010PropOp55
 70
     1
102
RTVSPost2010Prop56
140
1.0
102
RTVSPost2010PropOp56
 70
     1
102
RTVSPost2010Prop57
140
1.0
102
RTVSPost2010PropOp57
 70
     1
102
RTVSPropertyOp0
 70
     1
102
RTVSPropertyOp1
 70
     1
102
RTVSPropertyOp2
 70
     1
102
RTVSPropertyOp3
 70
     1
102
RTVSPropertyOp4
 70
     1
102
RTVSPropertyOp5
 70
     1
102
RTVSPropertyOp6
 70
     1
102
RTVSPropertyOp7
 70
     1
102
RTVSPropertyOp8
 70
     1
102
RTVSPropertyOp9
 70
     1
102
RTVSPropertyOp10
 70
     1
102
RTVSPropertyOp11
 70
     1
102
RTVSPropertyOp12
 70
     1
102
RTVSPropertyOp13
 70
     1
102
RTVSPropertyOp14
 70
     1
102
RTVSPropertyOp15
 70
     1
102
RTVSPropertyOp16
 70
     1
102
RTVSPropertyOp17
 70
     1
102
RTVSPropertyOp18
 70
     1
102
RTVSPropertyOp19
 70
     1
102
RTVSPropertyOp20
 70
     1
102
RTVSPropertyOp21
 70
     1
102
RTVSPropertyOp22
 70
     1
102
RTVSPropertyOp23
 70
     1
102
RTVSPropertyOp24
 70
     1
102
RTVSPropertyOp25
 70
     1
102
RTVSPropertyOp26
 70
     1
102
RTVSPropertyOp27
 70
     1
102
RTVSPropertyOp28
 70
     1
102
RTVSPropertyOp29
 70
     1
102
RTVSPropertyOp30
 70
     1
102
RTVSPropertyOp31
 70
     1
102
RTVSPropertyOp32
 70
     1
102
RTVSPropertyOp33
 70
     1
102
RTVSPropertyOp34
 70
     1
102
RTVSPropertyOp35
 70
     1
102
RTVSPropertyOp36
 70
     1
102
RTVSPropertyOp37
 70
     1
102
RTVSPropertyOp38
 70
     1
102
RTVSPropertyOp39
 70
     1
102
RTVSPropertyOp40
 70
     1
102
RTVSPropertyOp41
 70
     1
102
RTVSPropertyOp42
 70
     1
102
RTVSPropertyOp43
 70
     1
102
RTVSPropertyOp44
 70
     1
102
RTVSPropertyOp45
 70
     1
102
RTVSPropertyOp46
 70
     1
102
RTVSPropertyOp47
 70
     1
102
RTVSPropertyOp48
 70
     1
102
RTVSPropertyOp49
 70
     1
102
RTVSPropertyOp50
 70
     1
102
RTVSPropertyOp51
 70
     0
102
RTVSPropertyOp52
 70
     0
102
RTVSPropertyOp53
 70
     1
102
RTVSPropertyOp54
 70
     1
102
RTVSPropertyOp55
 70
     1
102
RTVSPropertyOp56
 70
     1
102
RTVSPropertyOp57
 70
     1
102
RTVSPropertyOp58
 70
     1
102
RTVSPropertyOp59
 70
     1
102
RTVSPropertyOp60
 70
     1
102
RTVSPropertyOp61
 70
     1
102
RTVSPropertyOp62
 70
     1
  0
XRECORD
  5
2E06
102
{ACAD_REACTORS
330
2E05
102
}
330
2E05
100
AcDbXrecord
280
     1
102
RTVSPost2010Prop28
280
     0
102
RTVSPost2010PropOp28
 70
     1
102
RTVSPost2010Prop29
280
     1
102
RTVSPost2010PropOp29
 70
     1
102
RTVSPost2010Prop30
280
     1
102
RTVSPost2010PropOp30
 70
     1
102
RTVSPost2010Prop31
280
     0
102
RTVSPost2010PropOp31
 70
     1
102
RTVSPost2010Prop32
280
     0
102
RTVSPost2010PropOp32
 70
     1
102
RTVSPost2010Prop33
280
     0
102
RTVSPost2010PropOp33
 70
     1
102
RTVSPost2010Prop34
280
     0
102
RTVSPost2010PropOp34
 70
     1
102
RTVSPost2010Prop35
280
     0
102
RTVSPost2010PropOp35
 70
     1
102
RTVSPost2010Prop36
280
     0
102
RTVSPost2010PropOp36
 70
     1
102
RTVSPost2010Prop37
 90
       50
102
RTVSPost2010PropOp37
 70
     1
102
RTVSPost2010Prop38
140
0.0
102
RTVSPost2010PropOp38
 70
     1
102
RTVSPost2010Prop39
140
1.0
102
RTVSPost2010PropOp39
 70
     1
102
RTVSPost2010Prop40
 90
        0
102
RTVSPost2010PropOp40
 70
     1
102
RTVSPost2010Prop41ColorIndex
 90
       18
102
RTVSPost2010Prop41ColorRGB
 90
        0
102
RTVSPost2010PropOp41
 70
     1
102
RTVSPost2010Prop42
 90
       50
102
RTVSPost2010PropOp42
 70
     1
102
RTVSPost2010Prop43
 90
        3
102
RTVSPost2010PropOp43
 70
     1
102
RTVSPost2010Prop44ColorIndex
 90
        5
102
RTVSPost2010Prop44ColorRGB
 90
      255
102
RTVSPost2010PropOp44
 70
     1
102
RTVSPost2010Prop45
280
     0
102
RTVSPost2010PropOp45
 70
     1
102
RTVSPost2010Prop46
 90
       50
102
RTVSPost2010PropOp46
 70
     1
102
RTVSPost2010Prop47
 90
       50
102
RTVSPost2010PropOp47
 70
     1
102
RTVSPost2010Prop48
 90
       50
102
RTVSPost2010PropOp48
 70
     1
102
RTVSPost2010Prop49
280
     0
102
RTVSPost2010PropOp49
 70
     1
102
RTVSPost2010Prop50
 90
       50
102
RTVSPost2010PropOp50
 70
     1
102
RTVSPost2010Prop51ColorIndex
 90
      256
102
RTVSPost2010Prop51ColorRGB
 90
-16777216
102
RTVSPost2010PropOp51
 70
     0
102
RTVSPost2010Prop52
140
1.0
102
RTVSPost2010PropOp52
 70
     0
102
RTVSPost2010Prop53
 90
        2
102
RTVSPost2010PropOp53
 70
     1
102
RTVSPost2010Prop54
  1
strokes_ogs.tif
102
RTVSPost2010PropOp54
 70
     1
102
RTVSPost2010Prop55
280
     0
102
RTVSPost2010PropOp55
 70
     1
102
RTVSPost2010Prop56
140
1.0
102
RTVSPost2010PropOp56
 70
     1
102
RTVSPost2010Prop57
140
1.0
102
RTVSPost2010PropOp57
 70
     1
102
RTVSPropertyOp0
 70
     1
102
RTVSPropertyOp1
 70
     1
102
RTVSPropertyOp2
 70
     1
102
RTVSPropertyOp3
 70
     1
102
RTVSPropertyOp4
 70
     1
102
RTVSPropertyOp5
 70
     1
102
RTVSPropertyOp6
 70
     1
102
RTVSPropertyOp7
 70
     1
102
RTVSPropertyOp8
 70
     1
102
RTVSPropertyOp9
 70
     1
102
RTVSPropertyOp10
 70
     1
102
RTVSPropertyOp11
 70
     1
102
RTVSPropertyOp12
 70
     1
102
RTVSPropertyOp13
 70
     1
102
RTVSPropertyOp14
 70
     1
102
RTVSPropertyOp15
 70
     1
102
RTVSPropertyOp16
 70
     1
102
RTVSPropertyOp17
 70
     1
102
RTVSPropertyOp18
 70
     1
102
RTVSPropertyOp19
 70
     1
102
RTVSPropertyOp20
 70
     1
102
RTVSPropertyOp21
 70
     1
102
RTVSPropertyOp22
 70
     1
102
RTVSPropertyOp23
 70
     1
102
RTVSPropertyOp24
 70
     1
102
RTVSPropertyOp25
 70
     1
102
RTVSPropertyOp26
 70
     1
102
RTVSPropertyOp27
 70
     1
102
RTVSPropertyOp28
 70
     1
102
RTVSPropertyOp29
 70
     1
102
RTVSPropertyOp30
 70
     1
102
RTVSPropertyOp31
 70
     1
102
RTVSPropertyOp32
 70
     1
102
RTVSPropertyOp33
 70
     1
102
RTVSPropertyOp34
 70
     1
102
RTVSPropertyOp35
 70
     1
102
RTVSPropertyOp36
 70
     1
102
RTVSPropertyOp37
 70
     1
102
RTVSPropertyOp38
 70
     1
102
RTVSPropertyOp39
 70
     1
102
RTVSPropertyOp40
 70
     1
102
RTVSPropertyOp41
 70
     1
102
RTVSPropertyOp42
 70
     1
102
RTVSPropertyOp43
 70
     1
102
RTVSPropertyOp44
 70
     1
102
RTVSPropertyOp45
 70
     1
102
RTVSPropertyOp46
 70
     1
102
RTVSPropertyOp47
 70
     1
102
RTVSPropertyOp48
 70
     1
102
RTVSPropertyOp49
 70
     1
102
RTVSPropertyOp50
 70
     1
102
RTVSPropertyOp51
 70
     0
102
RTVSPropertyOp52
 70
     0
102
RTVSPropertyOp53
 70
     1
102
RTVSPropertyOp54
 70
     1
102
RTVSPropertyOp55
 70
     1
102
RTVSPropertyOp56
 70
     1
102
RTVSPropertyOp57
 70
     1
102
RTVSPropertyOp58
 70
     1
102
RTVSPropertyOp59
 70
     1
102
RTVSPropertyOp60
 70
     1
102
RTVSPropertyOp61
 70
     1
102
RTVSPropertyOp62
 70
     1
  0
XRECORD
  5
2E0E
102
{ACAD_REACTORS
330
2E0D
102
}
330
2E0D
100
AcDbXrecord
280
     1
102
RTVSPost2010Prop28
280
     0
102
RTVSPost2010PropOp28
 70
     1
102
RTVSPost2010Prop29
280
     1
102
RTVSPost2010PropOp29
 70
     1
102
RTVSPost2010Prop30
280
     1
102
RTVSPost2010PropOp30
 70
     1
102
RTVSPost2010Prop31
280
     0
102
RTVSPost2010PropOp31
 70
     1
102
RTVSPost2010Prop32
280
     0
102
RTVSPost2010PropOp32
 70
     1
102
RTVSPost2010Prop33
280
     0
102
RTVSPost2010PropOp33
 70
     1
102
RTVSPost2010Prop34
280
     0
102
RTVSPost2010PropOp34
 70
     1
102
RTVSPost2010Prop35
280
     0
102
RTVSPost2010PropOp35
 70
     1
102
RTVSPost2010Prop36
280
     0
102
RTVSPost2010PropOp36
 70
     1
102
RTVSPost2010Prop37
 90
       50
102
RTVSPost2010PropOp37
 70
     1
102
RTVSPost2010Prop38
140
0.0
102
RTVSPost2010PropOp38
 70
     1
102
RTVSPost2010Prop39
140
1.0
102
RTVSPost2010PropOp39
 70
     1
102
RTVSPost2010Prop40
 90
        0
102
RTVSPost2010PropOp40
 70
     1
102
RTVSPost2010Prop41ColorIndex
 90
       18
102
RTVSPost2010Prop41ColorRGB
 90
        0
102
RTVSPost2010PropOp41
 70
     1
102
RTVSPost2010Prop42
 90
       50
102
RTVSPost2010PropOp42
 70
     1
102
RTVSPost2010Prop43
 90
        3
102
RTVSPost2010PropOp43
 70
     1
102
RTVSPost2010Prop44ColorIndex
 90
        5
102
RTVSPost2010Prop44ColorRGB
 90
      255
102
RTVSPost2010PropOp44
 70
     1
102
RTVSPost2010Prop45
280
     0
102
RTVSPost2010PropOp45
 70
     1
102
RTVSPost2010Prop46
 90
       50
102
RTVSPost2010PropOp46
 70
     1
102
RTVSPost2010Prop47
 90
       50
102
RTVSPost2010PropOp47
 70
     1
102
RTVSPost2010Prop48
 90
       50
102
RTVSPost2010PropOp48
 70
     1
102
RTVSPost2010Prop49
280
     0
102
RTVSPost2010PropOp49
 70
     1
102
RTVSPost2010Prop50
 90
       50
102
RTVSPost2010PropOp50
 70
     1
102
RTVSPost2010Prop51ColorIndex
 90
      256
102
RTVSPost2010Prop51ColorRGB
 90
-16777216
102
RTVSPost2010PropOp51
 70
     0
102
RTVSPost2010Prop52
140
1.0
102
RTVSPost2010PropOp52
 70
     0
102
RTVSPost2010Prop53
 90
        2
102
RTVSPost2010PropOp53
 70
     1
102
RTVSPost2010Prop54
  1
strokes_ogs.tif
102
RTVSPost2010PropOp54
 70
     1
102
RTVSPost2010Prop55
280
     0
102
RTVSPost2010PropOp55
 70
     1
102
RTVSPost2010Prop56
140
1.0
102
RTVSPost2010PropOp56
 70
     1
102
RTVSPost2010Prop57
140
1.0
102
RTVSPost2010PropOp57
 70
     1
102
RTVSPropertyOp0
 70
     1
102
RTVSPropertyOp1
 70
     1
102
RTVSPropertyOp2
 70
     1
102
RTVSPropertyOp3
 70
     1
102
RTVSPropertyOp4
 70
     1
102
RTVSPropertyOp5
 70
     1
102
RTVSPropertyOp6
 70
     1
102
RTVSPropertyOp7
 70
     1
102
RTVSPropertyOp8
 70
     1
102
RTVSPropertyOp9
 70
     1
102
RTVSPropertyOp10
 70
     1
102
RTVSPropertyOp11
 70
     1
102
RTVSPropertyOp12
 70
     1
102
RTVSPropertyOp13
 70
     1
102
RTVSPropertyOp14
 70
     1
102
RTVSPropertyOp15
 70
     1
102
RTVSPropertyOp16
 70
     1
102
RTVSPropertyOp17
 70
     1
102
RTVSPropertyOp18
 70
     1
102
RTVSPropertyOp19
 70
     1
102
RTVSPropertyOp20
 70
     1
102
RTVSPropertyOp21
 70
     1
102
RTVSPropertyOp22
 70
     1
102
RTVSPropertyOp23
 70
     1
102
RTVSPropertyOp24
 70
     1
102
RTVSPropertyOp25
 70
     1
102
RTVSPropertyOp26
 70
     1
102
RTVSPropertyOp27
 70
     1
102
RTVSPropertyOp28
 70
     1
102
RTVSPropertyOp29
 70
     1
102
RTVSPropertyOp30
 70
     1
102
RTVSPropertyOp31
 70
     1
102
RTVSPropertyOp32
 70
     1
102
RTVSPropertyOp33
 70
     1
102
RTVSPropertyOp34
 70
     1
102
RTVSPropertyOp35
 70
     1
102
RTVSPropertyOp36
 70
     1
102
RTVSPropertyOp37
 70
     1
102
RTVSPropertyOp38
 70
     1
102
RTVSPropertyOp39
 70
     1
102
RTVSPropertyOp40
 70
     1
102
RTVSPropertyOp41
 70
     1
102
RTVSPropertyOp42
 70
     1
102
RTVSPropertyOp43
 70
     1
102
RTVSPropertyOp44
 70
     1
102
RTVSPropertyOp45
 70
     1
102
RTVSPropertyOp46
 70
     1
102
RTVSPropertyOp47
 70
     1
102
RTVSPropertyOp48
 70
     1
102
RTVSPropertyOp49
 70
     1
102
RTVSPropertyOp50
 70
     1
102
RTVSPropertyOp51
 70
     0
102
RTVSPropertyOp52
 70
     0
102
RTVSPropertyOp53
 70
     1
102
RTVSPropertyOp54
 70
     1
102
RTVSPropertyOp55
 70
     1
102
RTVSPropertyOp56
 70
     1
102
RTVSPropertyOp57
 70
     1
102
RTVSPropertyOp58
 70
     1
102
RTVSPropertyOp59
 70
     1
102
RTVSPropertyOp60
 70
     1
102
RTVSPropertyOp61
 70
     1
102
RTVSPropertyOp62
 70
     1
  0
XRECORD
  5
2E00
102
{ACAD_REACTORS
330
2DFF
102
}
330
2DFF
100
AcDbXrecord
280
     1
102
RTVSPost2010Prop28
280
     0
102
RTVSPost2010PropOp28
 70
     1
102
RTVSPost2010Prop29
280
     1
102
RTVSPost2010PropOp29
 70
     1
102
RTVSPost2010Prop30
280
     1
102
RTVSPost2010PropOp30
 70
     1
102
RTVSPost2010Prop31
280
     0
102
RTVSPost2010PropOp31
 70
     1
102
RTVSPost2010Prop32
280
     0
102
RTVSPost2010PropOp32
 70
     1
102
RTVSPost2010Prop33
280
     0
102
RTVSPost2010PropOp33
 70
     1
102
RTVSPost2010Prop34
280
     0
102
RTVSPost2010PropOp34
 70
     1
102
RTVSPost2010Prop35
280
     0
102
RTVSPost2010PropOp35
 70
     1
102
RTVSPost2010Prop36
280
     0
102
RTVSPost2010PropOp36
 70
     1
102
RTVSPost2010Prop37
 90
       50
102
RTVSPost2010PropOp37
 70
     1
102
RTVSPost2010Prop38
140
0.0
102
RTVSPost2010PropOp38
 70
     1
102
RTVSPost2010Prop39
140
1.0
102
RTVSPost2010PropOp39
 70
     1
102
RTVSPost2010Prop40
 90
        0
102
RTVSPost2010PropOp40
 70
     1
102
RTVSPost2010Prop41ColorIndex
 90
       18
102
RTVSPost2010Prop41ColorRGB
 90
        0
102
RTVSPost2010PropOp41
 70
     1
102
RTVSPost2010Prop42
 90
       50
102
RTVSPost2010PropOp42
 70
     1
102
RTVSPost2010Prop43
 90
        3
102
RTVSPost2010PropOp43
 70
     1
102
RTVSPost2010Prop44ColorIndex
 90
        5
102
RTVSPost2010Prop44ColorRGB
 90
      255
102
RTVSPost2010PropOp44
 70
     1
102
RTVSPost2010Prop45
280
     0
102
RTVSPost2010PropOp45
 70
     1
102
RTVSPost2010Prop46
 90
       50
102
RTVSPost2010PropOp46
 70
     1
102
RTVSPost2010Prop47
 90
       50
102
RTVSPost2010PropOp47
 70
     1
102
RTVSPost2010Prop48
 90
       50
102
RTVSPost2010PropOp48
 70
     1
102
RTVSPost2010Prop49
280
     0
102
RTVSPost2010PropOp49
 70
     1
102
RTVSPost2010Prop50
 90
       50
102
RTVSPost2010PropOp50
 70
     1
102
RTVSPost2010Prop51ColorIndex
 90
      256
102
RTVSPost2010Prop51ColorRGB
 90
-16777216
102
RTVSPost2010PropOp51
 70
     0
102
RTVSPost2010Prop52
140
1.0
102
RTVSPost2010PropOp52
 70
     0
102
RTVSPost2010Prop53
 90
        2
102
RTVSPost2010PropOp53
 70
     1
102
RTVSPost2010Prop54
  1
strokes_ogs.tif
102
RTVSPost2010PropOp54
 70
     1
102
RTVSPost2010Prop55
280
     0
102
RTVSPost2010PropOp55
 70
     1
102
RTVSPost2010Prop56
140
1.0
102
RTVSPost2010PropOp56
 70
     1
102
RTVSPost2010Prop57
140
1.0
102
RTVSPost2010PropOp57
 70
     1
102
RTVSPropertyOp0
 70
     1
102
RTVSPropertyOp1
 70
     1
102
RTVSPropertyOp2
 70
     1
102
RTVSPropertyOp3
 70
     1
102
RTVSPropertyOp4
 70
     1
102
RTVSPropertyOp5
 70
     1
102
RTVSPropertyOp6
 70
     1
102
RTVSPropertyOp7
 70
     1
102
RTVSPropertyOp8
 70
     1
102
RTVSPropertyOp9
 70
     1
102
RTVSPropertyOp10
 70
     1
102
RTVSPropertyOp11
 70
     1
102
RTVSPropertyOp12
 70
     1
102
RTVSPropertyOp13
 70
     1
102
RTVSPropertyOp14
 70
     1
102
RTVSPropertyOp15
 70
     1
102
RTVSPropertyOp16
 70
     1
102
RTVSPropertyOp17
 70
     1
102
RTVSPropertyOp18
 70
     1
102
RTVSPropertyOp19
 70
     1
102
RTVSPropertyOp20
 70
     1
102
RTVSPropertyOp21
 70
     1
102
RTVSPropertyOp22
 70
     1
102
RTVSPropertyOp23
 70
     1
102
RTVSPropertyOp24
 70
     1
102
RTVSPropertyOp25
 70
     1
102
RTVSPropertyOp26
 70
     1
102
RTVSPropertyOp27
 70
     1
102
RTVSPropertyOp28
 70
     1
102
RTVSPropertyOp29
 70
     1
102
RTVSPropertyOp30
 70
     1
102
RTVSPropertyOp31
 70
     1
102
RTVSPropertyOp32
 70
     1
102
RTVSPropertyOp33
 70
     1
102
RTVSPropertyOp34
 70
     1
102
RTVSPropertyOp35
 70
     1
102
RTVSPropertyOp36
 70
     1
102
RTVSPropertyOp37
 70
     1
102
RTVSPropertyOp38
 70
     1
102
RTVSPropertyOp39
 70
     1
102
RTVSPropertyOp40
 70
     1
102
RTVSPropertyOp41
 70
     1
102
RTVSPropertyOp42
 70
     1
102
RTVSPropertyOp43
 70
     1
102
RTVSPropertyOp44
 70
     1
102
RTVSPropertyOp45
 70
     1
102
RTVSPropertyOp46
 70
     1
102
RTVSPropertyOp47
 70
     1
102
RTVSPropertyOp48
 70
     1
102
RTVSPropertyOp49
 70
     1
102
RTVSPropertyOp50
 70
     1
102
RTVSPropertyOp51
 70
     0
102
RTVSPropertyOp52
 70
     0
102
RTVSPropertyOp53
 70
     1
102
RTVSPropertyOp54
 70
     1
102
RTVSPropertyOp55
 70
     1
102
RTVSPropertyOp56
 70
     1
102
RTVSPropertyOp57
 70
     1
102
RTVSPropertyOp58
 70
     1
102
RTVSPropertyOp59
 70
     1
102
RTVSPropertyOp60
 70
     1
102
RTVSPropertyOp61
 70
     1
102
RTVSPropertyOp62
 70
     1
  0
XRECORD
  5
2E04
102
{ACAD_REACTORS
330
2E03
102
}
330
2E03
100
AcDbXrecord
280
     1
102
RTVSPost2010Prop28
280
     0
102
RTVSPost2010PropOp28
 70
     1
102
RTVSPost2010Prop29
280
     1
102
RTVSPost2010PropOp29
 70
     1
102
RTVSPost2010Prop30
280
     1
102
RTVSPost2010PropOp30
 70
     1
102
RTVSPost2010Prop31
280
     0
102
RTVSPost2010PropOp31
 70
     1
102
RTVSPost2010Prop32
280
     0
102
RTVSPost2010PropOp32
 70
     1
102
RTVSPost2010Prop33
280
     0
102
RTVSPost2010PropOp33
 70
     1
102
RTVSPost2010Prop34
280
     0
102
RTVSPost2010PropOp34
 70
     1
102
RTVSPost2010Prop35
280
     0
102
RTVSPost2010PropOp35
 70
     1
102
RTVSPost2010Prop36
280
     0
102
RTVSPost2010PropOp36
 70
     1
102
RTVSPost2010Prop37
 90
       50
102
RTVSPost2010PropOp37
 70
     1
102
RTVSPost2010Prop38
140
0.0
102
RTVSPost2010PropOp38
 70
     1
102
RTVSPost2010Prop39
140
1.0
102
RTVSPost2010PropOp39
 70
     1
102
RTVSPost2010Prop40
 90
        0
102
RTVSPost2010PropOp40
 70
     1
102
RTVSPost2010Prop41ColorIndex
 90
       18
102
RTVSPost2010Prop41ColorRGB
 90
        0
102
RTVSPost2010PropOp41
 70
     1
102
RTVSPost2010Prop42
 90
       50
102
RTVSPost2010PropOp42
 70
     1
102
RTVSPost2010Prop43
 90
        3
102
RTVSPost2010PropOp43
 70
     1
102
RTVSPost2010Prop44ColorIndex
 90
        5
102
RTVSPost2010Prop44ColorRGB
 90
      255
102
RTVSPost2010PropOp44
 70
     1
102
RTVSPost2010Prop45
280
     0
102
RTVSPost2010PropOp45
 70
     1
102
RTVSPost2010Prop46
 90
       50
102
RTVSPost2010PropOp46
 70
     1
102
RTVSPost2010Prop47
 90
       50
102
RTVSPost2010PropOp47
 70
     1
102
RTVSPost2010Prop48
 90
       50
102
RTVSPost2010PropOp48
 70
     1
102
RTVSPost2010Prop49
280
     0
102
RTVSPost2010PropOp49
 70
     1
102
RTVSPost2010Prop50
 90
       50
102
RTVSPost2010PropOp50
 70
     1
102
RTVSPost2010Prop51ColorIndex
 90
      256
102
RTVSPost2010Prop51ColorRGB
 90
-16777216
102
RTVSPost2010PropOp51
 70
     0
102
RTVSPost2010Prop52
140
1.0
102
RTVSPost2010PropOp52
 70
     0
102
RTVSPost2010Prop53
 90
        2
102
RTVSPost2010PropOp53
 70
     1
102
RTVSPost2010Prop54
  1
strokes_ogs.tif
102
RTVSPost2010PropOp54
 70
     1
102
RTVSPost2010Prop55
280
     0
102
RTVSPost2010PropOp55
 70
     1
102
RTVSPost2010Prop56
140
1.0
102
RTVSPost2010PropOp56
 70
     1
102
RTVSPost2010Prop57
140
1.0
102
RTVSPost2010PropOp57
 70
     1
102
RTVSPropertyOp0
 70
     1
102
RTVSPropertyOp1
 70
     1
102
RTVSPropertyOp2
 70
     1
102
RTVSPropertyOp3
 70
     1
102
RTVSPropertyOp4
 70
     1
102
RTVSPropertyOp5
 70
     1
102
RTVSPropertyOp6
 70
     1
102
RTVSPropertyOp7
 70
     1
102
RTVSPropertyOp8
 70
     1
102
RTVSPropertyOp9
 70
     1
102
RTVSPropertyOp10
 70
     1
102
RTVSPropertyOp11
 70
     1
102
RTVSPropertyOp12
 70
     1
102
RTVSPropertyOp13
 70
     1
102
RTVSPropertyOp14
 70
     1
102
RTVSPropertyOp15
 70
     1
102
RTVSPropertyOp16
 70
     1
102
RTVSPropertyOp17
 70
     1
102
RTVSPropertyOp18
 70
     1
102
RTVSPropertyOp19
 70
     1
102
RTVSPropertyOp20
 70
     1
102
RTVSPropertyOp21
 70
     1
102
RTVSPropertyOp22
 70
     1
102
RTVSPropertyOp23
 70
     1
102
RTVSPropertyOp24
 70
     1
102
RTVSPropertyOp25
 70
     1
102
RTVSPropertyOp26
 70
     1
102
RTVSPropertyOp27
 70
     1
102
RTVSPropertyOp28
 70
     1
102
RTVSPropertyOp29
 70
     1
102
RTVSPropertyOp30
 70
     1
102
RTVSPropertyOp31
 70
     1
102
RTVSPropertyOp32
 70
     1
102
RTVSPropertyOp33
 70
     1
102
RTVSPropertyOp34
 70
     1
102
RTVSPropertyOp35
 70
     1
102
RTVSPropertyOp36
 70
     1
102
RTVSPropertyOp37
 70
     1
102
RTVSPropertyOp38
 70
     1
102
RTVSPropertyOp39
 70
     1
102
RTVSPropertyOp40
 70
     1
102
RTVSPropertyOp41
 70
     1
102
RTVSPropertyOp42
 70
     1
102
RTVSPropertyOp43
 70
     1
102
RTVSPropertyOp44
 70
     1
102
RTVSPropertyOp45
 70
     1
102
RTVSPropertyOp46
 70
     1
102
RTVSPropertyOp47
 70
     1
102
RTVSPropertyOp48
 70
     1
102
RTVSPropertyOp49
 70
     1
102
RTVSPropertyOp50
 70
     1
102
RTVSPropertyOp51
 70
     0
102
RTVSPropertyOp52
 70
     0
102
RTVSPropertyOp53
 70
     1
102
RTVSPropertyOp54
 70
     1
102
RTVSPropertyOp55
 70
     1
102
RTVSPropertyOp56
 70
     1
102
RTVSPropertyOp57
 70
     1
102
RTVSPropertyOp58
 70
     1
102
RTVSPropertyOp59
 70
     1
102
RTVSPropertyOp60
 70
     1
102
RTVSPropertyOp61
 70
     1
102
RTVSPropertyOp62
 70
     1
  0
XRECORD
  5
2E1E
102
{ACAD_REACTORS
330
2E1D
102
}
330
2E1D
100
AcDbXrecord
280
     1
102
RTVSPost2010Prop28
280
     0
102
RTVSPost2010PropOp28
 70
     0
102
RTVSPost2010Prop29
280
     1
102
RTVSPost2010PropOp29
 70
     0
102
RTVSPost2010Prop30
280
     1
102
RTVSPost2010PropOp30
 70
     0
102
RTVSPost2010Prop31
280
     0
102
RTVSPost2010PropOp31
 70
     0
102
RTVSPost2010Prop32
280
     0
102
RTVSPost2010PropOp32
 70
     0
102
RTVSPost2010Prop33
280
     0
102
RTVSPost2010PropOp33
 70
     0
102
RTVSPost2010Prop34
280
     0
102
RTVSPost2010PropOp34
 70
     0
102
RTVSPost2010Prop35
280
     0
102
RTVSPost2010PropOp35
 70
     0
102
RTVSPost2010Prop36
280
     0
102
RTVSPost2010PropOp36
 70
     0
102
RTVSPost2010Prop37
 90
       50
102
RTVSPost2010PropOp37
 70
     0
102
RTVSPost2010Prop38
140
0.0
102
RTVSPost2010PropOp38
 70
     0
102
RTVSPost2010Prop39
140
1.0
102
RTVSPost2010PropOp39
 70
     0
102
RTVSPost2010Prop40
 90
        0
102
RTVSPost2010PropOp40
 70
     0
102
RTVSPost2010Prop41ColorIndex
 90
       18
102
RTVSPost2010Prop41ColorRGB
 90
        0
102
RTVSPost2010PropOp41
 70
     0
102
RTVSPost2010Prop42
 90
       50
102
RTVSPost2010PropOp42
 70
     0
102
RTVSPost2010Prop43
 90
        3
102
RTVSPost2010PropOp43
 70
     0
102
RTVSPost2010Prop44ColorIndex
 90
        5
102
RTVSPost2010Prop44ColorRGB
 90
      255
102
RTVSPost2010PropOp44
 70
     0
102
RTVSPost2010Prop45
280
     0
102
RTVSPost2010PropOp45
 70
     0
102
RTVSPost2010Prop46
 90
       50
102
RTVSPost2010PropOp46
 70
     0
102
RTVSPost2010Prop47
 90
       50
102
RTVSPost2010PropOp47
 70
     0
102
RTVSPost2010Prop48
 90
       50
102
RTVSPost2010PropOp48
 70
     0
102
RTVSPost2010Prop49
280
     0
102
RTVSPost2010PropOp49
 70
     0
102
RTVSPost2010Prop50
 90
       50
102
RTVSPost2010PropOp50
 70
     0
102
RTVSPost2010Prop51ColorIndex
 90
      256
102
RTVSPost2010Prop51ColorRGB
 90
-16777216
102
RTVSPost2010PropOp51
 70
     0
102
RTVSPost2010Prop52
140
1.0
102
RTVSPost2010PropOp52
 70
     0
102
RTVSPost2010Prop53
 90
        2
102
RTVSPost2010PropOp53
 70
     0
102
RTVSPost2010Prop54
  1
strokes_ogs.tif
102
RTVSPost2010PropOp54
 70
     0
102
RTVSPost2010Prop55
280
     0
102
RTVSPost2010PropOp55
 70
     0
102
RTVSPost2010Prop56
140
1.0
102
RTVSPost2010PropOp56
 70
     0
102
RTVSPost2010Prop57
140
1.0
102
RTVSPost2010PropOp57
 70
     0
102
RTVSPropertyOp0
 70
     0
102
RTVSPropertyOp1
 70
     0
102
RTVSPropertyOp2
 70
     0
102
RTVSPropertyOp3
 70
     0
102
RTVSPropertyOp4
 70
     0
102
RTVSPropertyOp5
 70
     0
102
RTVSPropertyOp6
 70
     0
102
RTVSPropertyOp7
 70
     0
102
RTVSPropertyOp8
 70
     0
102
RTVSPropertyOp9
 70
     0
102
RTVSPropertyOp10
 70
     0
102
RTVSPropertyOp11
 70
     0
102
RTVSPropertyOp12
 70
     0
102
RTVSPropertyOp13
 70
     0
102
RTVSPropertyOp14
 70
     2
102
RTVSPropertyOp15
 70
     0
102
RTVSPropertyOp16
 70
     0
102
RTVSPropertyOp17
 70
     0
102
RTVSPropertyOp18
 70
     0
102
RTVSPropertyOp19
 70
     0
102
RTVSPropertyOp20
 70
     0
102
RTVSPropertyOp21
 70
     0
102
RTVSPropertyOp22
 70
     0
102
RTVSPropertyOp23
 70
     0
102
RTVSPropertyOp24
 70
     0
102
RTVSPropertyOp25
 70
     0
102
RTVSPropertyOp26
 70
     0
102
RTVSPropertyOp27
 70
     0
102
RTVSPropertyOp28
 70
     0
102
RTVSPropertyOp29
 70
     0
102
RTVSPropertyOp30
 70
     0
102
RTVSPropertyOp31
 70
     0
102
RTVSPropertyOp32
 70
     0
102
RTVSPropertyOp33
 70
     0
102
RTVSPropertyOp34
 70
     0
102
RTVSPropertyOp35
 70
     0
102
RTVSPropertyOp36
 70
     0
102
RTVSPropertyOp37
 70
     0
102
RTVSPropertyOp38
 70
     0
102
RTVSPropertyOp39
 70
     0
102
RTVSPropertyOp40
 70
     0
102
RTVSPropertyOp41
 70
     0
102
RTVSPropertyOp42
 70
     0
102
RTVSPropertyOp43
 70
     0
102
RTVSPropertyOp44
 70
     0
102
RTVSPropertyOp45
 70
     0
102
RTVSPropertyOp46
 70
     0
102
RTVSPropertyOp47
 70
     0
102
RTVSPropertyOp48
 70
     0
102
RTVSPropertyOp49
 70
     0
102
RTVSPropertyOp50
 70
     0
102
RTVSPropertyOp51
 70
     0
102
RTVSPropertyOp52
 70
     0
102
RTVSPropertyOp53
 70
     0
102
RTVSPropertyOp54
 70
     0
102
RTVSPropertyOp55
 70
     0
102
RTVSPropertyOp56
 70
     0
102
RTVSPropertyOp57
 70
     0
102
RTVSPropertyOp58
 70
     0
102
RTVSPropertyOp59
 70
     0
102
RTVSPropertyOp60
 70
     0
102
RTVSPropertyOp61
 70
     0
102
RTVSPropertyOp62
 70
     0
  0
XRECORD
  5
2E0C
102
{ACAD_REACTORS
330
2E0B
102
}
330
2E0B
100
AcDbXrecord
280
     1
102
RTVSPost2010Prop28
280
     0
102
RTVSPost2010PropOp28
 70
     1
102
RTVSPost2010Prop29
280
     1
102
RTVSPost2010PropOp29
 70
     1
102
RTVSPost2010Prop30
280
     1
102
RTVSPost2010PropOp30
 70
     1
102
RTVSPost2010Prop31
280
     0
102
RTVSPost2010PropOp31
 70
     1
102
RTVSPost2010Prop32
280
     0
102
RTVSPost2010PropOp32
 70
     1
102
RTVSPost2010Prop33
280
     0
102
RTVSPost2010PropOp33
 70
     1
102
RTVSPost2010Prop34
280
     0
102
RTVSPost2010PropOp34
 70
     1
102
RTVSPost2010Prop35
280
     0
102
RTVSPost2010PropOp35
 70
     1
102
RTVSPost2010Prop36
280
     0
102
RTVSPost2010PropOp36
 70
     1
102
RTVSPost2010Prop37
 90
       50
102
RTVSPost2010PropOp37
 70
     1
102
RTVSPost2010Prop38
140
0.0
102
RTVSPost2010PropOp38
 70
     1
102
RTVSPost2010Prop39
140
1.0
102
RTVSPost2010PropOp39
 70
     1
102
RTVSPost2010Prop40
 90
        0
102
RTVSPost2010PropOp40
 70
     1
102
RTVSPost2010Prop41ColorIndex
 90
       18
102
RTVSPost2010Prop41ColorRGB
 90
        0
102
RTVSPost2010PropOp41
 70
     1
102
RTVSPost2010Prop42
 90
       50
102
RTVSPost2010PropOp42
 70
     1
102
RTVSPost2010Prop43
 90
        3
102
RTVSPost2010PropOp43
 70
     1
102
RTVSPost2010Prop44ColorIndex
 90
        5
102
RTVSPost2010Prop44ColorRGB
 90
      255
102
RTVSPost2010PropOp44
 70
     1
102
RTVSPost2010Prop45
280
     0
102
RTVSPost2010PropOp45
 70
     1
102
RTVSPost2010Prop46
 90
       50
102
RTVSPost2010PropOp46
 70
     1
102
RTVSPost2010Prop47
 90
       50
102
RTVSPost2010PropOp47
 70
     1
102
RTVSPost2010Prop48
 90
       50
102
RTVSPost2010PropOp48
 70
     1
102
RTVSPost2010Prop49
280
     0
102
RTVSPost2010PropOp49
 70
     1
102
RTVSPost2010Prop50
 90
       50
102
RTVSPost2010PropOp50
 70
     1
102
RTVSPost2010Prop51ColorIndex
 90
      256
102
RTVSPost2010Prop51ColorRGB
 90
-16777216
102
RTVSPost2010PropOp51
 70
     0
102
RTVSPost2010Prop52
140
1.0
102
RTVSPost2010PropOp52
 70
     0
102
RTVSPost2010Prop53
 90
        2
102
RTVSPost2010PropOp53
 70
     1
102
RTVSPost2010Prop54
  1
strokes_ogs.tif
102
RTVSPost2010PropOp54
 70
     1
102
RTVSPost2010Prop55
280
     0
102
RTVSPost2010PropOp55
 70
     1
102
RTVSPost2010Prop56
140
1.0
102
RTVSPost2010PropOp56
 70
     1
102
RTVSPost2010Prop57
140
1.0
102
RTVSPost2010PropOp57
 70
     1
102
RTVSPropertyOp0
 70
     1
102
RTVSPropertyOp1
 70
     1
102
RTVSPropertyOp2
 70
     1
102
RTVSPropertyOp3
 70
     1
102
RTVSPropertyOp4
 70
     1
102
RTVSPropertyOp5
 70
     1
102
RTVSPropertyOp6
 70
     1
102
RTVSPropertyOp7
 70
     1
102
RTVSPropertyOp8
 70
     1
102
RTVSPropertyOp9
 70
     1
102
RTVSPropertyOp10
 70
     1
102
RTVSPropertyOp11
 70
     1
102
RTVSPropertyOp12
 70
     1
102
RTVSPropertyOp13
 70
     1
102
RTVSPropertyOp14
 70
     1
102
RTVSPropertyOp15
 70
     1
102
RTVSPropertyOp16
 70
     1
102
RTVSPropertyOp17
 70
     1
102
RTVSPropertyOp18
 70
     1
102
RTVSPropertyOp19
 70
     1
102
RTVSPropertyOp20
 70
     1
102
RTVSPropertyOp21
 70
     1
102
RTVSPropertyOp22
 70
     1
102
RTVSPropertyOp23
 70
     1
102
RTVSPropertyOp24
 70
     1
102
RTVSPropertyOp25
 70
     1
102
RTVSPropertyOp26
 70
     1
102
RTVSPropertyOp27
 70
     1
102
RTVSPropertyOp28
 70
     1
102
RTVSPropertyOp29
 70
     1
102
RTVSPropertyOp30
 70
     1
102
RTVSPropertyOp31
 70
     1
102
RTVSPropertyOp32
 70
     1
102
RTVSPropertyOp33
 70
     1
102
RTVSPropertyOp34
 70
     1
102
RTVSPropertyOp35
 70
     1
102
RTVSPropertyOp36
 70
     1
102
RTVSPropertyOp37
 70
     1
102
RTVSPropertyOp38
 70
     1
102
RTVSPropertyOp39
 70
     1
102
RTVSPropertyOp40
 70
     1
102
RTVSPropertyOp41
 70
     1
102
RTVSPropertyOp42
 70
     1
102
RTVSPropertyOp43
 70
     1
102
RTVSPropertyOp44
 70
     1
102
RTVSPropertyOp45
 70
     1
102
RTVSPropertyOp46
 70
     1
102
RTVSPropertyOp47
 70
     1
102
RTVSPropertyOp48
 70
     1
102
RTVSPropertyOp49
 70
     1
102
RTVSPropertyOp50
 70
     1
102
RTVSPropertyOp51
 70
     0
102
RTVSPropertyOp52
 70
     0
102
RTVSPropertyOp53
 70
     1
102
RTVSPropertyOp54
 70
     1
102
RTVSPropertyOp55
 70
     1
102
RTVSPropertyOp56
 70
     1
102
RTVSPropertyOp57
 70
     1
102
RTVSPropertyOp58
 70
     1
102
RTVSPropertyOp59
 70
     1
102
RTVSPropertyOp60
 70
     1
102
RTVSPropertyOp61
 70
     1
102
RTVSPropertyOp62
 70
     1
  0
XRECORD
  5
2DF0
102
{ACAD_REACTORS
330
2DEF
102
}
330
2DEF
100
AcDbXrecord
280
     1
102
RTVSPost2010Prop28
280
     0
102
RTVSPost2010PropOp28
 70
     1
102
RTVSPost2010Prop29
280
     1
102
RTVSPost2010PropOp29
 70
     1
102
RTVSPost2010Prop30
280
     1
102
RTVSPost2010PropOp30
 70
     1
102
RTVSPost2010Prop31
280
     0
102
RTVSPost2010PropOp31
 70
     1
102
RTVSPost2010Prop32
280
     0
102
RTVSPost2010PropOp32
 70
     1
102
RTVSPost2010Prop33
280
     0
102
RTVSPost2010PropOp33
 70
     1
102
RTVSPost2010Prop34
280
     0
102
RTVSPost2010PropOp34
 70
     1
102
RTVSPost2010Prop35
280
     0
102
RTVSPost2010PropOp35
 70
     1
102
RTVSPost2010Prop36
280
     0
102
RTVSPost2010PropOp36
 70
     1
102
RTVSPost2010Prop37
 90
       50
102
RTVSPost2010PropOp37
 70
     1
102
RTVSPost2010Prop38
140
0.0
102
RTVSPost2010PropOp38
 70
     1
102
RTVSPost2010Prop39
140
1.0
102
RTVSPost2010PropOp39
 70
     1
102
RTVSPost2010Prop40
 90
        0
102
RTVSPost2010PropOp40
 70
     1
102
RTVSPost2010Prop41ColorIndex
 90
       18
102
RTVSPost2010Prop41ColorRGB
 90
        0
102
RTVSPost2010PropOp41
 70
     1
102
RTVSPost2010Prop42
 90
       50
102
RTVSPost2010PropOp42
 70
     1
102
RTVSPost2010Prop43
 90
        3
102
RTVSPost2010PropOp43
 70
     1
102
RTVSPost2010Prop44ColorIndex
 90
        5
102
RTVSPost2010Prop44ColorRGB
 90
      255
102
RTVSPost2010PropOp44
 70
     1
102
RTVSPost2010Prop45
280
     0
102
RTVSPost2010PropOp45
 70
     1
102
RTVSPost2010Prop46
 90
       50
102
RTVSPost2010PropOp46
 70
     1
102
RTVSPost2010Prop47
 90
       50
102
RTVSPost2010PropOp47
 70
     1
102
RTVSPost2010Prop48
 90
       50
102
RTVSPost2010PropOp48
 70
     1
102
RTVSPost2010Prop49
280
     0
102
RTVSPost2010PropOp49
 70
     1
102
RTVSPost2010Prop50
 90
       50
102
RTVSPost2010PropOp50
 70
     1
102
RTVSPost2010Prop51ColorIndex
 90
      256
102
RTVSPost2010Prop51ColorRGB
 90
-16777216
102
RTVSPost2010PropOp51
 70
     0
102
RTVSPost2010Prop52
140
1.0
102
RTVSPost2010PropOp52
 70
     0
102
RTVSPost2010Prop53
 90
        2
102
RTVSPost2010PropOp53
 70
     1
102
RTVSPost2010Prop54
  1
strokes_ogs.tif
102
RTVSPost2010PropOp54
 70
     1
102
RTVSPost2010Prop55
280
     0
102
RTVSPost2010PropOp55
 70
     1
102
RTVSPost2010Prop56
140
1.0
102
RTVSPost2010PropOp56
 70
     1
102
RTVSPost2010Prop57
140
1.0
102
RTVSPost2010PropOp57
 70
     1
102
RTVSPropertyOp0
 70
     1
102
RTVSPropertyOp1
 70
     1
102
RTVSPropertyOp2
 70
     1
102
RTVSPropertyOp3
 70
     1
102
RTVSPropertyOp4
 70
     1
102
RTVSPropertyOp5
 70
     1
102
RTVSPropertyOp6
 70
     1
102
RTVSPropertyOp7
 70
     1
102
RTVSPropertyOp8
 70
     1
102
RTVSPropertyOp9
 70
     1
102
RTVSPropertyOp10
 70
     1
102
RTVSPropertyOp11
 70
     1
102
RTVSPropertyOp12
 70
     1
102
RTVSPropertyOp13
 70
     1
102
RTVSPropertyOp14
 70
     1
102
RTVSPropertyOp15
 70
     1
102
RTVSPropertyOp16
 70
     1
102
RTVSPropertyOp17
 70
     1
102
RTVSPropertyOp18
 70
     1
102
RTVSPropertyOp19
 70
     1
102
RTVSPropertyOp20
 70
     1
102
RTVSPropertyOp21
 70
     1
102
RTVSPropertyOp22
 70
     1
102
RTVSPropertyOp23
 70
     1
102
RTVSPropertyOp24
 70
     1
102
RTVSPropertyOp25
 70
     1
102
RTVSPropertyOp26
 70
     1
102
RTVSPropertyOp27
 70
     1
102
RTVSPropertyOp28
 70
     1
102
RTVSPropertyOp29
 70
     1
102
RTVSPropertyOp30
 70
     1
102
RTVSPropertyOp31
 70
     1
102
RTVSPropertyOp32
 70
     1
102
RTVSPropertyOp33
 70
     1
102
RTVSPropertyOp34
 70
     1
102
RTVSPropertyOp35
 70
     1
102
RTVSPropertyOp36
 70
     1
102
RTVSPropertyOp37
 70
     1
102
RTVSPropertyOp38
 70
     1
102
RTVSPropertyOp39
 70
     1
102
RTVSPropertyOp40
 70
     1
102
RTVSPropertyOp41
 70
     1
102
RTVSPropertyOp42
 70
     1
102
RTVSPropertyOp43
 70
     1
102
RTVSPropertyOp44
 70
     1
102
RTVSPropertyOp45
 70
     1
102
RTVSPropertyOp46
 70
     1
102
RTVSPropertyOp47
 70
     1
102
RTVSPropertyOp48
 70
     1
102
RTVSPropertyOp49
 70
     1
102
RTVSPropertyOp50
 70
     1
102
RTVSPropertyOp51
 70
     0
102
RTVSPropertyOp52
 70
     0
102
RTVSPropertyOp53
 70
     1
102
RTVSPropertyOp54
 70
     1
102
RTVSPropertyOp55
 70
     1
102
RTVSPropertyOp56
 70
     1
102
RTVSPropertyOp57
 70
     1
102
RTVSPropertyOp58
 70
     1
102
RTVSPropertyOp59
 70
     1
102
RTVSPropertyOp60
 70
     1
102
RTVSPropertyOp61
 70
     1
102
RTVSPropertyOp62
 70
     1
  0
XRECORD
  5
2DF2
102
{ACAD_REACTORS
330
2DF1
102
}
330
2DF1
100
AcDbXrecord
280
     1
102
RTVSPost2010Prop28
280
     0
102
RTVSPost2010PropOp28
 70
     1
102
RTVSPost2010Prop29
280
     1
102
RTVSPost2010PropOp29
 70
     1
102
RTVSPost2010Prop30
280
     1
102
RTVSPost2010PropOp30
 70
     1
102
RTVSPost2010Prop31
280
     0
102
RTVSPost2010PropOp31
 70
     1
102
RTVSPost2010Prop32
280
     0
102
RTVSPost2010PropOp32
 70
     1
102
RTVSPost2010Prop33
280
     0
102
RTVSPost2010PropOp33
 70
     1
102
RTVSPost2010Prop34
280
     0
102
RTVSPost2010PropOp34
 70
     1
102
RTVSPost2010Prop35
280
     0
102
RTVSPost2010PropOp35
 70
     1
102
RTVSPost2010Prop36
280
     0
102
RTVSPost2010PropOp36
 70
     1
102
RTVSPost2010Prop37
 90
       50
102
RTVSPost2010PropOp37
 70
     1
102
RTVSPost2010Prop38
140
0.0
102
RTVSPost2010PropOp38
 70
     1
102
RTVSPost2010Prop39
140
1.0
102
RTVSPost2010PropOp39
 70
     1
102
RTVSPost2010Prop40
 90
        0
102
RTVSPost2010PropOp40
 70
     1
102
RTVSPost2010Prop41ColorIndex
 90
       18
102
RTVSPost2010Prop41ColorRGB
 90
        0
102
RTVSPost2010PropOp41
 70
     1
102
RTVSPost2010Prop42
 90
       50
102
RTVSPost2010PropOp42
 70
     1
102
RTVSPost2010Prop43
 90
        3
102
RTVSPost2010PropOp43
 70
     1
102
RTVSPost2010Prop44ColorIndex
 90
        5
102
RTVSPost2010Prop44ColorRGB
 90
      255
102
RTVSPost2010PropOp44
 70
     1
102
RTVSPost2010Prop45
280
     0
102
RTVSPost2010PropOp45
 70
     1
102
RTVSPost2010Prop46
 90
       50
102
RTVSPost2010PropOp46
 70
     1
102
RTVSPost2010Prop47
 90
       50
102
RTVSPost2010PropOp47
 70
     1
102
RTVSPost2010Prop48
 90
       50
102
RTVSPost2010PropOp48
 70
     1
102
RTVSPost2010Prop49
280
     0
102
RTVSPost2010PropOp49
 70
     1
102
RTVSPost2010Prop50
 90
       50
102
RTVSPost2010PropOp50
 70
     1
102
RTVSPost2010Prop51ColorIndex
 90
      256
102
RTVSPost2010Prop51ColorRGB
 90
-16777216
102
RTVSPost2010PropOp51
 70
     0
102
RTVSPost2010Prop52
140
1.0
102
RTVSPost2010PropOp52
 70
     0
102
RTVSPost2010Prop53
 90
        2
102
RTVSPost2010PropOp53
 70
     1
102
RTVSPost2010Prop54
  1
strokes_ogs.tif
102
RTVSPost2010PropOp54
 70
     1
102
RTVSPost2010Prop55
280
     0
102
RTVSPost2010PropOp55
 70
     1
102
RTVSPost2010Prop56
140
1.0
102
RTVSPost2010PropOp56
 70
     1
102
RTVSPost2010Prop57
140
1.0
102
RTVSPost2010PropOp57
 70
     1
102
RTVSPropertyOp0
 70
     1
102
RTVSPropertyOp1
 70
     1
102
RTVSPropertyOp2
 70
     1
102
RTVSPropertyOp3
 70
     1
102
RTVSPropertyOp4
 70
     1
102
RTVSPropertyOp5
 70
     1
102
RTVSPropertyOp6
 70
     1
102
RTVSPropertyOp7
 70
     1
102
RTVSPropertyOp8
 70
     1
102
RTVSPropertyOp9
 70
     1
102
RTVSPropertyOp10
 70
     1
102
RTVSPropertyOp11
 70
     1
102
RTVSPropertyOp12
 70
     1
102
RTVSPropertyOp13
 70
     1
102
RTVSPropertyOp14
 70
     1
102
RTVSPropertyOp15
 70
     1
102
RTVSPropertyOp16
 70
     1
102
RTVSPropertyOp17
 70
     1
102
RTVSPropertyOp18
 70
     1
102
RTVSPropertyOp19
 70
     1
102
RTVSPropertyOp20
 70
     1
102
RTVSPropertyOp21
 70
     1
102
RTVSPropertyOp22
 70
     1
102
RTVSPropertyOp23
 70
     1
102
RTVSPropertyOp24
 70
     1
102
RTVSPropertyOp25
 70
     1
102
RTVSPropertyOp26
 70
     1
102
RTVSPropertyOp27
 70
     1
102
RTVSPropertyOp28
 70
     1
102
RTVSPropertyOp29
 70
     1
102
RTVSPropertyOp30
 70
     1
102
RTVSPropertyOp31
 70
     1
102
RTVSPropertyOp32
 70
     1
102
RTVSPropertyOp33
 70
     1
102
RTVSPropertyOp34
 70
     1
102
RTVSPropertyOp35
 70
     1
102
RTVSPropertyOp36
 70
     1
102
RTVSPropertyOp37
 70
     1
102
RTVSPropertyOp38
 70
     1
102
RTVSPropertyOp39
 70
     1
102
RTVSPropertyOp40
 70
     1
102
RTVSPropertyOp41
 70
     1
102
RTVSPropertyOp42
 70
     1
102
RTVSPropertyOp43
 70
     1
102
RTVSPropertyOp44
 70
     1
102
RTVSPropertyOp45
 70
     1
102
RTVSPropertyOp46
 70
     1
102
RTVSPropertyOp47
 70
     1
102
RTVSPropertyOp48
 70
     1
102
RTVSPropertyOp49
 70
     1
102
RTVSPropertyOp50
 70
     1
102
RTVSPropertyOp51
 70
     0
102
RTVSPropertyOp52
 70
     0
102
RTVSPropertyOp53
 70
     1
102
RTVSPropertyOp54
 70
     1
102
RTVSPropertyOp55
 70
     1
102
RTVSPropertyOp56
 70
     1
102
RTVSPropertyOp57
 70
     1
102
RTVSPropertyOp58
 70
     1
102
RTVSPropertyOp59
 70
     1
102
RTVSPropertyOp60
 70
     1
102
RTVSPropertyOp61
 70
     1
102
RTVSPropertyOp62
 70
     1
  0
XRECORD
  5
2DF4
102
{ACAD_REACTORS
330
2DF3
102
}
330
2DF3
100
AcDbXrecord
280
     1
102
RTVSPost2010Prop28
280
     0
102
RTVSPost2010PropOp28
 70
     1
102
RTVSPost2010Prop29
280
     1
102
RTVSPost2010PropOp29
 70
     1
102
RTVSPost2010Prop30
280
     1
102
RTVSPost2010PropOp30
 70
     1
102
RTVSPost2010Prop31
280
     0
102
RTVSPost2010PropOp31
 70
     1
102
RTVSPost2010Prop32
280
     0
102
RTVSPost2010PropOp32
 70
     1
102
RTVSPost2010Prop33
280
     0
102
RTVSPost2010PropOp33
 70
     1
102
RTVSPost2010Prop34
280
     0
102
RTVSPost2010PropOp34
 70
     1
102
RTVSPost2010Prop35
280
     0
102
RTVSPost2010PropOp35
 70
     1
102
RTVSPost2010Prop36
280
     0
102
RTVSPost2010PropOp36
 70
     1
102
RTVSPost2010Prop37
 90
       50
102
RTVSPost2010PropOp37
 70
     1
102
RTVSPost2010Prop38
140
0.0
102
RTVSPost2010PropOp38
 70
     1
102
RTVSPost2010Prop39
140
1.0
102
RTVSPost2010PropOp39
 70
     1
102
RTVSPost2010Prop40
 90
        0
102
RTVSPost2010PropOp40
 70
     1
102
RTVSPost2010Prop41ColorIndex
 90
       18
102
RTVSPost2010Prop41ColorRGB
 90
        0
102
RTVSPost2010PropOp41
 70
     1
102
RTVSPost2010Prop42
 90
       50
102
RTVSPost2010PropOp42
 70
     1
102
RTVSPost2010Prop43
 90
        3
102
RTVSPost2010PropOp43
 70
     1
102
RTVSPost2010Prop44ColorIndex
 90
        5
102
RTVSPost2010Prop44ColorRGB
 90
      255
102
RTVSPost2010PropOp44
 70
     1
102
RTVSPost2010Prop45
280
     0
102
RTVSPost2010PropOp45
 70
     1
102
RTVSPost2010Prop46
 90
       50
102
RTVSPost2010PropOp46
 70
     1
102
RTVSPost2010Prop47
 90
       50
102
RTVSPost2010PropOp47
 70
     1
102
RTVSPost2010Prop48
 90
       50
102
RTVSPost2010PropOp48
 70
     1
102
RTVSPost2010Prop49
280
     0
102
RTVSPost2010PropOp49
 70
     1
102
RTVSPost2010Prop50
 90
       50
102
RTVSPost2010PropOp50
 70
     1
102
RTVSPost2010Prop51ColorIndex
 90
      256
102
RTVSPost2010Prop51ColorRGB
 90
-16777216
102
RTVSPost2010PropOp51
 70
     0
102
RTVSPost2010Prop52
140
1.0
102
RTVSPost2010PropOp52
 70
     0
102
RTVSPost2010Prop53
 90
        2
102
RTVSPost2010PropOp53
 70
     1
102
RTVSPost2010Prop54
  1
strokes_ogs.tif
102
RTVSPost2010PropOp54
 70
     1
102
RTVSPost2010Prop55
280
     0
102
RTVSPost2010PropOp55
 70
     1
102
RTVSPost2010Prop56
140
1.0
102
RTVSPost2010PropOp56
 70
     1
102
RTVSPost2010Prop57
140
1.0
102
RTVSPost2010PropOp57
 70
     1
102
RTVSPropertyOp0
 70
     1
102
RTVSPropertyOp1
 70
     1
102
RTVSPropertyOp2
 70
     1
102
RTVSPropertyOp3
 70
     1
102
RTVSPropertyOp4
 70
     1
102
RTVSPropertyOp5
 70
     1
102
RTVSPropertyOp6
 70
     1
102
RTVSPropertyOp7
 70
     1
102
RTVSPropertyOp8
 70
     1
102
RTVSPropertyOp9
 70
     1
102
RTVSPropertyOp10
 70
     1
102
RTVSPropertyOp11
 70
     1
102
RTVSPropertyOp12
 70
     1
102
RTVSPropertyOp13
 70
     1
102
RTVSPropertyOp14
 70
     1
102
RTVSPropertyOp15
 70
     1
102
RTVSPropertyOp16
 70
     1
102
RTVSPropertyOp17
 70
     1
102
RTVSPropertyOp18
 70
     1
102
RTVSPropertyOp19
 70
     1
102
RTVSPropertyOp20
 70
     1
102
RTVSPropertyOp21
 70
     1
102
RTVSPropertyOp22
 70
     1
102
RTVSPropertyOp23
 70
     1
102
RTVSPropertyOp24
 70
     1
102
RTVSPropertyOp25
 70
     1
102
RTVSPropertyOp26
 70
     1
102
RTVSPropertyOp27
 70
     1
102
RTVSPropertyOp28
 70
     1
102
RTVSPropertyOp29
 70
     1
102
RTVSPropertyOp30
 70
     1
102
RTVSPropertyOp31
 70
     1
102
RTVSPropertyOp32
 70
     1
102
RTVSPropertyOp33
 70
     1
102
RTVSPropertyOp34
 70
     1
102
RTVSPropertyOp35
 70
     1
102
RTVSPropertyOp36
 70
     1
102
RTVSPropertyOp37
 70
     1
102
RTVSPropertyOp38
 70
     1
102
RTVSPropertyOp39
 70
     1
102
RTVSPropertyOp40
 70
     1
102
RTVSPropertyOp41
 70
     1
102
RTVSPropertyOp42
 70
     1
102
RTVSPropertyOp43
 70
     1
102
RTVSPropertyOp44
 70
     1
102
RTVSPropertyOp45
 70
     1
102
RTVSPropertyOp46
 70
     1
102
RTVSPropertyOp47
 70
     1
102
RTVSPropertyOp48
 70
     1
102
RTVSPropertyOp49
 70
     1
102
RTVSPropertyOp50
 70
     1
102
RTVSPropertyOp51
 70
     0
102
RTVSPropertyOp52
 70
     0
102
RTVSPropertyOp53
 70
     1
102
RTVSPropertyOp54
 70
     1
102
RTVSPropertyOp55
 70
     1
102
RTVSPropertyOp56
 70
     1
102
RTVSPropertyOp57
 70
     1
102
RTVSPropertyOp58
 70
     1
102
RTVSPropertyOp59
 70
     1
102
RTVSPropertyOp60
 70
     1
102
RTVSPropertyOp61
 70
     1
102
RTVSPropertyOp62
 70
     1
  0
XRECORD
  5
2DF6
102
{ACAD_REACTORS
330
2DF5
102
}
330
2DF5
100
AcDbXrecord
280
     1
102
RTVSPost2010Prop28
280
     0
102
RTVSPost2010PropOp28
 70
     1
102
RTVSPost2010Prop29
280
     1
102
RTVSPost2010PropOp29
 70
     1
102
RTVSPost2010Prop30
280
     1
102
RTVSPost2010PropOp30
 70
     1
102
RTVSPost2010Prop31
280
     0
102
RTVSPost2010PropOp31
 70
     1
102
RTVSPost2010Prop32
280
     0
102
RTVSPost2010PropOp32
 70
     1
102
RTVSPost2010Prop33
280
     0
102
RTVSPost2010PropOp33
 70
     1
102
RTVSPost2010Prop34
280
     0
102
RTVSPost2010PropOp34
 70
     1
102
RTVSPost2010Prop35
280
     0
102
RTVSPost2010PropOp35
 70
     1
102
RTVSPost2010Prop36
280
     0
102
RTVSPost2010PropOp36
 70
     1
102
RTVSPost2010Prop37
 90
       50
102
RTVSPost2010PropOp37
 70
     1
102
RTVSPost2010Prop38
140
0.0
102
RTVSPost2010PropOp38
 70
     1
102
RTVSPost2010Prop39
140
1.0
102
RTVSPost2010PropOp39
 70
     1
102
RTVSPost2010Prop40
 90
        0
102
RTVSPost2010PropOp40
 70
     1
102
RTVSPost2010Prop41ColorIndex
 90
       18
102
RTVSPost2010Prop41ColorRGB
 90
        0
102
RTVSPost2010PropOp41
 70
     1
102
RTVSPost2010Prop42
 90
       50
102
RTVSPost2010PropOp42
 70
     1
102
RTVSPost2010Prop43
 90
        3
102
RTVSPost2010PropOp43
 70
     1
102
RTVSPost2010Prop44ColorIndex
 90
        5
102
RTVSPost2010Prop44ColorRGB
 90
      255
102
RTVSPost2010PropOp44
 70
     1
102
RTVSPost2010Prop45
280
     0
102
RTVSPost2010PropOp45
 70
     1
102
RTVSPost2010Prop46
 90
       50
102
RTVSPost2010PropOp46
 70
     1
102
RTVSPost2010Prop47
 90
       50
102
RTVSPost2010PropOp47
 70
     1
102
RTVSPost2010Prop48
 90
       50
102
RTVSPost2010PropOp48
 70
     1
102
RTVSPost2010Prop49
280
     0
102
RTVSPost2010PropOp49
 70
     1
102
RTVSPost2010Prop50
 90
       50
102
RTVSPost2010PropOp50
 70
     1
102
RTVSPost2010Prop51ColorIndex
 90
      256
102
RTVSPost2010Prop51ColorRGB
 90
-16777216
102
RTVSPost2010PropOp51
 70
     0
102
RTVSPost2010Prop52
140
1.0
102
RTVSPost2010PropOp52
 70
     0
102
RTVSPost2010Prop53
 90
        2
102
RTVSPost2010PropOp53
 70
     1
102
RTVSPost2010Prop54
  1
strokes_ogs.tif
102
RTVSPost2010PropOp54
 70
     1
102
RTVSPost2010Prop55
280
     0
102
RTVSPost2010PropOp55
 70
     1
102
RTVSPost2010Prop56
140
1.0
102
RTVSPost2010PropOp56
 70
     1
102
RTVSPost2010Prop57
140
1.0
102
RTVSPost2010PropOp57
 70
     1
102
RTVSPropertyOp0
 70
     1
102
RTVSPropertyOp1
 70
     1
102
RTVSPropertyOp2
 70
     1
102
RTVSPropertyOp3
 70
     1
102
RTVSPropertyOp4
 70
     1
102
RTVSPropertyOp5
 70
     1
102
RTVSPropertyOp6
 70
     1
102
RTVSPropertyOp7
 70
     1
102
RTVSPropertyOp8
 70
     1
102
RTVSPropertyOp9
 70
     1
102
RTVSPropertyOp10
 70
     1
102
RTVSPropertyOp11
 70
     1
102
RTVSPropertyOp12
 70
     1
102
RTVSPropertyOp13
 70
     1
102
RTVSPropertyOp14
 70
     1
102
RTVSPropertyOp15
 70
     1
102
RTVSPropertyOp16
 70
     1
102
RTVSPropertyOp17
 70
     1
102
RTVSPropertyOp18
 70
     1
102
RTVSPropertyOp19
 70
     1
102
RTVSPropertyOp20
 70
     1
102
RTVSPropertyOp21
 70
     1
102
RTVSPropertyOp22
 70
     1
102
RTVSPropertyOp23
 70
     1
102
RTVSPropertyOp24
 70
     1
102
RTVSPropertyOp25
 70
     1
102
RTVSPropertyOp26
 70
     1
102
RTVSPropertyOp27
 70
     1
102
RTVSPropertyOp28
 70
     1
102
RTVSPropertyOp29
 70
     1
102
RTVSPropertyOp30
 70
     1
102
RTVSPropertyOp31
 70
     1
102
RTVSPropertyOp32
 70
     1
102
RTVSPropertyOp33
 70
     1
102
RTVSPropertyOp34
 70
     1
102
RTVSPropertyOp35
 70
     1
102
RTVSPropertyOp36
 70
     1
102
RTVSPropertyOp37
 70
     1
102
RTVSPropertyOp38
 70
     1
102
RTVSPropertyOp39
 70
     1
102
RTVSPropertyOp40
 70
     1
102
RTVSPropertyOp41
 70
     1
102
RTVSPropertyOp42
 70
     1
102
RTVSPropertyOp43
 70
     1
102
RTVSPropertyOp44
 70
     1
102
RTVSPropertyOp45
 70
     1
102
RTVSPropertyOp46
 70
     1
102
RTVSPropertyOp47
 70
     1
102
RTVSPropertyOp48
 70
     1
102
RTVSPropertyOp49
 70
     1
102
RTVSPropertyOp50
 70
     1
102
RTVSPropertyOp51
 70
     0
102
RTVSPropertyOp52
 70
     0
102
RTVSPropertyOp53
 70
     1
102
RTVSPropertyOp54
 70
     1
102
RTVSPropertyOp55
 70
     1
102
RTVSPropertyOp56
 70
     1
102
RTVSPropertyOp57
 70
     1
102
RTVSPropertyOp58
 70
     1
102
RTVSPropertyOp59
 70
     1
102
RTVSPropertyOp60
 70
     1
102
RTVSPropertyOp61
 70
     1
102
RTVSPropertyOp62
 70
     1
  0
XRECORD
  5
2DFE
102
{ACAD_REACTORS
330
2DFD
102
}
330
2DFD
100
AcDbXrecord
280
     1
102
RTVSPost2010Prop28
280
     0
102
RTVSPost2010PropOp28
 70
     1
102
RTVSPost2010Prop29
280
     1
102
RTVSPost2010PropOp29
 70
     1
102
RTVSPost2010Prop30
280
     1
102
RTVSPost2010PropOp30
 70
     1
102
RTVSPost2010Prop31
280
     0
102
RTVSPost2010PropOp31
 70
     1
102
RTVSPost2010Prop32
280
     0
102
RTVSPost2010PropOp32
 70
     1
102
RTVSPost2010Prop33
280
     0
102
RTVSPost2010PropOp33
 70
     1
102
RTVSPost2010Prop34
280
     0
102
RTVSPost2010PropOp34
 70
     1
102
RTVSPost2010Prop35
280
     0
102
RTVSPost2010PropOp35
 70
     1
102
RTVSPost2010Prop36
280
     0
102
RTVSPost2010PropOp36
 70
     1
102
RTVSPost2010Prop37
 90
       50
102
RTVSPost2010PropOp37
 70
     1
102
RTVSPost2010Prop38
140
0.0
102
RTVSPost2010PropOp38
 70
     1
102
RTVSPost2010Prop39
140
1.0
102
RTVSPost2010PropOp39
 70
     1
102
RTVSPost2010Prop40
 90
        0
102
RTVSPost2010PropOp40
 70
     1
102
RTVSPost2010Prop41ColorIndex
 90
       18
102
RTVSPost2010Prop41ColorRGB
 90
        0
102
RTVSPost2010PropOp41
 70
     1
102
RTVSPost2010Prop42
 90
       50
102
RTVSPost2010PropOp42
 70
     1
102
RTVSPost2010Prop43
 90
        3
102
RTVSPost2010PropOp43
 70
     1
102
RTVSPost2010Prop44ColorIndex
 90
        5
102
RTVSPost2010Prop44ColorRGB
 90
      255
102
RTVSPost2010PropOp44
 70
     1
102
RTVSPost2010Prop45
280
     0
102
RTVSPost2010PropOp45
 70
     1
102
RTVSPost2010Prop46
 90
       50
102
RTVSPost2010PropOp46
 70
     1
102
RTVSPost2010Prop47
 90
       50
102
RTVSPost2010PropOp47
 70
     1
102
RTVSPost2010Prop48
 90
       50
102
RTVSPost2010PropOp48
 70
     1
102
RTVSPost2010Prop49
280
     0
102
RTVSPost2010PropOp49
 70
     1
102
RTVSPost2010Prop50
 90
       50
102
RTVSPost2010PropOp50
 70
     1
102
RTVSPost2010Prop51ColorIndex
 90
      256
102
RTVSPost2010Prop51ColorRGB
 90
-16777216
102
RTVSPost2010PropOp51
 70
     0
102
RTVSPost2010Prop52
140
1.0
102
RTVSPost2010PropOp52
 70
     0
102
RTVSPost2010Prop53
 90
        2
102
RTVSPost2010PropOp53
 70
     1
102
RTVSPost2010Prop54
  1
strokes_ogs.tif
102
RTVSPost2010PropOp54
 70
     1
102
RTVSPost2010Prop55
280
     0
102
RTVSPost2010PropOp55
 70
     1
102
RTVSPost2010Prop56
140
1.0
102
RTVSPost2010PropOp56
 70
     1
102
RTVSPost2010Prop57
140
1.0
102
RTVSPost2010PropOp57
 70
     1
102
RTVSPropertyOp0
 70
     1
102
RTVSPropertyOp1
 70
     1
102
RTVSPropertyOp2
 70
     1
102
RTVSPropertyOp3
 70
     1
102
RTVSPropertyOp4
 70
     1
102
RTVSPropertyOp5
 70
     1
102
RTVSPropertyOp6
 70
     1
102
RTVSPropertyOp7
 70
     1
102
RTVSPropertyOp8
 70
     1
102
RTVSPropertyOp9
 70
     1
102
RTVSPropertyOp10
 70
     1
102
RTVSPropertyOp11
 70
     1
102
RTVSPropertyOp12
 70
     1
102
RTVSPropertyOp13
 70
     1
102
RTVSPropertyOp14
 70
     1
102
RTVSPropertyOp15
 70
     1
102
RTVSPropertyOp16
 70
     1
102
RTVSPropertyOp17
 70
     1
102
RTVSPropertyOp18
 70
     1
102
RTVSPropertyOp19
 70
     1
102
RTVSPropertyOp20
 70
     1
102
RTVSPropertyOp21
 70
     1
102
RTVSPropertyOp22
 70
     1
102
RTVSPropertyOp23
 70
     1
102
RTVSPropertyOp24
 70
     1
102
RTVSPropertyOp25
 70
     1
102
RTVSPropertyOp26
 70
     1
102
RTVSPropertyOp27
 70
     1
102
RTVSPropertyOp28
 70
     1
102
RTVSPropertyOp29
 70
     1
102
RTVSPropertyOp30
 70
     1
102
RTVSPropertyOp31
 70
     1
102
RTVSPropertyOp32
 70
     1
102
RTVSPropertyOp33
 70
     1
102
RTVSPropertyOp34
 70
     1
102
RTVSPropertyOp35
 70
     1
102
RTVSPropertyOp36
 70
     1
102
RTVSPropertyOp37
 70
     1
102
RTVSPropertyOp38
 70
     1
102
RTVSPropertyOp39
 70
     1
102
RTVSPropertyOp40
 70
     1
102
RTVSPropertyOp41
 70
     1
102
RTVSPropertyOp42
 70
     1
102
RTVSPropertyOp43
 70
     1
102
RTVSPropertyOp44
 70
     1
102
RTVSPropertyOp45
 70
     1
102
RTVSPropertyOp46
 70
     1
102
RTVSPropertyOp47
 70
     1
102
RTVSPropertyOp48
 70
     1
102
RTVSPropertyOp49
 70
     1
102
RTVSPropertyOp50
 70
     1
102
RTVSPropertyOp51
 70
     0
102
RTVSPropertyOp52
 70
     0
102
RTVSPropertyOp53
 70
     1
102
RTVSPropertyOp54
 70
     1
102
RTVSPropertyOp55
 70
     1
102
RTVSPropertyOp56
 70
     1
102
RTVSPropertyOp57
 70
     1
102
RTVSPropertyOp58
 70
     1
102
RTVSPropertyOp59
 70
     1
102
RTVSPropertyOp60
 70
     1
102
RTVSPropertyOp61
 70
     1
102
RTVSPropertyOp62
 70
     1
  0
XRECORD
  5
2E1A
102
{ACAD_REACTORS
330
2E19
102
}
330
2E19
100
AcDbXrecord
280
     1
102
RTVSPost2010Prop28
280
     0
102
RTVSPost2010PropOp28
 70
     0
102
RTVSPost2010Prop29
280
     1
102
RTVSPost2010PropOp29
 70
     0
102
RTVSPost2010Prop30
280
     1
102
RTVSPost2010PropOp30
 70
     0
102
RTVSPost2010Prop31
280
     0
102
RTVSPost2010PropOp31
 70
     0
102
RTVSPost2010Prop32
280
     0
102
RTVSPost2010PropOp32
 70
     0
102
RTVSPost2010Prop33
280
     0
102
RTVSPost2010PropOp33
 70
     0
102
RTVSPost2010Prop34
280
     0
102
RTVSPost2010PropOp34
 70
     0
102
RTVSPost2010Prop35
280
     0
102
RTVSPost2010PropOp35
 70
     0
102
RTVSPost2010Prop36
280
     0
102
RTVSPost2010PropOp36
 70
     0
102
RTVSPost2010Prop37
 90
       50
102
RTVSPost2010PropOp37
 70
     0
102
RTVSPost2010Prop38
140
0.0
102
RTVSPost2010PropOp38
 70
     0
102
RTVSPost2010Prop39
140
1.0
102
RTVSPost2010PropOp39
 70
     0
102
RTVSPost2010Prop40
 90
        0
102
RTVSPost2010PropOp40
 70
     0
102
RTVSPost2010Prop41ColorIndex
 90
       18
102
RTVSPost2010Prop41ColorRGB
 90
        0
102
RTVSPost2010PropOp41
 70
     0
102
RTVSPost2010Prop42
 90
       50
102
RTVSPost2010PropOp42
 70
     0
102
RTVSPost2010Prop43
 90
        3
102
RTVSPost2010PropOp43
 70
     0
102
RTVSPost2010Prop44ColorIndex
 90
        5
102
RTVSPost2010Prop44ColorRGB
 90
      255
102
RTVSPost2010PropOp44
 70
     0
102
RTVSPost2010Prop45
280
     0
102
RTVSPost2010PropOp45
 70
     0
102
RTVSPost2010Prop46
 90
       50
102
RTVSPost2010PropOp46
 70
     0
102
RTVSPost2010Prop47
 90
       50
102
RTVSPost2010PropOp47
 70
     0
102
RTVSPost2010Prop48
 90
       50
102
RTVSPost2010PropOp48
 70
     0
102
RTVSPost2010Prop49
280
     0
102
RTVSPost2010PropOp49
 70
     0
102
RTVSPost2010Prop50
 90
       50
102
RTVSPost2010PropOp50
 70
     0
102
RTVSPost2010Prop51ColorIndex
 90
      256
102
RTVSPost2010Prop51ColorRGB
 90
-16777216
102
RTVSPost2010PropOp51
 70
     0
102
RTVSPost2010Prop52
140
1.0
102
RTVSPost2010PropOp52
 70
     0
102
RTVSPost2010Prop53
 90
        2
102
RTVSPost2010PropOp53
 70
     0
102
RTVSPost2010Prop54
  1
strokes_ogs.tif
102
RTVSPost2010PropOp54
 70
     0
102
RTVSPost2010Prop55
280
     0
102
RTVSPost2010PropOp55
 70
     0
102
RTVSPost2010Prop56
140
1.0
102
RTVSPost2010PropOp56
 70
     0
102
RTVSPost2010Prop57
140
1.0
102
RTVSPost2010PropOp57
 70
     0
102
RTVSPropertyOp0
 70
     0
102
RTVSPropertyOp1
 70
     0
102
RTVSPropertyOp2
 70
     0
102
RTVSPropertyOp3
 70
     0
102
RTVSPropertyOp4
 70
     0
102
RTVSPropertyOp5
 70
     0
102
RTVSPropertyOp6
 70
     0
102
RTVSPropertyOp7
 70
     0
102
RTVSPropertyOp8
 70
     0
102
RTVSPropertyOp9
 70
     0
102
RTVSPropertyOp10
 70
     0
102
RTVSPropertyOp11
 70
     0
102
RTVSPropertyOp12
 70
     0
102
RTVSPropertyOp13
 70
     0
102
RTVSPropertyOp14
 70
     2
102
RTVSPropertyOp15
 70
     0
102
RTVSPropertyOp16
 70
     0
102
RTVSPropertyOp17
 70
     0
102
RTVSPropertyOp18
 70
     0
102
RTVSPropertyOp19
 70
     0
102
RTVSPropertyOp20
 70
     0
102
RTVSPropertyOp21
 70
     0
102
RTVSPropertyOp22
 70
     0
102
RTVSPropertyOp23
 70
     0
102
RTVSPropertyOp24
 70
     0
102
RTVSPropertyOp25
 70
     0
102
RTVSPropertyOp26
 70
     0
102
RTVSPropertyOp27
 70
     0
102
RTVSPropertyOp28
 70
     0
102
RTVSPropertyOp29
 70
     0
102
RTVSPropertyOp30
 70
     0
102
RTVSPropertyOp31
 70
     0
102
RTVSPropertyOp32
 70
     0
102
RTVSPropertyOp33
 70
     0
102
RTVSPropertyOp34
 70
     0
102
RTVSPropertyOp35
 70
     0
102
RTVSPropertyOp36
 70
     0
102
RTVSPropertyOp37
 70
     0
102
RTVSPropertyOp38
 70
     0
102
RTVSPropertyOp39
 70
     0
102
RTVSPropertyOp40
 70
     0
102
RTVSPropertyOp41
 70
     0
102
RTVSPropertyOp42
 70
     0
102
RTVSPropertyOp43
 70
     0
102
RTVSPropertyOp44
 70
     0
102
RTVSPropertyOp45
 70
     0
102
RTVSPropertyOp46
 70
     0
102
RTVSPropertyOp47
 70
     0
102
RTVSPropertyOp48
 70
     0
102
RTVSPropertyOp49
 70
     0
102
RTVSPropertyOp50
 70
     0
102
RTVSPropertyOp51
 70
     0
102
RTVSPropertyOp52
 70
     0
102
RTVSPropertyOp53
 70
     0
102
RTVSPropertyOp54
 70
     0
102
RTVSPropertyOp55
 70
     0
102
RTVSPropertyOp56
 70
     0
102
RTVSPropertyOp57
 70
     0
102
RTVSPropertyOp58
 70
     0
102
RTVSPropertyOp59
 70
     0
102
RTVSPropertyOp60
 70
     0
102
RTVSPropertyOp61
 70
     0
102
RTVSPropertyOp62
 70
     0
  0
XRECORD
  5
2E0A
102
{ACAD_REACTORS
330
2E09
102
}
330
2E09
100
AcDbXrecord
280
     1
102
RTVSPost2010Prop28
280
     0
102
RTVSPost2010PropOp28
 70
     1
102
RTVSPost2010Prop29
280
     1
102
RTVSPost2010PropOp29
 70
     1
102
RTVSPost2010Prop30
280
     1
102
RTVSPost2010PropOp30
 70
     1
102
RTVSPost2010Prop31
280
     0
102
RTVSPost2010PropOp31
 70
     1
102
RTVSPost2010Prop32
280
     0
102
RTVSPost2010PropOp32
 70
     1
102
RTVSPost2010Prop33
280
     0
102
RTVSPost2010PropOp33
 70
     1
102
RTVSPost2010Prop34
280
     0
102
RTVSPost2010PropOp34
 70
     1
102
RTVSPost2010Prop35
280
     0
102
RTVSPost2010PropOp35
 70
     1
102
RTVSPost2010Prop36
280
     0
102
RTVSPost2010PropOp36
 70
     1
102
RTVSPost2010Prop37
 90
       50
102
RTVSPost2010PropOp37
 70
     1
102
RTVSPost2010Prop38
140
0.0
102
RTVSPost2010PropOp38
 70
     1
102
RTVSPost2010Prop39
140
1.0
102
RTVSPost2010PropOp39
 70
     1
102
RTVSPost2010Prop40
 90
        0
102
RTVSPost2010PropOp40
 70
     1
102
RTVSPost2010Prop41ColorIndex
 90
       18
102
RTVSPost2010Prop41ColorRGB
 90
        0
102
RTVSPost2010PropOp41
 70
     1
102
RTVSPost2010Prop42
 90
       50
102
RTVSPost2010PropOp42
 70
     1
102
RTVSPost2010Prop43
 90
        3
102
RTVSPost2010PropOp43
 70
     1
102
RTVSPost2010Prop44ColorIndex
 90
        5
102
RTVSPost2010Prop44ColorRGB
 90
      255
102
RTVSPost2010PropOp44
 70
     1
102
RTVSPost2010Prop45
280
     0
102
RTVSPost2010PropOp45
 70
     1
102
RTVSPost2010Prop46
 90
       50
102
RTVSPost2010PropOp46
 70
     1
102
RTVSPost2010Prop47
 90
       50
102
RTVSPost2010PropOp47
 70
     1
102
RTVSPost2010Prop48
 90
       50
102
RTVSPost2010PropOp48
 70
     1
102
RTVSPost2010Prop49
280
     0
102
RTVSPost2010PropOp49
 70
     1
102
RTVSPost2010Prop50
 90
       50
102
RTVSPost2010PropOp50
 70
     1
102
RTVSPost2010Prop51ColorIndex
 90
      256
102
RTVSPost2010Prop51ColorRGB
 90
-16777216
102
RTVSPost2010PropOp51
 70
     0
102
RTVSPost2010Prop52
140
1.0
102
RTVSPost2010PropOp52
 70
     0
102
RTVSPost2010Prop53
 90
        2
102
RTVSPost2010PropOp53
 70
     1
102
RTVSPost2010Prop54
  1
strokes_ogs.tif
102
RTVSPost2010PropOp54
 70
     1
102
RTVSPost2010Prop55
280
     0
102
RTVSPost2010PropOp55
 70
     1
102
RTVSPost2010Prop56
140
1.0
102
RTVSPost2010PropOp56
 70
     1
102
RTVSPost2010Prop57
140
1.0
102
RTVSPost2010PropOp57
 70
     1
102
RTVSPropertyOp0
 70
     1
102
RTVSPropertyOp1
 70
     1
102
RTVSPropertyOp2
 70
     1
102
RTVSPropertyOp3
 70
     1
102
RTVSPropertyOp4
 70
     1
102
RTVSPropertyOp5
 70
     1
102
RTVSPropertyOp6
 70
     1
102
RTVSPropertyOp7
 70
     1
102
RTVSPropertyOp8
 70
     1
102
RTVSPropertyOp9
 70
     1
102
RTVSPropertyOp10
 70
     1
102
RTVSPropertyOp11
 70
     1
102
RTVSPropertyOp12
 70
     1
102
RTVSPropertyOp13
 70
     1
102
RTVSPropertyOp14
 70
     1
102
RTVSPropertyOp15
 70
     1
102
RTVSPropertyOp16
 70
     1
102
RTVSPropertyOp17
 70
     1
102
RTVSPropertyOp18
 70
     1
102
RTVSPropertyOp19
 70
     1
102
RTVSPropertyOp20
 70
     1
102
RTVSPropertyOp21
 70
     1
102
RTVSPropertyOp22
 70
     1
102
RTVSPropertyOp23
 70
     1
102
RTVSPropertyOp24
 70
     1
102
RTVSPropertyOp25
 70
     1
102
RTVSPropertyOp26
 70
     1
102
RTVSPropertyOp27
 70
     1
102
RTVSPropertyOp28
 70
     1
102
RTVSPropertyOp29
 70
     1
102
RTVSPropertyOp30
 70
     1
102
RTVSPropertyOp31
 70
     1
102
RTVSPropertyOp32
 70
     1
102
RTVSPropertyOp33
 70
     1
102
RTVSPropertyOp34
 70
     1
102
RTVSPropertyOp35
 70
     1
102
RTVSPropertyOp36
 70
     1
102
RTVSPropertyOp37
 70
     1
102
RTVSPropertyOp38
 70
     1
102
RTVSPropertyOp39
 70
     1
102
RTVSPropertyOp40
 70
     1
102
RTVSPropertyOp41
 70
     1
102
RTVSPropertyOp42
 70
     1
102
RTVSPropertyOp43
 70
     1
102
RTVSPropertyOp44
 70
     1
102
RTVSPropertyOp45
 70
     1
102
RTVSPropertyOp46
 70
     1
102
RTVSPropertyOp47
 70
     1
102
RTVSPropertyOp48
 70
     1
102
RTVSPropertyOp49
 70
     1
102
RTVSPropertyOp50
 70
     1
102
RTVSPropertyOp51
 70
     0
102
RTVSPropertyOp52
 70
     0
102
RTVSPropertyOp53
 70
     1
102
RTVSPropertyOp54
 70
     1
102
RTVSPropertyOp55
 70
     1
102
RTVSPropertyOp56
 70
     1
102
RTVSPropertyOp57
 70
     1
102
RTVSPropertyOp58
 70
     1
102
RTVSPropertyOp59
 70
     1
102
RTVSPropertyOp60
 70
     1
102
RTVSPropertyOp61
 70
     1
102
RTVSPropertyOp62
 70
     1
  0
XRECORD
  5
2E1C
102
{ACAD_REACTORS
330
2E1B
102
}
330
2E1B
100
AcDbXrecord
280
     1
102
RTVSPost2010Prop28
280
     0
102
RTVSPost2010PropOp28
 70
     0
102
RTVSPost2010Prop29
280
     1
102
RTVSPost2010PropOp29
 70
     0
102
RTVSPost2010Prop30
280
     1
102
RTVSPost2010PropOp30
 70
     0
102
RTVSPost2010Prop31
280
     0
102
RTVSPost2010PropOp31
 70
     0
102
RTVSPost2010Prop32
280
     0
102
RTVSPost2010PropOp32
 70
     0
102
RTVSPost2010Prop33
280
     0
102
RTVSPost2010PropOp33
 70
     0
102
RTVSPost2010Prop34
280
     0
102
RTVSPost2010PropOp34
 70
     0
102
RTVSPost2010Prop35
280
     0
102
RTVSPost2010PropOp35
 70
     0
102
RTVSPost2010Prop36
280
     0
102
RTVSPost2010PropOp36
 70
     0
102
RTVSPost2010Prop37
 90
       50
102
RTVSPost2010PropOp37
 70
     0
102
RTVSPost2010Prop38
140
0.0
102
RTVSPost2010PropOp38
 70
     0
102
RTVSPost2010Prop39
140
1.0
102
RTVSPost2010PropOp39
 70
     0
102
RTVSPost2010Prop40
 90
        0
102
RTVSPost2010PropOp40
 70
     0
102
RTVSPost2010Prop41ColorIndex
 90
       18
102
RTVSPost2010Prop41ColorRGB
 90
        0
102
RTVSPost2010PropOp41
 70
     0
102
RTVSPost2010Prop42
 90
       50
102
RTVSPost2010PropOp42
 70
     0
102
RTVSPost2010Prop43
 90
        3
102
RTVSPost2010PropOp43
 70
     0
102
RTVSPost2010Prop44ColorIndex
 90
        5
102
RTVSPost2010Prop44ColorRGB
 90
      255
102
RTVSPost2010PropOp44
 70
     0
102
RTVSPost2010Prop45
280
     0
102
RTVSPost2010PropOp45
 70
     0
102
RTVSPost2010Prop46
 90
       50
102
RTVSPost2010PropOp46
 70
     0
102
RTVSPost2010Prop47
 90
       50
102
RTVSPost2010PropOp47
 70
     0
102
RTVSPost2010Prop48
 90
       50
102
RTVSPost2010PropOp48
 70
     0
102
RTVSPost2010Prop49
280
     0
102
RTVSPost2010PropOp49
 70
     0
102
RTVSPost2010Prop50
 90
       50
102
RTVSPost2010PropOp50
 70
     0
102
RTVSPost2010Prop51ColorIndex
 90
      256
102
RTVSPost2010Prop51ColorRGB
 90
-16777216
102
RTVSPost2010PropOp51
 70
     0
102
RTVSPost2010Prop52
140
1.0
102
RTVSPost2010PropOp52
 70
     0
102
RTVSPost2010Prop53
 90
        2
102
RTVSPost2010PropOp53
 70
     0
102
RTVSPost2010Prop54
  1
strokes_ogs.tif
102
RTVSPost2010PropOp54
 70
     0
102
RTVSPost2010Prop55
280
     0
102
RTVSPost2010PropOp55
 70
     0
102
RTVSPost2010Prop56
140
1.0
102
RTVSPost2010PropOp56
 70
     0
102
RTVSPost2010Prop57
140
1.0
102
RTVSPost2010PropOp57
 70
     0
102
RTVSPropertyOp0
 70
     0
102
RTVSPropertyOp1
 70
     0
102
RTVSPropertyOp2
 70
     0
102
RTVSPropertyOp3
 70
     0
102
RTVSPropertyOp4
 70
     0
102
RTVSPropertyOp5
 70
     0
102
RTVSPropertyOp6
 70
     0
102
RTVSPropertyOp7
 70
     0
102
RTVSPropertyOp8
 70
     0
102
RTVSPropertyOp9
 70
     0
102
RTVSPropertyOp10
 70
     0
102
RTVSPropertyOp11
 70
     0
102
RTVSPropertyOp12
 70
     0
102
RTVSPropertyOp13
 70
     0
102
RTVSPropertyOp14
 70
     2
102
RTVSPropertyOp15
 70
     0
102
RTVSPropertyOp16
 70
     0
102
RTVSPropertyOp17
 70
     0
102
RTVSPropertyOp18
 70
     0
102
RTVSPropertyOp19
 70
     0
102
RTVSPropertyOp20
 70
     0
102
RTVSPropertyOp21
 70
     0
102
RTVSPropertyOp22
 70
     0
102
RTVSPropertyOp23
 70
     0
102
RTVSPropertyOp24
 70
     0
102
RTVSPropertyOp25
 70
     0
102
RTVSPropertyOp26
 70
     0
102
RTVSPropertyOp27
 70
     0
102
RTVSPropertyOp28
 70
     0
102
RTVSPropertyOp29
 70
     0
102
RTVSPropertyOp30
 70
     0
102
RTVSPropertyOp31
 70
     0
102
RTVSPropertyOp32
 70
     0
102
RTVSPropertyOp33
 70
     0
102
RTVSPropertyOp34
 70
     0
102
RTVSPropertyOp35
 70
     0
102
RTVSPropertyOp36
 70
     0
102
RTVSPropertyOp37
 70
     0
102
RTVSPropertyOp38
 70
     0
102
RTVSPropertyOp39
 70
     0
102
RTVSPropertyOp40
 70
     0
102
RTVSPropertyOp41
 70
     0
102
RTVSPropertyOp42
 70
     0
102
RTVSPropertyOp43
 70
     0
102
RTVSPropertyOp44
 70
     0
102
RTVSPropertyOp45
 70
     0
102
RTVSPropertyOp46
 70
     0
102
RTVSPropertyOp47
 70
     0
102
RTVSPropertyOp48
 70
     0
102
RTVSPropertyOp49
 70
     0
102
RTVSPropertyOp50
 70
     0
102
RTVSPropertyOp51
 70
     0
102
RTVSPropertyOp52
 70
     0
102
RTVSPropertyOp53
 70
     0
102
RTVSPropertyOp54
 70
     0
102
RTVSPropertyOp55
 70
     0
102
RTVSPropertyOp56
 70
     0
102
RTVSPropertyOp57
 70
     0
102
RTVSPropertyOp58
 70
     0
102
RTVSPropertyOp59
 70
     0
102
RTVSPropertyOp60
 70
     0
102
RTVSPropertyOp61
 70
     0
102
RTVSPropertyOp62
 70
     0
  0
XRECORD
  5
2E02
102
{ACAD_REACTORS
330
2E01
102
}
330
2E01
100
AcDbXrecord
280
     1
102
RTVSPost2010Prop28
280
     0
102
RTVSPost2010PropOp28
 70
     1
102
RTVSPost2010Prop29
280
     1
102
RTVSPost2010PropOp29
 70
     1
102
RTVSPost2010Prop30
280
     1
102
RTVSPost2010PropOp30
 70
     1
102
RTVSPost2010Prop31
280
     0
102
RTVSPost2010PropOp31
 70
     1
102
RTVSPost2010Prop32
280
     0
102
RTVSPost2010PropOp32
 70
     1
102
RTVSPost2010Prop33
280
     0
102
RTVSPost2010PropOp33
 70
     1
102
RTVSPost2010Prop34
280
     0
102
RTVSPost2010PropOp34
 70
     1
102
RTVSPost2010Prop35
280
     0
102
RTVSPost2010PropOp35
 70
     1
102
RTVSPost2010Prop36
280
     0
102
RTVSPost2010PropOp36
 70
     1
102
RTVSPost2010Prop37
 90
       50
102
RTVSPost2010PropOp37
 70
     1
102
RTVSPost2010Prop38
140
0.0
102
RTVSPost2010PropOp38
 70
     1
102
RTVSPost2010Prop39
140
1.0
102
RTVSPost2010PropOp39
 70
     1
102
RTVSPost2010Prop40
 90
        0
102
RTVSPost2010PropOp40
 70
     1
102
RTVSPost2010Prop41ColorIndex
 90
       18
102
RTVSPost2010Prop41ColorRGB
 90
        0
102
RTVSPost2010PropOp41
 70
     1
102
RTVSPost2010Prop42
 90
       50
102
RTVSPost2010PropOp42
 70
     1
102
RTVSPost2010Prop43
 90
        3
102
RTVSPost2010PropOp43
 70
     1
102
RTVSPost2010Prop44ColorIndex
 90
        5
102
RTVSPost2010Prop44ColorRGB
 90
      255
102
RTVSPost2010PropOp44
 70
     1
102
RTVSPost2010Prop45
280
     0
102
RTVSPost2010PropOp45
 70
     1
102
RTVSPost2010Prop46
 90
       50
102
RTVSPost2010PropOp46
 70
     1
102
RTVSPost2010Prop47
 90
       50
102
RTVSPost2010PropOp47
 70
     1
102
RTVSPost2010Prop48
 90
       50
102
RTVSPost2010PropOp48
 70
     1
102
RTVSPost2010Prop49
280
     0
102
RTVSPost2010PropOp49
 70
     1
102
RTVSPost2010Prop50
 90
       50
102
RTVSPost2010PropOp50
 70
     1
102
RTVSPost2010Prop51ColorIndex
 90
      256
102
RTVSPost2010Prop51ColorRGB
 90
-16777216
102
RTVSPost2010PropOp51
 70
     0
102
RTVSPost2010Prop52
140
1.0
102
RTVSPost2010PropOp52
 70
     0
102
RTVSPost2010Prop53
 90
        2
102
RTVSPost2010PropOp53
 70
     1
102
RTVSPost2010Prop54
  1
strokes_ogs.tif
102
RTVSPost2010PropOp54
 70
     1
102
RTVSPost2010Prop55
280
     0
102
RTVSPost2010PropOp55
 70
     1
102
RTVSPost2010Prop56
140
1.0
102
RTVSPost2010PropOp56
 70
     1
102
RTVSPost2010Prop57
140
1.0
102
RTVSPost2010PropOp57
 70
     1
102
RTVSPropertyOp0
 70
     1
102
RTVSPropertyOp1
 70
     1
102
RTVSPropertyOp2
 70
     1
102
RTVSPropertyOp3
 70
     1
102
RTVSPropertyOp4
 70
     1
102
RTVSPropertyOp5
 70
     1
102
RTVSPropertyOp6
 70
     1
102
RTVSPropertyOp7
 70
     1
102
RTVSPropertyOp8
 70
     1
102
RTVSPropertyOp9
 70
     1
102
RTVSPropertyOp10
 70
     1
102
RTVSPropertyOp11
 70
     1
102
RTVSPropertyOp12
 70
     1
102
RTVSPropertyOp13
 70
     1
102
RTVSPropertyOp14
 70
     1
102
RTVSPropertyOp15
 70
     1
102
RTVSPropertyOp16
 70
     1
102
RTVSPropertyOp17
 70
     1
102
RTVSPropertyOp18
 70
     1
102
RTVSPropertyOp19
 70
     1
102
RTVSPropertyOp20
 70
     1
102
RTVSPropertyOp21
 70
     1
102
RTVSPropertyOp22
 70
     1
102
RTVSPropertyOp23
 70
     1
102
RTVSPropertyOp24
 70
     1
102
RTVSPropertyOp25
 70
     1
102
RTVSPropertyOp26
 70
     1
102
RTVSPropertyOp27
 70
     1
102
RTVSPropertyOp28
 70
     1
102
RTVSPropertyOp29
 70
     1
102
RTVSPropertyOp30
 70
     1
102
RTVSPropertyOp31
 70
     1
102
RTVSPropertyOp32
 70
     1
102
RTVSPropertyOp33
 70
     1
102
RTVSPropertyOp34
 70
     1
102
RTVSPropertyOp35
 70
     1
102
RTVSPropertyOp36
 70
     1
102
RTVSPropertyOp37
 70
     1
102
RTVSPropertyOp38
 70
     1
102
RTVSPropertyOp39
 70
     1
102
RTVSPropertyOp40
 70
     1
102
RTVSPropertyOp41
 70
     1
102
RTVSPropertyOp42
 70
     1
102
RTVSPropertyOp43
 70
     1
102
RTVSPropertyOp44
 70
     1
102
RTVSPropertyOp45
 70
     1
102
RTVSPropertyOp46
 70
     1
102
RTVSPropertyOp47
 70
     1
102
RTVSPropertyOp48
 70
     1
102
RTVSPropertyOp49
 70
     1
102
RTVSPropertyOp50
 70
     1
102
RTVSPropertyOp51
 70
     0
102
RTVSPropertyOp52
 70
     0
102
RTVSPropertyOp53
 70
     1
102
RTVSPropertyOp54
 70
     1
102
RTVSPropertyOp55
 70
     1
102
RTVSPropertyOp56
 70
     1
102
RTVSPropertyOp57
 70
     1
102
RTVSPropertyOp58
 70
     1
102
RTVSPropertyOp59
 70
     1
102
RTVSPropertyOp60
 70
     1
102
RTVSPropertyOp61
 70
     1
102
RTVSPropertyOp62
 70
     1
  0
XRECORD
  5
2E18
102
{ACAD_REACTORS
330
2E17
102
}
330
2E17
100
AcDbXrecord
280
     1
102
RTVSPost2010Prop28
280
     0
102
RTVSPost2010PropOp28
 70
     1
102
RTVSPost2010Prop29
280
     1
102
RTVSPost2010PropOp29
 70
     1
102
RTVSPost2010Prop30
280
     1
102
RTVSPost2010PropOp30
 70
     1
102
RTVSPost2010Prop31
280
     0
102
RTVSPost2010PropOp31
 70
     1
102
RTVSPost2010Prop32
280
     0
102
RTVSPost2010PropOp32
 70
     1
102
RTVSPost2010Prop33
280
     0
102
RTVSPost2010PropOp33
 70
     1
102
RTVSPost2010Prop34
280
     0
102
RTVSPost2010PropOp34
 70
     1
102
RTVSPost2010Prop35
280
     0
102
RTVSPost2010PropOp35
 70
     1
102
RTVSPost2010Prop36
280
     0
102
RTVSPost2010PropOp36
 70
     1
102
RTVSPost2010Prop37
 90
       50
102
RTVSPost2010PropOp37
 70
     1
102
RTVSPost2010Prop38
140
0.0
102
RTVSPost2010PropOp38
 70
     1
102
RTVSPost2010Prop39
140
1.0
102
RTVSPost2010PropOp39
 70
     1
102
RTVSPost2010Prop40
 90
        0
102
RTVSPost2010PropOp40
 70
     1
102
RTVSPost2010Prop41ColorIndex
 90
       18
102
RTVSPost2010Prop41ColorRGB
 90
        0
102
RTVSPost2010PropOp41
 70
     1
102
RTVSPost2010Prop42
 90
       50
102
RTVSPost2010PropOp42
 70
     1
102
RTVSPost2010Prop43
 90
        3
102
RTVSPost2010PropOp43
 70
     1
102
RTVSPost2010Prop44ColorIndex
 90
        5
102
RTVSPost2010Prop44ColorRGB
 90
      255
102
RTVSPost2010PropOp44
 70
     1
102
RTVSPost2010Prop45
280
     0
102
RTVSPost2010PropOp45
 70
     1
102
RTVSPost2010Prop46
 90
       50
102
RTVSPost2010PropOp46
 70
     1
102
RTVSPost2010Prop47
 90
       50
102
RTVSPost2010PropOp47
 70
     1
102
RTVSPost2010Prop48
 90
       50
102
RTVSPost2010PropOp48
 70
     1
102
RTVSPost2010Prop49
280
     0
102
RTVSPost2010PropOp49
 70
     1
102
RTVSPost2010Prop50
 90
       50
102
RTVSPost2010PropOp50
 70
     1
102
RTVSPost2010Prop51ColorIndex
 90
      256
102
RTVSPost2010Prop51ColorRGB
 90
-16777216
102
RTVSPost2010PropOp51
 70
     0
102
RTVSPost2010Prop52
140
1.0
102
RTVSPost2010PropOp52
 70
     0
102
RTVSPost2010Prop53
 90
        2
102
RTVSPost2010PropOp53
 70
     1
102
RTVSPost2010Prop54
  1
strokes_ogs.tif
102
RTVSPost2010PropOp54
 70
     1
102
RTVSPost2010Prop55
280
     0
102
RTVSPost2010PropOp55
 70
     1
102
RTVSPost2010Prop56
140
1.0
102
RTVSPost2010PropOp56
 70
     1
102
RTVSPost2010Prop57
140
1.0
102
RTVSPost2010PropOp57
 70
     1
102
RTVSPropertyOp0
 70
     1
102
RTVSPropertyOp1
 70
     1
102
RTVSPropertyOp2
 70
     1
102
RTVSPropertyOp3
 70
     1
102
RTVSPropertyOp4
 70
     1
102
RTVSPropertyOp5
 70
     1
102
RTVSPropertyOp6
 70
     1
102
RTVSPropertyOp7
 70
     1
102
RTVSPropertyOp8
 70
     1
102
RTVSPropertyOp9
 70
     1
102
RTVSPropertyOp10
 70
     1
102
RTVSPropertyOp11
 70
     1
102
RTVSPropertyOp12
 70
     1
102
RTVSPropertyOp13
 70
     1
102
RTVSPropertyOp14
 70
     1
102
RTVSPropertyOp15
 70
     1
102
RTVSPropertyOp16
 70
     1
102
RTVSPropertyOp17
 70
     1
102
RTVSPropertyOp18
 70
     1
102
RTVSPropertyOp19
 70
     1
102
RTVSPropertyOp20
 70
     1
102
RTVSPropertyOp21
 70
     1
102
RTVSPropertyOp22
 70
     1
102
RTVSPropertyOp23
 70
     1
102
RTVSPropertyOp24
 70
     1
102
RTVSPropertyOp25
 70
     1
102
RTVSPropertyOp26
 70
     1
102
RTVSPropertyOp27
 70
     1
102
RTVSPropertyOp28
 70
     1
102
RTVSPropertyOp29
 70
     1
102
RTVSPropertyOp30
 70
     1
102
RTVSPropertyOp31
 70
     1
102
RTVSPropertyOp32
 70
     1
102
RTVSPropertyOp33
 70
     1
102
RTVSPropertyOp34
 70
     1
102
RTVSPropertyOp35
 70
     1
102
RTVSPropertyOp36
 70
     1
102
RTVSPropertyOp37
 70
     1
102
RTVSPropertyOp38
 70
     1
102
RTVSPropertyOp39
 70
     1
102
RTVSPropertyOp40
 70
     1
102
RTVSPropertyOp41
 70
     1
102
RTVSPropertyOp42
 70
     1
102
RTVSPropertyOp43
 70
     1
102
RTVSPropertyOp44
 70
     1
102
RTVSPropertyOp45
 70
     1
102
RTVSPropertyOp46
 70
     1
102
RTVSPropertyOp47
 70
     1
102
RTVSPropertyOp48
 70
     1
102
RTVSPropertyOp49
 70
     1
102
RTVSPropertyOp50
 70
     1
102
RTVSPropertyOp51
 70
     0
102
RTVSPropertyOp52
 70
     0
102
RTVSPropertyOp53
 70
     1
102
RTVSPropertyOp54
 70
     1
102
RTVSPropertyOp55
 70
     1
102
RTVSPropertyOp56
 70
     1
102
RTVSPropertyOp57
 70
     1
102
RTVSPropertyOp58
 70
     1
102
RTVSPropertyOp59
 70
     1
102
RTVSPropertyOp60
 70
     1
102
RTVSPropertyOp61
 70
     1
102
RTVSPropertyOp62
 70
     1
  0
XRECORD
  5
2E16
102
{ACAD_REACTORS
330
2E15
102
}
330
2E15
100
AcDbXrecord
280
     1
102
RTVSPost2010Prop28
280
     0
102
RTVSPost2010PropOp28
 70
     1
102
RTVSPost2010Prop29
280
     1
102
RTVSPost2010PropOp29
 70
     1
102
RTVSPost2010Prop30
280
     1
102
RTVSPost2010PropOp30
 70
     1
102
RTVSPost2010Prop31
280
     0
102
RTVSPost2010PropOp31
 70
     1
102
RTVSPost2010Prop32
280
     0
102
RTVSPost2010PropOp32
 70
     1
102
RTVSPost2010Prop33
280
     0
102
RTVSPost2010PropOp33
 70
     1
102
RTVSPost2010Prop34
280
     0
102
RTVSPost2010PropOp34
 70
     1
102
RTVSPost2010Prop35
280
     0
102
RTVSPost2010PropOp35
 70
     1
102
RTVSPost2010Prop36
280
     0
102
RTVSPost2010PropOp36
 70
     1
102
RTVSPost2010Prop37
 90
       50
102
RTVSPost2010PropOp37
 70
     1
102
RTVSPost2010Prop38
140
0.0
102
RTVSPost2010PropOp38
 70
     1
102
RTVSPost2010Prop39
140
1.0
102
RTVSPost2010PropOp39
 70
     1
102
RTVSPost2010Prop40
 90
        0
102
RTVSPost2010PropOp40
 70
     1
102
RTVSPost2010Prop41ColorIndex
 90
       18
102
RTVSPost2010Prop41ColorRGB
 90
        0
102
RTVSPost2010PropOp41
 70
     1
102
RTVSPost2010Prop42
 90
       50
102
RTVSPost2010PropOp42
 70
     1
102
RTVSPost2010Prop43
 90
        3
102
RTVSPost2010PropOp43
 70
     1
102
RTVSPost2010Prop44ColorIndex
 90
        5
102
RTVSPost2010Prop44ColorRGB
 90
      255
102
RTVSPost2010PropOp44
 70
     1
102
RTVSPost2010Prop45
280
     0
102
RTVSPost2010PropOp45
 70
     1
102
RTVSPost2010Prop46
 90
       50
102
RTVSPost2010PropOp46
 70
     1
102
RTVSPost2010Prop47
 90
       50
102
RTVSPost2010PropOp47
 70
     1
102
RTVSPost2010Prop48
 90
       50
102
RTVSPost2010PropOp48
 70
     1
102
RTVSPost2010Prop49
280
     0
102
RTVSPost2010PropOp49
 70
     1
102
RTVSPost2010Prop50
 90
       50
102
RTVSPost2010PropOp50
 70
     1
102
RTVSPost2010Prop51ColorIndex
 90
      256
102
RTVSPost2010Prop51ColorRGB
 90
-16777216
102
RTVSPost2010PropOp51
 70
     0
102
RTVSPost2010Prop52
140
1.0
102
RTVSPost2010PropOp52
 70
     0
102
RTVSPost2010Prop53
 90
        2
102
RTVSPost2010PropOp53
 70
     1
102
RTVSPost2010Prop54
  1
strokes_ogs.tif
102
RTVSPost2010PropOp54
 70
     1
102
RTVSPost2010Prop55
280
     0
102
RTVSPost2010PropOp55
 70
     1
102
RTVSPost2010Prop56
140
1.0
102
RTVSPost2010PropOp56
 70
     1
102
RTVSPost2010Prop57
140
1.0
102
RTVSPost2010PropOp57
 70
     1
102
RTVSPropertyOp0
 70
     1
102
RTVSPropertyOp1
 70
     1
102
RTVSPropertyOp2
 70
     1
102
RTVSPropertyOp3
 70
     1
102
RTVSPropertyOp4
 70
     1
102
RTVSPropertyOp5
 70
     1
102
RTVSPropertyOp6
 70
     1
102
RTVSPropertyOp7
 70
     1
102
RTVSPropertyOp8
 70
     1
102
RTVSPropertyOp9
 70
     1
102
RTVSPropertyOp10
 70
     1
102
RTVSPropertyOp11
 70
     1
102
RTVSPropertyOp12
 70
     1
102
RTVSPropertyOp13
 70
     1
102
RTVSPropertyOp14
 70
     1
102
RTVSPropertyOp15
 70
     1
102
RTVSPropertyOp16
 70
     1
102
RTVSPropertyOp17
 70
     1
102
RTVSPropertyOp18
 70
     1
102
RTVSPropertyOp19
 70
     1
102
RTVSPropertyOp20
 70
     1
102
RTVSPropertyOp21
 70
     1
102
RTVSPropertyOp22
 70
     1
102
RTVSPropertyOp23
 70
     1
102
RTVSPropertyOp24
 70
     1
102
RTVSPropertyOp25
 70
     1
102
RTVSPropertyOp26
 70
     1
102
RTVSPropertyOp27
 70
     1
102
RTVSPropertyOp28
 70
     1
102
RTVSPropertyOp29
 70
     1
102
RTVSPropertyOp30
 70
     1
102
RTVSPropertyOp31
 70
     1
102
RTVSPropertyOp32
 70
     1
102
RTVSPropertyOp33
 70
     1
102
RTVSPropertyOp34
 70
     1
102
RTVSPropertyOp35
 70
     1
102
RTVSPropertyOp36
 70
     1
102
RTVSPropertyOp37
 70
     1
102
RTVSPropertyOp38
 70
     1
102
RTVSPropertyOp39
 70
     1
102
RTVSPropertyOp40
 70
     1
102
RTVSPropertyOp41
 70
     1
102
RTVSPropertyOp42
 70
     1
102
RTVSPropertyOp43
 70
     1
102
RTVSPropertyOp44
 70
     1
102
RTVSPropertyOp45
 70
     1
102
RTVSPropertyOp46
 70
     1
102
RTVSPropertyOp47
 70
     1
102
RTVSPropertyOp48
 70
     1
102
RTVSPropertyOp49
 70
     1
102
RTVSPropertyOp50
 70
     1
102
RTVSPropertyOp51
 70
     0
102
RTVSPropertyOp52
 70
     0
102
RTVSPropertyOp53
 70
     1
102
RTVSPropertyOp54
 70
     1
102
RTVSPropertyOp55
 70
     1
102
RTVSPropertyOp56
 70
     1
102
RTVSPropertyOp57
 70
     1
102
RTVSPropertyOp58
 70
     1
102
RTVSPropertyOp59
 70
     1
102
RTVSPropertyOp60
 70
     1
102
RTVSPropertyOp61
 70
     1
102
RTVSPropertyOp62
 70
     1
  0
XRECORD
  5
2E10
102
{ACAD_REACTORS
330
2E0F
102
}
330
2E0F
100
AcDbXrecord
280
     1
102
RTVSPost2010Prop28
280
     0
102
RTVSPost2010PropOp28
 70
     1
102
RTVSPost2010Prop29
280
     1
102
RTVSPost2010PropOp29
 70
     1
102
RTVSPost2010Prop30
280
     1
102
RTVSPost2010PropOp30
 70
     1
102
RTVSPost2010Prop31
280
     0
102
RTVSPost2010PropOp31
 70
     1
102
RTVSPost2010Prop32
280
     0
102
RTVSPost2010PropOp32
 70
     1
102
RTVSPost2010Prop33
280
     0
102
RTVSPost2010PropOp33
 70
     1
102
RTVSPost2010Prop34
280
     0
102
RTVSPost2010PropOp34
 70
     1
102
RTVSPost2010Prop35
280
     0
102
RTVSPost2010PropOp35
 70
     1
102
RTVSPost2010Prop36
280
     0
102
RTVSPost2010PropOp36
 70
     1
102
RTVSPost2010Prop37
 90
       50
102
RTVSPost2010PropOp37
 70
     1
102
RTVSPost2010Prop38
140
0.0
102
RTVSPost2010PropOp38
 70
     1
102
RTVSPost2010Prop39
140
1.0
102
RTVSPost2010PropOp39
 70
     1
102
RTVSPost2010Prop40
 90
        0
102
RTVSPost2010PropOp40
 70
     1
102
RTVSPost2010Prop41ColorIndex
 90
       18
102
RTVSPost2010Prop41ColorRGB
 90
        0
102
RTVSPost2010PropOp41
 70
     1
102
RTVSPost2010Prop42
 90
       50
102
RTVSPost2010PropOp42
 70
     1
102
RTVSPost2010Prop43
 90
        3
102
RTVSPost2010PropOp43
 70
     1
102
RTVSPost2010Prop44ColorIndex
 90
        5
102
RTVSPost2010Prop44ColorRGB
 90
      255
102
RTVSPost2010PropOp44
 70
     1
102
RTVSPost2010Prop45
280
     0
102
RTVSPost2010PropOp45
 70
     1
102
RTVSPost2010Prop46
 90
       50
102
RTVSPost2010PropOp46
 70
     1
102
RTVSPost2010Prop47
 90
       50
102
RTVSPost2010PropOp47
 70
     1
102
RTVSPost2010Prop48
 90
       50
102
RTVSPost2010PropOp48
 70
     1
102
RTVSPost2010Prop49
280
     0
102
RTVSPost2010PropOp49
 70
     1
102
RTVSPost2010Prop50
 90
       50
102
RTVSPost2010PropOp50
 70
     1
102
RTVSPost2010Prop51ColorIndex
 90
      256
102
RTVSPost2010Prop51ColorRGB
 90
-16777216
102
RTVSPost2010PropOp51
 70
     0
102
RTVSPost2010Prop52
140
1.0
102
RTVSPost2010PropOp52
 70
     0
102
RTVSPost2010Prop53
 90
        2
102
RTVSPost2010PropOp53
 70
     1
102
RTVSPost2010Prop54
  1
strokes_ogs.tif
102
RTVSPost2010PropOp54
 70
     1
102
RTVSPost2010Prop55
280
     0
102
RTVSPost2010PropOp55
 70
     1
102
RTVSPost2010Prop56
140
1.0
102
RTVSPost2010PropOp56
 70
     1
102
RTVSPost2010Prop57
140
1.0
102
RTVSPost2010PropOp57
 70
     1
102
RTVSPropertyOp0
 70
     1
102
RTVSPropertyOp1
 70
     1
102
RTVSPropertyOp2
 70
     1
102
RTVSPropertyOp3
 70
     1
102
RTVSPropertyOp4
 70
     1
102
RTVSPropertyOp5
 70
     1
102
RTVSPropertyOp6
 70
     1
102
RTVSPropertyOp7
 70
     1
102
RTVSPropertyOp8
 70
     1
102
RTVSPropertyOp9
 70
     1
102
RTVSPropertyOp10
 70
     1
102
RTVSPropertyOp11
 70
     1
102
RTVSPropertyOp12
 70
     1
102
RTVSPropertyOp13
 70
     1
102
RTVSPropertyOp14
 70
     1
102
RTVSPropertyOp15
 70
     1
102
RTVSPropertyOp16
 70
     1
102
RTVSPropertyOp17
 70
     1
102
RTVSPropertyOp18
 70
     1
102
RTVSPropertyOp19
 70
     1
102
RTVSPropertyOp20
 70
     1
102
RTVSPropertyOp21
 70
     1
102
RTVSPropertyOp22
 70
     1
102
RTVSPropertyOp23
 70
     1
102
RTVSPropertyOp24
 70
     1
102
RTVSPropertyOp25
 70
     1
102
RTVSPropertyOp26
 70
     1
102
RTVSPropertyOp27
 70
     1
102
RTVSPropertyOp28
 70
     1
102
RTVSPropertyOp29
 70
     1
102
RTVSPropertyOp30
 70
     1
102
RTVSPropertyOp31
 70
     1
102
RTVSPropertyOp32
 70
     1
102
RTVSPropertyOp33
 70
     1
102
RTVSPropertyOp34
 70
     1
102
RTVSPropertyOp35
 70
     1
102
RTVSPropertyOp36
 70
     1
102
RTVSPropertyOp37
 70
     1
102
RTVSPropertyOp38
 70
     1
102
RTVSPropertyOp39
 70
     1
102
RTVSPropertyOp40
 70
     1
102
RTVSPropertyOp41
 70
     1
102
RTVSPropertyOp42
 70
     1
102
RTVSPropertyOp43
 70
     1
102
RTVSPropertyOp44
 70
     1
102
RTVSPropertyOp45
 70
     1
102
RTVSPropertyOp46
 70
     1
102
RTVSPropertyOp47
 70
     1
102
RTVSPropertyOp48
 70
     1
102
RTVSPropertyOp49
 70
     1
102
RTVSPropertyOp50
 70
     1
102
RTVSPropertyOp51
 70
     0
102
RTVSPropertyOp52
 70
     0
102
RTVSPropertyOp53
 70
     1
102
RTVSPropertyOp54
 70
     1
102
RTVSPropertyOp55
 70
     1
102
RTVSPropertyOp56
 70
     1
102
RTVSPropertyOp57
 70
     1
102
RTVSPropertyOp58
 70
     1
102
RTVSPropertyOp59
 70
     1
102
RTVSPropertyOp60
 70
     1
102
RTVSPropertyOp61
 70
     1
102
RTVSPropertyOp62
 70
     1
  0
XRECORD
  5
2E12
102
{ACAD_REACTORS
330
2E11
102
}
330
2E11
100
AcDbXrecord
280
     1
102
RTVSPost2010Prop28
280
     0
102
RTVSPost2010PropOp28
 70
     1
102
RTVSPost2010Prop29
280
     1
102
RTVSPost2010PropOp29
 70
     1
102
RTVSPost2010Prop30
280
     1
102
RTVSPost2010PropOp30
 70
     1
102
RTVSPost2010Prop31
280
     0
102
RTVSPost2010PropOp31
 70
     1
102
RTVSPost2010Prop32
280
     0
102
RTVSPost2010PropOp32
 70
     1
102
RTVSPost2010Prop33
280
     0
102
RTVSPost2010PropOp33
 70
     1
102
RTVSPost2010Prop34
280
     0
102
RTVSPost2010PropOp34
 70
     1
102
RTVSPost2010Prop35
280
     0
102
RTVSPost2010PropOp35
 70
     1
102
RTVSPost2010Prop36
280
     0
102
RTVSPost2010PropOp36
 70
     1
102
RTVSPost2010Prop37
 90
       50
102
RTVSPost2010PropOp37
 70
     1
102
RTVSPost2010Prop38
140
0.0
102
RTVSPost2010PropOp38
 70
     1
102
RTVSPost2010Prop39
140
1.0
102
RTVSPost2010PropOp39
 70
     1
102
RTVSPost2010Prop40
 90
        0
102
RTVSPost2010PropOp40
 70
     1
102
RTVSPost2010Prop41ColorIndex
 90
       18
102
RTVSPost2010Prop41ColorRGB
 90
        0
102
RTVSPost2010PropOp41
 70
     1
102
RTVSPost2010Prop42
 90
       50
102
RTVSPost2010PropOp42
 70
     1
102
RTVSPost2010Prop43
 90
        3
102
RTVSPost2010PropOp43
 70
     1
102
RTVSPost2010Prop44ColorIndex
 90
        5
102
RTVSPost2010Prop44ColorRGB
 90
      255
102
RTVSPost2010PropOp44
 70
     1
102
RTVSPost2010Prop45
280
     0
102
RTVSPost2010PropOp45
 70
     1
102
RTVSPost2010Prop46
 90
       50
102
RTVSPost2010PropOp46
 70
     1
102
RTVSPost2010Prop47
 90
       50
102
RTVSPost2010PropOp47
 70
     1
102
RTVSPost2010Prop48
 90
       50
102
RTVSPost2010PropOp48
 70
     1
102
RTVSPost2010Prop49
280
     0
102
RTVSPost2010PropOp49
 70
     1
102
RTVSPost2010Prop50
 90
       50
102
RTVSPost2010PropOp50
 70
     1
102
RTVSPost2010Prop51ColorIndex
 90
      256
102
RTVSPost2010Prop51ColorRGB
 90
-16777216
102
RTVSPost2010PropOp51
 70
     0
102
RTVSPost2010Prop52
140
1.0
102
RTVSPost2010PropOp52
 70
     0
102
RTVSPost2010Prop53
 90
        2
102
RTVSPost2010PropOp53
 70
     1
102
RTVSPost2010Prop54
  1
strokes_ogs.tif
102
RTVSPost2010PropOp54
 70
     1
102
RTVSPost2010Prop55
280
     0
102
RTVSPost2010PropOp55
 70
     1
102
RTVSPost2010Prop56
140
1.0
102
RTVSPost2010PropOp56
 70
     1
102
RTVSPost2010Prop57
140
1.0
102
RTVSPost2010PropOp57
 70
     1
102
RTVSPropertyOp0
 70
     1
102
RTVSPropertyOp1
 70
     1
102
RTVSPropertyOp2
 70
     1
102
RTVSPropertyOp3
 70
     1
102
RTVSPropertyOp4
 70
     1
102
RTVSPropertyOp5
 70
     1
102
RTVSPropertyOp6
 70
     1
102
RTVSPropertyOp7
 70
     1
102
RTVSPropertyOp8
 70
     1
102
RTVSPropertyOp9
 70
     1
102
RTVSPropertyOp10
 70
     1
102
RTVSPropertyOp11
 70
     1
102
RTVSPropertyOp12
 70
     1
102
RTVSPropertyOp13
 70
     1
102
RTVSPropertyOp14
 70
     1
102
RTVSPropertyOp15
 70
     1
102
RTVSPropertyOp16
 70
     1
102
RTVSPropertyOp17
 70
     1
102
RTVSPropertyOp18
 70
     1
102
RTVSPropertyOp19
 70
     1
102
RTVSPropertyOp20
 70
     1
102
RTVSPropertyOp21
 70
     1
102
RTVSPropertyOp22
 70
     1
102
RTVSPropertyOp23
 70
     1
102
RTVSPropertyOp24
 70
     1
102
RTVSPropertyOp25
 70
     1
102
RTVSPropertyOp26
 70
     1
102
RTVSPropertyOp27
 70
     1
102
RTVSPropertyOp28
 70
     1
102
RTVSPropertyOp29
 70
     1
102
RTVSPropertyOp30
 70
     1
102
RTVSPropertyOp31
 70
     1
102
RTVSPropertyOp32
 70
     1
102
RTVSPropertyOp33
 70
     1
102
RTVSPropertyOp34
 70
     1
102
RTVSPropertyOp35
 70
     1
102
RTVSPropertyOp36
 70
     1
102
RTVSPropertyOp37
 70
     1
102
RTVSPropertyOp38
 70
     1
102
RTVSPropertyOp39
 70
     1
102
RTVSPropertyOp40
 70
     1
102
RTVSPropertyOp41
 70
     1
102
RTVSPropertyOp42
 70
     1
102
RTVSPropertyOp43
 70
     1
102
RTVSPropertyOp44
 70
     1
102
RTVSPropertyOp45
 70
     1
102
RTVSPropertyOp46
 70
     1
102
RTVSPropertyOp47
 70
     1
102
RTVSPropertyOp48
 70
     1
102
RTVSPropertyOp49
 70
     1
102
RTVSPropertyOp50
 70
     1
102
RTVSPropertyOp51
 70
     0
102
RTVSPropertyOp52
 70
     0
102
RTVSPropertyOp53
 70
     1
102
RTVSPropertyOp54
 70
     1
102
RTVSPropertyOp55
 70
     1
102
RTVSPropertyOp56
 70
     1
102
RTVSPropertyOp57
 70
     1
102
RTVSPropertyOp58
 70
     1
102
RTVSPropertyOp59
 70
     1
102
RTVSPropertyOp60
 70
     1
102
RTVSPropertyOp61
 70
     1
102
RTVSPropertyOp62
 70
     1
  0
XRECORD
  5
2E08
102
{ACAD_REACTORS
330
2E07
102
}
330
2E07
100
AcDbXrecord
280
     1
102
RTVSPost2010Prop28
280
     0
102
RTVSPost2010PropOp28
 70
     1
102
RTVSPost2010Prop29
280
     1
102
RTVSPost2010PropOp29
 70
     1
102
RTVSPost2010Prop30
280
     1
102
RTVSPost2010PropOp30
 70
     1
102
RTVSPost2010Prop31
280
     0
102
RTVSPost2010PropOp31
 70
     1
102
RTVSPost2010Prop32
280
     0
102
RTVSPost2010PropOp32
 70
     1
102
RTVSPost2010Prop33
280
     0
102
RTVSPost2010PropOp33
 70
     1
102
RTVSPost2010Prop34
280
     0
102
RTVSPost2010PropOp34
 70
     1
102
RTVSPost2010Prop35
280
     0
102
RTVSPost2010PropOp35
 70
     1
102
RTVSPost2010Prop36
280
     0
102
RTVSPost2010PropOp36
 70
     1
102
RTVSPost2010Prop37
 90
       50
102
RTVSPost2010PropOp37
 70
     1
102
RTVSPost2010Prop38
140
0.0
102
RTVSPost2010PropOp38
 70
     1
102
RTVSPost2010Prop39
140
1.0
102
RTVSPost2010PropOp39
 70
     1
102
RTVSPost2010Prop40
 90
        0
102
RTVSPost2010PropOp40
 70
     1
102
RTVSPost2010Prop41ColorIndex
 90
       18
102
RTVSPost2010Prop41ColorRGB
 90
        0
102
RTVSPost2010PropOp41
 70
     1
102
RTVSPost2010Prop42
 90
       50
102
RTVSPost2010PropOp42
 70
     1
102
RTVSPost2010Prop43
 90
        3
102
RTVSPost2010PropOp43
 70
     1
102
RTVSPost2010Prop44ColorIndex
 90
        5
102
RTVSPost2010Prop44ColorRGB
 90
      255
102
RTVSPost2010PropOp44
 70
     1
102
RTVSPost2010Prop45
280
     0
102
RTVSPost2010PropOp45
 70
     1
102
RTVSPost2010Prop46
 90
       50
102
RTVSPost2010PropOp46
 70
     1
102
RTVSPost2010Prop47
 90
       50
102
RTVSPost2010PropOp47
 70
     1
102
RTVSPost2010Prop48
 90
       50
102
RTVSPost2010PropOp48
 70
     1
102
RTVSPost2010Prop49
280
     0
102
RTVSPost2010PropOp49
 70
     1
102
RTVSPost2010Prop50
 90
       50
102
RTVSPost2010PropOp50
 70
     1
102
RTVSPost2010Prop51ColorIndex
 90
      256
102
RTVSPost2010Prop51ColorRGB
 90
-16777216
102
RTVSPost2010PropOp51
 70
     0
102
RTVSPost2010Prop52
140
1.0
102
RTVSPost2010PropOp52
 70
     0
102
RTVSPost2010Prop53
 90
        2
102
RTVSPost2010PropOp53
 70
     1
102
RTVSPost2010Prop54
  1
strokes_ogs.tif
102
RTVSPost2010PropOp54
 70
     1
102
RTVSPost2010Prop55
280
     0
102
RTVSPost2010PropOp55
 70
     1
102
RTVSPost2010Prop56
140
1.0
102
RTVSPost2010PropOp56
 70
     1
102
RTVSPost2010Prop57
140
1.0
102
RTVSPost2010PropOp57
 70
     1
102
RTVSPropertyOp0
 70
     1
102
RTVSPropertyOp1
 70
     1
102
RTVSPropertyOp2
 70
     1
102
RTVSPropertyOp3
 70
     1
102
RTVSPropertyOp4
 70
     1
102
RTVSPropertyOp5
 70
     1
102
RTVSPropertyOp6
 70
     1
102
RTVSPropertyOp7
 70
     1
102
RTVSPropertyOp8
 70
     1
102
RTVSPropertyOp9
 70
     1
102
RTVSPropertyOp10
 70
     1
102
RTVSPropertyOp11
 70
     1
102
RTVSPropertyOp12
 70
     1
102
RTVSPropertyOp13
 70
     1
102
RTVSPropertyOp14
 70
     1
102
RTVSPropertyOp15
 70
     1
102
RTVSPropertyOp16
 70
     1
102
RTVSPropertyOp17
 70
     1
102
RTVSPropertyOp18
 70
     1
102
RTVSPropertyOp19
 70
     1
102
RTVSPropertyOp20
 70
     1
102
RTVSPropertyOp21
 70
     1
102
RTVSPropertyOp22
 70
     1
102
RTVSPropertyOp23
 70
     1
102
RTVSPropertyOp24
 70
     1
102
RTVSPropertyOp25
 70
     1
102
RTVSPropertyOp26
 70
     1
102
RTVSPropertyOp27
 70
     1
102
RTVSPropertyOp28
 70
     1
102
RTVSPropertyOp29
 70
     1
102
RTVSPropertyOp30
 70
     1
102
RTVSPropertyOp31
 70
     1
102
RTVSPropertyOp32
 70
     1
102
RTVSPropertyOp33
 70
     1
102
RTVSPropertyOp34
 70
     1
102
RTVSPropertyOp35
 70
     1
102
RTVSPropertyOp36
 70
     1
102
RTVSPropertyOp37
 70
     1
102
RTVSPropertyOp38
 70
     1
102
RTVSPropertyOp39
 70
     1
102
RTVSPropertyOp40
 70
     1
102
RTVSPropertyOp41
 70
     1
102
RTVSPropertyOp42
 70
     1
102
RTVSPropertyOp43
 70
     1
102
RTVSPropertyOp44
 70
     1
102
RTVSPropertyOp45
 70
     1
102
RTVSPropertyOp46
 70
     1
102
RTVSPropertyOp47
 70
     1
102
RTVSPropertyOp48
 70
     1
102
RTVSPropertyOp49
 70
     1
102
RTVSPropertyOp50
 70
     1
102
RTVSPropertyOp51
 70
     0
102
RTVSPropertyOp52
 70
     0
102
RTVSPropertyOp53
 70
     1
102
RTVSPropertyOp54
 70
     1
102
RTVSPropertyOp55
 70
     1
102
RTVSPropertyOp56
 70
     1
102
RTVSPropertyOp57
 70
     1
102
RTVSPropertyOp58
 70
     1
102
RTVSPropertyOp59
 70
     1
102
RTVSPropertyOp60
 70
     1
102
RTVSPropertyOp61
 70
     1
102
RTVSPropertyOp62
 70
     1
  0
XRECORD
  5
2DFC
102
{ACAD_REACTORS
330
2DFB
102
}
330
2DFB
100
AcDbXrecord
280
     1
102
RTVSPost2010Prop28
280
     0
102
RTVSPost2010PropOp28
 70
     1
102
RTVSPost2010Prop29
280
     1
102
RTVSPost2010PropOp29
 70
     1
102
RTVSPost2010Prop30
280
     1
102
RTVSPost2010PropOp30
 70
     1
102
RTVSPost2010Prop31
280
     0
102
RTVSPost2010PropOp31
 70
     1
102
RTVSPost2010Prop32
280
     0
102
RTVSPost2010PropOp32
 70
     1
102
RTVSPost2010Prop33
280
     0
102
RTVSPost2010PropOp33
 70
     1
102
RTVSPost2010Prop34
280
     0
102
RTVSPost2010PropOp34
 70
     1
102
RTVSPost2010Prop35
280
     0
102
RTVSPost2010PropOp35
 70
     1
102
RTVSPost2010Prop36
280
     0
102
RTVSPost2010PropOp36
 70
     1
102
RTVSPost2010Prop37
 90
       50
102
RTVSPost2010PropOp37
 70
     1
102
RTVSPost2010Prop38
140
0.0
102
RTVSPost2010PropOp38
 70
     1
102
RTVSPost2010Prop39
140
1.0
102
RTVSPost2010PropOp39
 70
     1
102
RTVSPost2010Prop40
 90
        0
102
RTVSPost2010PropOp40
 70
     1
102
RTVSPost2010Prop41ColorIndex
 90
       18
102
RTVSPost2010Prop41ColorRGB
 90
        0
102
RTVSPost2010PropOp41
 70
     1
102
RTVSPost2010Prop42
 90
       50
102
RTVSPost2010PropOp42
 70
     1
102
RTVSPost2010Prop43
 90
        3
102
RTVSPost2010PropOp43
 70
     1
102
RTVSPost2010Prop44ColorIndex
 90
        5
102
RTVSPost2010Prop44ColorRGB
 90
      255
102
RTVSPost2010PropOp44
 70
     1
102
RTVSPost2010Prop45
280
     0
102
RTVSPost2010PropOp45
 70
     1
102
RTVSPost2010Prop46
 90
       50
102
RTVSPost2010PropOp46
 70
     1
102
RTVSPost2010Prop47
 90
       50
102
RTVSPost2010PropOp47
 70
     1
102
RTVSPost2010Prop48
 90
       50
102
RTVSPost2010PropOp48
 70
     1
102
RTVSPost2010Prop49
280
     0
102
RTVSPost2010PropOp49
 70
     1
102
RTVSPost2010Prop50
 90
       50
102
RTVSPost2010PropOp50
 70
     1
102
RTVSPost2010Prop51ColorIndex
 90
      256
102
RTVSPost2010Prop51ColorRGB
 90
-16777216
102
RTVSPost2010PropOp51
 70
     0
102
RTVSPost2010Prop52
140
1.0
102
RTVSPost2010PropOp52
 70
     0
102
RTVSPost2010Prop53
 90
        2
102
RTVSPost2010PropOp53
 70
     1
102
RTVSPost2010Prop54
  1
strokes_ogs.tif
102
RTVSPost2010PropOp54
 70
     1
102
RTVSPost2010Prop55
280
     0
102
RTVSPost2010PropOp55
 70
     1
102
RTVSPost2010Prop56
140
1.0
102
RTVSPost2010PropOp56
 70
     1
102
RTVSPost2010Prop57
140
1.0
102
RTVSPost2010PropOp57
 70
     1
102
RTVSPropertyOp0
 70
     1
102
RTVSPropertyOp1
 70
     1
102
RTVSPropertyOp2
 70
     1
102
RTVSPropertyOp3
 70
     1
102
RTVSPropertyOp4
 70
     1
102
RTVSPropertyOp5
 70
     1
102
RTVSPropertyOp6
 70
     1
102
RTVSPropertyOp7
 70
     1
102
RTVSPropertyOp8
 70
     1
102
RTVSPropertyOp9
 70
     1
102
RTVSPropertyOp10
 70
     1
102
RTVSPropertyOp11
 70
     1
102
RTVSPropertyOp12
 70
     1
102
RTVSPropertyOp13
 70
     1
102
RTVSPropertyOp14
 70
     1
102
RTVSPropertyOp15
 70
     1
102
RTVSPropertyOp16
 70
     1
102
RTVSPropertyOp17
 70
     1
102
RTVSPropertyOp18
 70
     1
102
RTVSPropertyOp19
 70
     1
102
RTVSPropertyOp20
 70
     1
102
RTVSPropertyOp21
 70
     1
102
RTVSPropertyOp22
 70
     1
102
RTVSPropertyOp23
 70
     1
102
RTVSPropertyOp24
 70
     1
102
RTVSPropertyOp25
 70
     1
102
RTVSPropertyOp26
 70
     1
102
RTVSPropertyOp27
 70
     1
102
RTVSPropertyOp28
 70
     1
102
RTVSPropertyOp29
 70
     1
102
RTVSPropertyOp30
 70
     1
102
RTVSPropertyOp31
 70
     1
102
RTVSPropertyOp32
 70
     1
102
RTVSPropertyOp33
 70
     1
102
RTVSPropertyOp34
 70
     1
102
RTVSPropertyOp35
 70
     1
102
RTVSPropertyOp36
 70
     1
102
RTVSPropertyOp37
 70
     1
102
RTVSPropertyOp38
 70
     1
102
RTVSPropertyOp39
 70
     1
102
RTVSPropertyOp40
 70
     1
102
RTVSPropertyOp41
 70
     1
102
RTVSPropertyOp42
 70
     1
102
RTVSPropertyOp43
 70
     1
102
RTVSPropertyOp44
 70
     1
102
RTVSPropertyOp45
 70
     1
102
RTVSPropertyOp46
 70
     1
102
RTVSPropertyOp47
 70
     1
102
RTVSPropertyOp48
 70
     1
102
RTVSPropertyOp49
 70
     1
102
RTVSPropertyOp50
 70
     1
102
RTVSPropertyOp51
 70
     0
102
RTVSPropertyOp52
 70
     0
102
RTVSPropertyOp53
 70
     1
102
RTVSPropertyOp54
 70
     1
102
RTVSPropertyOp55
 70
     1
102
RTVSPropertyOp56
 70
     1
102
RTVSPropertyOp57
 70
     1
102
RTVSPropertyOp58
 70
     1
102
RTVSPropertyOp59
 70
     1
102
RTVSPropertyOp60
 70
     1
102
RTVSPropertyOp61
 70
     1
102
RTVSPropertyOp62
 70
     1
  0
XRECORD
  5
2E14
102
{ACAD_REACTORS
330
2E13
102
}
330
2E13
100
AcDbXrecord
280
     1
102
RTVSPost2010Prop28
280
     0
102
RTVSPost2010PropOp28
 70
     1
102
RTVSPost2010Prop29
280
     1
102
RTVSPost2010PropOp29
 70
     1
102
RTVSPost2010Prop30
280
     1
102
RTVSPost2010PropOp30
 70
     1
102
RTVSPost2010Prop31
280
     0
102
RTVSPost2010PropOp31
 70
     1
102
RTVSPost2010Prop32
280
     0
102
RTVSPost2010PropOp32
 70
     1
102
RTVSPost2010Prop33
280
     0
102
RTVSPost2010PropOp33
 70
     1
102
RTVSPost2010Prop34
280
     0
102
RTVSPost2010PropOp34
 70
     1
102
RTVSPost2010Prop35
280
     0
102
RTVSPost2010PropOp35
 70
     1
102
RTVSPost2010Prop36
280
     0
102
RTVSPost2010PropOp36
 70
     1
102
RTVSPost2010Prop37
 90
       50
102
RTVSPost2010PropOp37
 70
     1
102
RTVSPost2010Prop38
140
0.0
102
RTVSPost2010PropOp38
 70
     1
102
RTVSPost2010Prop39
140
1.0
102
RTVSPost2010PropOp39
 70
     1
102
RTVSPost2010Prop40
 90
        0
102
RTVSPost2010PropOp40
 70
     1
102
RTVSPost2010Prop41ColorIndex
 90
       18
102
RTVSPost2010Prop41ColorRGB
 90
        0
102
RTVSPost2010PropOp41
 70
     1
102
RTVSPost2010Prop42
 90
       50
102
RTVSPost2010PropOp42
 70
     1
102
RTVSPost2010Prop43
 90
        3
102
RTVSPost2010PropOp43
 70
     1
102
RTVSPost2010Prop44ColorIndex
 90
        5
102
RTVSPost2010Prop44ColorRGB
 90
      255
102
RTVSPost2010PropOp44
 70
     1
102
RTVSPost2010Prop45
280
     0
102
RTVSPost2010PropOp45
 70
     1
102
RTVSPost2010Prop46
 90
       50
102
RTVSPost2010PropOp46
 70
     1
102
RTVSPost2010Prop47
 90
       50
102
RTVSPost2010PropOp47
 70
     1
102
RTVSPost2010Prop48
 90
       50
102
RTVSPost2010PropOp48
 70
     1
102
RTVSPost2010Prop49
280
     0
102
RTVSPost2010PropOp49
 70
     1
102
RTVSPost2010Prop50
 90
       50
102
RTVSPost2010PropOp50
 70
     1
102
RTVSPost2010Prop51ColorIndex
 90
      256
102
RTVSPost2010Prop51ColorRGB
 90
-16777216
102
RTVSPost2010PropOp51
 70
     0
102
RTVSPost2010Prop52
140
1.0
102
RTVSPost2010PropOp52
 70
     0
102
RTVSPost2010Prop53
 90
        2
102
RTVSPost2010PropOp53
 70
     1
102
RTVSPost2010Prop54
  1
strokes_ogs.tif
102
RTVSPost2010PropOp54
 70
     1
102
RTVSPost2010Prop55
280
     0
102
RTVSPost2010PropOp55
 70
     1
102
RTVSPost2010Prop56
140
1.0
102
RTVSPost2010PropOp56
 70
     1
102
RTVSPost2010Prop57
140
1.0
102
RTVSPost2010PropOp57
 70
     1
102
RTVSPropertyOp0
 70
     1
102
RTVSPropertyOp1
 70
     1
102
RTVSPropertyOp2
 70
     1
102
RTVSPropertyOp3
 70
     1
102
RTVSPropertyOp4
 70
     1
102
RTVSPropertyOp5
 70
     1
102
RTVSPropertyOp6
 70
     1
102
RTVSPropertyOp7
 70
     1
102
RTVSPropertyOp8
 70
     1
102
RTVSPropertyOp9
 70
     1
102
RTVSPropertyOp10
 70
     1
102
RTVSPropertyOp11
 70
     1
102
RTVSPropertyOp12
 70
     1
102
RTVSPropertyOp13
 70
     1
102
RTVSPropertyOp14
 70
     1
102
RTVSPropertyOp15
 70
     1
102
RTVSPropertyOp16
 70
     1
102
RTVSPropertyOp17
 70
     1
102
RTVSPropertyOp18
 70
     1
102
RTVSPropertyOp19
 70
     1
102
RTVSPropertyOp20
 70
     1
102
RTVSPropertyOp21
 70
     1
102
RTVSPropertyOp22
 70
     1
102
RTVSPropertyOp23
 70
     1
102
RTVSPropertyOp24
 70
     1
102
RTVSPropertyOp25
 70
     1
102
RTVSPropertyOp26
 70
     1
102
RTVSPropertyOp27
 70
     1
102
RTVSPropertyOp28
 70
     1
102
RTVSPropertyOp29
 70
     1
102
RTVSPropertyOp30
 70
     1
102
RTVSPropertyOp31
 70
     1
102
RTVSPropertyOp32
 70
     1
102
RTVSPropertyOp33
 70
     1
102
RTVSPropertyOp34
 70
     1
102
RTVSPropertyOp35
 70
     1
102
RTVSPropertyOp36
 70
     1
102
RTVSPropertyOp37
 70
     1
102
RTVSPropertyOp38
 70
     1
102
RTVSPropertyOp39
 70
     1
102
RTVSPropertyOp40
 70
     1
102
RTVSPropertyOp41
 70
     1
102
RTVSPropertyOp42
 70
     1
102
RTVSPropertyOp43
 70
     1
102
RTVSPropertyOp44
 70
     1
102
RTVSPropertyOp45
 70
     1
102
RTVSPropertyOp46
 70
     1
102
RTVSPropertyOp47
 70
     1
102
RTVSPropertyOp48
 70
     1
102
RTVSPropertyOp49
 70
     1
102
RTVSPropertyOp50
 70
     1
102
RTVSPropertyOp51
 70
     0
102
RTVSPropertyOp52
 70
     0
102
RTVSPropertyOp53
 70
     1
102
RTVSPropertyOp54
 70
     1
102
RTVSPropertyOp55
 70
     1
102
RTVSPropertyOp56
 70
     1
102
RTVSPropertyOp57
 70
     1
102
RTVSPropertyOp58
 70
     1
102
RTVSPropertyOp59
 70
     1
102
RTVSPropertyOp60
 70
     1
102
RTVSPropertyOp61
 70
     1
102
RTVSPropertyOp62
 70
     1
  0
ENDSEC
  0
EOF
