  0
SECTION
  2
HEADER
  9
$ACADVER
  1
AC1009
  9
$INSBASE
 10
0.0
 20
0.0
 30
0.0
  9
$EXTMIN
 10
-0.0142498410192502
 20
-0.0225062082522527
 30
-0.0000000000112498
  9
$EXTMAX
 10
386.02844226510501
 20
560.02240250538284
 30
0.0000000000002956
  9
$LIMMIN
 10
0.0
 20
0.0
  9
$LIMMAX
 10
386.0
 20
560.00000000000011
  9
$ORTHOMODE
 70
     0
  9
$REGENMODE
 70
     1
  9
$FILLMODE
 70
     1
  9
$QTEXTMODE
 70
     0
  9
$MIRRTEXT
 70
     1
  9
$DRAGMODE
 70
     2
  9
$LTSCALE
 40
2.0
  9
$OSMODE
 70
  3071
  9
$ATTMODE
 70
     1
  9
$TEXTSIZE
 40
73.985717453579113
  9
$TRACEWID
 40
1.0
  9
$TEXTSTYLE
  7
STANDARD
  9
$CLAYER
  8
TK2
  9
$CELTYPE
  6
BYLAYER
  9
$CECOLOR
 62
   256
  9
$DIMSCALE
 40
1.0
  9
$DIMASZ
 40
2.5
  9
$DIMEXO
 40
1.0
  9
$DIMDLI
 40
10.0
  9
$DIMRND
 40
0.0
  9
$DIMDLE
 40
0.0
  9
$DIMEXE
 40
1.0
  9
$DIMTP
 40
0.1
  9
$DIMTM
 40
0.1
  9
$DIMTXT
 40
3.5
  9
$DIMCEN
 40
0.0
  9
$DIMTSZ
 40
0.0
  9
$DIMTOL
 70
     0
  9
$DIMLIM
 70
     0
  9
$DIMTIH
 70
     0
  9
$DIMTOH
 70
     0
  9
$DIMSE1
 70
     0
  9
$DIMSE2
 70
     0
  9
$DIMTAD
 70
     1
  9
$DIMZIN
 70
     8
  9
$DIMBLK
  1
OPEN30
  9
$DIMASO
 70
     1
  9
$DIMSHO
 70
     1
  9
$DIMPOST
  1

  9
$DIMAPOST
  1
"
  9
$DIMALT
 70
     0
  9
$DIMALTD
 70
     2
  9
$DIMALTF
 40
0.0393701
  9
$DIMLFAC
 40
1.0
  9
$DIMTOFL
 70
     1
  9
$DIMTVP
 40
0.0
  9
$DIMTIX
 70
     0
  9
$DIMSOXD
 70
     0
  9
$DIMSAH
 70
     0
  9
$DIMBLK1
  1

  9
$DIMBLK2
  1

  9
$DIMSTYLE
  2
AM_ISO
  9
$DIMCLRD
 70
   256
  9
$DIMCLRE
 70
   256
  9
$DIMCLRT
 70
     2
  9
$DIMTFAC
 40
0.71
  9
$DIMGAP
 40
1.5
  9
$LUNITS
 70
     2
  9
$LUPREC
 70
     2
  9
$SKETCHINC
 40
1.0
  9
$FILLETRAD
 40
1.5
  9
$AUNITS
 70
     0
  9
$AUPREC
 70
     0
  9
$MENU
  1
.
  9
$ELEVATION
 40
0.0
  9
$PELEVATION
 40
0.0
  9
$THICKNESS
 40
0.0
  9
$LIMCHECK
 70
     0
  9
$BLIPMODE
 70
     0
  9
$CHAMFERA
 40
5.0
  9
$CHAMFERB
 40
5.0
  9
$SKPOLY
 70
     0
  9
$TDCREATE
 40
2456101.4131399998
  9
$TDUPDATE
 40
2456105.4905332518
  9
$TDINDWG
 40
0.1424925926
  9
$TDUSRTIMER
 40
0.1424925926
  9
$USRTIMER
 70
     1
  9
$ANGBASE
 50
0.0
  9
$ANGDIR
 70
     0
  9
$PDMODE
 70
     0
  9
$PDSIZE
 40
0.0
  9
$PLINEWID
 40
0.0
  9
$COORDS
 70
     2
  9
$SPLFRAME
 70
     0
  9
$SPLINETYPE
 70
     6
  9
$SPLINESEGS
 70
     8
  9
$ATTDIA
 70
     1
  9
$ATTREQ
 70
     1
  9
$HANDLING
 70
     1
  9
$HANDSEED
  5
10AE
  9
$SURFTAB1
 70
     6
  9
$SURFTAB2
 70
     6
  9
$SURFTYPE
 70
     6
  9
$SURFU
 70
     6
  9
$SURFV
 70
     6
  9
$UCSNAME
  2

  9
$UCSORG
 10
0.0
 20
0.0
 30
0.0
  9
$UCSXDIR
 10
1.0
 20
0.0
 30
0.0
  9
$UCSYDIR
 10
0.0
 20
1.0
 30
0.0
  9
$PUCSNAME
  2

  9
$PUCSORG
 10
0.0
 20
0.0
 30
0.0
  9
$PUCSXDIR
 10
1.0
 20
0.0
 30
0.0
  9
$PUCSYDIR
 10
0.0
 20
1.0
 30
0.0
  9
$USERI1
 70
     0
  9
$USERI2
 70
     0
  9
$USERI3
 70
     0
  9
$USERI4
 70
     0
  9
$USERI5
 70
     0
  9
$USERR1
 40
0.0
  9
$USERR2
 40
0.0
  9
$USERR3
 40
0.0
  9
$USERR4
 40
0.0
  9
$USERR5
 40
0.0
  9
$WORLDVIEW
 70
     1
  9
$SHADEDGE
 70
     3
  9
$SHADEDIF
 70
    70
  9
$TILEMODE
 70
     1
  9
$MAXACTVP
 70
    64
  9
$PLIMCHECK
 70
     0
  9
$PEXTMIN
 10
1.0000000000000000E+020
 20
1.0000000000000000E+020
 30
1.0000000000000000E+020
  9
$PEXTMAX
 10
-1.0000000000000000E+020
 20
-1.0000000000000000E+020
 30
-1.0000000000000000E+020
  9
$PLIMMIN
 10
-6.350006103515625
 20
-6.3499999046325684
  9
$PLIMMAX
 10
273.04998779296881
 20
209.54999399185181
  9
$UNITMODE
 70
     0
  9
$VISRETAIN
 70
     1
  9
$PLINEGEN
 70
     0
  9
$PSLTSCALE
 70
     1
  0
ENDSEC
  0
SECTION
  2
TABLES
  0
TABLE
  2
VPORT
 70
     1
  0
VPORT
  2
*ACTIVE
 70
     0
 10
0.0
 20
0.0
 11
1.0
 21
1.0
 12
193.00709621204291
 22
279.99994814856518
 13
0.0
 23
0.0
 14
5.0
 24
5.0
 15
20.0
 25
20.0
 16
0.0
 26
0.0
 36
1.0
 17
0.0
 27
0.0
 37
0.0
 40
564.27698610945595
 41
1.5107187894073131
 42
50.0
 43
0.0
 44
0.0
 50
0.0
 51
0.0
 71
     0
 72
   100
 73
     1
 74
     3
 75
     0
 76
     0
 77
     0
 78
     0
  0
ENDTAB
  0
TABLE
  2
LTYPE
 70
    20
  0
LTYPE
  2
CONTINUOUS
 70
     0
  3
Solid line
 72
    65
 73
     0
 40
0.0
  0
LTYPE
  2
AM_ISO02W050
 70
     0
  3
__ __ __ __ __ __ __ __ __ __ __ __ __ __ __
 72
    65
 73
     2
 40
7.5
 49
6.0
 49
-1.5
  0
LTYPE
  2
AM_ISO08W050
 70
     0
  3
____ . ____ . ____ . ____ . ____ . ____ . ____
 72
    65
 73
     4
 40
18.0
 49
12.0
 49
-1.5
 49
3.0
 49
-1.5
  0
LTYPE
  2
AM_ISO09W050
 70
     0
  3
_____ . . _____ . . _____ . . ____ .. ____
 72
    65
 73
     6
 40
22.5
 49
12.0
 49
-1.5
 49
3.0
 49
-1.5
 49
3.0
 49
-1.5
  0
LTYPE
  2
AMCONSTR
 70
     0
  3
_______________________
 72
    65
 73
     2
 40
9999.0
 49
9999.0
 49
0.0
  0
LTYPE
  2
AM_ISO08W050X2
 70
     0
  3
__ . __ . __ . __ . __ . __
 72
    65
 73
     4
 40
9.0
 49
6.0
 49
-0.75
 49
1.5
 49
-0.75
  0
LTYPE
  2
AM_ISO02W050X2
 70
     0
  3
 _ _ _ _ _ _ _ _ _ _ _ _
 72
    65
 73
     2
 40
3.75
 49
3.0
 49
-0.75
  0
LTYPE
  2
AMZIGZAG
 70
     0
  3
/\/-/\/-/\/-/\/-/\/-/\/
 72
    65
 73
     2
 40
11.0001
 49
0.0001
 49
-11.0
  0
LTYPE
  2
ACISOWELD
 70
     0
  3
_ _ _ _ _
 72
    65
 73
     2
 40
2.0
 49
2.0
 49
-1.0
  0
LTYPE
  2
ACISOTGB
 70
     0
  3
__ . . __ . .
 72
    65
 73
     6
 40
9.0
 49
4.0
 49
-1.0
 49
1.0
 49
-1.0
 49
1.0
 49
-1.0
  0
LTYPE
  2
ACISOTGL
 70
     0
  3
_ _ _ _ _
 72
    65
 73
     2
 40
3.0
 49
2.0
 49
-1.0
  0
LTYPE
  2
CENTER
 70
     0
  3
__ . __
 72
    65
 73
     4
 40
7.0
 49
4.0
 49
-1.0
 49
1.0
 49
-1.0
  0
LTYPE
  2
HIDDEN
 70
     0
  3
Hidden __ __ __ __ __ __ __ __ __ __ __ __ __ _
 72
    65
 73
     2
 40
9.5249999999999986
 49
6.3499999999999988
 49
-3.1749999999999989
  0
LTYPE
  2
PHANTOM2
 70
     0
  3
Phantom (.5x) ___ _ _ ___ _ _ ___ _ _ ___ _ _
 72
    65
 73
     6
 40
31.75
 49
15.875
 49
-3.1749999999999989
 49
3.1749999999999989
 49
-3.1749999999999989
 49
3.1749999999999989
 49
-3.1749999999999989
  0
LTYPE
  2
GEN3
 70
     0
  3
-- -- -- -- -- -- -- -- -- -- -- -- -- -- --
 72
    65
 73
     2
 40
6.25
 49
4.75
 49
-1.5
  0
LTYPE
  2
GEN7
 70
     0
  3
____ . ____ . ____ . ____ . ____ . ____ . ____
 72
    65
 73
     4
 40
13.75
 49
9.75
 49
-1.5
 49
1.0
 49
-1.5
  0
LTYPE
  2
GEN3A
 70
     0
  3
 - - - - -
 72
    65
 73
     2
 40
3.125
 49
2.25
 49
-0.875
  0
LTYPE
  2
GEN7A
 70
     0
  3
__ . __ . __
 72
    65
 73
     4
 40
6.875
 49
4.75
 49
-0.875
 49
0.375
 49
-0.875
  0
LTYPE
  2
GEN4A
 70
     0
  3
_____ . . _____ . . _____ . . ____ .. ____
 72
    65
 73
     6
 40
16.25
 49
9.75
 49
-1.5
 49
1.0
 49
-1.5
 49
1.0
 49
-1.5
  0
LTYPE
  2
GENZIGZAG
 70
     0
  3
/\/-/\/-/\/-/\/-/\/-/\/
 72
    65
 73
     2
 40
12.0001
 49
0.0001
 49
-12.0
  0
ENDTAB
  0
TABLE
  2
LAYER
 70
    23
  0
LAYER
  2
0
 70
     0
 62
     7
  6
CONTINUOUS
  0
LAYER
  2
DEFPOINTS
 70
     0
 62
     7
  6
CONTINUOUS
  0
LAYER
  2
TK1
 70
     0
 62
     7
  6
CONTINUOUS
  0
LAYER
  2
TK10
 70
     0
 62
     7
  6
AM_ISO02W050X2
  0
LAYER
  2
TK2
 70
     0
 62
     2
  6
CONTINUOUS
  0
LAYER
  2
TK3
 70
     0
 62
     5
  6
CONTINUOUS
  0
LAYER
  2
TK20
 70
     0
 62
     2
  6
AM_ISO02W050X2
  0
LAYER
  2
TK30
 70
     0
 62
     5
  6
AM_ISO02W050X2
  0
LAYER
  2
TK4
 70
     0
 62
     3
  6
CONTINUOUS
  0
LAYER
  2
TK5
 70
     0
 62
     4
  6
CONTINUOUS
  0
LAYER
  2
TK6
 70
     0
 62
     6
  6
CONTINUOUS
  0
LAYER
  2
TK7
 70
     0
 62
     1
  6
CONTINUOUS
  0
LAYER
  2
TK8
 70
     0
 62
     8
  6
CONTINUOUS
  0
LAYER
  2
TK40
 70
     0
 62
     3
  6
AM_ISO02W050X2
  0
LAYER
  2
TK50
 70
     0
 62
     4
  6
AM_ISO02W050X2
  0
LAYER
  2
TK60
 70
     0
 62
     6
  6
AM_ISO02W050X2
  0
LAYER
  2
TK70
 70
     0
 62
     1
  6
AM_ISO02W050X2
  0
LAYER
  2
TK80
 70
     0
 62
     8
  6
AM_ISO02W050X2
  0
LAYER
  2
AM_7
 70
     0
 62
     4
  6
AM_ISO08W050
  0
LAYER
  2
AM_5
 70
     0
 62
     3
  6
CONTINUOUS
  0
LAYER
  2
7A
 70
     0
 62
     4
  6
GEN7A
  0
LAYER
  2
RAHM2
 70
     0
 62
     1
  6
CONTINUOUS
  0
LAYER
  2
AM_CL
 70
     0
 62
     1
  6
AMCONSTR
  0
ENDTAB
  0
TABLE
  2
STYLE
 70
     5
  0
STYLE
  2
STANDARD
 70
     0
 40
0.0
 41
1.0
 50
0.0
 71
     0
 42
73.985717453579113
  3
ISOCP.SHX
  4
bigfont.shx
  0
STYLE
  2

 70
     1
 40
0.0
 41
1.0
 50
0.0
 71
     0
 42
2.5
  3
ltypeshp.shx
  4

  0
STYLE
  2
ACISOTS
 70
     0
 40
1.0
 41
1.0
 50
0.0
 71
     0
 42
2.5
  3
isocp.shx
  4
extfont.shx
  0
STYLE
  2
ACISOGDT
 70
     0
 40
0.0
 41
1.0
 50
0.0
 71
     0
 42
2.5
  3
amgdt.shx
  4

  0
STYLE
  2

 70
     1
 40
0.0
 41
1.0
 50
0.0
 71
     0
 42
3.0
  3
genltshp.shx
  4

  0
ENDTAB
  0
TABLE
  2
VIEW
 70
     6
  0
VIEW
  2
AM_VIEW1
 70
     0
 40
280.00000000000011
 10
218.20816864295131
 20
420.00000000000011
 41
436.4163372859025
 11
0.0
 21
0.0
 31
1.0
 12
0.0
 22
0.0
 32
0.0
 42
50.0
 43
0.0
 44
0.0
 50
0.0
 71
     0
  0
VIEW
  2
AM_VIEW2
 70
     0
 40
280.00000000000011
 10
167.79183135704869
 20
420.00000000000011
 41
436.4163372859025
 11
0.0
 21
0.0
 31
1.0
 12
0.0
 22
0.0
 32
0.0
 42
50.0
 43
0.0
 44
0.0
 50
0.0
 71
     0
  0
VIEW
  2
AM_VIEW3
 70
     0
 40
280.00000000000011
 10
218.20816864295131
 20
140.0
 41
436.4163372859025
 11
0.0
 21
0.0
 31
1.0
 12
0.0
 22
0.0
 32
0.0
 42
50.0
 43
0.0
 44
0.0
 50
0.0
 71
     0
  0
VIEW
  2
AM_VIEW4
 70
     0
 40
280.00000000000011
 10
167.79183135704869
 20
140.0
 41
436.4163372859025
 11
0.0
 21
0.0
 31
1.0
 12
0.0
 22
0.0
 32
0.0
 42
50.0
 43
0.0
 44
0.0
 50
0.0
 71
     0
  0
VIEW
  2
AM_VIEW5
 70
     0
 40
280.00000000000011
 10
193.0
 20
280.00000000000011
 41
436.4163372859025
 11
0.0
 21
0.0
 31
1.0
 12
0.0
 22
0.0
 32
0.0
 42
50.0
 43
0.0
 44
0.0
 50
0.0
 71
     0
  0
VIEW
  2
AM_VIEW6
 70
     0
 40
559.99440000000016
 10
193.0
 20
280.00000000000011
 41
872.82394624505946
 11
0.0
 21
0.0
 31
1.0
 12
0.0
 22
0.0
 32
0.0
 42
50.0
 43
0.0
 44
0.0
 50
0.0
 71
     0
  0
ENDTAB
  0
TABLE
  2
UCS
 70
     0
  0
ENDTAB
  0
TABLE
  2
APPID
 70
    38
  0
APPID
  2
ACAD
 70
     0
  0
APPID
  2
MCAD_NO_VIS
 70
     0
  0
APPID
  2
ACAD_TEMP_GRAPHIC
 70
     0
  0
APPID
  2
ACATTRIBSERVICES
 70
     0
  0
APPID
  2
AD_DRAW
 70
     0
  0
APPID
  2
DESIGNERASSEMBLIES
 70
     0
  0
APPID
  2
ACADM_DIM_EDIT
 70
     0
  0
APPID
  2
AMDT_DM_ADJ
 70
     0
  0
APPID
  2
GENIUS_GENREC_14
 70
     0
  0
APPID
  2
GENIUS_GENODEF_13
 70
     0
  0
APPID
  2
GENIUS_GENOBJ-N-REC_13
 70
     0
  0
APPID
  2
GENIUS_GENDIMSH_14
 70
     0
  0
APPID
  2
GENIUS_GENCFG_13
 70
     0
  0
APPID
  2
GENIUS_GENCFG0_13
 70
     0
  0
APPID
  2
GENIUS_GENCFG1_13
 70
     0
  0
APPID
  2
GENIUS_GENCFG2_13
 70
     0
  0
APPID
  2
GENIUS_GENCFG3_13
 70
     0
  0
APPID
  2
GENIUS_GENCFG4_13
 70
     0
  0
APPID
  2
GENIUS_GEVCFG0_13
 70
     0
  0
APPID
  2
GENIUS_GENOENT_13
 70
     0
  0
APPID
  2
GENIUS_GENOBJ-N-CRS_13
 70
     0
  0
APPID
  2
GENIUS_GENOREF_13
 70
     0
  0
APPID
  2
GENIUS_GENOLIS_13
 70
     0
  0
APPID
  2
GENIUS_GENOBJ-N-TIT_13
 70
     0
  0
APPID
  2
GENIUS_GENTITLE_13
 70
     0
  0
APPID
  2
GENIUS_GENSCREG_15
 70
     0
  0
APPID
  2
GENIUS_GENOBJ-N-SDF_13
 70
     0
  0
APPID
  2
GENIUS_GENOBJ-N-CEN_13
 70
     0
  0
APPID
  2
GENIUS_GENOBJ-N-HTC_13
 70
     0
  0
APPID
  2
GENIUS_GENHATCH_13
 70
     0
  0
APPID
  2
GENIUS_GENOBJ-N-ZOO_13
 70
     0
  0
APPID
  2
GENIUS_GENZOO_17
 70
     0
  0
APPID
  2
ACAD_MLEADERVER
 70
     0
  0
APPID
  2
GENIUS_GENCEN_19
 70
     0
  0
APPID
  2
ACAD_DSTYLE_DIMINSPECT
 70
     0
  0
APPID
  2
GENIUS_GENOBJ-N-FIL_13
 70
     0
  0
APPID
  2
ACAD_EXEMPT_FROM_CAD_STANDARDS
 70
     0
  0
APPID
  2
GENIUS_GENSCREG_13
 70
     0
  0
ENDTAB
  0
TABLE
  2
DIMSTYLE
 70
    16
  0
DIMSTYLE
  2
AM_ISO
 70
     0
  3

  4
"
  5
OPEN30
  6

  7

 40
1.0
 41
2.5
 42
1.0
 43
10.0
 44
1.0
 45
0.0
 46
0.0
 47
0.1
 48
0.1
140
3.5
141
0.0
142
0.0
143
0.0393701
144
1.0
145
0.0
146
0.71
147
1.5
 71
     0
 72
     0
 73
     0
 74
     0
 75
     0
 76
     0
 77
     1
 78
     8
170
     0
171
     2
172
     1
173
     0
174
     0
175
     0
176
   256
177
   256
178
     2
  0
DIMSTYLE
  2
AM_ISO$3
 70
     0
  3

  4
"
  5
OPEN30
  6

  7

 40
1.0
 41
2.5
 42
1.0
 43
10.0
 44
1.0
 45
0.0
 46
0.0
 47
0.1
 48
0.1
140
3.5
141
0.0
142
0.0
143
0.0393701
144
1.0
145
0.0
146
0.71
147
1.5
 71
     0
 72
     0
 73
     0
 74
     1
 75
     0
 76
     0
 77
     1
 78
     8
170
     0
171
     2
172
     0
173
     0
174
     0
175
     0
176
   256
177
   256
178
     2
  0
DIMSTYLE
  2
AM_ISO$4
 70
     0
  3

  4
"
  5
OPEN30
  6

  7

 40
1.0
 41
2.5
 42
1.0
 43
10.0
 44
1.0
 45
0.0
 46
0.0
 47
0.1
 48
0.1
140
3.5
141
0.0
142
0.0
143
0.0393701
144
1.0
145
0.0
146
0.71
147
1.5
 71
     0
 72
     0
 73
     0
 74
     1
 75
     0
 76
     0
 77
     1
 78
     8
170
     0
171
     2
172
     0
173
     0
174
     0
175
     0
176
   256
177
   256
178
     2
  0
DIMSTYLE
  2
AM_ISO$6
 70
     0
  3

  4
"
  5
OPEN30
  6

  7

 40
1.0
 41
2.5
 42
1.0
 43
10.0
 44
1.0
 45
0.0
 46
0.0
 47
0.1
 48
0.1
140
3.5
141
0.0
142
0.0
143
0.0393701
144
1.0
145
0.0
146
0.71
147
1.5
 71
     0
 72
     0
 73
     0
 74
     0
 75
     0
 76
     0
 77
     0
 78
     8
170
     0
171
     2
172
     1
173
     0
174
     0
175
     0
176
   256
177
   256
178
     2
  0
DIMSTYLE
  2
AM_ISO$7
 70
     0
  3

  4
"
  5
OPEN30
  6

  7

 40
1.0
 41
2.5
 42
1.0
 43
10.0
 44
1.0
 45
0.0
 46
0.0
 47
0.1
 48
0.1
140
5.0
141
0.0
142
0.0
143
0.0393701
144
1.0
145
0.0
146
0.71
147
1.5
 71
     0
 72
     0
 73
     0
 74
     0
 75
     0
 76
     0
 77
     1
 78
     8
170
     0
171
     2
172
     1
173
     0
174
     0
175
     0
176
   256
177
   256
178
     2
  0
DIMSTYLE
  2
AM_ISO$SF
 70
     0
  3

  4
"
  5
OPEN30
  6

  7

 40
1.0
 41
2.5
 42
1.0
 43
10.0
 44
1.0
 45
0.0
 46
0.0
 47
0.1
 48
0.1
140
3.5
141
0.0
142
0.0
143
0.0393701
144
1.0
145
0.0
146
0.71
147
1.5
 71
     0
 72
     0
 73
     0
 74
     0
 75
     1
 76
     1
 77
     1
 78
     8
170
     0
171
     2
172
     1
173
     0
174
     0
175
     0
176
   256
177
   256
178
     2
  0
DIMSTYLE
  2
AM_ISO$SH
 70
     0
  3

  4
"
  5

  6
GENAXEH
  7
OPEN30
 40
1.0
 41
2.5
 42
1.0
 43
10.0
 44
1.0
 45
0.0
 46
0.0
 47
0.1
 48
0.1
140
3.5
141
0.0
142
0.0
143
0.0393701
144
2.0
145
0.0
146
0.71
147
1.5
 71
     0
 72
     0
 73
     0
 74
     0
 75
     1
 76
     1
 77
     1
 78
     8
170
     0
171
     2
172
     1
173
     1
174
     0
175
     0
176
   256
177
   256
178
     2
  0
DIMSTYLE
  2
GEN-ISO
 70
     0
  3

  4
"
  5

  6

  7

 40
1.0
 41
2.5
 42
1.0
 43
10.0
 44
1.0
 45
0.0
 46
0.0
 47
0.1
 48
0.1
140
3.5
141
0.0
142
0.0
143
0.0393701
144
1.0
145
0.0
146
0.71
147
1.5
 71
     0
 72
     0
 73
     0
 74
     0
 75
     0
 76
     0
 77
     1
 78
     8
170
     0
171
     2
172
     1
173
     0
174
     0
175
     0
176
   256
177
   256
178
     2
  0
DIMSTYLE
  2
GEN-ISO$3
 70
     0
  3

  4
"
  5

  6

  7

 40
1.0
 41
2.5
 42
1.0
 43
10.0
 44
1.0
 45
0.0
 46
0.0
 47
0.1
 48
0.1
140
3.5
141
0.0
142
0.0
143
0.0393701
144
1.0
145
0.0
146
0.71
147
1.5
 71
     0
 72
     0
 73
     0
 74
     1
 75
     0
 76
     0
 77
     1
 78
     8
170
     0
171
     2
172
     0
173
     0
174
     0
175
     0
176
   256
177
   256
178
     2
  0
DIMSTYLE
  2
GEN-ISO$4
 70
     0
  3

  4
"
  5

  6

  7

 40
1.0
 41
2.5
 42
1.0
 43
10.0
 44
1.0
 45
0.0
 46
0.0
 47
0.1
 48
0.1
140
3.5
141
0.0
142
0.0
143
0.0393701
144
1.0
145
0.0
146
0.71
147
1.5
 71
     0
 72
     0
 73
     0
 74
     1
 75
     0
 76
     0
 77
     1
 78
     8
170
     0
171
     2
172
     0
173
     0
174
     0
175
     0
176
   256
177
   256
178
     2
  0
DIMSTYLE
  2
GEN-ISO$6
 70
     0
  3

  4
"
  5

  6

  7

 40
1.0
 41
2.5
 42
1.0
 43
10.0
 44
1.0
 45
0.0
 46
0.0
 47
0.1
 48
0.1
140
3.5
141
0.0
142
0.0
143
0.0393701
144
1.0
145
0.0
146
0.71
147
1.5
 71
     0
 72
     0
 73
     0
 74
     0
 75
     0
 76
     0
 77
     0
 78
     8
170
     0
171
     2
172
     0
173
     0
174
     0
175
     0
176
   256
177
   256
178
     2
  0
DIMSTYLE
  2
GEN-ISO-POS
 70
     0
  3

  4
"
  5

  6

  7

 40
1.0
 41
2.5
 42
1.0
 43
10.0
 44
1.0
 45
0.0
 46
0.0
 47
0.1
 48
0.1
140
5.0
141
0.0
142
0.0
143
0.0393701
144
1.0
145
0.0
146
0.71
147
1.5
 71
     0
 72
     0
 73
     0
 74
     0
 75
     0
 76
     0
 77
     0
 78
     8
170
     0
171
     2
172
     0
173
     0
174
     0
175
     0
176
   256
177
   256
178
     2
  0
DIMSTYLE
  2
GEN-ISO-AXE-F
 70
     0
  3

  4
"
  5

  6

  7

 40
1.0
 41
2.5
 42
1.0
 43
10.0
 44
1.0
 45
0.0
 46
0.0
 47
0.1
 48
0.1
140
3.5
141
0.0
142
0.0
143
0.0393701
144
1.0
145
0.0
146
0.71
147
1.5
 71
     0
 72
     0
 73
     0
 74
     0
 75
     1
 76
     1
 77
     1
 78
     8
170
     0
171
     2
172
     1
173
     0
174
     0
175
     0
176
   256
177
   256
178
     2
  0
DIMSTYLE
  2
GEN-ISO-AXE-H
 70
     0
  3

  4
"
  5

  6

  7

 40
1.0
 41
2.5
 42
1.0
 43
10.0
 44
1.0
 45
0.0
 46
0.0
 47
0.1
 48
0.1
140
3.5
141
0.0
142
0.0
143
0.0393701
144
2.0
145
0.0
146
0.71
147
1.5
 71
     0
 72
     0
 73
     0
 74
     0
 75
     1
 76
     1
 77
     1
 78
     8
170
     0
171
     2
172
     1
173
     1
174
     0
175
     0
176
   256
177
   256
178
     2
  0
DIMSTYLE
  2
AM_ANSI
 70
     0
  3

  4
mm
  5

  6

  7

 40
1.0
 41
0.1
 42
0.05
 43
0.5
 44
0.1
 45
0.0
 46
0.0
 47
0.1
 48
0.1
140
0.12
141
0.0
142
0.0
143
25.399999999999999
144
1.0
145
0.0
146
0.71
147
0.06
 71
     0
 72
     0
 73
     1
 74
     1
 75
     0
 76
     0
 77
     0
 78
     7
170
     0
171
     2
172
     0
173
     0
174
     0
175
     0
176
   256
177
   256
178
     2
  0
DIMSTYLE
  2
AM_ISO$0
 70
     0
  3

  4
"
  5
OPEN30
  6

  7

 40
1.0
 41
2.5
 42
1.0
 43
10.0
 44
1.0
 45
0.0
 46
0.0
 47
0.1
 48
0.1
140
3.5
141
0.0
142
0.0
143
0.0393701
144
1.0
145
0.0
146
0.71
147
1.5
 71
     0
 72
     0
 73
     0
 74
     0
 75
     0
 76
     0
 77
     1
 78
     8
170
     0
171
     2
172
     1
173
     0
174
     0
175
     0
176
     3
177
     3
178
     2
  0
ENDTAB
  0
ENDSEC
  0
SECTION
  2
BLOCKS
  0
BLOCK
  8
0
  2
$MODEL_SPACE
 70
     0
 10
0.0
 20
0.0
 30
0.0
  3
$MODEL_SPACE
  1

  0
ENDBLK
  5
21
  8
0
  0
BLOCK
 67
     1
  8
0
  2
$PAPER_SPACE
 70
     0
 10
0.0
 20
0.0
 30
0.0
  3
$PAPER_SPACE
  1

  0
ENDBLK
  5
25
 67
     1
  8
0
  0
BLOCK
  8
0
  2
GENAXEH
 70
     0
 10
0.0
 20
0.0
 30
0.0
  3
GENAXEH
  1

  0
LINE
  5
E9C
  8
0
 10
-1.0
 20
0.0
 30
0.0
 11
1.0
 21
0.0
 31
0.0
  0
ENDBLK
  5
E9D
  8
0
  0
BLOCK
  8
0
  2
_OPEN30
 70
     0
 10
0.0
 20
0.0
 30
0.0
  3
_OPEN30
  1

  0
LINE
  5
E90
  8
0
  6
BYBLOCK
 62
     0
 10
-1.0
 20
0.26794919
 30
0.0
 11
0.0
 21
0.0
 31
0.0
  0
LINE
  5
E91
  8
0
  6
BYBLOCK
 62
     0
 10
0.0
 20
0.0
 30
0.0
 11
-1.0
 21
-0.26794919
 31
0.0
  0
LINE
  5
E92
  8
0
  6
BYBLOCK
 62
     0
 10
0.0
 20
0.0
 30
0.0
 11
-1.0
 21
0.0
 31
0.0
  0
ENDBLK
  5
E93
  8
0
  0
BLOCK
  8
0
  2
TAKACHI-A3
 70
     0
 10
0.0
 20
0.0
 30
0.0
  3
TAKACHI-A3
  1

  0
POLYLINE
  5
5FB
  8
0
 66
     1
 10
0.0
 20
0.0
 30
0.0
 70
     1
1001
GENIUS_GENREC_14
1002
{
1000
PYDIR
1011
10.000000000000011
1021
0.0
1031
-4.7510358937976968E+279
1021
280.0
1031
0.0
1002
}
1002
{
1000
PXDIR
1011
410.0
1021
0.0
1031
-4.7510358937976968E+279
1021
0.0
1031
0.0
1002
}
1002
{
1000
PORI
1011
10.0
1021
0.0
1031
-4.7510358937976968E+279
1021
0.0
1031
0.0
1002
}
1002
{
1000
PINS
1011
210.0
1021
0.0
1031
-4.7510358937976968E+279
1021
139.99999999999989
1031
0.0
1002
}
1002
{
1000
HVAL
1000
280
1002
}
1002
{
1000
H
1070
     2
1002
}
1002
{
1000
WVAL
1000
400
1002
}
1002
{
1000
W
1070
     2
1002
}
1002
{
1000
C
1070
     4
1002
}
1001
GENIUS_GENODEF_13
1002
{
1000
HIER
1070
     0
1002
}
1002
{
1000
MANEDIT
1070
     0
1002
}
1002
{
1000
NOSEL
1070
     0
1002
}
1002
{
1000
BEHIND
1070
     0
1002
}
1002
{
1000
REACTOR
1002
}
1001
GENIUS_GENOBJ-N-REC_13
1002
{
1000
OWNER
1000
GEN
1002
}
  0
VERTEX
  5
F12
  8
0
 10
10.0
 20
0.0
 30
0.0
  0
VERTEX
  5
F13
  8
0
 10
410.0
 20
0.0
 30
0.0
  0
VERTEX
  5
F14
  8
0
 10
410.0
 20
280.0
 30
0.0
  0
VERTEX
  5
F15
  8
0
 10
10.00000000000003
 20
280.0
 30
0.0
  0
SEQEND
  5
F16
  8
0
  0
TEXT
  5
5FC
  8
0
 10
15.00000000000003
 20
50.0
 30
0.0
 40
2.5
  1
!GENTITLE-LL
  0
TEXT
  5
5FD
  8
0
 10
410.0
 20
0.0
 30
0.0
 40
2.5
  1
!GENTITLE-INSERT
  0
TEXT
  5
5FE
  8
0
 10
405.0
 20
275.0
 30
0.0
 40
2.5
  1
!GENTITLE-RU
  0
TEXT
  5
5FF
  8
0
 10
410.0
 20
280.0
 30
0.0
 40
2.5
  1
!GENTITLE-MAX
  0
LINE
  5
600
  8
0
 10
366.0
 20
275.0
 30
0.0
 11
410.0
 21
275.0
 31
0.0
  0
INSERT
  5
601
  8
TK2
  2
*U25
 10
0.0
 20
0.0
 30
0.0
  0
LINE
  5
602
  8
0
 10
366.0
 20
280.0
 30
0.0
 11
366.0
 21
275.0
 31
0.0
  0
ENDBLK
  5
605
  8
0
  0
BLOCK
  8
0
  2
TAKACHI-TITLE
 70
     2
 10
0.0
 20
0.0
 30
0.0
  3
TAKACHI-TITLE
  1

  0
LINE
  5
614
  8
RAHM2
 10
-195.0
 20
30.000000000000028
 30
0.0
 11
-94.0
 21
30.000000000000028
 31
0.0
  0
LINE
  5
615
  8
RAHM2
 10
-195.0
 20
35.000000000000028
 30
0.0
 11
-94.0
 21
35.000000000000028
 31
0.0
  0
LINE
  5
616
  8
RAHM2
 10
-195.0
 20
40.000000000000021
 30
0.0
 11
-94.0
 21
40.000000000000021
 31
0.0
  0
LINE
  5
617
  8
RAHM2
 10
-195.0
 20
45.000000000000021
 30
0.0
 11
-94.0
 21
45.000000000000021
 31
0.0
  0
LINE
  5
618
  8
0
 10
-195.0
 20
7.0
 30
0.0
 11
-94.0
 21
7.0
 31
0.0
  0
LINE
  5
619
  8
0
 10
-195.0
 20
19.999999999999972
 30
0.0
 11
-94.0
 21
19.999999999999972
 31
0.0
  0
ATTDEF
  5
61A
  8
0
 10
-183.24385271456069
 20
8.9508505244280823
 30
0.0
 40
2.5
  1

 11
-183.24385271456069
 21
8.6175171910947483
 31
0.0
  3
サブタイトル
  2
GEN-TITLE-DES2
 70
     0
 74
     1
  0
ATTDEF
  5
61B
  8
0
 10
-183.24385271456069
 20
2.0175171910947478
 30
0.0
 40
3.0
  1

 11
-183.24385271456069
 21
1.6175171910947479
 31
0.0
  3
図番
  2
GEN-TITLE-NR
 70
     0
 74
     1
  0
INSERT
  5
61C
  8
TK2
  2
*U26
 10
0.0
 20
0.0
 30
0.0
  0
ATTDEF
  5
61D
  8
0
 10
-183.24385271456069
 20
14.40728619501834
 30
0.0
 40
4.0
  1

 11
-183.24385271456069
 21
13.873952861685011
 31
0.0
  3
品名
  2
GEN-TITLE-DES1
 70
     0
 74
     1
  0
LINE
  5
61E
  8
RAHM2
 10
-187.57512886940361
 20
30.400000000000041
 30
0.0
 11
-190.0
 21
34.60000000000003
 31
0.0
  0
LINE
  5
61F
  8
RAHM2
 10
-190.0
 20
34.60000000000003
 30
0.0
 11
-192.42487113059639
 21
30.400000000000041
 31
0.0
  0
LINE
  5
620
  8
RAHM2
 10
-185.0
 20
50.000000000000028
 30
0.0
 11
-185.0
 21
19.99999999999994
 31
0.0
  0
LINE
  5
621
  8
RAHM2
 10
-192.42487113059639
 20
30.400000000000041
 30
0.0
 11
-187.57512886940361
 21
30.400000000000041
 31
0.0
  0
INSERT
  5
622
  8
TK2
  2
*U27
 10
0.0
 20
0.0
 30
0.0
  0
INSERT
  5
623
  8
TK2
  2
*U28
 10
0.0
 20
0.0
 30
0.0
  0
LINE
  5
624
  8
RAHM2
 10
-192.42487113059639
 20
45.400000000000027
 30
0.0
 11
-187.57512886940361
 21
45.400000000000027
 31
0.0
  0
LINE
  5
625
  8
RAHM2
 10
-187.57512886940361
 20
45.400000000000027
 30
0.0
 11
-190.0
 21
49.600000000000023
 31
0.0
  0
LINE
  5
626
  8
RAHM2
 10
-192.42487113059639
 20
40.400000000000027
 30
0.0
 11
-187.57512886940361
 21
40.400000000000027
 31
0.0
  0
LINE
  5
627
  8
RAHM2
 10
-187.57512886940361
 20
40.400000000000027
 30
0.0
 11
-190.0
 21
44.600000000000023
 31
0.0
  0
LINE
  5
628
  8
RAHM2
 10
-192.42487113059639
 20
35.400000000000041
 30
0.0
 11
-187.57512886940361
 21
35.400000000000041
 31
0.0
  0
LINE
  5
629
  8
RAHM2
 10
-187.57512886940361
 20
35.400000000000041
 30
0.0
 11
-190.0
 21
39.600000000000023
 31
0.0
  0
LINE
  5
62A
  8
RAHM2
 10
-190.0
 20
39.600000000000023
 30
0.0
 11
-192.42487113059639
 21
35.400000000000041
 31
0.0
  0
LINE
  5
62B
  8
RAHM2
 10
-190.0
 20
44.600000000000023
 30
0.0
 11
-192.42487113059639
 21
40.400000000000027
 31
0.0
  0
LINE
  5
62C
  8
RAHM2
 10
-190.0
 20
49.600000000000023
 30
0.0
 11
-192.42487113059639
 21
45.400000000000027
 31
0.0
  0
LINE
  5
62D
  8
RAHM2
 10
-129.0
 20
50.000000000000028
 30
0.0
 11
-129.0
 21
19.99999999999994
 31
0.0
  0
INSERT
  5
62E
  8
TK2
  2
*U29
 10
0.0
 20
0.0
 30
0.0
  0
LINE
  5
62F
  8
0
 10
-34.0
 20
50.0
 30
0.0
 11
-34.0
 21
0.0
 31
0.0
  0
LINE
  5
630
  8
0
 10
-94.0
 20
50.0
 30
0.0
 11
-94.0
 21
0.0
 31
0.0
  0
INSERT
  5
631
  8
TK2
  2
*U30
 10
0.0
 20
0.0
 30
0.0
  0
LINE
  5
632
  8
0
 10
-94.0
 20
10.0
 30
0.0
 11
-34.0
 21
10.0
 31
0.0
  0
ATTDEF
  5
633
  8
0
 10
-58.014051197997453
 20
39.255005561783491
 30
0.0
 40
3.0
  1

 72
     2
 11
-58.014051197997453
 21
39.255005561783491
 31
0.0
  3
尺度
  2
GEN-TITLE-SCA
 70
     0
  0
ATTDEF
  5
634
  8
0
 10
-77.002849666490064
 20
31.02180787943475
 30
0.0
 40
3.0
  1

 11
-77.002849666490064
 21
30.621807879434751
 31
0.0
  3
材質
  2
GEN-TITLE-MAT1
 70
     0
 74
     1
  0
ATTDEF
  5
635
  8
0
 10
-77.002849666490064
 20
21.02180787943475
 30
0.0
 40
3.0
  1

 11
-77.002849666490064
 21
20.621807879434751
 31
0.0
  3
表面処理
  2
GEN-TITLE-MAT2
 70
     0
 74
     1
  0
ATTDEF
  5
636
  8
0
 10
-77.002849666490064
 20
12.01751719109475
 30
0.0
 40
3.0
  1

 11
-77.002849666490064
 21
11.61751719109475
 31
0.0
  3
日付
  2
GEN-TITLE-DAT
 70
     0
 74
     1
  0
LINE
  5
637
  8
0
 10
-94.0
 20
37.5
 30
0.0
 11
-34.0
 21
37.5
 31
0.0
  0
LINE
  5
638
  8
0
 10
-94.0
 20
27.5
 30
0.0
 11
-34.0
 21
27.5
 31
0.0
  0
LINE
  5
639
  8
0
 10
-94.0
 20
17.5
 30
0.0
 11
-34.0
 21
17.5
 31
0.0
  0
LINE
  5
63A
  8
RAHM2
 10
-109.0
 20
50.000000000000028
 30
0.0
 11
-109.0
 21
19.99999999999994
 31
0.0
  0
INSERT
  5
63B
  8
TK2
  2
*U31
 10
0.0
 20
0.0
 30
0.0
  0
INSERT
  5
63C
  8
TK2
  2
*U32
 10
0.0
 20
0.0
 30
0.0
  0
INSERT
  5
63D
  8
TK2
  2
*U33
 10
0.0
 20
0.0
 30
0.0
  0
INSERT
  5
63E
  8
TK2
  2
*U34
 10
0.0
 20
0.0
 30
0.0
  0
INSERT
  5
63F
  8
TK2
  2
*U35
 10
0.0
 20
0.0
 30
0.0
  0
INSERT
  5
640
  8
TK2
  2
*U36
 10
0.0
 20
0.0
 30
0.0
  0
INSERT
  5
641
  8
TK2
  2
*U37
 10
0.0
 20
0.0
 30
0.0
  0
INSERT
  5
642
  8
TK2
  2
*U38
 10
0.0
 20
0.0
 30
0.0
  0
LINE
  5
643
  8
7A
 10
-89.0
 20
43.75
 30
0.0
 11
-75.218691599714703
 21
43.75
 31
0.0
1001
GENIUS_GENOREF_13
1005
656
  0
LINE
  5
644
  8
0
 10
-84.0
 20
45.75
 30
0.0
 11
-76.0
 21
46.749999999999993
 31
0.0
  0
LINE
  5
645
  8
0
 10
-76.0
 20
40.75
 30
0.0
 11
-84.0
 21
41.749999999999993
 31
0.0
  0
LINE
  5
646
  8
7A
 10
-89.0
 20
43.75
 30
0.0
 11
-89.0
 21
47.324786644731482
 31
0.0
1001
GENIUS_GENOREF_13
1005
656
  0
CIRCLE
  5
647
  8
0
 10
-89.0
 20
43.75
 30
0.0
 40
2.0
  0
CIRCLE
  5
648
  8
0
 10
-89.0
 20
43.75
 30
0.0
 40
3.0
  0
LINE
  5
649
  8
0
 10
-84.0
 20
41.749999999999993
 30
0.0
 11
-84.0
 21
45.75
 31
0.0
  0
INSERT
  5
64A
  8
TK2
  2
*U39
 10
0.0
 20
0.0
 30
0.0
  0
LINE
  5
64B
  8
7A
 10
-89.0
 20
43.75
 30
0.0
 11
-92.723037371251166
 21
43.75
 31
0.0
1001
GENIUS_GENOREF_13
1005
656
  0
LINE
  5
64C
  8
7A
 10
-89.0
 20
43.75
 30
0.0
 11
-89.0
 21
40.039917242284787
 31
0.0
1001
GENIUS_GENOREF_13
1005
656
  0
LINE
  5
64D
  8
0
 10
-76.0
 20
46.749999999999993
 30
0.0
 11
-76.0
 21
40.75
 31
0.0
  0
LINE
  5
64E
  8
0
 10
-74.0
 20
50.0
 30
0.0
 11
-74.0
 21
37.5
 31
0.0
  0
INSERT
  5
64F
  8
TK2
  2
*U40
 10
0.0
 20
0.0
 30
0.0
  0
ATTDEF
  5
650
  8
0
 10
-37.76317379391503
 20
39.255005561783491
 30
0.0
 40
3.0
  1

 72
     2
 11
-37.76317379391503
 21
39.255005561783491
 31
0.0
  3
数量
  2
GEN-TITLE-QTY
 70
     0
  0
LINE
  5
651
  8
0
 10
-34.0
 20
25.0
 30
0.0
 11
0.0
 21
25.0
 31
0.0
  0
LINE
  5
652
  8
0
 10
-54.0
 20
50.0
 30
0.0
 11
-54.0
 21
37.5
 31
0.0
  0
INSERT
  5
653
  8
TK2
  2
*U41
 10
0.0
 20
0.0
 30
0.0
  0
INSERT
  5
654
  8
TK2
  2
*U42
 10
0.0
 20
0.0
 30
0.0
  0
INSERT
  5
655
  8
TK2
  2
*U43
 10
0.0
 20
0.0
 30
0.0
  0
POINT
  5
656
  8
0
 10
-320.5355579819676
 20
-138.11048412682541
 30
0.0
1001
GENIUS_GENODEF_13
1002
{
1000
HIER
1070
    10
1002
}
1002
{
1000
MANEDIT
1070
     0
1002
}
1002
{
1000
NOSEL
1070
     0
1002
}
1002
{
1000
BEHIND
1070
     0
1002
}
1002
{
1000
REACTOR
1002
}
1001
GENIUS_GENOBJ-N-CRS_13
1002
{
1000
OWNER
1000
GEN
1002
}
1001
GENIUS_GENOENT_13
1002
{
1000
MYREF
1005
656
1002
}
1002
{
1000
GRP
1005
0
1002
}
1001
GENIUS_GENOLIS_13
1002
{
1000
ENT
1005
64C
1005
64B
1005
646
1005
643
1002
}
  0
LINE
  5
657
  8
RAHM2
 10
-190.0
 20
29.600000000000019
 30
0.0
 11
-192.42487113059639
 21
25.400000000000041
 31
0.0
  0
LINE
  5
658
  8
RAHM2
 10
-187.57512886940361
 20
25.400000000000041
 30
0.0
 11
-190.0
 21
29.600000000000019
 31
0.0
  0
LINE
  5
659
  8
RAHM2
 10
-192.42487113059639
 20
25.400000000000041
 30
0.0
 11
-187.57512886940361
 21
25.400000000000041
 31
0.0
  0
LINE
  5
65A
  8
RAHM2
 10
-195.0
 20
25.000000000000028
 30
0.0
 11
-94.0
 21
25.000000000000028
 31
0.0
  0
INSERT
  5
65B
  8
TK2
  2
*U44
 10
0.0
 20
0.0
 30
0.0
  0
TEXT
  5
65C
  8
RAHM2
 10
-190.8155863565801
 20
25.98333333333337
 30
0.0
 40
2.5
  1
1
 72
     1
 11
-190.19058635658021
 21
25.650000000000031
 31
0.0
 73
     1
  0
TEXT
  5
65D
  8
RAHM2
 10
-190.9183316929134
 20
30.98333333333337
 30
0.0
 40
2.5
  1
2
 72
     1
 11
-190.0
 21
30.650000000000031
 31
0.0
 73
     1
  0
TEXT
  5
65E
  8
RAHM2
 10
-190.92677669529661
 20
35.983333333333341
 30
0.0
 40
2.5
  1
3
 72
     1
 11
-190.0
 21
35.650000000000013
 31
0.0
 73
     1
  0
TEXT
  5
65F
  8
RAHM2
 10
-191.0
 20
40.98333333333337
 30
0.0
 40
2.5
  1
4
 72
     1
 11
-190.0
 21
40.650000000000027
 31
0.0
 73
     1
  0
TEXT
  5
660
  8
RAHM2
 10
-190.92677669529661
 20
45.98333333333337
 30
0.0
 40
2.5
  1
5
 72
     1
 11
-190.0
 21
45.650000000000027
 31
0.0
 73
     1
  0
LINE
  5
661
  8
0
 10
-17.0
 20
50.0
 30
0.0
 11
-17.0
 21
0.0
 31
0.0
  0
LINE
  5
662
  8
0
 10
-195.0
 20
0.0
 30
0.0
 11
0.0
 21
0.0
 31
0.0
1001
GENIUS_GENREC_14
1002
{
1000
PYDIR
1011
-184.0
1021
0.0
1031
-4.7510358937976968E+279
1021
50.0
1031
0.0
1002
}
1002
{
1000
PXDIR
1011
0.0
1021
0.0
1031
-4.7510358937976968E+279
1021
0.0
1031
0.0
1002
}
1002
{
1000
PORI
1011
-184.0
1021
0.0
1031
-4.7510358937976968E+279
1021
0.0
1031
0.0
1002
}
1002
{
1000
PINS
1011
-100.5
1021
0.0
1031
-4.7510358937976968E+279
1021
25.0
1031
0.0
1002
}
1002
{
1000
HVAL
1000
50
1002
}
1002
{
1000
H
1070
     2
1002
}
1002
{
1000
WVAL
1000
167
1002
}
1002
{
1000
W
1070
     2
1002
}
1002
{
1000
C
1070
     4
1002
}
1001
GENIUS_GENODEF_13
1002
{
1000
HIER
1070
     0
1002
}
1002
{
1000
MANEDIT
1070
     0
1002
}
1002
{
1000
NOSEL
1070
     0
1002
}
1002
{
1000
BEHIND
1070
     0
1002
}
1002
{
1000
REACTOR
1002
}
1001
GENIUS_GENOBJ-N-REC_13
1002
{
1000
OWNER
1000
GEN
1002
}
  0
LINE
  5
663
  8
0
 10
0.0
 20
0.0
 30
0.0
 11
0.0
 21
50.0
 31
0.0
1001
GENIUS_GENREC_14
1002
{
1000
PYDIR
1011
-184.0
1021
0.0
1031
-4.7510358937976968E+279
1021
50.0
1031
0.0
1002
}
1002
{
1000
PXDIR
1011
0.0
1021
0.0
1031
-4.7510358937976968E+279
1021
0.0
1031
0.0
1002
}
1002
{
1000
PORI
1011
-184.0
1021
0.0
1031
-4.7510358937976968E+279
1021
0.0
1031
0.0
1002
}
1002
{
1000
PINS
1011
-100.5
1021
0.0
1031
-4.7510358937976968E+279
1021
25.0
1031
0.0
1002
}
1002
{
1000
HVAL
1000
50
1002
}
1002
{
1000
H
1070
     2
1002
}
1002
{
1000
WVAL
1000
167
1002
}
1002
{
1000
W
1070
     2
1002
}
1002
{
1000
C
1070
     4
1002
}
1001
GENIUS_GENODEF_13
1002
{
1000
HIER
1070
     0
1002
}
1002
{
1000
MANEDIT
1070
     0
1002
}
1002
{
1000
NOSEL
1070
     0
1002
}
1002
{
1000
BEHIND
1070
     0
1002
}
1002
{
1000
REACTOR
1002
}
1001
GENIUS_GENOBJ-N-REC_13
1002
{
1000
OWNER
1000
GEN
1002
}
  0
LINE
  5
664
  8
0
 10
0.0
 20
50.0
 30
0.0
 11
-195.0
 21
50.000000000000028
 31
0.0
1001
GENIUS_GENREC_14
1002
{
1000
PYDIR
1011
-184.0
1021
0.0
1031
-4.7510358937976968E+279
1021
50.0
1031
0.0
1002
}
1002
{
1000
PXDIR
1011
0.0
1021
0.0
1031
-4.7510358937976968E+279
1021
0.0
1031
0.0
1002
}
1002
{
1000
PORI
1011
-184.0
1021
0.0
1031
-4.7510358937976968E+279
1021
0.0
1031
0.0
1002
}
1002
{
1000
PINS
1011
-100.5
1021
0.0
1031
-4.7510358937976968E+279
1021
25.0
1031
0.0
1002
}
1002
{
1000
HVAL
1000
50
1002
}
1002
{
1000
H
1070
     2
1002
}
1002
{
1000
WVAL
1000
167
1002
}
1002
{
1000
W
1070
     2
1002
}
1002
{
1000
C
1070
     4
1002
}
1001
GENIUS_GENODEF_13
1002
{
1000
HIER
1070
     0
1002
}
1002
{
1000
MANEDIT
1070
     0
1002
}
1002
{
1000
NOSEL
1070
     0
1002
}
1002
{
1000
BEHIND
1070
     0
1002
}
1002
{
1000
REACTOR
1002
}
1001
GENIUS_GENOBJ-N-REC_13
1002
{
1000
OWNER
1000
GEN
1002
}
  0
LINE
  5
665
  8
0
 10
-195.0
 20
50.000000000000028
 30
0.0
 11
-195.0
 21
0.0
 31
0.0
1001
GENIUS_GENREC_14
1002
{
1000
PYDIR
1011
-195.0
1021
0.0
1031
-4.7510358937976968E+279
1021
50.0
1031
0.0
1002
}
1002
{
1000
PXDIR
1011
-11.0
1021
0.0
1031
-4.7510358937976968E+279
1021
0.0
1031
0.0
1002
}
1002
{
1000
PORI
1011
-195.0
1021
0.0
1031
-4.7510358937976968E+279
1021
0.0
1031
0.0
1002
}
1002
{
1000
PINS
1011
-111.5
1021
0.0
1031
-4.7510358937976968E+279
1021
25.0
1031
0.0
1002
}
1002
{
1000
HVAL
1000
50
1002
}
1002
{
1000
H
1070
     2
1002
}
1002
{
1000
WVAL
1000
167
1002
}
1002
{
1000
W
1070
     2
1002
}
1002
{
1000
C
1070
     4
1002
}
1001
GENIUS_GENODEF_13
1002
{
1000
HIER
1070
     0
1002
}
1002
{
1000
MANEDIT
1070
     0
1002
}
1002
{
1000
NOSEL
1070
     0
1002
}
1002
{
1000
BEHIND
1070
     0
1002
}
1002
{
1000
REACTOR
1002
}
1001
GENIUS_GENOBJ-N-REC_13
1002
{
1000
OWNER
1000
GEN
1002
}
  0
INSERT
  5
666
  8
TK2
  2
*U45
 10
0.0
 20
0.0
 30
0.0
  0
INSERT
  5
667
  8
TK2
  2
*U46
 10
0.0
 20
0.0
 30
0.0
  0
ENDBLK
  5
66A
  8
0
  0
BLOCK
  8
0
  2
TK-A3
 70
     0
 10
0.0
 20
0.0
 30
0.0
  3
TK-A3
  1

  0
POLYLINE
  5
6BB
  8
0
 66
     1
 10
0.0
 20
0.0
 30
0.0
 70
     1
1001
GENIUS_GENREC_14
1002
{
1000
PYDIR
1011
0.0000000000000178
1021
0.0
1031
-4.7510358937976968E+279
1021
280.0
1031
0.0
1002
}
1002
{
1000
PXDIR
1011
403.0
1021
0.0
1031
-4.7510358937976968E+279
1021
0.0
1031
0.0
1002
}
1002
{
1000
PORI
1011
0.0
1021
0.0
1031
-4.7510358937976968E+279
1021
0.0
1031
0.0
1002
}
1002
{
1000
PINS
1011
0.0
1021
0.0
1031
-4.7510358937976968E+279
1021
0.0
1031
0.0
1002
}
1002
{
1000
PINS2
1011
403.0
1021
0.0
1031
-4.7510358937976968E+279
1021
280.0
1031
0.0
1002
}
1002
{
1000
C
1070
     1
1002
}
1001
GENIUS_GENODEF_13
1002
{
1000
HIER
1070
     0
1002
}
1002
{
1000
MANEDIT
1070
     0
1002
}
1002
{
1000
NOSEL
1070
     0
1002
}
1002
{
1000
BEHIND
1070
     0
1002
}
1002
{
1000
OTHER
1070
     0
1002
}
1002
{
1000
REACTOR
1002
}
1001
GENIUS_GENOBJ-N-REC_13
1002
{
1000
OWNER
1000
GEN
1002
}
  0
VERTEX
  5
F76
  8
0
 10
0.0
 20
0.0
 30
0.0
  0
VERTEX
  5
F77
  8
0
 10
403.0
 20
0.0
 30
0.0
  0
VERTEX
  5
F78
  8
0
 10
403.0
 20
280.0
 30
0.0
  0
VERTEX
  5
F79
  8
0
 10
0.0
 20
280.00000000000011
 30
0.0
  0
SEQEND
  5
F7A
  8
0
  0
TEXT
  5
6BC
  8
0
 10
403.0
 20
280.0
 30
0.0
 40
2.5
  1
!GENTITLE-MAX
  0
TEXT
  5
6BD
  8
0
 10
0.0
 20
0.0
 30
0.0
 40
2.5
  1
!GENTITLE-LL
  0
TEXT
  5
6BE
  8
0
 10
403.0
 20
0.0
 30
0.0
 40
2.5
  1
!GENTITLE-INSERT
  0
LINE
  5
6BF
  8
0
 10
359.0
 20
275.0
 30
0.0
 11
403.0
 21
275.0
 31
0.0
  0
INSERT
  5
6C0
  8
TK2
  2
*U47
 10
0.0
 20
0.0
 30
0.0
  0
LINE
  5
6C1
  8
0
 10
359.0
 20
280.0
 30
0.0
 11
359.0
 21
275.0
 31
0.0
  0
ENDBLK
  5
6C4
  8
0
  0
BLOCK
  8
0
  2
TK-TITLE
 70
     2
 10
0.0
 20
0.0
 30
0.0
  3
TK-TITLE
  1

  0
ATTDEF
  5
6C9
  8
0
 10
-8.0023091895458265
 20
1.705189434395036
 30
0.0
 40
2.5
  1

  3
Rev.
  2
GEN-TITLE-NR2
 70
     0
  0
ATTDEF
  5
6CA
  8
0
 10
-84.142519015853296
 20
12.82790432564377
 30
0.0
 40
3.5
  1

  3
品名
  2
GEN-TITLE-DES1
 70
     0
  0
LINE
  5
6CB
  8
0
 10
0.0
 20
0.0
 30
0.0
 11
0.0
 21
50.0
 31
0.0
1001
GENIUS_GENREC_14
1002
{
1000
PYDIR
1011
-414.0
1021
0.0
1031
-4.7510358937976968E+279
1021
291.0
1031
0.0
1002
}
1002
{
1000
PXDIR
1011
6.0
1021
0.0
1031
-4.7510358937976968E+279
1021
-6.0
1031
0.0
1002
}
1002
{
1000
PORI
1011
-414.0
1021
0.0
1031
-4.7510358937976968E+279
1021
-6.0
1031
0.0
1002
}
1002
{
1000
PINS
1011
-414.0
1021
0.0
1031
-4.7510358937976968E+279
1021
-6.0
1031
0.0
1002
}
1002
{
1000
HVAL
1000
297
1002
}
1002
{
1000
H
1070
     2
1002
}
1002
{
1000
WVAL
1000
420
1002
}
1002
{
1000
W
1070
     2
1002
}
1002
{
1000
C
1070
     1
1002
}
1001
GENIUS_GENODEF_13
1002
{
1000
HIER
1070
     0
1002
}
1002
{
1000
MANEDIT
1070
     0
1002
}
1002
{
1000
NOSEL
1070
     0
1002
}
1002
{
1000
BEHIND
1070
     0
1002
}
1002
{
1000
OTHER
1070
     0
1002
}
1002
{
1000
REACTOR
1002
}
1001
GENIUS_GENOBJ-N-REC_13
1002
{
1000
OWNER
1000
GEN
1002
}
  0
ATTDEF
  5
6CC
  8
0
 10
-84.0
 20
9.1499999999999488
 30
0.0
 40
2.5
  1

  3
サブタイトル
  2
GEN-TITLE-DES2
 70
     0
  0
ATTDEF
  5
6CD
  8
0
 10
-84.0
 20
1.9999999999999569
 30
0.0
 40
3.0
  1

  3
図番
  2
GEN-TITLE-NR1
 70
     0
  0
LINE
  5
6CE
  8
0
 10
-96.0
 20
50.000000000000007
 30
0.0
 11
-96.0
 21
-0.0000000000000142
 31
0.0
1001
GENIUS_GENREC_14
1002
{
1000
PYDIR
1011
-96.0
1021
0.0
1031
-4.7510358937976968E+279
1021
49.999999999999993
1031
0.0
1002
}
1002
{
1000
PXDIR
1011
88.0
1021
0.0
1031
-4.7510358937976968E+279
1021
-0.0000000000000142
1031
0.0
1002
}
1002
{
1000
PORI
1011
-96.0
1021
0.0
1031
-4.7510358937976968E+279
1021
-0.0000000000000142
1031
0.0
1002
}
1002
{
1000
PINS
1011
-12.5
1021
0.0
1031
-4.7510358937976968E+279
1021
24.999999999999989
1031
0.0
1002
}
1002
{
1000
HVAL
1000
50
1002
}
1002
{
1000
H
1070
     2
1002
}
1002
{
1000
WVAL
1000
167
1002
}
1002
{
1000
W
1070
     2
1002
}
1002
{
1000
C
1070
     4
1002
}
1001
GENIUS_GENODEF_13
1002
{
1000
HIER
1070
     0
1002
}
1002
{
1000
MANEDIT
1070
     0
1002
}
1002
{
1000
NOSEL
1070
     0
1002
}
1002
{
1000
BEHIND
1070
     0
1002
}
1002
{
1000
REACTOR
1002
}
1001
GENIUS_GENOBJ-N-REC_13
1002
{
1000
OWNER
1000
GEN
1002
}
  0
LINE
  5
6CF
  8
0
 10
0.0
 20
50.0
 30
0.0
 11
-193.00000000000011
 21
50.000000000000021
 31
0.0
1001
GENIUS_GENREC_14
1002
{
1000
PYDIR
1011
-184.0
1021
0.0
1031
-4.7510358937976968E+279
1021
50.0
1031
0.0
1002
}
1002
{
1000
PXDIR
1011
0.0
1021
0.0
1031
-4.7510358937976968E+279
1021
0.0
1031
0.0
1002
}
1002
{
1000
PORI
1011
-184.0
1021
0.0
1031
-4.7510358937976968E+279
1021
0.0
1031
0.0
1002
}
1002
{
1000
PINS
1011
-100.5
1021
0.0
1031
-4.7510358937976968E+279
1021
25.0
1031
0.0
1002
}
1002
{
1000
HVAL
1000
50
1002
}
1002
{
1000
H
1070
     2
1002
}
1002
{
1000
WVAL
1000
167
1002
}
1002
{
1000
W
1070
     2
1002
}
1002
{
1000
C
1070
     4
1002
}
1001
GENIUS_GENODEF_13
1002
{
1000
HIER
1070
     0
1002
}
1002
{
1000
MANEDIT
1070
     0
1002
}
1002
{
1000
NOSEL
1070
     0
1002
}
1002
{
1000
BEHIND
1070
     0
1002
}
1002
{
1000
REACTOR
1002
}
1001
GENIUS_GENOBJ-N-REC_13
1002
{
1000
OWNER
1000
GEN
1002
}
  0
LINE
  5
6D0
  8
0
 10
-193.00000000000011
 20
0.0
 30
0.0
 11
0.0
 21
0.0
 31
0.0
1001
GENIUS_GENREC_14
1002
{
1000
PYDIR
1011
-184.0
1021
0.0
1031
-4.7510358937976968E+279
1021
50.0
1031
0.0
1002
}
1002
{
1000
PXDIR
1011
0.0
1021
0.0
1031
-4.7510358937976968E+279
1021
0.0
1031
0.0
1002
}
1002
{
1000
PORI
1011
-184.0
1021
0.0
1031
-4.7510358937976968E+279
1021
0.0
1031
0.0
1002
}
1002
{
1000
PINS
1011
-100.5
1021
0.0
1031
-4.7510358937976968E+279
1021
25.0
1031
0.0
1002
}
1002
{
1000
HVAL
1000
50
1002
}
1002
{
1000
H
1070
     2
1002
}
1002
{
1000
WVAL
1000
167
1002
}
1002
{
1000
W
1070
     2
1002
}
1002
{
1000
C
1070
     4
1002
}
1001
GENIUS_GENODEF_13
1002
{
1000
HIER
1070
     0
1002
}
1002
{
1000
MANEDIT
1070
     0
1002
}
1002
{
1000
NOSEL
1070
     0
1002
}
1002
{
1000
BEHIND
1070
     0
1002
}
1002
{
1000
REACTOR
1002
}
1001
GENIUS_GENOBJ-N-REC_13
1002
{
1000
OWNER
1000
GEN
1002
}
  0
TEXT
  5
6D1
  8
RAHM2
 10
-91.926776695296624
 20
45.983333333333348
 30
0.0
 40
2.5
  1
5
 72
     1
 11
-91.0
 21
45.65000000000002
 31
0.0
 73
     1
  0
TEXT
  5
6D2
  8
RAHM2
 10
-92.0
 20
40.983333333333348
 30
0.0
 40
2.5
  1
4
 72
     1
 11
-91.0
 21
40.65000000000002
 31
0.0
 73
     1
  0
TEXT
  5
6D3
  8
RAHM2
 10
-91.926776695296624
 20
35.983333333333327
 30
0.0
 40
2.5
  1
3
 72
     1
 11
-91.0
 21
35.649999999999991
 31
0.0
 73
     1
  0
TEXT
  5
6D4
  8
RAHM2
 10
-91.918331692913384
 20
30.983333333333348
 30
0.0
 40
2.5
  1
2
 72
     1
 11
-91.0
 21
30.65000000000002
 31
0.0
 73
     1
  0
TEXT
  5
6D5
  8
RAHM2
 10
-91.815586356580184
 20
25.983333333333348
 30
0.0
 40
2.5
  1
1
 72
     1
 11
-91.190586356580184
 21
25.65000000000002
 31
0.0
 73
     1
  0
INSERT
  5
6D6
  8
TK2
  2
*U48
 10
0.0
 20
0.0
 30
0.0
  0
LINE
  5
6D7
  8
RAHM2
 10
-96.0
 20
25.0
 30
0.0
 11
0.0000000000001137
 21
25.000000000000028
 31
0.0
  0
LINE
  5
6D8
  8
RAHM2
 10
-93.424871130596443
 20
25.40000000000002
 30
0.0
 11
-88.575128869403557
 21
25.40000000000002
 31
0.0
  0
LINE
  5
6D9
  8
RAHM2
 10
-88.575128869403557
 20
25.40000000000002
 30
0.0
 11
-91.0
 21
29.600000000000009
 31
0.0
  0
LINE
  5
6DA
  8
RAHM2
 10
-91.0
 20
29.600000000000009
 30
0.0
 11
-93.424871130596443
 21
25.40000000000002
 31
0.0
  0
INSERT
  5
6DB
  8
TK2
  2
*U49
 10
0.0
 20
0.0
 30
0.0
  0
INSERT
  5
6DC
  8
TK2
  2
*U50
 10
0.0
 20
0.0
 30
0.0
  0
INSERT
  5
6DD
  8
TK2
  2
*U51
 10
0.0
 20
0.0
 30
0.0
  0
INSERT
  5
6DE
  8
TK2
  2
*U52
 10
0.0
 20
0.0
 30
0.0
  0
INSERT
  5
6DF
  8
TK2
  2
*U53
 10
0.0
 20
0.0
 30
0.0
  0
INSERT
  5
6E0
  8
TK2
  2
*U54
 10
0.0
 20
0.0
 30
0.0
  0
LINE
  5
6E1
  8
RAHM2
 10
-11.82081941068907
 20
50.000000000000028
 30
0.0
 11
-11.82081941068907
 21
19.99999999999994
 31
0.0
  0
INSERT
  5
6E2
  8
TK2
  2
*U55
 10
0.0
 20
0.0
 30
0.0
  0
LINE
  5
6E3
  8
RAHM2
 10
-31.820819410689069
 20
50.000000000000028
 30
0.0
 11
-31.820819410689179
 21
19.99999999999994
 31
0.0
  0
LINE
  5
6E4
  8
RAHM2
 10
-91.0
 20
49.600000000000001
 30
0.0
 11
-93.424871130596443
 21
45.400000000000013
 31
0.0
  0
LINE
  5
6E5
  8
RAHM2
 10
-91.0
 20
44.600000000000001
 30
0.0
 11
-93.424871130596443
 21
40.400000000000013
 31
0.0
  0
LINE
  5
6E6
  8
RAHM2
 10
-91.0
 20
39.600000000000009
 30
0.0
 11
-93.424871130596443
 21
35.40000000000002
 31
0.0
  0
LINE
  5
6E7
  8
RAHM2
 10
-88.575128869403557
 20
35.40000000000002
 30
0.0
 11
-91.0
 21
39.600000000000009
 31
0.0
  0
LINE
  5
6E8
  8
RAHM2
 10
-93.424871130596443
 20
35.40000000000002
 30
0.0
 11
-88.575128869403557
 21
35.40000000000002
 31
0.0
  0
LINE
  5
6E9
  8
RAHM2
 10
-88.575128869403557
 20
40.400000000000013
 30
0.0
 11
-91.0
 21
44.600000000000001
 31
0.0
  0
LINE
  5
6EA
  8
RAHM2
 10
-93.424871130596443
 20
40.400000000000013
 30
0.0
 11
-88.575128869403557
 21
40.400000000000013
 31
0.0
  0
LINE
  5
6EB
  8
RAHM2
 10
-88.575128869403557
 20
45.400000000000013
 30
0.0
 11
-91.0
 21
49.600000000000001
 31
0.0
  0
LINE
  5
6EC
  8
RAHM2
 10
-93.424871130596443
 20
45.400000000000013
 30
0.0
 11
-88.575128869403557
 21
45.400000000000013
 31
0.0
  0
INSERT
  5
6ED
  8
TK2
  2
*U56
 10
0.0
 20
0.0
 30
0.0
  0
INSERT
  5
6EE
  8
TK2
  2
*U57
 10
0.0
 20
0.0
 30
0.0
  0
LINE
  5
6EF
  8
RAHM2
 10
-93.424871130596443
 20
30.40000000000002
 30
0.0
 11
-88.575128869403557
 21
30.40000000000002
 31
0.0
  0
LINE
  5
6F0
  8
RAHM2
 10
-86.0
 20
50.000000000000007
 30
0.0
 11
-86.0
 21
19.999999999999929
 31
0.0
  0
LINE
  5
6F1
  8
RAHM2
 10
-91.0
 20
34.600000000000009
 30
0.0
 11
-93.424871130596443
 21
30.40000000000002
 31
0.0
  0
LINE
  5
6F2
  8
RAHM2
 10
-88.575128869403557
 20
30.40000000000002
 30
0.0
 11
-91.0
 21
34.600000000000009
 31
0.0
  0
INSERT
  5
6F3
  8
TK2
  2
*U58
 10
0.0
 20
0.0
 30
0.0
  0
LINE
  5
6F4
  8
0
 10
-96.0
 20
19.999999999999972
 30
0.0
 11
0.0000000000001137
 21
19.999999999999972
 31
0.0
  0
LINE
  5
6F5
  8
0
 10
-96.0
 20
7.0
 30
0.0
 11
0.0000000000001137
 21
7.0
 31
0.0
  0
LINE
  5
6F6
  8
RAHM2
 10
-96.0
 20
45.000000000000021
 30
0.0
 11
0.0000000000001137
 21
45.000000000000021
 31
0.0
  0
LINE
  5
6F7
  8
RAHM2
 10
-96.0
 20
39.999999999999929
 30
0.0
 11
0.0000000000001137
 21
40.000000000000021
 31
0.0
  0
LINE
  5
6F8
  8
RAHM2
 10
-96.0
 20
35.000000000000028
 30
0.0
 11
0.0000000000001137
 21
35.000000000000028
 31
0.0
  0
LINE
  5
6F9
  8
RAHM2
 10
-96.0
 20
29.999999999999918
 30
0.0
 11
0.0000000000001137
 21
30.000000000000028
 31
0.0
  0
LINE
  5
6FA
  8
0
 10
-21.175419266257109
 20
0.0
 30
0.0
 11
-21.17541926625734
 21
7.0
 31
0.0
  0
INSERT
  5
6FB
  8
TK2
  2
*U59
 10
0.0
 20
0.0
 30
0.0
  0
INSERT
  5
6FC
  8
TK2
  2
*U60
 10
0.0
 20
0.0
 30
0.0
  0
LINE
  5
6FD
  8
0
 10
-167.0
 20
19.999999999999929
 30
0.0
 11
-96.0
 21
19.999999999999929
 31
0.0
  0
LINE
  5
6FE
  8
0
 10
-113.75
 20
19.999999999999929
 30
0.0
 11
-113.75
 21
-0.0000000000000533
 31
0.0
  0
LINE
  5
6FF
  8
0
 10
-131.50000000000011
 20
19.999999999999929
 30
0.0
 11
-131.50000000000011
 21
-0.0000000000000533
 31
0.0
  0
INSERT
  5
700
  8
TK2
  2
*U61
 10
0.0
 20
0.0
 30
0.0
  0
LINE
  5
701
  8
0
 10
-167.0
 20
49.99999999999995
 30
0.0
 11
-167.0
 21
-0.0000000000000497
 31
0.0
  0
LINE
  5
702
  8
0
 10
-149.25000000000011
 20
19.999999999999929
 30
0.0
 11
-149.25000000000011
 21
-0.0000000000000462
 31
0.0
  0
INSERT
  5
703
  8
TK2
  2
*U62
 10
0.0
 20
0.0
 30
0.0
  0
INSERT
  5
704
  8
TK2
  2
*U63
 10
0.0
 20
0.0
 30
0.0
  0
LINE
  5
705
  8
0
 10
-167.0
 20
29.999999999999918
 30
0.0
 11
-96.0
 21
29.999999999999918
 31
0.0
  0
INSERT
  5
706
  8
TK2
  2
*U64
 10
0.0
 20
0.0
 30
0.0
  0
ATTDEF
  5
707
  8
0
 10
-148.96186758352911
 20
43.299999999999912
 30
0.0
 40
3.0
  1

  3
材質
  2
GEN-TITLE-MAT1
 70
     0
  0
ATTDEF
  5
708
  8
0
 10
-148.96186758352911
 20
33.299999999999912
 30
0.0
 40
3.0
  1

  3
表面処理
  2
GEN-TITLE-MAT2
 70
     0
  0
INSERT
  5
709
  8
TK2
  2
*U65
 10
0.0
 20
0.0
 30
0.0
  0
INSERT
  5
70A
  8
TK2
  2
*U66
 10
0.0
 20
0.0
 30
0.0
  0
LINE
  5
70B
  8
0
 10
-167.0
 20
39.999999999999908
 30
0.0
 11
-96.0
 21
39.999999999999922
 31
0.0
  0
LINE
  5
70C
  8
0
 10
-167.0
 20
24.999999999999972
 30
0.0
 11
-193.00000000000011
 21
24.999999999999972
 31
0.0
  0
LINE
  5
70D
  8
0
 10
-171.71674187457961
 20
46.74999999999995
 30
0.0
 11
-171.71674187457961
 21
40.749999999999943
 31
0.0
  0
LINE
  5
70E
  8
7A
 10
-184.71674187457961
 20
43.74999999999995
 30
0.0
 11
-184.71674187457961
 21
40.03991724228473
 31
0.0
1001
GENIUS_GENOREF_13
1005
720
  0
LINE
  5
70F
  8
7A
 10
-184.71674187457961
 20
43.74999999999995
 30
0.0
 11
-188.43977924583069
 21
43.74999999999995
 31
0.0
1001
GENIUS_GENOREF_13
1005
720
  0
LINE
  5
710
  8
0
 10
-179.71674187457961
 20
41.74999999999995
 30
0.0
 11
-179.71674187457961
 21
45.749999999999943
 31
0.0
  0
CIRCLE
  5
711
  8
0
 10
-184.71674187457961
 20
43.74999999999995
 30
0.0
 40
3.0
  0
CIRCLE
  5
712
  8
0
 10
-184.71674187457961
 20
43.74999999999995
 30
0.0
 40
2.0
  0
LINE
  5
713
  8
7A
 10
-184.71674187457961
 20
43.74999999999995
 30
0.0
 11
-184.71674187457961
 21
47.324786644731439
 31
0.0
1001
GENIUS_GENOREF_13
1005
720
  0
LINE
  5
714
  8
0
 10
-171.71674187457961
 20
40.749999999999943
 30
0.0
 11
-179.71674187457961
 21
41.74999999999995
 31
0.0
  0
LINE
  5
715
  8
0
 10
-179.71674187457961
 20
45.749999999999943
 30
0.0
 11
-171.71674187457961
 21
46.74999999999995
 31
0.0
  0
LINE
  5
716
  8
7A
 10
-184.71674187457961
 20
43.74999999999995
 30
0.0
 11
-170.93543347429431
 21
43.74999999999995
 31
0.0
1001
GENIUS_GENOREF_13
1005
720
  0
LINE
  5
717
  8
0
 10
-193.00000000000011
 20
49.999999999999993
 30
0.0
 11
-193.00000000000011
 21
-0.0000000000000142
 31
0.0
  0
ATTDEF
  5
718
  8
0
 10
-175.6127409126095
 20
16.199999999999939
 30
0.0
 40
3.0
  1

 72
     2
 11
-175.6127409126095
 21
15.79999999999994
 31
0.0
  3
数量
  2
GEN-TITLE-QTY
 70
     0
 74
     1
  0
INSERT
  5
719
  8
TK2
  2
*U67
 10
0.0
 20
0.0
 30
0.0
  0
INSERT
  5
71A
  8
TK2
  2
*U68
 10
0.0
 20
0.0
 30
0.0
  0
ATTDEF
  5
71B
  8
0
 10
-177.824739614424
 20
28.699999999999971
 30
0.0
 40
3.0
  1

 72
     2
 11
-177.824739614424
 21
28.299999999999979
 31
0.0
  3
尺度
  2
GEN-TITLE-SCA
 70
     0
 74
     1
  0
INSERT
  5
71C
  8
TK2
  2
*U69
 10
0.0
 20
0.0
 30
0.0
  0
ATTDEF
  5
71D
  8
0
 10
-180.2171951662138
 20
3.9883425376106638
 30
0.0
 40
3.0
  1

 72
     1
 11
-180.2171951662138
 21
3.5883425376106639
 31
0.0
  3
日付
  2
GEN-TITLE-DAT
 70
     0
 74
     1
  0
LINE
  5
71E
  8
0
 10
-167.0
 20
37.499999999999979
 30
0.0
 11
-193.00000000000011
 21
37.499999999999979
 31
0.0
  0
LINE
  5
71F
  8
0
 10
-167.0
 20
12.499999999999959
 30
0.0
 11
-193.00000000000011
 21
12.499999999999959
 31
0.0
  0
POINT
  5
720
  8
0
 10
-418.53555798196749
 20
-138.11048412682541
 30
0.0
1001
GENIUS_GENODEF_13
1002
{
1000
HIER
1070
    10
1002
}
1002
{
1000
MANEDIT
1070
     0
1002
}
1002
{
1000
NOSEL
1070
     0
1002
}
1002
{
1000
BEHIND
1070
     0
1002
}
1002
{
1000
REACTOR
1002
}
1001
GENIUS_GENOBJ-N-CRS_13
1002
{
1000
OWNER
1000
GEN
1002
}
1001
GENIUS_GENOENT_13
1002
{
1000
MYREF
1005
720
1002
}
1002
{
1000
GRP
1005
0
1002
}
1001
GENIUS_GENOLIS_13
1002
{
1000
ENT
1005
70E
1005
70F
1005
713
1005
716
1002
}
  0
ENDBLK
  5
723
  8
0
  0
BLOCK
  8
0
  2
TK-A4
 70
     0
 10
0.0
 20
0.0
 30
0.0
  3
TK-A4
  1

  0
TEXT
  5
733
  8
0
 10
0.0
 20
0.0
 30
0.0
 40
2.5
  1
!GENTITLE-LL
  0
TEXT
  5
734
  8
0
 10
193.0
 20
280.0
 30
0.0
 40
2.5
  1
!GENTITLE-MAX
  0
TEXT
  5
735
  8
0
 10
193.0
 20
0.0
 30
0.0
 40
2.5
  1
!GENTITLE-INSERT
  0
POLYLINE
  5
736
  8
0
 66
     1
 10
0.0
 20
0.0
 30
0.0
 70
     1
1001
GENIUS_GENREC_14
1002
{
1000
PYDIR
1011
-8.5
1021
0.0
1031
-4.7510358937976968E+279
1021
288.5
1031
0.0
1002
}
1002
{
1000
PXDIR
1011
201.5
1021
0.0
1031
-4.7510358937976968E+279
1021
-8.5
1031
0.0
1002
}
1002
{
1000
PORI
1011
-8.5
1021
0.0
1031
-4.7510358937976968E+279
1021
-8.5
1031
0.0
1002
}
1002
{
1000
PINS
1011
-8.5
1021
0.0
1031
-4.7510358937976968E+279
1021
-8.5
1031
0.0
1002
}
1002
{
1000
HVAL
1000
297
1002
}
1002
{
1000
H
1070
     2
1002
}
1002
{
1000
WVAL
1000
210
1002
}
1002
{
1000
W
1070
     2
1002
}
1002
{
1000
C
1070
     1
1002
}
1001
GENIUS_GENOBJ-N-REC_13
1002
{
1000
OWNER
1000
GEN
1002
}
1001
GENIUS_GENODEF_13
1002
{
1000
HIER
1070
     0
1002
}
1002
{
1000
MANEDIT
1070
     0
1002
}
1002
{
1000
NOSEL
1070
     0
1002
}
1002
{
1000
BEHIND
1070
     0
1002
}
1002
{
1000
OTHER
1070
     0
1002
}
1002
{
1000
REACTOR
1002
}
  0
VERTEX
  5
FD7
  8
0
 10
0.0
 20
0.0
 30
0.0
  0
VERTEX
  5
FD8
  8
0
 10
193.0
 20
0.0
 30
0.0
  0
VERTEX
  5
FD9
  8
0
 10
193.0
 20
280.0
 30
0.0
  0
VERTEX
  5
FDA
  8
0
 10
0.0
 20
280.0
 30
0.0
  0
SEQEND
  5
FDB
  8
0
  0
LINE
  5
737
  8
0
 10
149.0
 20
280.00000000000011
 30
0.0
 11
149.0
 21
275.0
 31
0.0
  0
INSERT
  5
738
  8
TK2
  2
*U70
 10
0.0
 20
0.0
 30
0.0
  0
LINE
  5
739
  8
0
 10
149.0
 20
275.0
 30
0.0
 11
193.0
 21
275.0
 31
0.0
  0
ENDBLK
  5
73C
  8
0
  0
BLOCK
  8
0
  2
TK-仕様書
 70
     2
 10
0.0
 20
0.0
 30
0.0
  3
TK-仕様書
  1

  0
LINE
  5
78A
  8
0
 10
0.0
 20
0.0
 30
0.0
 11
-193.0
 21
0.0
 31
0.0
  0
INSERT
  5
78B
  8
TK2
  2
*U71
 10
0.0
 20
0.0
 30
0.0
  0
LINE
  5
78C
  8
0
 10
-158.0
 20
19.99999999999994
 30
0.0
 11
-0.0000000000001137
 21
19.99999999999994
 31
0.0
  0
INSERT
  5
78D
  8
TK2
  2
*U72
 10
0.0
 20
0.0
 30
0.0
  0
INSERT
  5
78E
  8
TK2
  2
*U73
 10
0.0
 20
0.0
 30
0.0
  0
LINE
  5
78F
  8
0
 10
0.0
 20
35.0
 30
0.0
 11
0.0
 21
0.0
 31
0.0
  0
LINE
  5
790
  8
0
 10
0.0
 20
35.0
 30
0.0
 11
-193.0
 21
35.0
 31
0.0
  0
INSERT
  5
791
  8
TK2
  2
*U74
 10
0.0
 20
0.0
 30
0.0
  0
LINE
  5
792
  8
0
 10
-158.0
 20
35.0
 30
0.0
 11
-158.0
 21
0.0
 31
0.0
  0
LINE
  5
793
  8
0
 10
-75.000000000000114
 20
7.0
 30
0.0
 11
-158.0
 21
7.0
 31
0.0
  0
INSERT
  5
794
  8
TK2
  2
*U75
 10
0.0
 20
0.0
 30
0.0
  0
INSERT
  5
795
  8
TK2
  2
*U76
 10
0.0
 20
0.0
 30
0.0
  0
INSERT
  5
796
  8
TK2
  2
*U77
 10
0.0
 20
0.0
 30
0.0
  0
LINE
  5
797
  8
0
 10
-193.0
 20
35.0
 30
0.0
 11
-193.0
 21
0.0
 31
0.0
  0
LINE
  5
798
  8
0
 10
-193.0
 20
12.0
 30
0.0
 11
-158.0
 21
12.0
 31
0.0
  0
LINE
  5
799
  8
0
 10
-193.0
 20
23.0
 30
0.0
 11
-158.0
 21
23.0
 31
0.0
  0
LINE
  5
79A
  8
0
 10
-168.48711003708431
 20
31.958850220257212
 30
0.0
 11
-168.48711003708431
 21
25.958850220257212
 31
0.0
  0
LINE
  5
79B
  8
7A
 10
-181.48711003708431
 20
28.958850220257212
 30
0.0
 11
-181.48711003708431
 21
25.248767462541998
 31
0.0
1001
GENIUS_GENOREF_13
1005
7A4
  0
LINE
  5
79C
  8
7A
 10
-181.48711003708431
 20
28.958850220257212
 30
0.0
 11
-185.2101474083355
 21
28.958850220257212
 31
0.0
1001
GENIUS_GENOREF_13
1005
7A4
  0
LINE
  5
79D
  8
0
 10
-176.48711003708431
 20
26.958850220257212
 30
0.0
 11
-176.48711003708431
 21
30.958850220257212
 31
0.0
  0
CIRCLE
  5
79E
  8
0
 10
-181.48711003708431
 20
28.958850220257212
 30
0.0
 40
3.0
  0
CIRCLE
  5
79F
  8
0
 10
-181.48711003708431
 20
28.958850220257212
 30
0.0
 40
2.0
  0
LINE
  5
7A0
  8
7A
 10
-181.48711003708431
 20
28.958850220257212
 30
0.0
 11
-181.48711003708431
 21
32.533636864988701
 31
0.0
1001
GENIUS_GENOREF_13
1005
7A4
  0
LINE
  5
7A1
  8
0
 10
-168.48711003708431
 20
25.958850220257212
 30
0.0
 11
-176.48711003708431
 21
26.958850220257212
 31
0.0
  0
LINE
  5
7A2
  8
0
 10
-176.48711003708431
 20
30.958850220257212
 30
0.0
 11
-168.48711003708431
 21
31.958850220257212
 31
0.0
  0
LINE
  5
7A3
  8
7A
 10
-181.48711003708431
 20
28.958850220257212
 30
0.0
 11
-167.70580163679901
 21
28.958850220257212
 31
0.0
1001
GENIUS_GENOREF_13
1005
7A4
  0
POINT
  5
7A4
  8
0
 10
-374.82212771758378
 20
-247.1434073158938
 30
0.0
1001
GENIUS_GENODEF_13
1002
{
1000
HIER
1070
    10
1002
}
1002
{
1000
MANEDIT
1070
     0
1002
}
1002
{
1000
NOSEL
1070
     0
1002
}
1002
{
1000
BEHIND
1070
     0
1002
}
1002
{
1000
REACTOR
1002
}
1001
GENIUS_GENOBJ-N-CRS_13
1002
{
1000
OWNER
1000
GEN
1002
}
1001
GENIUS_GENOENT_13
1002
{
1000
MYREF
1005
7A4
1002
}
1002
{
1000
GRP
1005
0
1002
}
1001
GENIUS_GENOLIS_13
1002
{
1000
ENT
1005
79B
1005
79C
1005
7A0
1005
7A3
1002
}
  0
INSERT
  5
7A5
  8
TK2
  2
*U78
 10
0.0
 20
0.0
 30
0.0
  0
INSERT
  5
7A6
  8
TK2
  2
*U79
 10
0.0
 20
0.0
 30
0.0
  0
LINE
  5
7A7
  8
0
 10
-75.0
 20
35.0
 30
0.0
 11
-75.0
 21
0.0
 31
0.0
  0
LINE
  5
7A8
  8
0
 10
-50.000000000000107
 20
19.999999999999929
 30
0.0
 11
-50.0
 21
0.0
 31
0.0
  0
LINE
  5
7A9
  8
0
 10
-25.00000000000011
 20
19.999999999999929
 30
0.0
 11
-25.0
 21
0.0
 31
0.0
  0
ATTDEF
  5
7AA
  8
0
 10
-181.2742124931365
 20
2.7458346315812601
 30
0.0
 40
3.0
  1

  3
作成日
  2
GEN-TITLE-DAT
 70
     0
  0
ATTDEF
  5
7AB
  8
0
 10
-146.15614939308921
 20
24.947275552748689
 30
0.0
 40
3.5
  1

  3
品名
  2
品名
 70
     0
  0
ATTDEF
  5
7AC
  8
0
 10
-146.13916824856091
 20
11.537712363207049
 30
0.0
 40
3.5
  1

  3
型番
  2
型番
 70
     0
  0
ATTDEF
  5
7AD
  8
0
 10
-146.4521600020492
 20
2.0564206936789442
 30
0.0
 40
3.0
  1

  3
図番
  2
図番
 70
     0
  0
ATTDEF
  5
7AE
  8
0
 10
-62.500000000000107
 20
7.7290766682399399
 30
0.0
 40
3.5
  1

 72
     4
 11
-62.500000000000107
 21
7.7290766682399399
 31
0.0
  3
承認
  2
承認
 70
     0
  0
ATTDEF
  5
7AF
  8
0
 10
-37.500000000000107
 20
7.7290766682399399
 30
0.0
 40
3.5
  1

 72
     4
 11
-37.500000000000107
 21
7.7290766682399399
 31
0.0
  3
検図
  2
検図
 70
     0
  0
ATTDEF
  5
7B0
  8
0
 10
-12.50000000000011
 20
7.7290766682399399
 30
0.0
 40
3.5
  1

 72
     4
 11
-12.50000000000011
 21
7.7290766682399399
 31
0.0
  3
製図
  2
製図
 70
     0
  0
ATTDEF
  5
7B1
  8
0
 10
-171.46182253019211
 20
15.792663173453491
 30
0.0
 40
3.0
  1

 72
     4
 11
-171.46182253019211
 21
15.792663173453491
 31
0.0
  3
尺度
  2
GEN-TITLE-SCA
 70
     0
  0
ENDBLK
  5
7B5
  8
0
  0
BLOCK
  8
0
  2
TK-製作図面
 70
     2
 10
0.0
 20
0.0
 30
0.0
  3
TK-製作図面
  1

  0
ATTDEF
  5
7C4
  8
0
 10
-8.0023091895458265
 20
1.705189434395036
 30
0.0
 40
2.5
  1

  3
Rev.
  2
GEN-TITLE-NR2
 70
     0
  0
ATTDEF
  5
7C5
  8
0
 10
-84.142519015853296
 20
12.82790432564377
 30
0.0
 40
3.5
  1

  3
品名
  2
GEN-TITLE-DES1
 70
     0
  0
LINE
  5
7C6
  8
0
 10
0.0
 20
0.0
 30
0.0
 11
0.0
 21
50.0
 31
0.0
1001
GENIUS_GENREC_14
1002
{
1000
PYDIR
1011
-414.0
1021
0.0
1031
-4.7510358937976968E+279
1021
291.0
1031
0.0
1002
}
1002
{
1000
PXDIR
1011
6.0
1021
0.0
1031
-4.7510358937976968E+279
1021
-6.0
1031
0.0
1002
}
1002
{
1000
PORI
1011
-414.0
1021
0.0
1031
-4.7510358937976968E+279
1021
-6.0
1031
0.0
1002
}
1002
{
1000
PINS
1011
-414.0
1021
0.0
1031
-4.7510358937976968E+279
1021
-6.0
1031
0.0
1002
}
1002
{
1000
HVAL
1000
297
1002
}
1002
{
1000
H
1070
     2
1002
}
1002
{
1000
WVAL
1000
420
1002
}
1002
{
1000
W
1070
     2
1002
}
1002
{
1000
C
1070
     1
1002
}
1001
GENIUS_GENODEF_13
1002
{
1000
HIER
1070
     0
1002
}
1002
{
1000
MANEDIT
1070
     0
1002
}
1002
{
1000
NOSEL
1070
     0
1002
}
1002
{
1000
BEHIND
1070
     0
1002
}
1002
{
1000
OTHER
1070
     0
1002
}
1002
{
1000
REACTOR
1002
}
1001
GENIUS_GENOBJ-N-REC_13
1002
{
1000
OWNER
1000
GEN
1002
}
  0
ATTDEF
  5
7C7
  8
0
 10
-84.0
 20
9.1499999999999488
 30
0.0
 40
2.5
  1

  3
サブタイトル
  2
GEN-TITLE-DES2
 70
     0
  0
ATTDEF
  5
7C8
  8
0
 10
-84.0
 20
1.9999999999999569
 30
0.0
 40
3.0
  1

  3
図番
  2
GEN-TITLE-NR1
 70
     0
  0
LINE
  5
7C9
  8
0
 10
-96.0
 20
50.000000000000007
 30
0.0
 11
-96.0
 21
-0.0000000000000142
 31
0.0
1001
GENIUS_GENREC_14
1002
{
1000
PYDIR
1011
-96.0
1021
0.0
1031
-4.7510358937976968E+279
1021
49.999999999999993
1031
0.0
1002
}
1002
{
1000
PXDIR
1011
88.0
1021
0.0
1031
-4.7510358937976968E+279
1021
-0.0000000000000142
1031
0.0
1002
}
1002
{
1000
PORI
1011
-96.0
1021
0.0
1031
-4.7510358937976968E+279
1021
-0.0000000000000142
1031
0.0
1002
}
1002
{
1000
PINS
1011
-12.5
1021
0.0
1031
-4.7510358937976968E+279
1021
24.999999999999989
1031
0.0
1002
}
1002
{
1000
HVAL
1000
50
1002
}
1002
{
1000
H
1070
     2
1002
}
1002
{
1000
WVAL
1000
167
1002
}
1002
{
1000
W
1070
     2
1002
}
1002
{
1000
C
1070
     4
1002
}
1001
GENIUS_GENODEF_13
1002
{
1000
HIER
1070
     0
1002
}
1002
{
1000
MANEDIT
1070
     0
1002
}
1002
{
1000
NOSEL
1070
     0
1002
}
1002
{
1000
BEHIND
1070
     0
1002
}
1002
{
1000
REACTOR
1002
}
1001
GENIUS_GENOBJ-N-REC_13
1002
{
1000
OWNER
1000
GEN
1002
}
  0
LINE
  5
7CA
  8
0
 10
0.0
 20
50.0
 30
0.0
 11
-193.00000000000011
 21
50.000000000000021
 31
0.0
1001
GENIUS_GENREC_14
1002
{
1000
PYDIR
1011
-184.0
1021
0.0
1031
-4.7510358937976968E+279
1021
50.0
1031
0.0
1002
}
1002
{
1000
PXDIR
1011
0.0
1021
0.0
1031
-4.7510358937976968E+279
1021
0.0
1031
0.0
1002
}
1002
{
1000
PORI
1011
-184.0
1021
0.0
1031
-4.7510358937976968E+279
1021
0.0
1031
0.0
1002
}
1002
{
1000
PINS
1011
-100.5
1021
0.0
1031
-4.7510358937976968E+279
1021
25.0
1031
0.0
1002
}
1002
{
1000
HVAL
1000
50
1002
}
1002
{
1000
H
1070
     2
1002
}
1002
{
1000
WVAL
1000
167
1002
}
1002
{
1000
W
1070
     2
1002
}
1002
{
1000
C
1070
     4
1002
}
1001
GENIUS_GENODEF_13
1002
{
1000
HIER
1070
     0
1002
}
1002
{
1000
MANEDIT
1070
     0
1002
}
1002
{
1000
NOSEL
1070
     0
1002
}
1002
{
1000
BEHIND
1070
     0
1002
}
1002
{
1000
REACTOR
1002
}
1001
GENIUS_GENOBJ-N-REC_13
1002
{
1000
OWNER
1000
GEN
1002
}
  0
LINE
  5
7CB
  8
0
 10
-193.00000000000011
 20
0.0
 30
0.0
 11
0.0
 21
0.0
 31
0.0
1001
GENIUS_GENREC_14
1002
{
1000
PYDIR
1011
-184.0
1021
0.0
1031
-4.7510358937976968E+279
1021
50.0
1031
0.0
1002
}
1002
{
1000
PXDIR
1011
0.0
1021
0.0
1031
-4.7510358937976968E+279
1021
0.0
1031
0.0
1002
}
1002
{
1000
PORI
1011
-184.0
1021
0.0
1031
-4.7510358937976968E+279
1021
0.0
1031
0.0
1002
}
1002
{
1000
PINS
1011
-100.5
1021
0.0
1031
-4.7510358937976968E+279
1021
25.0
1031
0.0
1002
}
1002
{
1000
HVAL
1000
50
1002
}
1002
{
1000
H
1070
     2
1002
}
1002
{
1000
WVAL
1000
167
1002
}
1002
{
1000
W
1070
     2
1002
}
1002
{
1000
C
1070
     4
1002
}
1001
GENIUS_GENODEF_13
1002
{
1000
HIER
1070
     0
1002
}
1002
{
1000
MANEDIT
1070
     0
1002
}
1002
{
1000
NOSEL
1070
     0
1002
}
1002
{
1000
BEHIND
1070
     0
1002
}
1002
{
1000
REACTOR
1002
}
1001
GENIUS_GENOBJ-N-REC_13
1002
{
1000
OWNER
1000
GEN
1002
}
  0
TEXT
  5
7CC
  8
RAHM2
 10
-91.926776695296624
 20
45.983333333333348
 30
0.0
 40
2.5
  1
5
 72
     1
 11
-91.0
 21
45.65000000000002
 31
0.0
 73
     1
  0
TEXT
  5
7CD
  8
RAHM2
 10
-92.0
 20
40.983333333333348
 30
0.0
 40
2.5
  1
4
 72
     1
 11
-91.0
 21
40.65000000000002
 31
0.0
 73
     1
  0
TEXT
  5
7CE
  8
RAHM2
 10
-91.926776695296624
 20
35.983333333333327
 30
0.0
 40
2.5
  1
3
 72
     1
 11
-91.0
 21
35.649999999999991
 31
0.0
 73
     1
  0
TEXT
  5
7CF
  8
RAHM2
 10
-91.918331692913384
 20
30.983333333333348
 30
0.0
 40
2.5
  1
2
 72
     1
 11
-91.0
 21
30.65000000000002
 31
0.0
 73
     1
  0
TEXT
  5
7D0
  8
RAHM2
 10
-91.815586356580184
 20
25.983333333333348
 30
0.0
 40
2.5
  1
1
 72
     1
 11
-91.190586356580184
 21
25.65000000000002
 31
0.0
 73
     1
  0
INSERT
  5
7D1
  8
TK2
  2
*U80
 10
0.0
 20
0.0
 30
0.0
  0
LINE
  5
7D2
  8
RAHM2
 10
-96.0
 20
25.0
 30
0.0
 11
0.0000000000001137
 21
25.000000000000028
 31
0.0
  0
LINE
  5
7D3
  8
RAHM2
 10
-93.424871130596443
 20
25.40000000000002
 30
0.0
 11
-88.575128869403557
 21
25.40000000000002
 31
0.0
  0
LINE
  5
7D4
  8
RAHM2
 10
-88.575128869403557
 20
25.40000000000002
 30
0.0
 11
-91.0
 21
29.600000000000009
 31
0.0
  0
LINE
  5
7D5
  8
RAHM2
 10
-91.0
 20
29.600000000000009
 30
0.0
 11
-93.424871130596443
 21
25.40000000000002
 31
0.0
  0
INSERT
  5
7D6
  8
TK2
  2
*U81
 10
0.0
 20
0.0
 30
0.0
  0
INSERT
  5
7D7
  8
TK2
  2
*U82
 10
0.0
 20
0.0
 30
0.0
  0
INSERT
  5
7D8
  8
TK2
  2
*U83
 10
0.0
 20
0.0
 30
0.0
  0
INSERT
  5
7D9
  8
TK2
  2
*U84
 10
0.0
 20
0.0
 30
0.0
  0
INSERT
  5
7DA
  8
TK2
  2
*U85
 10
0.0
 20
0.0
 30
0.0
  0
INSERT
  5
7DB
  8
TK2
  2
*U86
 10
0.0
 20
0.0
 30
0.0
  0
LINE
  5
7DC
  8
RAHM2
 10
-11.82081941068907
 20
50.000000000000028
 30
0.0
 11
-11.82081941068907
 21
19.99999999999994
 31
0.0
  0
INSERT
  5
7DD
  8
TK2
  2
*U87
 10
0.0
 20
0.0
 30
0.0
  0
LINE
  5
7DE
  8
RAHM2
 10
-31.820819410689069
 20
50.000000000000028
 30
0.0
 11
-31.820819410689179
 21
19.99999999999994
 31
0.0
  0
LINE
  5
7DF
  8
RAHM2
 10
-91.0
 20
49.600000000000001
 30
0.0
 11
-93.424871130596443
 21
45.400000000000013
 31
0.0
  0
LINE
  5
7E0
  8
RAHM2
 10
-91.0
 20
44.600000000000001
 30
0.0
 11
-93.424871130596443
 21
40.400000000000013
 31
0.0
  0
LINE
  5
7E1
  8
RAHM2
 10
-91.0
 20
39.600000000000009
 30
0.0
 11
-93.424871130596443
 21
35.40000000000002
 31
0.0
  0
LINE
  5
7E2
  8
RAHM2
 10
-88.575128869403557
 20
35.40000000000002
 30
0.0
 11
-91.0
 21
39.600000000000009
 31
0.0
  0
LINE
  5
7E3
  8
RAHM2
 10
-93.424871130596443
 20
35.40000000000002
 30
0.0
 11
-88.575128869403557
 21
35.40000000000002
 31
0.0
  0
LINE
  5
7E4
  8
RAHM2
 10
-88.575128869403557
 20
40.400000000000013
 30
0.0
 11
-91.0
 21
44.600000000000001
 31
0.0
  0
LINE
  5
7E5
  8
RAHM2
 10
-93.424871130596443
 20
40.400000000000013
 30
0.0
 11
-88.575128869403557
 21
40.400000000000013
 31
0.0
  0
LINE
  5
7E6
  8
RAHM2
 10
-88.575128869403557
 20
45.400000000000013
 30
0.0
 11
-91.0
 21
49.600000000000001
 31
0.0
  0
LINE
  5
7E7
  8
RAHM2
 10
-93.424871130596443
 20
45.400000000000013
 30
0.0
 11
-88.575128869403557
 21
45.400000000000013
 31
0.0
  0
INSERT
  5
7E8
  8
TK2
  2
*U88
 10
0.0
 20
0.0
 30
0.0
  0
INSERT
  5
7E9
  8
TK2
  2
*U89
 10
0.0
 20
0.0
 30
0.0
  0
LINE
  5
7EA
  8
RAHM2
 10
-93.424871130596443
 20
30.40000000000002
 30
0.0
 11
-88.575128869403557
 21
30.40000000000002
 31
0.0
  0
LINE
  5
7EB
  8
RAHM2
 10
-86.0
 20
50.000000000000007
 30
0.0
 11
-86.0
 21
19.999999999999929
 31
0.0
  0
LINE
  5
7EC
  8
RAHM2
 10
-91.0
 20
34.600000000000009
 30
0.0
 11
-93.424871130596443
 21
30.40000000000002
 31
0.0
  0
LINE
  5
7ED
  8
RAHM2
 10
-88.575128869403557
 20
30.40000000000002
 30
0.0
 11
-91.0
 21
34.600000000000009
 31
0.0
  0
INSERT
  5
7EE
  8
TK2
  2
*U90
 10
0.0
 20
0.0
 30
0.0
  0
LINE
  5
7EF
  8
0
 10
-96.0
 20
19.999999999999972
 30
0.0
 11
0.0000000000001137
 21
19.999999999999972
 31
0.0
  0
LINE
  5
7F0
  8
0
 10
-96.0
 20
7.0
 30
0.0
 11
0.0000000000001137
 21
7.0
 31
0.0
  0
LINE
  5
7F1
  8
RAHM2
 10
-96.0
 20
45.000000000000021
 30
0.0
 11
0.0000000000001137
 21
45.000000000000021
 31
0.0
  0
LINE
  5
7F2
  8
RAHM2
 10
-96.0
 20
39.999999999999929
 30
0.0
 11
0.0000000000001137
 21
40.000000000000021
 31
0.0
  0
LINE
  5
7F3
  8
RAHM2
 10
-96.0
 20
35.000000000000028
 30
0.0
 11
0.0000000000001137
 21
35.000000000000028
 31
0.0
  0
LINE
  5
7F4
  8
RAHM2
 10
-96.0
 20
29.999999999999918
 30
0.0
 11
0.0000000000001137
 21
30.000000000000028
 31
0.0
  0
LINE
  5
7F5
  8
0
 10
-21.175419266257109
 20
0.0
 30
0.0
 11
-21.17541926625734
 21
7.0
 31
0.0
  0
INSERT
  5
7F6
  8
TK2
  2
*U91
 10
0.0
 20
0.0
 30
0.0
  0
INSERT
  5
7F7
  8
TK2
  2
*U92
 10
0.0
 20
0.0
 30
0.0
  0
LINE
  5
7F8
  8
0
 10
-167.0
 20
19.999999999999929
 30
0.0
 11
-96.0
 21
19.999999999999929
 31
0.0
  0
LINE
  5
7F9
  8
0
 10
-113.75
 20
19.999999999999929
 30
0.0
 11
-113.75
 21
-0.0000000000000533
 31
0.0
  0
LINE
  5
7FA
  8
0
 10
-131.50000000000011
 20
19.999999999999929
 30
0.0
 11
-131.50000000000011
 21
-0.0000000000000533
 31
0.0
  0
INSERT
  5
7FB
  8
TK2
  2
*U93
 10
0.0
 20
0.0
 30
0.0
  0
LINE
  5
7FC
  8
0
 10
-167.0
 20
49.99999999999995
 30
0.0
 11
-167.0
 21
-0.0000000000000497
 31
0.0
  0
LINE
  5
7FD
  8
0
 10
-149.25000000000011
 20
19.999999999999929
 30
0.0
 11
-149.25000000000011
 21
-0.0000000000000462
 31
0.0
  0
INSERT
  5
7FE
  8
TK2
  2
*U94
 10
0.0
 20
0.0
 30
0.0
  0
INSERT
  5
7FF
  8
TK2
  2
*U95
 10
0.0
 20
0.0
 30
0.0
  0
LINE
  5
800
  8
0
 10
-167.0
 20
29.999999999999918
 30
0.0
 11
-96.0
 21
29.999999999999918
 31
0.0
  0
INSERT
  5
801
  8
TK2
  2
*U96
 10
0.0
 20
0.0
 30
0.0
  0
ATTDEF
  5
802
  8
0
 10
-148.96186758352911
 20
43.299999999999912
 30
0.0
 40
3.0
  1

  3
材質
  2
GEN-TITLE-MAT1
 70
     0
  0
ATTDEF
  5
803
  8
0
 10
-148.96186758352911
 20
33.299999999999912
 30
0.0
 40
3.0
  1

  3
表面処理
  2
GEN-TITLE-MAT2
 70
     0
  0
INSERT
  5
804
  8
TK2
  2
*U97
 10
0.0
 20
0.0
 30
0.0
  0
INSERT
  5
805
  8
TK2
  2
*U98
 10
0.0
 20
0.0
 30
0.0
  0
LINE
  5
806
  8
0
 10
-167.0
 20
39.999999999999908
 30
0.0
 11
-96.0
 21
39.999999999999922
 31
0.0
  0
LINE
  5
807
  8
0
 10
-167.0
 20
24.999999999999972
 30
0.0
 11
-193.00000000000011
 21
24.999999999999972
 31
0.0
  0
LINE
  5
808
  8
0
 10
-171.71674187457961
 20
46.74999999999995
 30
0.0
 11
-171.71674187457961
 21
40.749999999999943
 31
0.0
  0
LINE
  5
809
  8
7A
 10
-184.71674187457961
 20
43.74999999999995
 30
0.0
 11
-184.71674187457961
 21
40.03991724228473
 31
0.0
1001
GENIUS_GENOREF_13
1005
81B
  0
LINE
  5
80A
  8
7A
 10
-184.71674187457961
 20
43.74999999999995
 30
0.0
 11
-188.43977924583069
 21
43.74999999999995
 31
0.0
1001
GENIUS_GENOREF_13
1005
81B
  0
LINE
  5
80B
  8
0
 10
-179.71674187457961
 20
41.74999999999995
 30
0.0
 11
-179.71674187457961
 21
45.749999999999943
 31
0.0
  0
CIRCLE
  5
80C
  8
0
 10
-184.71674187457961
 20
43.74999999999995
 30
0.0
 40
3.0
  0
CIRCLE
  5
80D
  8
0
 10
-184.71674187457961
 20
43.74999999999995
 30
0.0
 40
2.0
  0
LINE
  5
80E
  8
7A
 10
-184.71674187457961
 20
43.74999999999995
 30
0.0
 11
-184.71674187457961
 21
47.324786644731439
 31
0.0
1001
GENIUS_GENOREF_13
1005
81B
  0
LINE
  5
80F
  8
0
 10
-171.71674187457961
 20
40.749999999999943
 30
0.0
 11
-179.71674187457961
 21
41.74999999999995
 31
0.0
  0
LINE
  5
810
  8
0
 10
-179.71674187457961
 20
45.749999999999943
 30
0.0
 11
-171.71674187457961
 21
46.74999999999995
 31
0.0
  0
LINE
  5
811
  8
7A
 10
-184.71674187457961
 20
43.74999999999995
 30
0.0
 11
-170.93543347429431
 21
43.74999999999995
 31
0.0
1001
GENIUS_GENOREF_13
1005
81B
  0
LINE
  5
812
  8
0
 10
-193.00000000000011
 20
49.999999999999993
 30
0.0
 11
-193.00000000000011
 21
-0.0000000000000142
 31
0.0
  0
ATTDEF
  5
813
  8
0
 10
-175.6127409126095
 20
16.199999999999939
 30
0.0
 40
3.0
  1

 72
     2
 11
-175.6127409126095
 21
15.79999999999994
 31
0.0
  3
数量
  2
GEN-TITLE-QTY
 70
     0
 74
     1
  0
INSERT
  5
814
  8
TK2
  2
*U99
 10
0.0
 20
0.0
 30
0.0
  0
INSERT
  5
815
  8
TK2
  2
*U100
 10
0.0
 20
0.0
 30
0.0
  0
ATTDEF
  5
816
  8
0
 10
-177.824739614424
 20
28.699999999999971
 30
0.0
 40
3.0
  1

 72
     2
 11
-177.824739614424
 21
28.299999999999979
 31
0.0
  3
尺度
  2
GEN-TITLE-SCA
 70
     0
 74
     1
  0
INSERT
  5
817
  8
TK2
  2
*U101
 10
0.0
 20
0.0
 30
0.0
  0
ATTDEF
  5
818
  8
0
 10
-180.2171951662138
 20
3.9883425376106638
 30
0.0
 40
3.0
  1

 72
     1
 11
-180.2171951662138
 21
3.5883425376106639
 31
0.0
  3
日付
  2
GEN-TITLE-DAT
 70
     0
 74
     1
  0
LINE
  5
819
  8
0
 10
-167.0
 20
37.499999999999979
 30
0.0
 11
-193.00000000000011
 21
37.499999999999979
 31
0.0
  0
LINE
  5
81A
  8
0
 10
-167.0
 20
12.499999999999959
 30
0.0
 11
-193.00000000000011
 21
12.499999999999959
 31
0.0
  0
POINT
  5
81B
  8
0
 10
-418.53555798196749
 20
-138.11048412682541
 30
0.0
1001
GENIUS_GENODEF_13
1002
{
1000
HIER
1070
    10
1002
}
1002
{
1000
MANEDIT
1070
     0
1002
}
1002
{
1000
NOSEL
1070
     0
1002
}
1002
{
1000
BEHIND
1070
     0
1002
}
1002
{
1000
REACTOR
1002
}
1001
GENIUS_GENOBJ-N-CRS_13
1002
{
1000
OWNER
1000
GEN
1002
}
1001
GENIUS_GENOENT_13
1002
{
1000
MYREF
1005
81B
1002
}
1002
{
1000
GRP
1005
0
1002
}
1001
GENIUS_GENOLIS_13
1002
{
1000
ENT
1005
809
1005
80A
1005
80E
1005
811
1002
}
  0
ENDBLK
  5
81E
  8
0
  0
BLOCK
  8
0
  2
*D17
 70
     1
 10
0.0
 20
0.0
 30
0.0
  3
*D17
  1

  0
LINE
  5
1074
  8
AM_5
 62
     3
 10
105.9572991830596
 20
317.73915868614478
 30
0.0
 11
105.9572991830596
 21
342.23915969614478
 31
0.0
  0
LINE
  5
1075
  8
AM_5
 62
     3
 10
101.4572991830596
 20
317.73915868614478
 30
0.0
 11
101.4572991830596
 21
342.23915969614478
 31
0.0
  0
LINE
  5
1076
  8
AM_5
 62
     3
 10
110.9572991830596
 20
340.23915969614478
 30
0.0
 11
115.9572991830596
 21
340.23915969614478
 31
0.0
  0
LINE
  5
1077
  8
AM_5
 62
     3
 10
96.457299183059618
 20
340.23915969614478
 30
0.0
 11
91.457299183059618
 21
340.23915969614478
 31
0.0
  0
TEXT
  8
AM_5
  40
7
  5
10AA
  62
2
  72
0
  71
0
 10
92.1434
 20
337.260
 30
0.000000
  1
4.5
  0
LINE
  5
1079
  8
AM_5
 62
     3
 10
105.9572991830596
 20
340.23915969614478
 30
0.0
 11
101.4572991830596
 21
340.23915969614478
 31
0.0
  0
INSERT
  5
107A
  8
AM_5
 62
     3
  2
_OPEN30
 10
105.9572991830596
 20
340.23915969614478
 30
0.0
 41
5.0
 42
5.0
 43
5.0
 50
180.0
  0
INSERT
  5
107B
  8
AM_5
 62
     3
  2
_OPEN30
 10
101.4572991830596
 20
340.23915969614478
 30
0.0
 41
5.0
 42
5.0
 43
5.0
  0
POINT
  5
107C
  8
DEFPOINTS
 62
     0
 10
105.9572991830596
 20
315.73915868614478
 30
0.0
  0
POINT
  5
107D
  8
DEFPOINTS
 62
     0
 10
101.4572991830596
 20
315.73915868614478
 30
0.0
  0
POINT
  5
107E
  8
DEFPOINTS
 62
     0
 10
101.4572991830596
 20
340.23915969614478
 30
0.0
  0
ENDBLK
  5
BCA
  8
0
  0
BLOCK
  8
0
  2
*D18
 70
     1
 10
0.0
 20
0.0
 30
0.0
  3
*D18
  1

  0
LINE
  5
107F
  8
AM_5
 62
     3
 10
107.2072991830596
 20
317.73915868614478
 30
0.0
 11
107.2072991830596
 21
362.23915969614472
 31
0.0
  0
LINE
  5
1080
  8
AM_5
 62
     3
 10
100.2072991830596
 20
317.73915868614478
 30
0.0
 11
100.2072991830596
 21
362.23915969614472
 31
0.0
  0
LINE
  5
1081
  8
AM_5
 62
     3
 10
112.2072991830596
 20
360.23915969614472
 30
0.0
 11
117.2072991830596
 21
360.23915969614472
 31
0.0
  0
LINE
  5
1082
  8
AM_5
 62
     3
 10
95.207299183059604
 20
360.23915969614472
 30
0.0
 11
90.207299183059604
 21
360.23915969614472
 31
0.0
  0
TEXT
  8
AM_5
  40
7
  5
10AB
  62
2
  72
0
  71
0
 10
103.834
 20
357.639
 30
0.000000
  1
7
  0
LINE
  5
1084
  8
AM_5
 62
     3
 10
107.2072991830596
 20
360.23915969614472
 30
0.0
 11
100.2072991830596
 21
360.23915969614472
 31
0.0
  0
INSERT
  5
1085
  8
AM_5
 62
     3
  2
_OPEN30
 10
107.2072991830596
 20
360.23915969614472
 30
0.0
 41
5.0
 42
5.0
 43
5.0
 50
180.0
  0
INSERT
  5
1086
  8
AM_5
 62
     3
  2
_OPEN30
 10
100.2072991830596
 20
360.23915969614472
 30
0.0
 41
5.0
 42
5.0
 43
5.0
  0
POINT
  5
1087
  8
DEFPOINTS
 62
     0
 10
107.2072991830596
 20
315.73915868614478
 30
0.0
  0
POINT
  5
1088
  8
DEFPOINTS
 62
     0
 10
100.2072991830596
 20
315.73915868614478
 30
0.0
  0
POINT
  5
1089
  8
DEFPOINTS
 62
     0
 10
100.2072991830596
 20
360.23915969614472
 30
0.0
  0
ENDBLK
  5
BD8
  8
0
  0
BLOCK
  8
0
  2
*D19
 70
     1
 10
0.0
 20
0.0
 30
0.0
  3
*D19
  1

  0
LINE
  5
108A
  8
AM_5
 62
     3
 10
132.2072991830596
 20
324.23915868614478
 30
0.0
 11
132.2072991830596
 21
342.23915969614478
 31
0.0
  0
LINE
  5
108B
  8
AM_5
 62
     3
 10
141.7072991830596
 20
324.23915868614478
 30
0.0
 11
141.7072991830596
 21
342.23915969614478
 31
0.0
  0
LINE
  5
108C
  8
AM_5
 62
     3
 10
127.2072991830596
 20
340.23915969614478
 30
0.0
 11
122.2072991830596
 21
340.23915969614478
 31
0.0
  0
LINE
  5
108D
  8
AM_5
 62
     3
 10
146.7072991830596
 20
340.23915969614478
 30
0.0
 11
151.7072991830596
 21
340.23915969614478
 31
0.0
  0
TEXT
  8
AM_5
  40
7
  5
10AC
  62
2
  72
0
  71
0
 10
136.642
 20
338.192
 30
0.000000
  1
9.5
  0
LINE
  5
108F
  8
AM_5
 62
     3
 10
132.2072991830596
 20
340.23915969614478
 30
0.0
 11
141.7072991830596
 21
340.23915969614478
 31
0.0
  0
INSERT
  5
1090
  8
AM_5
 62
     3
  2
_OPEN30
 10
132.2072991830596
 20
340.23915969614478
 30
0.0
 41
5.0
 42
5.0
 43
5.0
  0
INSERT
  5
1091
  8
AM_5
 62
     3
  2
_OPEN30
 10
141.7072991830596
 20
340.23915969614478
 30
0.0
 41
5.0
 42
5.0
 43
5.0
 50
180.0
  0
POINT
  5
1092
  8
DEFPOINTS
 62
     0
 10
132.2072991830596
 20
322.23915868614478
 30
0.0
  0
POINT
  5
1093
  8
DEFPOINTS
 62
     0
 10
141.7072991830596
 20
322.23915868614478
 30
0.0
  0
POINT
  5
1094
  8
DEFPOINTS
 62
     0
 10
141.7072991830596
 20
340.23915969614478
 30
0.0
  0
ENDBLK
  5
BE6
  8
0
  0
BLOCK
  8
0
  2
*D20
 70
     1
 10
0.0
 20
0.0
 30
0.0
  3
*D20
  1

  0
LINE
  5
DF4
  8
AM_5
 62
     3
 10
100.2072991830596
 20
317.73915868614478
 30
0.0
 11
100.2072991830596
 21
382.77516733756829
 31
0.0
  0
LINE
  5
DF5
  8
AM_5
 62
     3
 10
287.7072991830596
 20
317.73915868614478
 30
0.0
 11
287.7072991830596
 21
382.77516733756829
 31
0.0
  0
LINE
  5
DF6
  8
AM_5
 62
     3
 10
105.2072991830596
 20
380.77516733756829
 30
0.0
 11
282.7072991830596
 21
380.77516733756829
 31
0.0
  0
INSERT
  5
DF7
  8
AM_5
 62
     3
  2
_OPEN30
 10
100.2072991830596
 20
380.77516733756829
 30
0.0
 41
5.0
 42
5.0
 43
5.0
 50
180.0
  0
INSERT
  5
DF8
  8
AM_5
 62
     3
  2
_OPEN30
 10
287.7072991830596
 20
380.77516733756829
 30
0.0
 41
5.0
 42
5.0
 43
5.0
  0
INSERT
  5
DF9
  8
TK2
  2
*U110
 10
0.0
 20
0.0
 30
0.0
  0
POINT
  5
DFA
  8
DEFPOINTS
 62
     0
 10
100.2072991830596
 20
315.73915868614478
 30
0.0
  0
POINT
  5
DFB
  8
DEFPOINTS
 62
     0
 10
287.7072991830596
 20
315.73915868614478
 30
0.0
  0
POINT
  5
DFC
  8
DEFPOINTS
 62
     0
 10
287.7072991830596
 20
380.77516733756829
 30
0.0
  0
ENDBLK
  5
BF4
  8
0
  0
BLOCK
  8
0
  2
*D23
 70
     1
 10
0.0
 20
0.0
 30
0.0
  3
*D23
  1

  0
LINE
  5
109D
  8
AM_5
 62
     3
 10
98.707299183059604
 20
316.23915868614478
 30
0.0
 11
74.207298183059606
 21
316.23915868614478
 31
0.0
  0
LINE
  5
109E
  8
AM_5
 62
     3
 10
100.4572991830596
 20
299.03915868614479
 30
0.0
 11
74.207298183059606
 21
299.03915868614479
 31
0.0
  0
LINE
  5
109F
  8
AM_5
 62
     3
 10
76.207298183059606
 20
311.23915868614478
 30
0.0
 11
76.207298183059606
 21
304.03915868614479
 31
0.0
  0
TEXT
  8
AM_5
  40
7
  5
10AD
  62
2
  72
0
  71
0
 10
67.4392
 20
299.195
 30
0.000000
  1
(17.2)
  0
INSERT
  5
10A1
  8
AM_5
 62
     3
  2
_OPEN30
 10
76.207298183059606
 20
316.23915868614478
 30
0.0
 41
5.0
 42
5.0
 43
5.0
 50
90.0
  0
INSERT
  5
10A2
  8
AM_5
 62
     3
  2
_OPEN30
 10
76.207298183059606
 20
299.03915868614479
 30
0.0
 41
5.0
 42
5.0
 43
5.0
 50
270.0
  0
POINT
  5
10A3
  8
DEFPOINTS
 62
     0
 10
100.7072991830596
 20
316.23915868614478
 30
0.0
  0
POINT
  5
10A4
  8
DEFPOINTS
 62
     0
 10
102.4572991830596
 20
299.03915868614479
 30
0.0
  0
POINT
  5
10A5
  8
DEFPOINTS
 62
     0
 10
76.207298183059606
 20
299.03915868614479
 30
0.0
  0
ENDBLK
  5
D58
  8
0
  0
BLOCK
  8
0
  2
*U25
 70
     1
 10
0.0
 20
0.0
 30
0.0
  3
*U25
  1

  0
TEXT
  5
F18
  8
0
 10
367.55531168523049
 20
276.233542987227
 30
0.0
 40
2.5
  1
(文書番号：TY-34)2004.10.29
  0
ENDBLK
  5
F1A
  8
0
  0
BLOCK
  8
0
  2
*U26
 70
     1
 10
0.0
 20
0.0
 30
0.0
  3
*U26
  1

  0
TEXT
  5
F1C
  8
RAHM2
 10
-193.9669218037981
 20
3.3010354072796408
 30
0.0
 40
2.5
  1
図番
  0
ENDBLK
  5
F1E
  8
0
  0
BLOCK
  8
0
  2
*U27
 70
     1
 10
0.0
 20
0.0
 30
0.0
  3
*U27
  1

  0
TEXT
  5
F20
  8
RAHM2
 10
-192.6666666666666
 20
21.249999999999972
 30
0.0
 40
2.5
  1
符号
  0
ENDBLK
  5
F22
  8
0
  0
BLOCK
  8
0
  2
*U28
 70
     1
 10
0.0
 20
0.0
 30
0.0
  3
*U28
  1

  0
TEXT
  5
F24
  8
RAHM2
 10
-193.80025513713139
 20
16.30103540727961
 30
0.0
 40
2.5
  1
品名
  0
ENDBLK
  5
F26
  8
0
  0
BLOCK
  8
0
  2
*U29
 70
     1
 10
0.0
 20
0.0
 30
0.0
  3
*U29
  1

  0
TEXT
  5
F28
  8
RAHM2
 10
-162.81148385355229
 20
21.249999999999972
 30
0.0
 40
2.5
  1
変更記事
  0
ENDBLK
  5
F2A
  8
0
  0
BLOCK
  8
0
  2
*U30
 70
     1
 10
0.0
 20
0.0
 30
0.0
  3
*U30
  1

  0
TEXT
  5
F2C
  8
0
 10
-88.926395939086291
 20
3.4187817258883242
 30
0.0
 40
3.5
  1
株式会社タカチ電機工業
  0
ENDBLK
  5
F2E
  8
0
  0
BLOCK
  8
0
  2
*U31
 70
     1
 10
0.0
 20
0.0
 30
0.0
  3
*U31
  1

  0
TEXT
  5
F30
  8
RAHM2
 10
-123.5416228057275
 20
31.250000000000028
 30
0.0
 40
2.5
  1
・  ・
  0
ENDBLK
  5
F32
  8
0
  0
BLOCK
  8
0
  2
*U32
 70
     1
 10
0.0
 20
0.0
 30
0.0
  3
*U32
  1

  0
TEXT
  5
F34
  8
RAHM2
 10
-125.738119805002
 20
21.249999999999972
 30
0.0
 40
2.5
  1
年・月・日
  0
ENDBLK
  5
F36
  8
0
  0
BLOCK
  8
0
  2
*U33
 70
     1
 10
0.0
 20
0.0
 30
0.0
  3
*U33
  1

  0
TEXT
  5
F38
  8
RAHM2
 10
-104.0833333333333
 20
21.249999999999972
 30
0.0
 40
2.5
  1
担当
  0
ENDBLK
  5
F3A
  8
0
  0
BLOCK
  8
0
  2
*U34
 70
     1
 10
0.0
 20
0.0
 30
0.0
  3
*U34
  1

  0
TEXT
  5
F3C
  8
RAHM2
 10
-123.5416228057275
 20
41.250000000000021
 30
0.0
 40
2.5
  1
・  ・
  0
ENDBLK
  5
F3E
  8
0
  0
BLOCK
  8
0
  2
*U35
 70
     1
 10
0.0
 20
0.0
 30
0.0
  3
*U35
  1

  0
TEXT
  5
F40
  8
RAHM2
 10
-123.5416228057275
 20
36.250000000000028
 30
0.0
 40
2.5
  1
・  ・
  0
ENDBLK
  5
F42
  8
0
  0
BLOCK
  8
0
  2
*U36
 70
     1
 10
0.0
 20
0.0
 30
0.0
  3
*U36
  1

  0
TEXT
  5
F44
  8
RAHM2
 10
-123.5416228057275
 20
46.250000000000021
 30
0.0
 40
2.5
  1
・  ・
  0
ENDBLK
  5
F46
  8
0
  0
BLOCK
  8
0
  2
*U37
 70
     1
 10
0.0
 20
0.0
 30
0.0
  3
*U37
  1

  0
TEXT
  5
F48
  8
RAHM2
 10
-93.133588470464787
 20
13.80103540727964
 30
0.0
 40
2.5
  1
日付
  0
ENDBLK
  5
F4A
  8
0
  0
BLOCK
  8
0
  2
*U38
 70
     1
 10
0.0
 20
0.0
 30
0.0
  3
*U38
  1

  0
TEXT
  5
F4C
  8
RAHM2
 10
-92.800255137131444
 20
23.801035407279642
 30
0.0
 40
2.5
  1
表面処理
  0
ENDBLK
  5
F4E
  8
0
  0
BLOCK
  8
0
  2
*U39
 70
     1
 10
0.0
 20
0.0
 30
0.0
  3
*U39
  1

  0
TEXT
  5
F50
  8
RAHM2
 10
-92.800255137131444
 20
33.801035407279642
 30
0.0
 40
2.5
  1
材質
  0
ENDBLK
  5
F52
  8
0
  0
BLOCK
  8
0
  2
*U40
 70
     1
 10
0.0
 20
0.0
 30
0.0
  3
*U40
  1

  0
TEXT
  5
F54
  8
RAHM2
 10
-72.800255137131444
 20
46.301035407279642
 30
0.0
 40
2.5
  1
尺度
  0
ENDBLK
  5
F56
  8
0
  0
BLOCK
  8
0
  2
*U41
 70
     1
 10
0.0
 20
0.0
 30
0.0
  3
*U41
  1

  0
TEXT
  5
F58
  8
RAHM2
 10
-52.800255137131451
 20
46.301035407279642
 30
0.0
 40
2.5
  1
数量
  0
ENDBLK
  5
F5A
  8
0
  0
BLOCK
  8
0
  2
*U42
 70
     1
 10
0.0
 20
0.0
 30
0.0
  3
*U42
  1

  0
TEXT
  5
F5C
  8
RAHM2
 10
-28.166666666666671
 20
21.301035407279642
 30
0.0
 40
2.5
  1
承認
  0
ENDBLK
  5
F5E
  8
0
  0
BLOCK
  8
0
  2
*U43
 70
     1
 10
0.0
 20
0.0
 30
0.0
  3
*U43
  1

  0
TEXT
  5
F60
  8
RAHM2
 10
-28.166666666666671
 20
46.301035407279642
 30
0.0
 40
2.5
  1
承認
  0
ENDBLK
  5
F62
  8
0
  0
BLOCK
  8
0
  2
*U44
 70
     1
 10
0.0
 20
0.0
 30
0.0
  3
*U44
  1

  0
TEXT
  5
F64
  8
RAHM2
 10
-123.5416228057275
 20
26.250000000000028
 30
0.0
 40
2.5
  1
・  ・
  0
ENDBLK
  5
F66
  8
0
  0
BLOCK
  8
0
  2
*U45
 70
     1
 10
0.0
 20
0.0
 30
0.0
  3
*U45
  1

  0
TEXT
  5
F68
  8
RAHM2
 10
-11.08333333333333
 20
46.301035407279642
 30
0.0
 40
2.5
  1
検図
  0
ENDBLK
  5
F6A
  8
0
  0
BLOCK
  8
0
  2
*U46
 70
     1
 10
0.0
 20
0.0
 30
0.0
  3
*U46
  1

  0
TEXT
  5
F6C
  8
RAHM2
 10
-11.08333333333333
 20
21.301035407279642
 30
0.0
 40
2.5
  1
製図
  0
ENDBLK
  5
F6E
  8
0
  0
BLOCK
  8
0
  2
*U47
 70
     1
 10
0.0
 20
0.0
 30
0.0
  3
*U47
  1

  0
TEXT
  5
F7C
  8
0
 10
360.4842953827349
 20
276.233542987227
 30
0.0
 40
2.5
  1
(文書番号：TY-34)2008.02.08
  0
ENDBLK
  5
F7E
  8
0
  0
BLOCK
  8
0
  2
*U48
 70
     1
 10
0.0
 20
0.0
 30
0.0
  3
*U48
  1

  0
TEXT
  5
F80
  8
RAHM2
 10
-26.3624422164166
 20
26.250000000000028
 30
0.0
 40
2.5
  1
・  ・
  0
ENDBLK
  5
F82
  8
0
  0
BLOCK
  8
0
  2
*U49
 70
     1
 10
0.0
 20
0.0
 30
0.0
  3
*U49
  1

  0
TEXT
  5
F84
  8
RAHM2
 10
-26.3624422164166
 20
46.250000000000021
 30
0.0
 40
2.5
  1
・  ・
  0
ENDBLK
  5
F86
  8
0
  0
BLOCK
  8
0
  2
*U50
 70
     1
 10
0.0
 20
0.0
 30
0.0
  3
*U50
  1

  0
TEXT
  5
F88
  8
RAHM2
 10
-26.3624422164166
 20
36.250000000000028
 30
0.0
 40
2.5
  1
・  ・
  0
ENDBLK
  5
F8A
  8
0
  0
BLOCK
  8
0
  2
*U51
 70
     1
 10
0.0
 20
0.0
 30
0.0
  3
*U51
  1

  0
TEXT
  5
F8C
  8
RAHM2
 10
-26.3624422164166
 20
41.250000000000021
 30
0.0
 40
2.5
  1
・  ・
  0
ENDBLK
  5
F8E
  8
0
  0
BLOCK
  8
0
  2
*U52
 70
     1
 10
0.0
 20
0.0
 30
0.0
  3
*U52
  1

  0
TEXT
  5
F90
  8
RAHM2
 10
-8.4937430386778097
 20
21.249999999999972
 30
0.0
 40
2.5
  1
担当
  0
ENDBLK
  5
F92
  8
0
  0
BLOCK
  8
0
  2
*U53
 70
     1
 10
0.0
 20
0.0
 30
0.0
  3
*U53
  1

  0
TEXT
  5
F94
  8
RAHM2
 10
-28.558939215691112
 20
21.249999999999972
 30
0.0
 40
2.5
  1
年・月・日
  0
ENDBLK
  5
F96
  8
0
  0
BLOCK
  8
0
  2
*U54
 70
     1
 10
0.0
 20
0.0
 30
0.0
  3
*U54
  1

  0
TEXT
  5
F98
  8
RAHM2
 10
-26.3624422164166
 20
31.250000000000028
 30
0.0
 40
2.5
  1
・  ・
  0
ENDBLK
  5
F9A
  8
0
  0
BLOCK
  8
0
  2
*U55
 70
     1
 10
0.0
 20
0.0
 30
0.0
  3
*U55
  1

  0
TEXT
  5
F9C
  8
RAHM2
 10
-64.666666666666671
 20
21.249999999999961
 30
0.0
 40
2.5
  1
変更記事
  0
ENDBLK
  5
F9E
  8
0
  0
BLOCK
  8
0
  2
*U56
 70
     1
 10
0.0
 20
0.0
 30
0.0
  3
*U56
  1

  0
TEXT
  5
FA0
  8
RAHM2
 10
-94.800255137131444
 20
16.301035407279599
 30
0.0
 40
2.5
  1
品名
  0
ENDBLK
  5
FA2
  8
0
  0
BLOCK
  8
0
  2
*U57
 70
     1
 10
0.0
 20
0.0
 30
0.0
  3
*U57
  1

  0
TEXT
  5
FA4
  8
RAHM2
 10
-93.666666666666671
 20
21.249999999999961
 30
0.0
 40
2.5
  1
符号
  0
ENDBLK
  5
FA6
  8
0
  0
BLOCK
  8
0
  2
*U58
 70
     1
 10
0.0
 20
0.0
 30
0.0
  3
*U58
  1

  0
TEXT
  5
FA8
  8
RAHM2
 10
-94.966921803798115
 20
3.3010354072796271
 30
0.0
 40
2.5
  1
図番
  0
ENDBLK
  5
FAA
  8
0
  0
BLOCK
  8
0
  2
*U59
 70
     1
 10
0.0
 20
0.0
 30
0.0
  3
*U59
  1

  0
TEXT
  5
FAC
  8
RAHM2
 10
-19.982425929334909
 20
2.1847624665659851
 30
0.0
 40
2.5
  1
Rev.
  0
ENDBLK
  5
FAE
  8
0
  0
BLOCK
  8
0
  2
*U60
 70
     1
 10
0.0
 20
0.0
 30
0.0
  3
*U60
  1

  0
TEXT
  5
FB0
  8
RAHM2
 10
-107.4583333333333
 20
16.301035407279571
 30
0.0
 40
2.5
  1
製図
  0
ENDBLK
  5
FB2
  8
0
  0
BLOCK
  8
0
  2
*U61
 70
     1
 10
0.0
 20
0.0
 30
0.0
  3
*U61
  1

  0
TEXT
  5
FB4
  8
RAHM2
 10
-125.2083333333334
 20
16.301035407279581
 30
0.0
 40
2.5
  1
検図
  0
ENDBLK
  5
FB6
  8
0
  0
BLOCK
  8
0
  2
*U62
 70
     1
 10
0.0
 20
0.0
 30
0.0
  3
*U62
  1

  0
TEXT
  5
FB8
  8
RAHM2
 10
-143.04166666666671
 20
16.301035407279581
 30
0.0
 40
2.5
  1
承認
  0
ENDBLK
  5
FBA
  8
0
  0
BLOCK
  8
0
  2
*U63
 70
     1
 10
0.0
 20
0.0
 30
0.0
  3
*U63
  1

  0
TEXT
  5
FBC
  8
RAHM2
 10
-160.79166666666671
 20
16.30103540727956
 30
0.0
 40
2.5
  1
承認
  0
ENDBLK
  5
FBE
  8
0
  0
BLOCK
  8
0
  2
*U64
 70
     1
 10
0.0
 20
0.0
 30
0.0
  3
*U64
  1

  0
TEXT
  5
FC0
  8
0
 10
-156.4263959390864
 20
23.418781725888241
 30
0.0
 40
3.5
  1
株式会社タカチ電機工業
  0
ENDBLK
  5
FC2
  8
0
  0
BLOCK
  8
0
  2
*U65
 70
     1
 10
0.0
 20
0.0
 30
0.0
  3
*U65
  1

  0
TEXT
  5
FC4
  8
RAHM2
 10
-165.80025513713139
 20
46.301035407279549
 30
0.0
 40
2.5
  1
材質
  0
ENDBLK
  5
FC6
  8
0
  0
BLOCK
  8
0
  2
*U66
 70
     1
 10
0.0
 20
0.0
 30
0.0
  3
*U66
  1

  0
TEXT
  5
FC8
  8
RAHM2
 10
-165.80025513713139
 20
36.301035407279556
 30
0.0
 40
2.5
  1
表面処理
  0
ENDBLK
  5
FCA
  8
0
  0
BLOCK
  8
0
  2
*U67
 70
     1
 10
0.0
 20
0.0
 30
0.0
  3
*U67
  1

  0
TEXT
  5
FCC
  8
RAHM2
 10
-191.8002551371315
 20
21.301035407279631
 30
0.0
 40
2.5
  1
数量
  0
ENDBLK
  5
FCE
  8
0
  0
BLOCK
  8
0
  2
*U68
 70
     1
 10
0.0
 20
0.0
 30
0.0
  3
*U68
  1

  0
TEXT
  5
FD0
  8
RAHM2
 10
-191.8002551371315
 20
33.801035407279663
 30
0.0
 40
2.5
  1
尺度
  0
ENDBLK
  5
FD2
  8
0
  0
BLOCK
  8
0
  2
*U69
 70
     1
 10
0.0
 20
0.0
 30
0.0
  3
*U69
  1

  0
TEXT
  5
FD4
  8
RAHM2
 10
-192.1335884704649
 20
8.8010354072796062
 30
0.0
 40
2.5
  1
日付
  0
ENDBLK
  5
FD6
  8
0
  0
BLOCK
  8
0
  2
*U70
 70
     1
 10
0.0
 20
0.0
 30
0.0
  3
*U70
  1

  0
TEXT
  5
FDD
  8
0
 10
150.48429538273481
 20
276.233542987227
 30
0.0
 40
2.5
  1
(文書番号：TY-34)2008.02.08
  0
ENDBLK
  5
FDF
  8
0
  0
BLOCK
  8
0
  2
*U71
 70
     1
 10
0.0
 20
0.0
 30
0.0
  3
*U71
  1

  0
TEXT
  5
FE1
  8
RAHM2
 10
-16.078812129508449
 20
16.458005618597319
 30
0.0
 40
2.5
  1
製図
  0
ENDBLK
  5
FE3
  8
0
  0
BLOCK
  8
0
  2
*U72
 70
     1
 10
0.0
 20
0.0
 30
0.0
  3
*U72
  1

  0
TEXT
  5
FE5
  8
RAHM2
 10
-39.751205889295498
 20
16.42584712714763
 30
0.0
 40
2.5
  1
検図
  0
ENDBLK
  5
FE7
  8
0
  0
BLOCK
  8
0
  2
*U73
 70
     1
 10
0.0
 20
0.0
 30
0.0
  3
*U73
  1

  0
TEXT
  5
FE9
  8
RAHM2
 10
-65.095568867245262
 20
16.301035407279599
 30
0.0
 40
2.5
  1
承認
  0
ENDBLK
  5
FEB
  8
0
  0
BLOCK
  8
0
  2
*U74
 70
     1
 10
0.0
 20
0.0
 30
0.0
  3
*U74
  1

  0
TEXT
  5
FED
  8
0
 10
-64.055618351323432
 20
25.058937204965961
 30
0.0
 40
3.5
  1
株式会社タカチ電機工業
  0
ENDBLK
  5
FEF
  8
0
  0
BLOCK
  8
0
  2
*U75
 70
     1
 10
0.0
 20
0.0
 30
0.0
  3
*U75
  1

  0
TEXT
  5
FF1
  8
RAHM2
 10
-156.80025513713139
 20
31.30103540727967
 30
0.0
 40
2.5
  1
品名
  0
ENDBLK
  5
FF3
  8
0
  0
BLOCK
  8
0
  2
*U76
 70
     1
 10
0.0
 20
0.0
 30
0.0
  3
*U76
  1

  0
TEXT
  5
FF5
  8
RAHM2
 10
-156.80025513713139
 20
16.30103540727961
 30
0.0
 40
2.5
  1
型番
  0
ENDBLK
  5
FF7
  8
0
  0
BLOCK
  8
0
  2
*U77
 70
     1
 10
0.0
 20
0.0
 30
0.0
  3
*U77
  1

  0
TEXT
  5
FF9
  8
RAHM2
 10
-156.9669218037981
 20
3.3010354072796271
 30
0.0
 40
2.5
  1
図番
  0
ENDBLK
  5
FFB
  8
0
  0
BLOCK
  8
0
  2
*U78
 70
     1
 10
0.0
 20
0.0
 30
0.0
  3
*U78
  1

  0
TEXT
  5
FFD
  8
RAHM2
 10
-191.80025513713139
 20
19.30103540727967
 30
0.0
 40
2.5
  1
尺度
  0
ENDBLK
  5
FFF
  8
0
  0
BLOCK
  8
0
  2
*U79
 70
     1
 10
0.0
 20
0.0
 30
0.0
  3
*U79
  1

  0
TEXT
  5
1001
  8
RAHM2
 10
-191.80025513713139
 20
8.3010354072796417
 30
0.0
 40
2.5
  1
作成日
  0
ENDBLK
  5
1003
  8
0
  0
BLOCK
  8
0
  2
*U80
 70
     1
 10
0.0
 20
0.0
 30
0.0
  3
*U80
  1

  0
TEXT
  5
1005
  8
RAHM2
 10
-26.3624422164166
 20
26.250000000000028
 30
0.0
 40
2.5
  1
・  ・
  0
ENDBLK
  5
1007
  8
0
  0
BLOCK
  8
0
  2
*U81
 70
     1
 10
0.0
 20
0.0
 30
0.0
  3
*U81
  1

  0
TEXT
  5
1009
  8
RAHM2
 10
-26.3624422164166
 20
46.250000000000021
 30
0.0
 40
2.5
  1
・  ・
  0
ENDBLK
  5
100B
  8
0
  0
BLOCK
  8
0
  2
*U82
 70
     1
 10
0.0
 20
0.0
 30
0.0
  3
*U82
  1

  0
TEXT
  5
100D
  8
RAHM2
 10
-26.3624422164166
 20
36.250000000000028
 30
0.0
 40
2.5
  1
・  ・
  0
ENDBLK
  5
100F
  8
0
  0
BLOCK
  8
0
  2
*U83
 70
     1
 10
0.0
 20
0.0
 30
0.0
  3
*U83
  1

  0
TEXT
  5
1011
  8
RAHM2
 10
-26.3624422164166
 20
41.250000000000021
 30
0.0
 40
2.5
  1
・  ・
  0
ENDBLK
  5
1013
  8
0
  0
BLOCK
  8
0
  2
*U84
 70
     1
 10
0.0
 20
0.0
 30
0.0
  3
*U84
  1

  0
TEXT
  5
1015
  8
RAHM2
 10
-8.4937430386778097
 20
21.249999999999972
 30
0.0
 40
2.5
  1
担当
  0
ENDBLK
  5
1017
  8
0
  0
BLOCK
  8
0
  2
*U85
 70
     1
 10
0.0
 20
0.0
 30
0.0
  3
*U85
  1

  0
TEXT
  5
1019
  8
RAHM2
 10
-28.558939215691112
 20
21.249999999999972
 30
0.0
 40
2.5
  1
年・月・日
  0
ENDBLK
  5
101B
  8
0
  0
BLOCK
  8
0
  2
*U86
 70
     1
 10
0.0
 20
0.0
 30
0.0
  3
*U86
  1

  0
TEXT
  5
101D
  8
RAHM2
 10
-26.3624422164166
 20
31.250000000000028
 30
0.0
 40
2.5
  1
・  ・
  0
ENDBLK
  5
101F
  8
0
  0
BLOCK
  8
0
  2
*U87
 70
     1
 10
0.0
 20
0.0
 30
0.0
  3
*U87
  1

  0
TEXT
  5
1021
  8
RAHM2
 10
-64.666666666666671
 20
21.249999999999961
 30
0.0
 40
2.5
  1
変更記事
  0
ENDBLK
  5
1023
  8
0
  0
BLOCK
  8
0
  2
*U88
 70
     1
 10
0.0
 20
0.0
 30
0.0
  3
*U88
  1

  0
TEXT
  5
1025
  8
RAHM2
 10
-94.800255137131444
 20
16.301035407279599
 30
0.0
 40
2.5
  1
品名
  0
ENDBLK
  5
1027
  8
0
  0
BLOCK
  8
0
  2
*U89
 70
     1
 10
0.0
 20
0.0
 30
0.0
  3
*U89
  1

  0
TEXT
  5
1029
  8
RAHM2
 10
-93.666666666666671
 20
21.249999999999961
 30
0.0
 40
2.5
  1
符号
  0
ENDBLK
  5
102B
  8
0
  0
BLOCK
  8
0
  2
*U90
 70
     1
 10
0.0
 20
0.0
 30
0.0
  3
*U90
  1

  0
TEXT
  5
102D
  8
RAHM2
 10
-94.966921803798115
 20
3.3010354072796271
 30
0.0
 40
2.5
  1
図番
  0
ENDBLK
  5
102F
  8
0
  0
BLOCK
  8
0
  2
*U91
 70
     1
 10
0.0
 20
0.0
 30
0.0
  3
*U91
  1

  0
TEXT
  5
1031
  8
RAHM2
 10
-19.982425929334909
 20
2.1847624665659851
 30
0.0
 40
2.5
  1
Rev.
  0
ENDBLK
  5
1033
  8
0
  0
BLOCK
  8
0
  2
*U92
 70
     1
 10
0.0
 20
0.0
 30
0.0
  3
*U92
  1

  0
TEXT
  5
1035
  8
RAHM2
 10
-107.4583333333333
 20
16.301035407279571
 30
0.0
 40
2.5
  1
製図
  0
ENDBLK
  5
1037
  8
0
  0
BLOCK
  8
0
  2
*U93
 70
     1
 10
0.0
 20
0.0
 30
0.0
  3
*U93
  1

  0
TEXT
  5
1039
  8
RAHM2
 10
-125.2083333333334
 20
16.301035407279581
 30
0.0
 40
2.5
  1
検図
  0
ENDBLK
  5
103B
  8
0
  0
BLOCK
  8
0
  2
*U94
 70
     1
 10
0.0
 20
0.0
 30
0.0
  3
*U94
  1

  0
TEXT
  5
103D
  8
RAHM2
 10
-143.04166666666671
 20
16.301035407279581
 30
0.0
 40
2.5
  1
承認
  0
ENDBLK
  5
103F
  8
0
  0
BLOCK
  8
0
  2
*U95
 70
     1
 10
0.0
 20
0.0
 30
0.0
  3
*U95
  1

  0
TEXT
  5
1041
  8
RAHM2
 10
-160.79166666666671
 20
16.30103540727956
 30
0.0
 40
2.5
  1
承認
  0
ENDBLK
  5
1043
  8
0
  0
BLOCK
  8
0
  2
*U96
 70
     1
 10
0.0
 20
0.0
 30
0.0
  3
*U96
  1

  0
TEXT
  5
1045
  8
0
 10
-156.4263959390864
 20
23.418781725888241
 30
0.0
 40
3.5
  1
株式会社タカチ電機工業
  0
ENDBLK
  5
1047
  8
0
  0
BLOCK
  8
0
  2
*U97
 70
     1
 10
0.0
 20
0.0
 30
0.0
  3
*U97
  1

  0
TEXT
  5
1049
  8
RAHM2
 10
-165.80025513713139
 20
46.301035407279549
 30
0.0
 40
2.5
  1
材質
  0
ENDBLK
  5
104B
  8
0
  0
BLOCK
  8
0
  2
*U98
 70
     1
 10
0.0
 20
0.0
 30
0.0
  3
*U98
  1

  0
TEXT
  5
104D
  8
RAHM2
 10
-165.80025513713139
 20
36.301035407279556
 30
0.0
 40
2.5
  1
表面処理
  0
ENDBLK
  5
104F
  8
0
  0
BLOCK
  8
0
  2
*U99
 70
     1
 10
0.0
 20
0.0
 30
0.0
  3
*U99
  1

  0
TEXT
  5
1051
  8
RAHM2
 10
-191.8002551371315
 20
21.301035407279631
 30
0.0
 40
2.5
  1
数量
  0
ENDBLK
  5
1053
  8
0
  0
BLOCK
  8
0
  2
*U100
 70
     1
 10
0.0
 20
0.0
 30
0.0
  3
*U100
  1

  0
TEXT
  5
1055
  8
RAHM2
 10
-191.8002551371315
 20
33.801035407279663
 30
0.0
 40
2.5
  1
尺度
  0
ENDBLK
  5
1057
  8
0
  0
BLOCK
  8
0
  2
*U101
 70
     1
 10
0.0
 20
0.0
 30
0.0
  3
*U101
  1

  0
TEXT
  5
1059
  8
RAHM2
 10
-192.1335884704649
 20
8.8010354072796062
 30
0.0
 40
2.5
  1
日付
  0
ENDBLK
  5
105B
  8
0
  0
BLOCK
  8
0
  2
*U102
 70
     1
 10
0.0
 20
0.0
 30
0.0
  3
*U102
  1

  0
TEXT
  5
105D
  8
AM_5
 62
     2
 10
102.9030097593257
 20
352.68911543506118
 30
0.0
 40
7.0
  1
4.5
  0
ENDBLK
  5
105F
  8
0
  0
BLOCK
  8
0
  2
*U103
 70
     1
 10
0.0
 20
0.0
 30
0.0
  3
*U103
  1

  0
TEXT
  5
1061
  8
AM_5
 62
     2
 10
118.5883446748412
 20
373.06773581781232
 30
0.0
 40
7.0
  1
7
  0
ENDBLK
  5
1063
  8
0
  0
BLOCK
  8
0
  2
*U104
 70
     1
 10
0.0
 20
0.0
 30
0.0
  3
*U104
  1

  0
TEXT
  5
1065
  8
AM_5
 62
     2
 10
147.87237596679711
 20
353.62136411771297
 30
0.0
 40
7.0
  1
9.5
  0
ENDBLK
  5
1067
  8
0
  0
BLOCK
  8
0
  2
*U105
 70
     1
 10
0.0
 20
0.0
 30
0.0
  3
*U105
  1

  0
TEXT
  5
1069
  8
AM_5
 62
     2
 10
198.21190133778711
 20
393.95430203620759
 30
0.0
 40
7.0
  1
(187.5)
  0
ENDBLK
  5
106B
  8
0
  0
BLOCK
  8
0
  2
*U106
 70
     1
 10
0.0
 20
0.0
 30
0.0
  3
*U106
  1

  0
TEXT
  5
106D
  8
AM_5
 62
     2
 10
92.169961655394729
 20
309.59246620865702
 30
0.0
 40
7.0
  1
12.5
 50
90.0
  0
ENDBLK
  5
106F
  8
0
  0
BLOCK
  8
0
  2
*U107
 70
     1
 10
0.0
 20
0.0
 30
0.0
  3
*U107
  1

  0
TEXT
  5
1071
  8
AM_5
 62
     2
 10
71.792029005310269
 20
310.10231521357917
 30
0.0
 40
7.0
  1
16.5
 50
90.0
  0
ENDBLK
  5
1073
  8
0
  0
BLOCK
  8
0
  2
*U108
 70
     1
 10
0.0
 20
0.0
 30
0.0
  3
*U108
  1

  0
TEXT
  5
1096
  8
AM_5
 62
     2
 10
84.207523539808392
 20
303.31649663619368
 30
0.0
 40
7.0
  1
12.5
 50
90.0
  0
ENDBLK
  5
1098
  8
0
  0
BLOCK
  8
0
  2
*U109
 70
     1
 10
0.0
 20
0.0
 30
0.0
  3
*U109
  1

  0
TEXT
  5
109A
  8
AM_5
 62
     2
 10
63.829590889723931
 20
303.82634564111589
 30
0.0
 40
7.0
  1
16.5
 50
90.0
  0
ENDBLK
  5
109C
  8
0
  0
BLOCK
  8
0
  2
*U110
 70
     1
 10
0.0
 20
0.0
 30
0.0
  3
*U110
  1

  0
TEXT
  5
10A7
  8
AM_5
 62
     2
 10
181.00729918305959
 20
384.12516733756831
 30
0.0
 40
7.0
  1
(187.5)
  0
ENDBLK
  5
10A9
  8
0
  0
ENDSEC
  0
SECTION
  2
ENTITIES
  0
INSERT
  5
782
  8
0
  2
TK-A4
 10
0.0
 20
0.0
 30
0.0
 41
2.0
 42
2.0
 43
2.0
1001
GENIUS_GENOREF_13
1005
7C1
1001
GENIUS_GENOBJ-N-SDF_13
1002
{
1000
OWNER
1000
GEN
1002
}
1001
GENIUS_GENODEF_13
1002
{
1000
HIER
1070
     0
1002
}
1002
{
1000
MANEDIT
1070
     0
1002
}
1002
{
1000
NOSEL
1070
     0
1002
}
1002
{
1000
BEHIND
1070
     0
1002
}
1002
{
1000
OTHER
1070
     0
1002
}
1002
{
1000
REACTOR
1002
}
1001
GENIUS_GENSCREG_13
1040
2.0
1040
1.0
1011
0.0
1021
0.0
1031
-4.7510358937976968E+279
1021
0.0
1031
0.0
1011
386.0
1021
0.0
1031
-4.7510358937976968E+279
1021
560.00000000000011
1031
0.0
1070
     3
  0
INSERT
  5
7B7
  8
0
 66
     1
  2
TK-製作図面
 10
386.0
 20
0.0
 30
0.0
 41
2.0
 42
2.0
 43
2.0
1001
GENIUS_GENOREF_13
1005
7C1
  0
ATTRIB
  5
821
  8
0
 10
369.9953816209084
 20
3.410378868790072
 30
0.0
 40
5.0
  1

  2
GEN-TITLE-NR2
 70
     0
  0
ATTRIB
  5
822
  8
0
 10
217.71496196829341
 20
25.655808651287551
 30
0.0
 40
7.0
  1
SBR95-20P
  2
GEN-TITLE-DES1
 70
     0
  0
ATTRIB
  5
823
  8
0
 10
218.0
 20
18.299999999999901
 30
0.0
 40
5.0
  1
SBR型ショートバー
  2
GEN-TITLE-DES2
 70
     0
  0
ATTRIB
  5
824
  8
0
 10
218.0
 20
3.9999999999999138
 30
0.0
 40
6.0
  1

  2
GEN-TITLE-NR1
 70
     0
  0
ATTRIB
  5
825
  8
0
 10
88.076264832941661
 20
86.599999999999824
 30
0.0
 40
6.0
  1
黄銅
  2
GEN-TITLE-MAT1
 70
     0
  0
ATTRIB
  5
826
  8
0
 10
88.076264832941661
 20
66.599999999999824
 30
0.0
 40
6.0
  1
ニッケルメッキ
  2
GEN-TITLE-MAT2
 70
     0
  0
ATTRIB
  5
827
  8
0
 10
34.774518174780951
 20
32.399999999999878
 30
0.0
 40
6.0
  1

 72
     2
 11
34.774518174780951
 21
31.599999999999881
 31
0.0
  2
GEN-TITLE-QTY
 70
     0
 74
     1
  0
ATTRIB
  5
828
  8
0
 10
21.89016644044322
 20
57.399999999999942
 30
0.0
 40
6.0
  1
1:2
 72
     2
 11
30.350520771151881
 21
56.599999999999952
 31
0.0
  2
GEN-TITLE-SCA
 70
     0
 74
     1
  0
ATTRIB
  5
829
  8
0
 10
5.0616136045801801
 20
7.9766850752213276
 30
0.0
 40
6.0
  1
2012/06/22
 72
     1
 11
25.565609667572289
 21
7.1766850752213278
 31
0.0
  2
GEN-TITLE-DAT
 70
     0
 74
     1
  0
SEQEND
  5
820
  8
0
  0
POINT
  5
7C1
  8
0
 10
0.0
 20
0.0
 30
0.0
1001
GENIUS_GENOBJ-N-TIT_13
1002
{
1000
OWNER
1000
GEN
1002
}
1001
GENIUS_GENOENT_13
1002
{
1000
MYREF
1005
7C1
1002
}
1002
{
1000
GRP
1005
0
1002
}
1001
GENIUS_GENODEF_13
1002
{
1000
HIER
1070
     1
1002
}
1002
{
1000
MANEDIT
1070
     0
1002
}
1002
{
1000
NOSEL
1070
     0
1002
}
1002
{
1000
BEHIND
1070
     0
1002
}
1002
{
1000
OTHER
1070
     0
1002
}
1002
{
1000
REACTOR
1002
}
1001
GENIUS_GENOLIS_13
1002
{
1000
ENT
1005
7B7
1005
782
1002
}
1001
GENIUS_GENTITLE_13
1002
{
1000
BORDER
1000
C:\Program Files\Autodesk\MDT 2007\Acadm\gen\Dwg\Format\TK-A4
1002
}
1002
{
1000
TITLE
1000
TK-製作図面
1002
}
1002
{
1000
ADDITIONAL1
1000

1002
}
1002
{
1000
ADDITIONAL2
1000

1002
}
1002
{
1000
SCALE
1000
1:2
1002
}
1002
{
1000
TITLESTD
1000
ISO
1002
}
1002
{
1000
HRA
1005
782
1002
}
1002
{
1000
HTIT
1005
7B7
1002
}
1002
{
1000
GENIUSID
1005
7C1
1002
}
1002
{
1000
INVTXTID
1005
0
1002
}
1002
{
1000
UNCHG
1002
{
1000
GEN-TITLE-SIZ
1000
GEN-TITLE-SCA
1002
}
1002
}
  0
LINE
  5
A4B
  8
TK1
 10
100.2072991830596
 20
307.43915868614482
 30
0.0
 11
100.2072991830596
 21
315.73915868614478
 31
0.0
  0
ARC
  5
A4C
  8
TK1
 10
100.7072991830596
 20
315.73915868614478
 30
0.0
 40
0.5
 50
90.0
 51
180.0
1001
GENIUS_GENOBJ-N-FIL_13
1002
{
1000
OWNER
1000
GEN
1002
}
1001
GENIUS_GENODEF_13
1002
{
1000
HIER
1070
     0
1002
}
1002
{
1000
MANEDIT
1070
     0
1002
}
1002
{
1000
NOSEL
1070
     0
1002
}
1002
{
1000
BEHIND
1070
     0
1002
}
1002
{
1000
OTHER
1070
     0
1002
}
1002
{
1000
REACTOR
1002
}
  0
LINE
  5
A4D
  8
TK1
 10
100.7072991830596
 20
316.23915868614478
 30
0.0
 11
100.9572991830596
 21
316.23915868614478
 31
0.0
  0
LINE
  5
A4E
  8
TK1
 10
106.4572991830596
 20
316.23915868614478
 30
0.0
 11
106.7072991830596
 21
316.23915868614478
 31
0.0
  0
ARC
  5
A4F
  8
TK1
 10
106.4572991830596
 20
315.73915868614478
 30
0.0
 40
0.5
 50
90.0
 51
180.0
1001
GENIUS_GENODEF_13
1002
{
1000
HIER
1070
     0
1002
}
1002
{
1000
MANEDIT
1070
     0
1002
}
1002
{
1000
NOSEL
1070
     0
1002
}
1002
{
1000
BEHIND
1070
     0
1002
}
1002
{
1000
OTHER
1070
     0
1002
}
1002
{
1000
REACTOR
1002
}
1001
GENIUS_GENOBJ-N-FIL_13
1002
{
1000
OWNER
1000
GEN
1002
}
  0
LINE
  5
A50
  8
TK1
 10
107.2072991830596
 20
315.73915868614478
 30
0.0
 11
107.2072991830596
 21
307.43915868614482
 31
0.0
  0
ARC
  5
A51
  8
TK1
 10
106.7072991830596
 20
315.73915868614478
 30
0.0
 40
0.5
 50
0.0
 51
90.0
1001
GENIUS_GENODEF_13
1002
{
1000
HIER
1070
     0
1002
}
1002
{
1000
MANEDIT
1070
     0
1002
}
1002
{
1000
NOSEL
1070
     0
1002
}
1002
{
1000
BEHIND
1070
     0
1002
}
1002
{
1000
OTHER
1070
     0
1002
}
1002
{
1000
REACTOR
1002
}
1001
GENIUS_GENOBJ-N-FIL_13
1002
{
1000
OWNER
1000
GEN
1002
}
  0
LINE
  5
A52
  8
TK1
 10
102.2072991830596
 20
306.73915868614478
 30
0.0
 11
102.2072991830596
 21
305.23915868614478
 31
0.0
  0
ARC
  5
A57
  8
TK1
 10
103.7072991830596
 20
312.23915868614478
 30
0.0
 40
2.25
 50
180.0
 51
0.0
  0
LINE
  5
A58
  8
TK1
 10
105.9572991830596
 20
315.73915868614478
 30
0.0
 11
105.9572991830596
 21
312.23915868614478
 31
0.0
  0
LINE
  5
A59
  8
TK1
 10
101.4572991830596
 20
315.73915868614478
 30
0.0
 11
101.4572991830596
 21
312.23915868614478
 31
0.0
  0
ARC
  5
A5A
  8
TK1
 10
100.9572991830596
 20
315.73915868614478
 30
0.0
 40
0.5
 50
0.0
 51
90.0
1001
GENIUS_GENOBJ-N-FIL_13
1002
{
1000
OWNER
1000
GEN
1002
}
1001
GENIUS_GENODEF_13
1002
{
1000
HIER
1070
     0
1002
}
1002
{
1000
MANEDIT
1070
     0
1002
}
1002
{
1000
NOSEL
1070
     0
1002
}
1002
{
1000
BEHIND
1070
     0
1002
}
1002
{
1000
OTHER
1070
     0
1002
}
1002
{
1000
REACTOR
1002
}
  0
LINE
  5
A5B
  8
TK1
 10
107.2072991830596
 20
307.43915868614482
 30
0.0
 11
105.2072991830596
 21
306.73915868614478
 31
0.0
  0
LINE
  5
A5C
  8
TK1
 10
100.2072991830596
 20
307.43915868614482
 30
0.0
 11
102.2072991830596
 21
306.73915868614478
 31
0.0
  0
LINE
  5
A5F
  8
TK1
 10
109.7072991830596
 20
307.43915868614482
 30
0.0
 11
109.7072991830596
 21
315.73915868614478
 31
0.0
  0
LINE
  5
A60
  8
TK1
 10
110.2072991830596
 20
316.23915868614478
 30
0.0
 11
110.4572991830596
 21
316.23915868614478
 31
0.0
  0
ARC
  5
A61
  8
TK1
 10
110.2072991830596
 20
315.73915868614478
 30
0.0
 40
0.5
 50
90.0
 51
180.0
1001
GENIUS_GENODEF_13
1002
{
1000
HIER
1070
     0
1002
}
1002
{
1000
MANEDIT
1070
     0
1002
}
1002
{
1000
NOSEL
1070
     0
1002
}
1002
{
1000
BEHIND
1070
     0
1002
}
1002
{
1000
OTHER
1070
     0
1002
}
1002
{
1000
REACTOR
1002
}
1001
GENIUS_GENOBJ-N-FIL_13
1002
{
1000
OWNER
1000
GEN
1002
}
  0
LINE
  5
A62
  8
TK1
 10
115.9572991830596
 20
316.23915868614478
 30
0.0
 11
116.2072991830596
 21
316.23915868614478
 31
0.0
  0
ARC
  5
A63
  8
TK1
 10
115.9572991830596
 20
315.73915868614478
 30
0.0
 40
0.5
 50
90.0
 51
180.0
1001
GENIUS_GENODEF_13
1002
{
1000
HIER
1070
     0
1002
}
1002
{
1000
MANEDIT
1070
     0
1002
}
1002
{
1000
NOSEL
1070
     0
1002
}
1002
{
1000
BEHIND
1070
     0
1002
}
1002
{
1000
OTHER
1070
     0
1002
}
1002
{
1000
REACTOR
1002
}
1001
GENIUS_GENOBJ-N-FIL_13
1002
{
1000
OWNER
1000
GEN
1002
}
  0
LINE
  5
A64
  8
TK1
 10
116.7072991830596
 20
315.73915868614478
 30
0.0
 11
116.7072991830596
 21
307.43915868614482
 31
0.0
  0
ARC
  5
A65
  8
TK1
 10
116.2072991830596
 20
315.73915868614478
 30
0.0
 40
0.5
 50
0.0
 51
90.0
1001
GENIUS_GENOBJ-N-FIL_13
1002
{
1000
OWNER
1000
GEN
1002
}
1001
GENIUS_GENODEF_13
1002
{
1000
HIER
1070
     0
1002
}
1002
{
1000
MANEDIT
1070
     0
1002
}
1002
{
1000
NOSEL
1070
     0
1002
}
1002
{
1000
BEHIND
1070
     0
1002
}
1002
{
1000
OTHER
1070
     0
1002
}
1002
{
1000
REACTOR
1002
}
  0
LINE
  5
A66
  8
TK1
 10
111.7072991830596
 20
306.73915868614478
 30
0.0
 11
111.7072991830596
 21
305.23915868614478
 31
0.0
  0
ARC
  5
A68
  8
TK1
 10
113.2072991830596
 20
312.23915868614478
 30
0.0
 40
2.25
 50
180.0
 51
0.0
  0
LINE
  5
A69
  8
TK1
 10
115.4572991830596
 20
315.73915868614478
 30
0.0
 11
115.4572991830596
 21
312.23915868614478
 31
0.0
  0
LINE
  5
A6A
  8
TK1
 10
110.9572991830596
 20
315.73915868614478
 30
0.0
 11
110.9572991830596
 21
312.23915868614478
 31
0.0
  0
ARC
  5
A6B
  8
TK1
 10
110.4572991830596
 20
315.73915868614478
 30
0.0
 40
0.5
 50
0.0
 51
90.0
1001
GENIUS_GENODEF_13
1002
{
1000
HIER
1070
     0
1002
}
1002
{
1000
MANEDIT
1070
     0
1002
}
1002
{
1000
NOSEL
1070
     0
1002
}
1002
{
1000
BEHIND
1070
     0
1002
}
1002
{
1000
OTHER
1070
     0
1002
}
1002
{
1000
REACTOR
1002
}
1001
GENIUS_GENOBJ-N-FIL_13
1002
{
1000
OWNER
1000
GEN
1002
}
  0
LINE
  5
A6C
  8
TK1
 10
116.7072991830596
 20
307.43915868614482
 30
0.0
 11
114.7072991830596
 21
306.73915868614478
 31
0.0
  0
LINE
  5
A6D
  8
TK1
 10
109.7072991830596
 20
307.43915868614482
 30
0.0
 11
111.7072991830596
 21
306.73915868614478
 31
0.0
  0
LINE
  5
A70
  8
TK1
 10
119.2072991830596
 20
307.43915868614482
 30
0.0
 11
119.2072991830596
 21
315.73915868614472
 31
0.0
  0
LINE
  5
A71
  8
TK1
 10
119.7072991830596
 20
316.23915868614472
 30
0.0
 11
119.9572991830596
 21
316.23915868614472
 31
0.0
  0
ARC
  5
A72
  8
TK1
 10
119.7072991830596
 20
315.73915868614472
 30
0.0
 40
0.5
 50
90.0
 51
180.0
1001
GENIUS_GENODEF_13
1002
{
1000
HIER
1070
     0
1002
}
1002
{
1000
MANEDIT
1070
     0
1002
}
1002
{
1000
NOSEL
1070
     0
1002
}
1002
{
1000
BEHIND
1070
     0
1002
}
1002
{
1000
OTHER
1070
     0
1002
}
1002
{
1000
REACTOR
1002
}
1001
GENIUS_GENOBJ-N-FIL_13
1002
{
1000
OWNER
1000
GEN
1002
}
  0
LINE
  5
A73
  8
TK1
 10
125.4572991830596
 20
316.23915868614472
 30
0.0
 11
125.7072991830596
 21
316.23915868614472
 31
0.0
  0
ARC
  5
A74
  8
TK1
 10
125.4572991830596
 20
315.73915868614472
 30
0.0
 40
0.5
 50
90.0
 51
180.0
1001
GENIUS_GENOBJ-N-FIL_13
1002
{
1000
OWNER
1000
GEN
1002
}
1001
GENIUS_GENODEF_13
1002
{
1000
HIER
1070
     0
1002
}
1002
{
1000
MANEDIT
1070
     0
1002
}
1002
{
1000
NOSEL
1070
     0
1002
}
1002
{
1000
BEHIND
1070
     0
1002
}
1002
{
1000
OTHER
1070
     0
1002
}
1002
{
1000
REACTOR
1002
}
  0
LINE
  5
A75
  8
TK1
 10
126.2072991830596
 20
315.73915868614472
 30
0.0
 11
126.2072991830596
 21
307.43915868614482
 31
0.0
  0
ARC
  5
A76
  8
TK1
 10
125.7072991830596
 20
315.73915868614472
 30
0.0
 40
0.5
 50
0.0
 51
90.0
1001
GENIUS_GENODEF_13
1002
{
1000
HIER
1070
     0
1002
}
1002
{
1000
MANEDIT
1070
     0
1002
}
1002
{
1000
NOSEL
1070
     0
1002
}
1002
{
1000
BEHIND
1070
     0
1002
}
1002
{
1000
OTHER
1070
     0
1002
}
1002
{
1000
REACTOR
1002
}
1001
GENIUS_GENOBJ-N-FIL_13
1002
{
1000
OWNER
1000
GEN
1002
}
  0
LINE
  5
A77
  8
TK1
 10
121.2072991830596
 20
306.73915868614472
 30
0.0
 11
121.2072991830596
 21
305.23915868614478
 31
0.0
  0
ARC
  5
A79
  8
TK1
 10
122.7072991830596
 20
312.23915868614472
 30
0.0
 40
2.25
 50
180.0
 51
0.0
  0
LINE
  5
A7A
  8
TK1
 10
124.9572991830596
 20
315.73915868614472
 30
0.0
 11
124.9572991830596
 21
312.23915868614472
 31
0.0
  0
LINE
  5
A7B
  8
TK1
 10
120.4572991830596
 20
315.73915868614472
 30
0.0
 11
120.4572991830596
 21
312.23915868614472
 31
0.0
  0
ARC
  5
A7C
  8
TK1
 10
119.9572991830596
 20
315.73915868614472
 30
0.0
 40
0.5
 50
0.0
 51
90.0
1001
GENIUS_GENOBJ-N-FIL_13
1002
{
1000
OWNER
1000
GEN
1002
}
1001
GENIUS_GENODEF_13
1002
{
1000
HIER
1070
     0
1002
}
1002
{
1000
MANEDIT
1070
     0
1002
}
1002
{
1000
NOSEL
1070
     0
1002
}
1002
{
1000
BEHIND
1070
     0
1002
}
1002
{
1000
OTHER
1070
     0
1002
}
1002
{
1000
REACTOR
1002
}
  0
LINE
  5
A7D
  8
TK1
 10
126.2072991830596
 20
307.43915868614482
 30
0.0
 11
124.2072991830596
 21
306.73915868614472
 31
0.0
  0
LINE
  5
A7E
  8
TK1
 10
119.2072991830596
 20
307.43915868614482
 30
0.0
 11
121.2072991830596
 21
306.73915868614472
 31
0.0
  0
LINE
  5
A81
  8
TK1
 10
128.7072991830596
 20
307.43915868614482
 30
0.0
 11
128.7072991830596
 21
315.73915868614478
 31
0.0
  0
LINE
  5
A82
  8
TK1
 10
129.2072991830596
 20
316.23915868614478
 30
0.0
 11
129.4572991830596
 21
316.23915868614478
 31
0.0
  0
ARC
  5
A83
  8
TK1
 10
129.2072991830596
 20
315.73915868614478
 30
0.0
 40
0.5
 50
90.0
 51
180.0
1001
GENIUS_GENODEF_13
1002
{
1000
HIER
1070
     0
1002
}
1002
{
1000
MANEDIT
1070
     0
1002
}
1002
{
1000
NOSEL
1070
     0
1002
}
1002
{
1000
BEHIND
1070
     0
1002
}
1002
{
1000
OTHER
1070
     0
1002
}
1002
{
1000
REACTOR
1002
}
1001
GENIUS_GENOBJ-N-FIL_13
1002
{
1000
OWNER
1000
GEN
1002
}
  0
LINE
  5
A84
  8
TK1
 10
134.9572991830596
 20
316.23915868614478
 30
0.0
 11
135.2072991830596
 21
316.23915868614478
 31
0.0
  0
ARC
  5
A85
  8
TK1
 10
134.9572991830596
 20
315.73915868614478
 30
0.0
 40
0.5
 50
90.0
 51
180.0
1001
GENIUS_GENODEF_13
1002
{
1000
HIER
1070
     0
1002
}
1002
{
1000
MANEDIT
1070
     0
1002
}
1002
{
1000
NOSEL
1070
     0
1002
}
1002
{
1000
BEHIND
1070
     0
1002
}
1002
{
1000
OTHER
1070
     0
1002
}
1002
{
1000
REACTOR
1002
}
1001
GENIUS_GENOBJ-N-FIL_13
1002
{
1000
OWNER
1000
GEN
1002
}
  0
LINE
  5
A86
  8
TK1
 10
135.7072991830596
 20
315.73915868614478
 30
0.0
 11
135.7072991830596
 21
307.43915868614482
 31
0.0
  0
ARC
  5
A87
  8
TK1
 10
135.2072991830596
 20
315.73915868614478
 30
0.0
 40
0.5
 50
0.0
 51
90.0
1001
GENIUS_GENOBJ-N-FIL_13
1002
{
1000
OWNER
1000
GEN
1002
}
1001
GENIUS_GENODEF_13
1002
{
1000
HIER
1070
     0
1002
}
1002
{
1000
MANEDIT
1070
     0
1002
}
1002
{
1000
NOSEL
1070
     0
1002
}
1002
{
1000
BEHIND
1070
     0
1002
}
1002
{
1000
OTHER
1070
     0
1002
}
1002
{
1000
REACTOR
1002
}
  0
LINE
  5
A88
  8
TK1
 10
130.7072991830596
 20
306.73915868614478
 30
0.0
 11
130.7072991830596
 21
305.23915868614478
 31
0.0
  0
ARC
  5
A8A
  8
TK1
 10
132.2072991830596
 20
312.23915868614478
 30
0.0
 40
2.25
 50
180.0
 51
0.0
  0
LINE
  5
A8B
  8
TK1
 10
134.4572991830596
 20
315.73915868614478
 30
0.0
 11
134.4572991830596
 21
312.23915868614478
 31
0.0
  0
LINE
  5
A8C
  8
TK1
 10
129.9572991830596
 20
315.73915868614478
 30
0.0
 11
129.9572991830596
 21
312.23915868614478
 31
0.0
  0
ARC
  5
A8D
  8
TK1
 10
129.4572991830596
 20
315.73915868614478
 30
0.0
 40
0.5
 50
0.0
 51
90.0
1001
GENIUS_GENOBJ-N-FIL_13
1002
{
1000
OWNER
1000
GEN
1002
}
1001
GENIUS_GENODEF_13
1002
{
1000
HIER
1070
     0
1002
}
1002
{
1000
MANEDIT
1070
     0
1002
}
1002
{
1000
NOSEL
1070
     0
1002
}
1002
{
1000
BEHIND
1070
     0
1002
}
1002
{
1000
OTHER
1070
     0
1002
}
1002
{
1000
REACTOR
1002
}
  0
LINE
  5
A8E
  8
TK1
 10
135.7072991830596
 20
307.43915868614482
 30
0.0
 11
133.7072991830596
 21
306.73915868614478
 31
0.0
  0
LINE
  5
A8F
  8
TK1
 10
128.7072991830596
 20
307.43915868614482
 30
0.0
 11
130.7072991830596
 21
306.73915868614478
 31
0.0
  0
LINE
  5
A92
  8
TK1
 10
138.2072991830596
 20
307.43915868614482
 30
0.0
 11
138.2072991830596
 21
315.73915868614478
 31
0.0
  0
LINE
  5
A93
  8
TK1
 10
138.7072991830596
 20
316.23915868614478
 30
0.0
 11
138.9572991830596
 21
316.23915868614478
 31
0.0
  0
ARC
  5
A94
  8
TK1
 10
138.7072991830596
 20
315.73915868614478
 30
0.0
 40
0.5
 50
90.0
 51
180.0
1001
GENIUS_GENODEF_13
1002
{
1000
HIER
1070
     0
1002
}
1002
{
1000
MANEDIT
1070
     0
1002
}
1002
{
1000
NOSEL
1070
     0
1002
}
1002
{
1000
BEHIND
1070
     0
1002
}
1002
{
1000
OTHER
1070
     0
1002
}
1002
{
1000
REACTOR
1002
}
1001
GENIUS_GENOBJ-N-FIL_13
1002
{
1000
OWNER
1000
GEN
1002
}
  0
LINE
  5
A95
  8
TK1
 10
144.4572991830596
 20
316.23915868614478
 30
0.0
 11
144.7072991830596
 21
316.23915868614478
 31
0.0
  0
ARC
  5
A96
  8
TK1
 10
144.4572991830596
 20
315.73915868614478
 30
0.0
 40
0.5
 50
90.0
 51
180.0
1001
GENIUS_GENODEF_13
1002
{
1000
HIER
1070
     0
1002
}
1002
{
1000
MANEDIT
1070
     0
1002
}
1002
{
1000
NOSEL
1070
     0
1002
}
1002
{
1000
BEHIND
1070
     0
1002
}
1002
{
1000
OTHER
1070
     0
1002
}
1002
{
1000
REACTOR
1002
}
1001
GENIUS_GENOBJ-N-FIL_13
1002
{
1000
OWNER
1000
GEN
1002
}
  0
LINE
  5
A97
  8
TK1
 10
145.2072991830596
 20
315.73915868614478
 30
0.0
 11
145.2072991830596
 21
307.43915868614482
 31
0.0
  0
ARC
  5
A98
  8
TK1
 10
144.7072991830596
 20
315.73915868614478
 30
0.0
 40
0.5
 50
0.0
 51
90.0
1001
GENIUS_GENODEF_13
1002
{
1000
HIER
1070
     0
1002
}
1002
{
1000
MANEDIT
1070
     0
1002
}
1002
{
1000
NOSEL
1070
     0
1002
}
1002
{
1000
BEHIND
1070
     0
1002
}
1002
{
1000
OTHER
1070
     0
1002
}
1002
{
1000
REACTOR
1002
}
1001
GENIUS_GENOBJ-N-FIL_13
1002
{
1000
OWNER
1000
GEN
1002
}
  0
LINE
  5
A99
  8
TK1
 10
140.2072991830596
 20
306.73915868614478
 30
0.0
 11
140.2072991830596
 21
305.23915868614478
 31
0.0
  0
ARC
  5
A9B
  8
TK1
 10
141.7072991830596
 20
312.23915868614478
 30
0.0
 40
2.25
 50
180.0
 51
0.0
  0
LINE
  5
A9C
  8
TK1
 10
143.9572991830596
 20
315.73915868614478
 30
0.0
 11
143.9572991830596
 21
312.23915868614478
 31
0.0
  0
LINE
  5
A9D
  8
TK1
 10
139.4572991830596
 20
315.73915868614478
 30
0.0
 11
139.4572991830596
 21
312.23915868614478
 31
0.0
  0
ARC
  5
A9E
  8
TK1
 10
138.9572991830596
 20
315.73915868614478
 30
0.0
 40
0.5
 50
0.0
 51
90.0
1001
GENIUS_GENODEF_13
1002
{
1000
HIER
1070
     0
1002
}
1002
{
1000
MANEDIT
1070
     0
1002
}
1002
{
1000
NOSEL
1070
     0
1002
}
1002
{
1000
BEHIND
1070
     0
1002
}
1002
{
1000
OTHER
1070
     0
1002
}
1002
{
1000
REACTOR
1002
}
1001
GENIUS_GENOBJ-N-FIL_13
1002
{
1000
OWNER
1000
GEN
1002
}
  0
LINE
  5
A9F
  8
TK1
 10
145.2072991830596
 20
307.43915868614482
 30
0.0
 11
143.2072991830596
 21
306.73915868614478
 31
0.0
  0
LINE
  5
AA0
  8
TK1
 10
138.2072991830596
 20
307.43915868614482
 30
0.0
 11
140.2072991830596
 21
306.73915868614478
 31
0.0
  0
LINE
  5
AA3
  8
TK1
 10
147.7072991830596
 20
307.43915868614482
 30
0.0
 11
147.7072991830596
 21
315.73915868614478
 31
0.0
  0
LINE
  5
AA4
  8
TK1
 10
148.2072991830596
 20
316.23915868614478
 30
0.0
 11
148.4572991830596
 21
316.23915868614478
 31
0.0
  0
ARC
  5
AA5
  8
TK1
 10
148.2072991830596
 20
315.73915868614478
 30
0.0
 40
0.5
 50
90.0
 51
180.0
1001
GENIUS_GENODEF_13
1002
{
1000
HIER
1070
     0
1002
}
1002
{
1000
MANEDIT
1070
     0
1002
}
1002
{
1000
NOSEL
1070
     0
1002
}
1002
{
1000
BEHIND
1070
     0
1002
}
1002
{
1000
OTHER
1070
     0
1002
}
1002
{
1000
REACTOR
1002
}
1001
GENIUS_GENOBJ-N-FIL_13
1002
{
1000
OWNER
1000
GEN
1002
}
  0
LINE
  5
AA6
  8
TK1
 10
153.9572991830596
 20
316.23915868614478
 30
0.0
 11
154.2072991830596
 21
316.23915868614478
 31
0.0
  0
ARC
  5
AA7
  8
TK1
 10
153.9572991830596
 20
315.73915868614478
 30
0.0
 40
0.5
 50
90.0
 51
180.0
1001
GENIUS_GENODEF_13
1002
{
1000
HIER
1070
     0
1002
}
1002
{
1000
MANEDIT
1070
     0
1002
}
1002
{
1000
NOSEL
1070
     0
1002
}
1002
{
1000
BEHIND
1070
     0
1002
}
1002
{
1000
OTHER
1070
     0
1002
}
1002
{
1000
REACTOR
1002
}
1001
GENIUS_GENOBJ-N-FIL_13
1002
{
1000
OWNER
1000
GEN
1002
}
  0
LINE
  5
AA8
  8
TK1
 10
154.7072991830596
 20
315.73915868614478
 30
0.0
 11
154.7072991830596
 21
307.43915868614482
 31
0.0
  0
ARC
  5
AA9
  8
TK1
 10
154.2072991830596
 20
315.73915868614478
 30
0.0
 40
0.5
 50
0.0
 51
90.0
1001
GENIUS_GENOBJ-N-FIL_13
1002
{
1000
OWNER
1000
GEN
1002
}
1001
GENIUS_GENODEF_13
1002
{
1000
HIER
1070
     0
1002
}
1002
{
1000
MANEDIT
1070
     0
1002
}
1002
{
1000
NOSEL
1070
     0
1002
}
1002
{
1000
BEHIND
1070
     0
1002
}
1002
{
1000
OTHER
1070
     0
1002
}
1002
{
1000
REACTOR
1002
}
  0
LINE
  5
AAA
  8
TK1
 10
149.7072991830596
 20
306.73915868614478
 30
0.0
 11
149.7072991830596
 21
305.23915868614478
 31
0.0
  0
ARC
  5
AAC
  8
TK1
 10
151.2072991830596
 20
312.23915868614478
 30
0.0
 40
2.25
 50
180.0
 51
0.0
  0
LINE
  5
AAD
  8
TK1
 10
153.4572991830596
 20
315.73915868614478
 30
0.0
 11
153.4572991830596
 21
312.23915868614478
 31
0.0
  0
LINE
  5
AAE
  8
TK1
 10
148.9572991830596
 20
315.73915868614478
 30
0.0
 11
148.9572991830596
 21
312.23915868614478
 31
0.0
  0
ARC
  5
AAF
  8
TK1
 10
148.4572991830596
 20
315.73915868614478
 30
0.0
 40
0.5
 50
0.0
 51
90.0
1001
GENIUS_GENOBJ-N-FIL_13
1002
{
1000
OWNER
1000
GEN
1002
}
1001
GENIUS_GENODEF_13
1002
{
1000
HIER
1070
     0
1002
}
1002
{
1000
MANEDIT
1070
     0
1002
}
1002
{
1000
NOSEL
1070
     0
1002
}
1002
{
1000
BEHIND
1070
     0
1002
}
1002
{
1000
OTHER
1070
     0
1002
}
1002
{
1000
REACTOR
1002
}
  0
LINE
  5
AB0
  8
TK1
 10
154.7072991830596
 20
307.43915868614482
 30
0.0
 11
152.7072991830596
 21
306.73915868614478
 31
0.0
  0
LINE
  5
AB1
  8
TK1
 10
147.7072991830596
 20
307.43915868614482
 30
0.0
 11
149.7072991830596
 21
306.73915868614478
 31
0.0
  0
LINE
  5
AB4
  8
TK1
 10
157.2072991830596
 20
307.43915868614482
 30
0.0
 11
157.2072991830596
 21
315.73915868614478
 31
0.0
  0
LINE
  5
AB5
  8
TK1
 10
157.7072991830596
 20
316.23915868614478
 30
0.0
 11
157.9572991830596
 21
316.23915868614478
 31
0.0
  0
ARC
  5
AB6
  8
TK1
 10
157.7072991830596
 20
315.73915868614478
 30
0.0
 40
0.5
 50
90.0
 51
180.0
1001
GENIUS_GENOBJ-N-FIL_13
1002
{
1000
OWNER
1000
GEN
1002
}
1001
GENIUS_GENODEF_13
1002
{
1000
HIER
1070
     0
1002
}
1002
{
1000
MANEDIT
1070
     0
1002
}
1002
{
1000
NOSEL
1070
     0
1002
}
1002
{
1000
BEHIND
1070
     0
1002
}
1002
{
1000
OTHER
1070
     0
1002
}
1002
{
1000
REACTOR
1002
}
  0
LINE
  5
AB7
  8
TK1
 10
163.4572991830596
 20
316.23915868614478
 30
0.0
 11
163.7072991830596
 21
316.23915868614478
 31
0.0
  0
ARC
  5
AB8
  8
TK1
 10
163.4572991830596
 20
315.73915868614478
 30
0.0
 40
0.5
 50
90.0
 51
180.0
1001
GENIUS_GENODEF_13
1002
{
1000
HIER
1070
     0
1002
}
1002
{
1000
MANEDIT
1070
     0
1002
}
1002
{
1000
NOSEL
1070
     0
1002
}
1002
{
1000
BEHIND
1070
     0
1002
}
1002
{
1000
OTHER
1070
     0
1002
}
1002
{
1000
REACTOR
1002
}
1001
GENIUS_GENOBJ-N-FIL_13
1002
{
1000
OWNER
1000
GEN
1002
}
  0
LINE
  5
AB9
  8
TK1
 10
164.2072991830596
 20
315.73915868614478
 30
0.0
 11
164.2072991830596
 21
307.43915868614482
 31
0.0
  0
ARC
  5
ABA
  8
TK1
 10
163.7072991830596
 20
315.73915868614478
 30
0.0
 40
0.5
 50
0.0
 51
90.0
1001
GENIUS_GENODEF_13
1002
{
1000
HIER
1070
     0
1002
}
1002
{
1000
MANEDIT
1070
     0
1002
}
1002
{
1000
NOSEL
1070
     0
1002
}
1002
{
1000
BEHIND
1070
     0
1002
}
1002
{
1000
OTHER
1070
     0
1002
}
1002
{
1000
REACTOR
1002
}
1001
GENIUS_GENOBJ-N-FIL_13
1002
{
1000
OWNER
1000
GEN
1002
}
  0
LINE
  5
ABB
  8
TK1
 10
159.2072991830596
 20
306.73915868614478
 30
0.0
 11
159.2072991830596
 21
305.23915868614478
 31
0.0
  0
ARC
  5
ABD
  8
TK1
 10
160.7072991830596
 20
312.23915868614478
 30
0.0
 40
2.25
 50
180.0
 51
0.0
  0
LINE
  5
ABE
  8
TK1
 10
162.9572991830596
 20
315.73915868614478
 30
0.0
 11
162.9572991830596
 21
312.23915868614478
 31
0.0
  0
LINE
  5
ABF
  8
TK1
 10
158.4572991830596
 20
315.73915868614478
 30
0.0
 11
158.4572991830596
 21
312.23915868614478
 31
0.0
  0
ARC
  5
AC0
  8
TK1
 10
157.9572991830596
 20
315.73915868614478
 30
0.0
 40
0.5
 50
0.0
 51
90.0
1001
GENIUS_GENODEF_13
1002
{
1000
HIER
1070
     0
1002
}
1002
{
1000
MANEDIT
1070
     0
1002
}
1002
{
1000
NOSEL
1070
     0
1002
}
1002
{
1000
BEHIND
1070
     0
1002
}
1002
{
1000
OTHER
1070
     0
1002
}
1002
{
1000
REACTOR
1002
}
1001
GENIUS_GENOBJ-N-FIL_13
1002
{
1000
OWNER
1000
GEN
1002
}
  0
LINE
  5
AC1
  8
TK1
 10
164.2072991830596
 20
307.43915868614482
 30
0.0
 11
162.2072991830596
 21
306.73915868614478
 31
0.0
  0
LINE
  5
AC2
  8
TK1
 10
157.2072991830596
 20
307.43915868614482
 30
0.0
 11
159.2072991830596
 21
306.73915868614478
 31
0.0
  0
LINE
  5
AC3
  8
TK1
 10
159.2072991830596
 20
303.73915868614478
 30
0.0
 11
162.2072991830596
 21
303.73915868614472
 31
0.0
  0
LINE
  5
AC5
  8
TK1
 10
166.7072991830596
 20
307.43915868614482
 30
0.0
 11
166.7072991830596
 21
315.73915868614478
 31
0.0
  0
ARC
  5
AC6
  8
TK1
 10
167.2072991830596
 20
315.73915868614478
 30
0.0
 40
0.5
 50
90.0
 51
180.0
1001
GENIUS_GENODEF_13
1002
{
1000
HIER
1070
     0
1002
}
1002
{
1000
MANEDIT
1070
     0
1002
}
1002
{
1000
NOSEL
1070
     0
1002
}
1002
{
1000
BEHIND
1070
     0
1002
}
1002
{
1000
OTHER
1070
     0
1002
}
1002
{
1000
REACTOR
1002
}
1001
GENIUS_GENOBJ-N-FIL_13
1002
{
1000
OWNER
1000
GEN
1002
}
  0
LINE
  5
AC7
  8
TK1
 10
167.2072991830596
 20
316.23915868614478
 30
0.0
 11
167.4572991830596
 21
316.23915868614478
 31
0.0
  0
LINE
  5
AC8
  8
TK1
 10
172.9572991830596
 20
316.23915868614478
 30
0.0
 11
173.2072991830596
 21
316.23915868614478
 31
0.0
  0
ARC
  5
AC9
  8
TK1
 10
172.9572991830596
 20
315.73915868614478
 30
0.0
 40
0.5
 50
90.0
 51
180.0
1001
GENIUS_GENODEF_13
1002
{
1000
HIER
1070
     0
1002
}
1002
{
1000
MANEDIT
1070
     0
1002
}
1002
{
1000
NOSEL
1070
     0
1002
}
1002
{
1000
BEHIND
1070
     0
1002
}
1002
{
1000
OTHER
1070
     0
1002
}
1002
{
1000
REACTOR
1002
}
1001
GENIUS_GENOBJ-N-FIL_13
1002
{
1000
OWNER
1000
GEN
1002
}
  0
LINE
  5
ACA
  8
TK1
 10
173.7072991830596
 20
315.73915868614478
 30
0.0
 11
173.7072991830596
 21
307.43915868614482
 31
0.0
  0
ARC
  5
ACB
  8
TK1
 10
173.2072991830596
 20
315.73915868614478
 30
0.0
 40
0.5
 50
0.0
 51
90.0
1001
GENIUS_GENOBJ-N-FIL_13
1002
{
1000
OWNER
1000
GEN
1002
}
1001
GENIUS_GENODEF_13
1002
{
1000
HIER
1070
     0
1002
}
1002
{
1000
MANEDIT
1070
     0
1002
}
1002
{
1000
NOSEL
1070
     0
1002
}
1002
{
1000
BEHIND
1070
     0
1002
}
1002
{
1000
OTHER
1070
     0
1002
}
1002
{
1000
REACTOR
1002
}
  0
LINE
  5
ACC
  8
TK1
 10
168.7072991830596
 20
306.73915868614478
 30
0.0
 11
168.7072991830596
 21
305.23915868614478
 31
0.0
  0
ARC
  5
ACE
  8
TK1
 10
170.2072991830596
 20
312.23915868614478
 30
0.0
 40
2.25
 50
180.0
 51
0.0
  0
LINE
  5
ACF
  8
TK1
 10
172.4572991830596
 20
315.73915868614478
 30
0.0
 11
172.4572991830596
 21
312.23915868614478
 31
0.0
  0
LINE
  5
AD0
  8
TK1
 10
167.9572991830596
 20
315.73915868614478
 30
0.0
 11
167.9572991830596
 21
312.23915868614478
 31
0.0
  0
ARC
  5
AD1
  8
TK1
 10
167.4572991830596
 20
315.73915868614478
 30
0.0
 40
0.5
 50
0.0
 51
90.0
1001
GENIUS_GENOBJ-N-FIL_13
1002
{
1000
OWNER
1000
GEN
1002
}
1001
GENIUS_GENODEF_13
1002
{
1000
HIER
1070
     0
1002
}
1002
{
1000
MANEDIT
1070
     0
1002
}
1002
{
1000
NOSEL
1070
     0
1002
}
1002
{
1000
BEHIND
1070
     0
1002
}
1002
{
1000
OTHER
1070
     0
1002
}
1002
{
1000
REACTOR
1002
}
  0
LINE
  5
AD2
  8
TK1
 10
173.7072991830596
 20
307.43915868614482
 30
0.0
 11
171.7072991830596
 21
306.73915868614478
 31
0.0
  0
LINE
  5
AD3
  8
TK1
 10
166.7072991830596
 20
307.43915868614482
 30
0.0
 11
168.7072991830596
 21
306.73915868614478
 31
0.0
  0
LINE
  5
AD6
  8
TK1
 10
176.2072991830596
 20
307.43915868614482
 30
0.0
 11
176.2072991830596
 21
315.73915868614478
 31
0.0
  0
LINE
  5
AD7
  8
TK1
 10
176.7072991830596
 20
316.23915868614478
 30
0.0
 11
176.9572991830596
 21
316.23915868614478
 31
0.0
  0
ARC
  5
AD8
  8
TK1
 10
176.7072991830596
 20
315.73915868614478
 30
0.0
 40
0.5
 50
90.0
 51
180.0
1001
GENIUS_GENOBJ-N-FIL_13
1002
{
1000
OWNER
1000
GEN
1002
}
1001
GENIUS_GENODEF_13
1002
{
1000
HIER
1070
     0
1002
}
1002
{
1000
MANEDIT
1070
     0
1002
}
1002
{
1000
NOSEL
1070
     0
1002
}
1002
{
1000
BEHIND
1070
     0
1002
}
1002
{
1000
OTHER
1070
     0
1002
}
1002
{
1000
REACTOR
1002
}
  0
LINE
  5
AD9
  8
TK1
 10
182.4572991830596
 20
316.23915868614478
 30
0.0
 11
182.7072991830596
 21
316.23915868614478
 31
0.0
  0
ARC
  5
ADA
  8
TK1
 10
182.4572991830596
 20
315.73915868614478
 30
0.0
 40
0.5
 50
90.0
 51
180.0
1001
GENIUS_GENODEF_13
1002
{
1000
HIER
1070
     0
1002
}
1002
{
1000
MANEDIT
1070
     0
1002
}
1002
{
1000
NOSEL
1070
     0
1002
}
1002
{
1000
BEHIND
1070
     0
1002
}
1002
{
1000
OTHER
1070
     0
1002
}
1002
{
1000
REACTOR
1002
}
1001
GENIUS_GENOBJ-N-FIL_13
1002
{
1000
OWNER
1000
GEN
1002
}
  0
LINE
  5
ADB
  8
TK1
 10
183.2072991830596
 20
315.73915868614478
 30
0.0
 11
183.2072991830596
 21
307.43915868614482
 31
0.0
  0
ARC
  5
ADC
  8
TK1
 10
182.7072991830596
 20
315.73915868614478
 30
0.0
 40
0.5
 50
0.0
 51
90.0
1001
GENIUS_GENOBJ-N-FIL_13
1002
{
1000
OWNER
1000
GEN
1002
}
1001
GENIUS_GENODEF_13
1002
{
1000
HIER
1070
     0
1002
}
1002
{
1000
MANEDIT
1070
     0
1002
}
1002
{
1000
NOSEL
1070
     0
1002
}
1002
{
1000
BEHIND
1070
     0
1002
}
1002
{
1000
OTHER
1070
     0
1002
}
1002
{
1000
REACTOR
1002
}
  0
LINE
  5
ADD
  8
TK1
 10
178.2072991830596
 20
306.73915868614478
 30
0.0
 11
178.2072991830596
 21
305.23915868614478
 31
0.0
  0
ARC
  5
ADF
  8
TK1
 10
179.7072991830596
 20
312.23915868614478
 30
0.0
 40
2.25
 50
180.0
 51
0.0
  0
LINE
  5
AE0
  8
TK1
 10
181.9572991830596
 20
315.73915868614478
 30
0.0
 11
181.9572991830596
 21
312.23915868614478
 31
0.0
  0
LINE
  5
AE1
  8
TK1
 10
177.4572991830596
 20
315.73915868614478
 30
0.0
 11
177.4572991830596
 21
312.23915868614478
 31
0.0
  0
ARC
  5
AE2
  8
TK1
 10
176.9572991830596
 20
315.73915868614478
 30
0.0
 40
0.5
 50
0.0
 51
90.0
1001
GENIUS_GENOBJ-N-FIL_13
1002
{
1000
OWNER
1000
GEN
1002
}
1001
GENIUS_GENODEF_13
1002
{
1000
HIER
1070
     0
1002
}
1002
{
1000
MANEDIT
1070
     0
1002
}
1002
{
1000
NOSEL
1070
     0
1002
}
1002
{
1000
BEHIND
1070
     0
1002
}
1002
{
1000
OTHER
1070
     0
1002
}
1002
{
1000
REACTOR
1002
}
  0
LINE
  5
AE3
  8
TK1
 10
183.2072991830596
 20
307.43915868614482
 30
0.0
 11
181.2072991830596
 21
306.73915868614478
 31
0.0
  0
LINE
  5
AE4
  8
TK1
 10
176.2072991830596
 20
307.43915868614482
 30
0.0
 11
178.2072991830596
 21
306.73915868614478
 31
0.0
  0
LINE
  5
AE7
  8
TK1
 10
185.7072991830596
 20
307.43915868614482
 30
0.0
 11
185.7072991830596
 21
315.73915868614478
 31
0.0
  0
LINE
  5
AE8
  8
TK1
 10
186.2072991830596
 20
316.23915868614478
 30
0.0
 11
186.4572991830596
 21
316.23915868614478
 31
0.0
  0
ARC
  5
AE9
  8
TK1
 10
186.2072991830596
 20
315.73915868614478
 30
0.0
 40
0.5
 50
90.0
 51
180.0
1001
GENIUS_GENODEF_13
1002
{
1000
HIER
1070
     0
1002
}
1002
{
1000
MANEDIT
1070
     0
1002
}
1002
{
1000
NOSEL
1070
     0
1002
}
1002
{
1000
BEHIND
1070
     0
1002
}
1002
{
1000
OTHER
1070
     0
1002
}
1002
{
1000
REACTOR
1002
}
1001
GENIUS_GENOBJ-N-FIL_13
1002
{
1000
OWNER
1000
GEN
1002
}
  0
LINE
  5
AEA
  8
TK1
 10
191.9572991830596
 20
316.23915868614478
 30
0.0
 11
192.2072991830596
 21
316.23915868614478
 31
0.0
  0
ARC
  5
AEB
  8
TK1
 10
191.9572991830596
 20
315.73915868614478
 30
0.0
 40
0.5
 50
90.0
 51
180.0
1001
GENIUS_GENODEF_13
1002
{
1000
HIER
1070
     0
1002
}
1002
{
1000
MANEDIT
1070
     0
1002
}
1002
{
1000
NOSEL
1070
     0
1002
}
1002
{
1000
BEHIND
1070
     0
1002
}
1002
{
1000
OTHER
1070
     0
1002
}
1002
{
1000
REACTOR
1002
}
1001
GENIUS_GENOBJ-N-FIL_13
1002
{
1000
OWNER
1000
GEN
1002
}
  0
LINE
  5
AEC
  8
TK1
 10
192.7072991830596
 20
315.73915868614478
 30
0.0
 11
192.7072991830596
 21
307.43915868614482
 31
0.0
  0
ARC
  5
AED
  8
TK1
 10
192.2072991830596
 20
315.73915868614478
 30
0.0
 40
0.5
 50
0.0
 51
90.0
1001
GENIUS_GENODEF_13
1002
{
1000
HIER
1070
     0
1002
}
1002
{
1000
MANEDIT
1070
     0
1002
}
1002
{
1000
NOSEL
1070
     0
1002
}
1002
{
1000
BEHIND
1070
     0
1002
}
1002
{
1000
OTHER
1070
     0
1002
}
1002
{
1000
REACTOR
1002
}
1001
GENIUS_GENOBJ-N-FIL_13
1002
{
1000
OWNER
1000
GEN
1002
}
  0
LINE
  5
AEE
  8
TK1
 10
187.7072991830596
 20
306.73915868614478
 30
0.0
 11
187.7072991830596
 21
305.23915868614478
 31
0.0
  0
ARC
  5
AF0
  8
TK1
 10
189.2072991830596
 20
312.23915868614478
 30
0.0
 40
2.25
 50
180.0
 51
0.0
  0
LINE
  5
AF1
  8
TK1
 10
191.4572991830596
 20
315.73915868614478
 30
0.0
 11
191.4572991830596
 21
312.23915868614478
 31
0.0
  0
LINE
  5
AF2
  8
TK1
 10
186.9572991830596
 20
315.73915868614478
 30
0.0
 11
186.9572991830596
 21
312.23915868614478
 31
0.0
  0
ARC
  5
AF3
  8
TK1
 10
186.4572991830596
 20
315.73915868614478
 30
0.0
 40
0.5
 50
0.0
 51
90.0
1001
GENIUS_GENODEF_13
1002
{
1000
HIER
1070
     0
1002
}
1002
{
1000
MANEDIT
1070
     0
1002
}
1002
{
1000
NOSEL
1070
     0
1002
}
1002
{
1000
BEHIND
1070
     0
1002
}
1002
{
1000
OTHER
1070
     0
1002
}
1002
{
1000
REACTOR
1002
}
1001
GENIUS_GENOBJ-N-FIL_13
1002
{
1000
OWNER
1000
GEN
1002
}
  0
LINE
  5
AF4
  8
TK1
 10
192.7072991830596
 20
307.43915868614482
 30
0.0
 11
190.7072991830596
 21
306.73915868614478
 31
0.0
  0
LINE
  5
AF5
  8
TK1
 10
185.7072991830596
 20
307.43915868614482
 30
0.0
 11
187.7072991830596
 21
306.73915868614478
 31
0.0
  0
LINE
  5
AF8
  8
TK1
 10
195.2072991830596
 20
307.43915868614482
 30
0.0
 11
195.2072991830596
 21
315.73915868614478
 31
0.0
  0
LINE
  5
AF9
  8
TK1
 10
195.7072991830596
 20
316.23915868614478
 30
0.0
 11
195.9572991830596
 21
316.23915868614478
 31
0.0
  0
ARC
  5
AFA
  8
TK1
 10
195.7072991830596
 20
315.73915868614478
 30
0.0
 40
0.5
 50
90.0
 51
180.0
1001
GENIUS_GENODEF_13
1002
{
1000
HIER
1070
     0
1002
}
1002
{
1000
MANEDIT
1070
     0
1002
}
1002
{
1000
NOSEL
1070
     0
1002
}
1002
{
1000
BEHIND
1070
     0
1002
}
1002
{
1000
OTHER
1070
     0
1002
}
1002
{
1000
REACTOR
1002
}
1001
GENIUS_GENOBJ-N-FIL_13
1002
{
1000
OWNER
1000
GEN
1002
}
  0
LINE
  5
AFB
  8
TK1
 10
201.4572991830596
 20
316.23915868614478
 30
0.0
 11
201.7072991830596
 21
316.23915868614478
 31
0.0
  0
LINE
  5
AFC
  8
TK1
 10
202.2072991830596
 20
315.73915868614478
 30
0.0
 11
202.2072991830596
 21
307.43915868614482
 31
0.0
  0
ARC
  5
AFD
  8
TK1
 10
201.7072991830596
 20
315.73915868614478
 30
0.0
 40
0.5
 50
0.0
 51
90.0
1001
GENIUS_GENODEF_13
1002
{
1000
HIER
1070
     0
1002
}
1002
{
1000
MANEDIT
1070
     0
1002
}
1002
{
1000
NOSEL
1070
     0
1002
}
1002
{
1000
BEHIND
1070
     0
1002
}
1002
{
1000
OTHER
1070
     0
1002
}
1002
{
1000
REACTOR
1002
}
1001
GENIUS_GENOBJ-N-FIL_13
1002
{
1000
OWNER
1000
GEN
1002
}
  0
LINE
  5
AFE
  8
TK1
 10
197.2072991830596
 20
306.73915868614478
 30
0.0
 11
197.2072991830596
 21
305.23915868614478
 31
0.0
  0
ARC
  5
B00
  8
TK1
 10
198.7072991830596
 20
312.23915868614478
 30
0.0
 40
2.25
 50
180.0
 51
0.0
  0
LINE
  5
B01
  8
TK1
 10
200.9572991830596
 20
315.73915868614478
 30
0.0
 11
200.9572991830596
 21
312.23915868614478
 31
0.0
  0
ARC
  5
B02
  8
TK1
 10
201.4572991830596
 20
315.73915868614478
 30
0.0
 40
0.5
 50
90.0
 51
180.0
1001
GENIUS_GENODEF_13
1002
{
1000
HIER
1070
     0
1002
}
1002
{
1000
MANEDIT
1070
     0
1002
}
1002
{
1000
NOSEL
1070
     0
1002
}
1002
{
1000
BEHIND
1070
     0
1002
}
1002
{
1000
OTHER
1070
     0
1002
}
1002
{
1000
REACTOR
1002
}
1001
GENIUS_GENOBJ-N-FIL_13
1002
{
1000
OWNER
1000
GEN
1002
}
  0
LINE
  5
B03
  8
TK1
 10
196.4572991830596
 20
315.73915868614478
 30
0.0
 11
196.4572991830596
 21
312.23915868614478
 31
0.0
  0
ARC
  5
B04
  8
TK1
 10
195.9572991830596
 20
315.73915868614478
 30
0.0
 40
0.5
 50
0.0
 51
90.0
1001
GENIUS_GENODEF_13
1002
{
1000
HIER
1070
     0
1002
}
1002
{
1000
MANEDIT
1070
     0
1002
}
1002
{
1000
NOSEL
1070
     0
1002
}
1002
{
1000
BEHIND
1070
     0
1002
}
1002
{
1000
OTHER
1070
     0
1002
}
1002
{
1000
REACTOR
1002
}
1001
GENIUS_GENOBJ-N-FIL_13
1002
{
1000
OWNER
1000
GEN
1002
}
  0
LINE
  5
B05
  8
TK1
 10
202.2072991830596
 20
307.43915868614482
 30
0.0
 11
200.2072991830596
 21
306.73915868614478
 31
0.0
  0
LINE
  5
B06
  8
TK1
 10
195.2072991830596
 20
307.43915868614482
 30
0.0
 11
197.2072991830596
 21
306.73915868614478
 31
0.0
  0
LINE
  5
B09
  8
TK1
 10
204.7072991830596
 20
307.43915868614482
 30
0.0
 11
204.7072991830596
 21
315.73915868614478
 31
0.0
  0
LINE
  5
B0A
  8
TK1
 10
205.2072991830596
 20
316.23915868614478
 30
0.0
 11
205.4572991830596
 21
316.23915868614478
 31
0.0
  0
ARC
  5
B0B
  8
TK1
 10
205.2072991830596
 20
315.73915868614478
 30
0.0
 40
0.5
 50
90.0
 51
180.0
1001
GENIUS_GENODEF_13
1002
{
1000
HIER
1070
     0
1002
}
1002
{
1000
MANEDIT
1070
     0
1002
}
1002
{
1000
NOSEL
1070
     0
1002
}
1002
{
1000
BEHIND
1070
     0
1002
}
1002
{
1000
OTHER
1070
     0
1002
}
1002
{
1000
REACTOR
1002
}
1001
GENIUS_GENOBJ-N-FIL_13
1002
{
1000
OWNER
1000
GEN
1002
}
  0
LINE
  5
B0C
  8
TK1
 10
210.9572991830596
 20
316.23915868614478
 30
0.0
 11
211.2072991830596
 21
316.23915868614478
 31
0.0
  0
ARC
  5
B0D
  8
TK1
 10
210.9572991830596
 20
315.73915868614478
 30
0.0
 40
0.5
 50
90.0
 51
180.0
1001
GENIUS_GENODEF_13
1002
{
1000
HIER
1070
     0
1002
}
1002
{
1000
MANEDIT
1070
     0
1002
}
1002
{
1000
NOSEL
1070
     0
1002
}
1002
{
1000
BEHIND
1070
     0
1002
}
1002
{
1000
OTHER
1070
     0
1002
}
1002
{
1000
REACTOR
1002
}
1001
GENIUS_GENOBJ-N-FIL_13
1002
{
1000
OWNER
1000
GEN
1002
}
  0
LINE
  5
B0E
  8
TK1
 10
211.7072991830596
 20
315.73915868614478
 30
0.0
 11
211.7072991830596
 21
307.43915868614482
 31
0.0
  0
ARC
  5
B0F
  8
TK1
 10
211.2072991830596
 20
315.73915868614478
 30
0.0
 40
0.5
 50
0.0
 51
90.0
1001
GENIUS_GENODEF_13
1002
{
1000
HIER
1070
     0
1002
}
1002
{
1000
MANEDIT
1070
     0
1002
}
1002
{
1000
NOSEL
1070
     0
1002
}
1002
{
1000
BEHIND
1070
     0
1002
}
1002
{
1000
OTHER
1070
     0
1002
}
1002
{
1000
REACTOR
1002
}
1001
GENIUS_GENOBJ-N-FIL_13
1002
{
1000
OWNER
1000
GEN
1002
}
  0
LINE
  5
B10
  8
TK1
 10
206.7072991830596
 20
306.73915868614478
 30
0.0
 11
206.7072991830596
 21
305.23915868614478
 31
0.0
  0
ARC
  5
B12
  8
TK1
 10
208.2072991830596
 20
312.23915868614478
 30
0.0
 40
2.25
 50
180.0
 51
0.0
  0
LINE
  5
B13
  8
TK1
 10
210.4572991830596
 20
315.73915868614478
 30
0.0
 11
210.4572991830596
 21
312.23915868614478
 31
0.0
  0
LINE
  5
B14
  8
TK1
 10
205.9572991830596
 20
315.73915868614478
 30
0.0
 11
205.9572991830596
 21
312.23915868614478
 31
0.0
  0
ARC
  5
B15
  8
TK1
 10
205.4572991830596
 20
315.73915868614478
 30
0.0
 40
0.5
 50
0.0
 51
90.0
1001
GENIUS_GENODEF_13
1002
{
1000
HIER
1070
     0
1002
}
1002
{
1000
MANEDIT
1070
     0
1002
}
1002
{
1000
NOSEL
1070
     0
1002
}
1002
{
1000
BEHIND
1070
     0
1002
}
1002
{
1000
OTHER
1070
     0
1002
}
1002
{
1000
REACTOR
1002
}
1001
GENIUS_GENOBJ-N-FIL_13
1002
{
1000
OWNER
1000
GEN
1002
}
  0
LINE
  5
B16
  8
TK1
 10
211.7072991830596
 20
307.43915868614482
 30
0.0
 11
209.7072991830596
 21
306.73915868614478
 31
0.0
  0
LINE
  5
B17
  8
TK1
 10
204.7072991830596
 20
307.43915868614482
 30
0.0
 11
206.7072991830596
 21
306.73915868614478
 31
0.0
  0
LINE
  5
B1A
  8
TK1
 10
214.2072991830596
 20
307.43915868614482
 30
0.0
 11
214.2072991830596
 21
315.73915868614478
 31
0.0
  0
LINE
  5
B1B
  8
TK1
 10
214.7072991830596
 20
316.23915868614478
 30
0.0
 11
214.9572991830596
 21
316.23915868614478
 31
0.0
  0
ARC
  5
B1C
  8
TK1
 10
214.7072991830596
 20
315.73915868614478
 30
0.0
 40
0.5
 50
90.0
 51
180.0
1001
GENIUS_GENODEF_13
1002
{
1000
HIER
1070
     0
1002
}
1002
{
1000
MANEDIT
1070
     0
1002
}
1002
{
1000
NOSEL
1070
     0
1002
}
1002
{
1000
BEHIND
1070
     0
1002
}
1002
{
1000
OTHER
1070
     0
1002
}
1002
{
1000
REACTOR
1002
}
1001
GENIUS_GENOBJ-N-FIL_13
1002
{
1000
OWNER
1000
GEN
1002
}
  0
LINE
  5
B1D
  8
TK1
 10
220.4572991830596
 20
316.23915868614478
 30
0.0
 11
220.7072991830596
 21
316.23915868614478
 31
0.0
  0
ARC
  5
B1E
  8
TK1
 10
220.4572991830596
 20
315.73915868614478
 30
0.0
 40
0.5
 50
90.0
 51
180.0
1001
GENIUS_GENOBJ-N-FIL_13
1002
{
1000
OWNER
1000
GEN
1002
}
1001
GENIUS_GENODEF_13
1002
{
1000
HIER
1070
     0
1002
}
1002
{
1000
MANEDIT
1070
     0
1002
}
1002
{
1000
NOSEL
1070
     0
1002
}
1002
{
1000
BEHIND
1070
     0
1002
}
1002
{
1000
OTHER
1070
     0
1002
}
1002
{
1000
REACTOR
1002
}
  0
LINE
  5
B1F
  8
TK1
 10
221.2072991830596
 20
315.73915868614478
 30
0.0
 11
221.2072991830596
 21
307.43915868614482
 31
0.0
  0
ARC
  5
B20
  8
TK1
 10
220.7072991830596
 20
315.73915868614478
 30
0.0
 40
0.5
 50
0.0
 51
90.0
1001
GENIUS_GENODEF_13
1002
{
1000
HIER
1070
     0
1002
}
1002
{
1000
MANEDIT
1070
     0
1002
}
1002
{
1000
NOSEL
1070
     0
1002
}
1002
{
1000
BEHIND
1070
     0
1002
}
1002
{
1000
OTHER
1070
     0
1002
}
1002
{
1000
REACTOR
1002
}
1001
GENIUS_GENOBJ-N-FIL_13
1002
{
1000
OWNER
1000
GEN
1002
}
  0
LINE
  5
B21
  8
TK1
 10
216.2072991830596
 20
306.73915868614478
 30
0.0
 11
216.2072991830596
 21
305.23915868614478
 31
0.0
  0
ARC
  5
B23
  8
TK1
 10
217.7072991830596
 20
312.23915868614478
 30
0.0
 40
2.25
 50
180.0
 51
0.0
  0
LINE
  5
B24
  8
TK1
 10
219.9572991830596
 20
315.73915868614478
 30
0.0
 11
219.9572991830596
 21
312.23915868614478
 31
0.0
  0
LINE
  5
B25
  8
TK1
 10
215.4572991830596
 20
315.73915868614478
 30
0.0
 11
215.4572991830596
 21
312.23915868614478
 31
0.0
  0
ARC
  5
B26
  8
TK1
 10
214.9572991830596
 20
315.73915868614478
 30
0.0
 40
0.5
 50
0.0
 51
90.0
1001
GENIUS_GENODEF_13
1002
{
1000
HIER
1070
     0
1002
}
1002
{
1000
MANEDIT
1070
     0
1002
}
1002
{
1000
NOSEL
1070
     0
1002
}
1002
{
1000
BEHIND
1070
     0
1002
}
1002
{
1000
OTHER
1070
     0
1002
}
1002
{
1000
REACTOR
1002
}
1001
GENIUS_GENOBJ-N-FIL_13
1002
{
1000
OWNER
1000
GEN
1002
}
  0
LINE
  5
B27
  8
TK1
 10
221.2072991830596
 20
307.43915868614482
 30
0.0
 11
219.2072991830596
 21
306.73915868614478
 31
0.0
  0
LINE
  5
B28
  8
TK1
 10
214.2072991830596
 20
307.43915868614482
 30
0.0
 11
216.2072991830596
 21
306.73915868614478
 31
0.0
  0
LINE
  5
B2B
  8
TK1
 10
223.7072991830596
 20
307.43915868614482
 30
0.0
 11
223.7072991830596
 21
315.73915868614478
 31
0.0
  0
LINE
  5
B2C
  8
TK1
 10
224.2072991830596
 20
316.23915868614478
 30
0.0
 11
224.4572991830596
 21
316.23915868614478
 31
0.0
  0
ARC
  5
B2D
  8
TK1
 10
224.2072991830596
 20
315.73915868614478
 30
0.0
 40
0.5
 50
90.0
 51
180.0
1001
GENIUS_GENOBJ-N-FIL_13
1002
{
1000
OWNER
1000
GEN
1002
}
1001
GENIUS_GENODEF_13
1002
{
1000
HIER
1070
     0
1002
}
1002
{
1000
MANEDIT
1070
     0
1002
}
1002
{
1000
NOSEL
1070
     0
1002
}
1002
{
1000
BEHIND
1070
     0
1002
}
1002
{
1000
OTHER
1070
     0
1002
}
1002
{
1000
REACTOR
1002
}
  0
LINE
  5
B2E
  8
TK1
 10
229.9572991830596
 20
316.23915868614478
 30
0.0
 11
230.2072991830596
 21
316.23915868614478
 31
0.0
  0
ARC
  5
B2F
  8
TK1
 10
229.9572991830596
 20
315.73915868614478
 30
0.0
 40
0.5
 50
90.0
 51
180.0
1001
GENIUS_GENODEF_13
1002
{
1000
HIER
1070
     0
1002
}
1002
{
1000
MANEDIT
1070
     0
1002
}
1002
{
1000
NOSEL
1070
     0
1002
}
1002
{
1000
BEHIND
1070
     0
1002
}
1002
{
1000
OTHER
1070
     0
1002
}
1002
{
1000
REACTOR
1002
}
1001
GENIUS_GENOBJ-N-FIL_13
1002
{
1000
OWNER
1000
GEN
1002
}
  0
LINE
  5
B30
  8
TK1
 10
230.7072991830596
 20
315.73915868614478
 30
0.0
 11
230.7072991830596
 21
307.43915868614482
 31
0.0
  0
ARC
  5
B31
  8
TK1
 10
230.2072991830596
 20
315.73915868614478
 30
0.0
 40
0.5
 50
0.0
 51
90.0
1001
GENIUS_GENODEF_13
1002
{
1000
HIER
1070
     0
1002
}
1002
{
1000
MANEDIT
1070
     0
1002
}
1002
{
1000
NOSEL
1070
     0
1002
}
1002
{
1000
BEHIND
1070
     0
1002
}
1002
{
1000
OTHER
1070
     0
1002
}
1002
{
1000
REACTOR
1002
}
1001
GENIUS_GENOBJ-N-FIL_13
1002
{
1000
OWNER
1000
GEN
1002
}
  0
LINE
  5
B32
  8
TK1
 10
225.7072991830596
 20
306.73915868614478
 30
0.0
 11
225.7072991830596
 21
305.23915868614478
 31
0.0
  0
ARC
  5
B34
  8
TK1
 10
227.2072991830596
 20
312.23915868614478
 30
0.0
 40
2.25
 50
180.0
 51
0.0
  0
LINE
  5
B35
  8
TK1
 10
229.4572991830596
 20
315.73915868614478
 30
0.0
 11
229.4572991830596
 21
312.23915868614478
 31
0.0
  0
LINE
  5
B36
  8
TK1
 10
224.9572991830596
 20
315.73915868614478
 30
0.0
 11
224.9572991830596
 21
312.23915868614478
 31
0.0
  0
ARC
  5
B37
  8
TK1
 10
224.4572991830596
 20
315.73915868614478
 30
0.0
 40
0.5
 50
0.0
 51
90.0
1001
GENIUS_GENOBJ-N-FIL_13
1002
{
1000
OWNER
1000
GEN
1002
}
1001
GENIUS_GENODEF_13
1002
{
1000
HIER
1070
     0
1002
}
1002
{
1000
MANEDIT
1070
     0
1002
}
1002
{
1000
NOSEL
1070
     0
1002
}
1002
{
1000
BEHIND
1070
     0
1002
}
1002
{
1000
OTHER
1070
     0
1002
}
1002
{
1000
REACTOR
1002
}
  0
LINE
  5
B38
  8
TK1
 10
230.7072991830596
 20
307.43915868614482
 30
0.0
 11
228.7072991830596
 21
306.73915868614478
 31
0.0
  0
LINE
  5
B39
  8
TK1
 10
223.7072991830596
 20
307.43915868614482
 30
0.0
 11
225.7072991830596
 21
306.73915868614478
 31
0.0
  0
LINE
  5
B3C
  8
TK1
 10
233.2072991830596
 20
307.43915868614482
 30
0.0
 11
233.2072991830596
 21
315.73915868614478
 31
0.0
  0
LINE
  5
B3D
  8
TK1
 10
233.7072991830596
 20
316.23915868614478
 30
0.0
 11
233.9572991830596
 21
316.23915868614478
 31
0.0
  0
ARC
  5
B3E
  8
TK1
 10
233.7072991830596
 20
315.73915868614478
 30
0.0
 40
0.5
 50
90.0
 51
180.0
1001
GENIUS_GENODEF_13
1002
{
1000
HIER
1070
     0
1002
}
1002
{
1000
MANEDIT
1070
     0
1002
}
1002
{
1000
NOSEL
1070
     0
1002
}
1002
{
1000
BEHIND
1070
     0
1002
}
1002
{
1000
OTHER
1070
     0
1002
}
1002
{
1000
REACTOR
1002
}
1001
GENIUS_GENOBJ-N-FIL_13
1002
{
1000
OWNER
1000
GEN
1002
}
  0
LINE
  5
B3F
  8
TK1
 10
239.4572991830596
 20
316.23915868614478
 30
0.0
 11
239.7072991830596
 21
316.23915868614478
 31
0.0
  0
ARC
  5
B40
  8
TK1
 10
239.4572991830596
 20
315.73915868614478
 30
0.0
 40
0.5
 50
90.0
 51
180.0
1001
GENIUS_GENOBJ-N-FIL_13
1002
{
1000
OWNER
1000
GEN
1002
}
1001
GENIUS_GENODEF_13
1002
{
1000
HIER
1070
     0
1002
}
1002
{
1000
MANEDIT
1070
     0
1002
}
1002
{
1000
NOSEL
1070
     0
1002
}
1002
{
1000
BEHIND
1070
     0
1002
}
1002
{
1000
OTHER
1070
     0
1002
}
1002
{
1000
REACTOR
1002
}
  0
LINE
  5
B41
  8
TK1
 10
240.2072991830596
 20
315.73915868614478
 30
0.0
 11
240.2072991830596
 21
307.43915868614482
 31
0.0
  0
ARC
  5
B42
  8
TK1
 10
239.7072991830596
 20
315.73915868614478
 30
0.0
 40
0.5
 50
0.0
 51
90.0
1001
GENIUS_GENODEF_13
1002
{
1000
HIER
1070
     0
1002
}
1002
{
1000
MANEDIT
1070
     0
1002
}
1002
{
1000
NOSEL
1070
     0
1002
}
1002
{
1000
BEHIND
1070
     0
1002
}
1002
{
1000
OTHER
1070
     0
1002
}
1002
{
1000
REACTOR
1002
}
1001
GENIUS_GENOBJ-N-FIL_13
1002
{
1000
OWNER
1000
GEN
1002
}
  0
LINE
  5
B43
  8
TK1
 10
235.2072991830596
 20
306.73915868614478
 30
0.0
 11
235.2072991830596
 21
305.23915868614478
 31
0.0
  0
ARC
  5
B45
  8
TK1
 10
236.7072991830596
 20
312.23915868614478
 30
0.0
 40
2.25
 50
180.0
 51
0.0
  0
LINE
  5
B46
  8
TK1
 10
238.9572991830596
 20
315.73915868614478
 30
0.0
 11
238.9572991830596
 21
312.23915868614478
 31
0.0
  0
LINE
  5
B47
  8
TK1
 10
234.4572991830596
 20
315.73915868614478
 30
0.0
 11
234.4572991830596
 21
312.23915868614478
 31
0.0
  0
ARC
  5
B48
  8
TK1
 10
233.9572991830596
 20
315.73915868614478
 30
0.0
 40
0.5
 50
0.0
 51
90.0
1001
GENIUS_GENOBJ-N-FIL_13
1002
{
1000
OWNER
1000
GEN
1002
}
1001
GENIUS_GENODEF_13
1002
{
1000
HIER
1070
     0
1002
}
1002
{
1000
MANEDIT
1070
     0
1002
}
1002
{
1000
NOSEL
1070
     0
1002
}
1002
{
1000
BEHIND
1070
     0
1002
}
1002
{
1000
OTHER
1070
     0
1002
}
1002
{
1000
REACTOR
1002
}
  0
LINE
  5
B49
  8
TK1
 10
240.2072991830596
 20
307.43915868614482
 30
0.0
 11
238.2072991830596
 21
306.73915868614478
 31
0.0
  0
LINE
  5
B4A
  8
TK1
 10
233.2072991830596
 20
307.43915868614482
 30
0.0
 11
235.2072991830596
 21
306.73915868614478
 31
0.0
  0
LINE
  5
B4D
  8
TK1
 10
242.7072991830596
 20
307.43915868614482
 30
0.0
 11
242.7072991830596
 21
315.73915868614478
 31
0.0
  0
LINE
  5
B4E
  8
TK1
 10
243.2072991830596
 20
316.23915868614478
 30
0.0
 11
243.4572991830596
 21
316.23915868614478
 31
0.0
  0
ARC
  5
B4F
  8
TK1
 10
243.2072991830596
 20
315.73915868614478
 30
0.0
 40
0.5
 50
90.0
 51
180.0
1001
GENIUS_GENOBJ-N-FIL_13
1002
{
1000
OWNER
1000
GEN
1002
}
1001
GENIUS_GENODEF_13
1002
{
1000
HIER
1070
     0
1002
}
1002
{
1000
MANEDIT
1070
     0
1002
}
1002
{
1000
NOSEL
1070
     0
1002
}
1002
{
1000
BEHIND
1070
     0
1002
}
1002
{
1000
OTHER
1070
     0
1002
}
1002
{
1000
REACTOR
1002
}
  0
LINE
  5
B50
  8
TK1
 10
248.9572991830596
 20
316.23915868614478
 30
0.0
 11
249.2072991830596
 21
316.23915868614478
 31
0.0
  0
ARC
  5
B51
  8
TK1
 10
248.9572991830596
 20
315.73915868614478
 30
0.0
 40
0.5
 50
90.0
 51
180.0
1001
GENIUS_GENODEF_13
1002
{
1000
HIER
1070
     0
1002
}
1002
{
1000
MANEDIT
1070
     0
1002
}
1002
{
1000
NOSEL
1070
     0
1002
}
1002
{
1000
BEHIND
1070
     0
1002
}
1002
{
1000
OTHER
1070
     0
1002
}
1002
{
1000
REACTOR
1002
}
1001
GENIUS_GENOBJ-N-FIL_13
1002
{
1000
OWNER
1000
GEN
1002
}
  0
LINE
  5
B52
  8
TK1
 10
249.7072991830596
 20
315.73915868614478
 30
0.0
 11
249.7072991830596
 21
307.43915868614482
 31
0.0
  0
ARC
  5
B53
  8
TK1
 10
249.2072991830596
 20
315.73915868614478
 30
0.0
 40
0.5
 50
0.0
 51
90.0
1001
GENIUS_GENODEF_13
1002
{
1000
HIER
1070
     0
1002
}
1002
{
1000
MANEDIT
1070
     0
1002
}
1002
{
1000
NOSEL
1070
     0
1002
}
1002
{
1000
BEHIND
1070
     0
1002
}
1002
{
1000
OTHER
1070
     0
1002
}
1002
{
1000
REACTOR
1002
}
1001
GENIUS_GENOBJ-N-FIL_13
1002
{
1000
OWNER
1000
GEN
1002
}
  0
LINE
  5
B54
  8
TK1
 10
244.7072991830596
 20
306.73915868614478
 30
0.0
 11
244.7072991830596
 21
305.23915868614478
 31
0.0
  0
ARC
  5
B56
  8
TK1
 10
246.2072991830596
 20
312.23915868614478
 30
0.0
 40
2.25
 50
180.0
 51
0.0
  0
LINE
  5
B57
  8
TK1
 10
248.4572991830596
 20
315.73915868614478
 30
0.0
 11
248.4572991830596
 21
312.23915868614478
 31
0.0
  0
LINE
  5
B58
  8
TK1
 10
243.9572991830596
 20
315.73915868614478
 30
0.0
 11
243.9572991830596
 21
312.23915868614478
 31
0.0
  0
ARC
  5
B59
  8
TK1
 10
243.4572991830596
 20
315.73915868614478
 30
0.0
 40
0.5
 50
0.0
 51
90.0
1001
GENIUS_GENOBJ-N-FIL_13
1002
{
1000
OWNER
1000
GEN
1002
}
1001
GENIUS_GENODEF_13
1002
{
1000
HIER
1070
     0
1002
}
1002
{
1000
MANEDIT
1070
     0
1002
}
1002
{
1000
NOSEL
1070
     0
1002
}
1002
{
1000
BEHIND
1070
     0
1002
}
1002
{
1000
OTHER
1070
     0
1002
}
1002
{
1000
REACTOR
1002
}
  0
LINE
  5
B5A
  8
TK1
 10
249.7072991830596
 20
307.43915868614482
 30
0.0
 11
247.7072991830596
 21
306.73915868614478
 31
0.0
  0
LINE
  5
B5B
  8
TK1
 10
242.7072991830596
 20
307.43915868614482
 30
0.0
 11
244.7072991830596
 21
306.73915868614478
 31
0.0
  0
LINE
  5
B5E
  8
TK1
 10
252.2072991830596
 20
307.43915868614482
 30
0.0
 11
252.2072991830596
 21
315.73915868614478
 31
0.0
  0
LINE
  5
B5F
  8
TK1
 10
252.7072991830596
 20
316.23915868614478
 30
0.0
 11
252.9572991830596
 21
316.23915868614478
 31
0.0
  0
ARC
  5
B60
  8
TK1
 10
252.7072991830596
 20
315.73915868614478
 30
0.0
 40
0.5
 50
90.0
 51
180.0
1001
GENIUS_GENOBJ-N-FIL_13
1002
{
1000
OWNER
1000
GEN
1002
}
1001
GENIUS_GENODEF_13
1002
{
1000
HIER
1070
     0
1002
}
1002
{
1000
MANEDIT
1070
     0
1002
}
1002
{
1000
NOSEL
1070
     0
1002
}
1002
{
1000
BEHIND
1070
     0
1002
}
1002
{
1000
OTHER
1070
     0
1002
}
1002
{
1000
REACTOR
1002
}
  0
LINE
  5
B61
  8
TK1
 10
258.4572991830596
 20
316.23915868614478
 30
0.0
 11
258.7072991830596
 21
316.23915868614478
 31
0.0
  0
ARC
  5
B62
  8
TK1
 10
258.4572991830596
 20
315.73915868614478
 30
0.0
 40
0.5
 50
90.0
 51
180.0
1001
GENIUS_GENODEF_13
1002
{
1000
HIER
1070
     0
1002
}
1002
{
1000
MANEDIT
1070
     0
1002
}
1002
{
1000
NOSEL
1070
     0
1002
}
1002
{
1000
BEHIND
1070
     0
1002
}
1002
{
1000
OTHER
1070
     0
1002
}
1002
{
1000
REACTOR
1002
}
1001
GENIUS_GENOBJ-N-FIL_13
1002
{
1000
OWNER
1000
GEN
1002
}
  0
LINE
  5
B63
  8
TK1
 10
259.2072991830596
 20
315.73915868614478
 30
0.0
 11
259.2072991830596
 21
307.43915868614482
 31
0.0
  0
ARC
  5
B64
  8
TK1
 10
258.7072991830596
 20
315.73915868614478
 30
0.0
 40
0.5
 50
0.0
 51
90.0
1001
GENIUS_GENODEF_13
1002
{
1000
HIER
1070
     0
1002
}
1002
{
1000
MANEDIT
1070
     0
1002
}
1002
{
1000
NOSEL
1070
     0
1002
}
1002
{
1000
BEHIND
1070
     0
1002
}
1002
{
1000
OTHER
1070
     0
1002
}
1002
{
1000
REACTOR
1002
}
1001
GENIUS_GENOBJ-N-FIL_13
1002
{
1000
OWNER
1000
GEN
1002
}
  0
LINE
  5
B65
  8
TK1
 10
254.2072991830596
 20
306.73915868614478
 30
0.0
 11
254.2072991830596
 21
305.23915868614478
 31
0.0
  0
ARC
  5
B67
  8
TK1
 10
255.7072991830596
 20
312.23915868614478
 30
0.0
 40
2.25
 50
180.0
 51
0.0
  0
LINE
  5
B68
  8
TK1
 10
257.9572991830596
 20
315.73915868614478
 30
0.0
 11
257.9572991830596
 21
312.23915868614478
 31
0.0
  0
LINE
  5
B69
  8
TK1
 10
253.4572991830596
 20
315.73915868614478
 30
0.0
 11
253.4572991830596
 21
312.23915868614478
 31
0.0
  0
ARC
  5
B6A
  8
TK1
 10
252.9572991830596
 20
315.73915868614478
 30
0.0
 40
0.5
 50
0.0
 51
90.0
1001
GENIUS_GENOBJ-N-FIL_13
1002
{
1000
OWNER
1000
GEN
1002
}
1001
GENIUS_GENODEF_13
1002
{
1000
HIER
1070
     0
1002
}
1002
{
1000
MANEDIT
1070
     0
1002
}
1002
{
1000
NOSEL
1070
     0
1002
}
1002
{
1000
BEHIND
1070
     0
1002
}
1002
{
1000
OTHER
1070
     0
1002
}
1002
{
1000
REACTOR
1002
}
  0
LINE
  5
B6B
  8
TK1
 10
259.2072991830596
 20
307.43915868614482
 30
0.0
 11
257.2072991830596
 21
306.73915868614478
 31
0.0
  0
LINE
  5
B6C
  8
TK1
 10
252.2072991830596
 20
307.43915868614482
 30
0.0
 11
254.2072991830596
 21
306.73915868614478
 31
0.0
  0
LINE
  5
B6F
  8
TK1
 10
261.7072991830596
 20
307.43915868614482
 30
0.0
 11
261.7072991830596
 21
315.73915868614478
 31
0.0
  0
LINE
  5
B70
  8
TK1
 10
262.2072991830596
 20
316.23915868614478
 30
0.0
 11
262.4572991830596
 21
316.23915868614478
 31
0.0
  0
ARC
  5
B71
  8
TK1
 10
262.2072991830596
 20
315.73915868614478
 30
0.0
 40
0.5
 50
90.0
 51
180.0
1001
GENIUS_GENODEF_13
1002
{
1000
HIER
1070
     0
1002
}
1002
{
1000
MANEDIT
1070
     0
1002
}
1002
{
1000
NOSEL
1070
     0
1002
}
1002
{
1000
BEHIND
1070
     0
1002
}
1002
{
1000
OTHER
1070
     0
1002
}
1002
{
1000
REACTOR
1002
}
1001
GENIUS_GENOBJ-N-FIL_13
1002
{
1000
OWNER
1000
GEN
1002
}
  0
LINE
  5
B72
  8
TK1
 10
267.9572991830596
 20
316.23915868614478
 30
0.0
 11
268.2072991830596
 21
316.23915868614478
 31
0.0
  0
ARC
  5
B73
  8
TK1
 10
267.9572991830596
 20
315.73915868614478
 30
0.0
 40
0.5
 50
90.0
 51
180.0
1001
GENIUS_GENOBJ-N-FIL_13
1002
{
1000
OWNER
1000
GEN
1002
}
1001
GENIUS_GENODEF_13
1002
{
1000
HIER
1070
     0
1002
}
1002
{
1000
MANEDIT
1070
     0
1002
}
1002
{
1000
NOSEL
1070
     0
1002
}
1002
{
1000
BEHIND
1070
     0
1002
}
1002
{
1000
OTHER
1070
     0
1002
}
1002
{
1000
REACTOR
1002
}
  0
LINE
  5
B74
  8
TK1
 10
268.7072991830596
 20
315.73915868614478
 30
0.0
 11
268.7072991830596
 21
307.43915868614482
 31
0.0
  0
ARC
  5
B75
  8
TK1
 10
268.2072991830596
 20
315.73915868614478
 30
0.0
 40
0.5
 50
0.0
 51
90.0
1001
GENIUS_GENOBJ-N-FIL_13
1002
{
1000
OWNER
1000
GEN
1002
}
1001
GENIUS_GENODEF_13
1002
{
1000
HIER
1070
     0
1002
}
1002
{
1000
MANEDIT
1070
     0
1002
}
1002
{
1000
NOSEL
1070
     0
1002
}
1002
{
1000
BEHIND
1070
     0
1002
}
1002
{
1000
OTHER
1070
     0
1002
}
1002
{
1000
REACTOR
1002
}
  0
LINE
  5
B76
  8
TK1
 10
263.7072991830596
 20
306.73915868614478
 30
0.0
 11
263.7072991830596
 21
305.23915868614478
 31
0.0
  0
ARC
  5
B78
  8
TK1
 10
265.2072991830596
 20
312.23915868614478
 30
0.0
 40
2.25
 50
180.0
 51
0.0
  0
LINE
  5
B79
  8
TK1
 10
267.4572991830596
 20
315.73915868614478
 30
0.0
 11
267.4572991830596
 21
312.23915868614478
 31
0.0
  0
LINE
  5
B7A
  8
TK1
 10
262.9572991830596
 20
315.73915868614478
 30
0.0
 11
262.9572991830596
 21
312.23915868614478
 31
0.0
  0
ARC
  5
B7B
  8
TK1
 10
262.4572991830596
 20
315.73915868614478
 30
0.0
 40
0.5
 50
0.0
 51
90.0
1001
GENIUS_GENODEF_13
1002
{
1000
HIER
1070
     0
1002
}
1002
{
1000
MANEDIT
1070
     0
1002
}
1002
{
1000
NOSEL
1070
     0
1002
}
1002
{
1000
BEHIND
1070
     0
1002
}
1002
{
1000
OTHER
1070
     0
1002
}
1002
{
1000
REACTOR
1002
}
1001
GENIUS_GENOBJ-N-FIL_13
1002
{
1000
OWNER
1000
GEN
1002
}
  0
LINE
  5
B7C
  8
TK1
 10
268.7072991830596
 20
307.43915868614482
 30
0.0
 11
266.7072991830596
 21
306.73915868614478
 31
0.0
  0
LINE
  5
B7D
  8
TK1
 10
261.7072991830596
 20
307.43915868614482
 30
0.0
 11
263.7072991830596
 21
306.73915868614478
 31
0.0
  0
LINE
  5
B80
  8
TK1
 10
271.2072991830596
 20
307.43915868614482
 30
0.0
 11
271.2072991830596
 21
315.73915868614478
 31
0.0
  0
LINE
  5
B81
  8
TK1
 10
271.7072991830596
 20
316.23915868614478
 30
0.0
 11
271.9572991830596
 21
316.23915868614478
 31
0.0
  0
ARC
  5
B82
  8
TK1
 10
271.7072991830596
 20
315.73915868614478
 30
0.0
 40
0.5
 50
90.0
 51
180.0
1001
GENIUS_GENODEF_13
1002
{
1000
HIER
1070
     0
1002
}
1002
{
1000
MANEDIT
1070
     0
1002
}
1002
{
1000
NOSEL
1070
     0
1002
}
1002
{
1000
BEHIND
1070
     0
1002
}
1002
{
1000
OTHER
1070
     0
1002
}
1002
{
1000
REACTOR
1002
}
1001
GENIUS_GENOBJ-N-FIL_13
1002
{
1000
OWNER
1000
GEN
1002
}
  0
LINE
  5
B83
  8
TK1
 10
277.4572991830596
 20
316.23915868614478
 30
0.0
 11
277.7072991830596
 21
316.23915868614478
 31
0.0
  0
ARC
  5
B84
  8
TK1
 10
277.4572991830596
 20
315.73915868614478
 30
0.0
 40
0.5
 50
90.0
 51
180.0
1001
GENIUS_GENOBJ-N-FIL_13
1002
{
1000
OWNER
1000
GEN
1002
}
1001
GENIUS_GENODEF_13
1002
{
1000
HIER
1070
     0
1002
}
1002
{
1000
MANEDIT
1070
     0
1002
}
1002
{
1000
NOSEL
1070
     0
1002
}
1002
{
1000
BEHIND
1070
     0
1002
}
1002
{
1000
OTHER
1070
     0
1002
}
1002
{
1000
REACTOR
1002
}
  0
LINE
  5
B85
  8
TK1
 10
278.2072991830596
 20
315.73915868614478
 30
0.0
 11
278.2072991830596
 21
307.43915868614482
 31
0.0
  0
ARC
  5
B86
  8
TK1
 10
277.7072991830596
 20
315.73915868614478
 30
0.0
 40
0.5
 50
0.0
 51
90.0
1001
GENIUS_GENODEF_13
1002
{
1000
HIER
1070
     0
1002
}
1002
{
1000
MANEDIT
1070
     0
1002
}
1002
{
1000
NOSEL
1070
     0
1002
}
1002
{
1000
BEHIND
1070
     0
1002
}
1002
{
1000
OTHER
1070
     0
1002
}
1002
{
1000
REACTOR
1002
}
1001
GENIUS_GENOBJ-N-FIL_13
1002
{
1000
OWNER
1000
GEN
1002
}
  0
LINE
  5
B87
  8
TK1
 10
273.2072991830596
 20
306.73915868614478
 30
0.0
 11
273.2072991830596
 21
305.23915868614478
 31
0.0
  0
ARC
  5
B89
  8
TK1
 10
274.7072991830596
 20
312.23915868614478
 30
0.0
 40
2.25
 50
180.0
 51
0.0
  0
LINE
  5
B8A
  8
TK1
 10
276.9572991830596
 20
315.73915868614478
 30
0.0
 11
276.9572991830596
 21
312.23915868614478
 31
0.0
  0
LINE
  5
B8B
  8
TK1
 10
272.4572991830596
 20
315.73915868614478
 30
0.0
 11
272.4572991830596
 21
312.23915868614478
 31
0.0
  0
ARC
  5
B8C
  8
TK1
 10
271.9572991830596
 20
315.73915868614478
 30
0.0
 40
0.5
 50
0.0
 51
90.0
1001
GENIUS_GENODEF_13
1002
{
1000
HIER
1070
     0
1002
}
1002
{
1000
MANEDIT
1070
     0
1002
}
1002
{
1000
NOSEL
1070
     0
1002
}
1002
{
1000
BEHIND
1070
     0
1002
}
1002
{
1000
OTHER
1070
     0
1002
}
1002
{
1000
REACTOR
1002
}
1001
GENIUS_GENOBJ-N-FIL_13
1002
{
1000
OWNER
1000
GEN
1002
}
  0
LINE
  5
B8D
  8
TK1
 10
278.2072991830596
 20
307.43915868614482
 30
0.0
 11
276.2072991830596
 21
306.73915868614478
 31
0.0
  0
LINE
  5
B8E
  8
TK1
 10
271.2072991830596
 20
307.43915868614482
 30
0.0
 11
273.2072991830596
 21
306.73915868614478
 31
0.0
  0
LINE
  5
B91
  8
TK1
 10
280.7072991830596
 20
307.43915868614482
 30
0.0
 11
280.7072991830596
 21
315.73915868614478
 31
0.0
  0
LINE
  5
B92
  8
TK1
 10
281.2072991830596
 20
316.23915868614478
 30
0.0
 11
281.4572991830596
 21
316.23915868614478
 31
0.0
  0
ARC
  5
B93
  8
TK1
 10
281.2072991830596
 20
315.73915868614478
 30
0.0
 40
0.5
 50
90.0
 51
180.0
1001
GENIUS_GENOBJ-N-FIL_13
1002
{
1000
OWNER
1000
GEN
1002
}
1001
GENIUS_GENODEF_13
1002
{
1000
HIER
1070
     0
1002
}
1002
{
1000
MANEDIT
1070
     0
1002
}
1002
{
1000
NOSEL
1070
     0
1002
}
1002
{
1000
BEHIND
1070
     0
1002
}
1002
{
1000
OTHER
1070
     0
1002
}
1002
{
1000
REACTOR
1002
}
  0
LINE
  5
B94
  8
TK1
 10
286.9572991830596
 20
316.23915868614478
 30
0.0
 11
287.2072991830596
 21
316.23915868614478
 31
0.0
  0
LINE
  5
B95
  8
TK1
 10
287.7072991830596
 20
315.73915868614478
 30
0.0
 11
287.7072991830596
 21
307.43915868614482
 31
0.0
  0
ARC
  5
B96
  8
TK1
 10
287.2072991830596
 20
315.73915868614478
 30
0.0
 40
0.5
 50
0.0
 51
90.0
1001
GENIUS_GENODEF_13
1002
{
1000
HIER
1070
     0
1002
}
1002
{
1000
MANEDIT
1070
     0
1002
}
1002
{
1000
NOSEL
1070
     0
1002
}
1002
{
1000
BEHIND
1070
     0
1002
}
1002
{
1000
OTHER
1070
     0
1002
}
1002
{
1000
REACTOR
1002
}
1001
GENIUS_GENOBJ-N-FIL_13
1002
{
1000
OWNER
1000
GEN
1002
}
  0
LINE
  5
B97
  8
TK1
 10
282.7072991830596
 20
306.73915868614478
 30
0.0
 11
282.7072991830596
 21
305.23915868614478
 31
0.0
  0
ARC
  5
B99
  8
TK1
 10
284.2072991830596
 20
312.23915868614478
 30
0.0
 40
2.25
 50
180.0
 51
0.0
  0
LINE
  5
B9A
  8
TK1
 10
286.4572991830596
 20
315.73915868614478
 30
0.0
 11
286.4572991830596
 21
312.23915868614478
 31
0.0
  0
ARC
  5
B9B
  8
TK1
 10
286.9572991830596
 20
315.73915868614478
 30
0.0
 40
0.5
 50
90.0
 51
180.0
1001
GENIUS_GENODEF_13
1002
{
1000
HIER
1070
     0
1002
}
1002
{
1000
MANEDIT
1070
     0
1002
}
1002
{
1000
NOSEL
1070
     0
1002
}
1002
{
1000
BEHIND
1070
     0
1002
}
1002
{
1000
OTHER
1070
     0
1002
}
1002
{
1000
REACTOR
1002
}
1001
GENIUS_GENOBJ-N-FIL_13
1002
{
1000
OWNER
1000
GEN
1002
}
  0
LINE
  5
B9C
  8
TK1
 10
281.9572991830596
 20
315.73915868614478
 30
0.0
 11
281.9572991830596
 21
312.23915868614478
 31
0.0
  0
ARC
  5
B9D
  8
TK1
 10
281.4572991830596
 20
315.73915868614478
 30
0.0
 40
0.5
 50
0.0
 51
90.0
1001
GENIUS_GENOBJ-N-FIL_13
1002
{
1000
OWNER
1000
GEN
1002
}
1001
GENIUS_GENODEF_13
1002
{
1000
HIER
1070
     0
1002
}
1002
{
1000
MANEDIT
1070
     0
1002
}
1002
{
1000
NOSEL
1070
     0
1002
}
1002
{
1000
BEHIND
1070
     0
1002
}
1002
{
1000
OTHER
1070
     0
1002
}
1002
{
1000
REACTOR
1002
}
  0
LINE
  5
B9E
  8
TK1
 10
287.7072991830596
 20
307.43915868614482
 30
0.0
 11
285.7072991830596
 21
306.73915868614478
 31
0.0
  0
LINE
  5
B9F
  8
TK1
 10
280.7072991830596
 20
307.43915868614482
 30
0.0
 11
282.7072991830596
 21
306.73915868614478
 31
0.0
  0
LINE
  5
BA1
  8
AM_7
  6
AM_ISO08W050X2
 10
103.7072991830596
 20
303.73915868614478
 30
0.0
 11
103.7072991830596
 21
322.23915868614478
 31
0.0
1001
GENIUS_GENOBJ-N-CEN_13
1002
{
1000
OWNER
1000
GEN
1002
}
1001
GENIUS_GENODEF_13
1002
{
1000
HIER
1070
     0
1002
}
1002
{
1000
MANEDIT
1070
     0
1002
}
1002
{
1000
NOSEL
1070
     0
1002
}
1002
{
1000
BEHIND
1070
     0
1002
}
1002
{
1000
OTHER
1070
     0
1002
}
1002
{
1000
REACTOR
1002
}
1001
GENIUS_GENCEN_19
1002
{
1040
6.0
1002
}
  0
LINE
  5
BA2
  8
AM_7
  6
AM_ISO08W050X2
 10
113.2072991830596
 20
303.73915868614478
 30
0.0
 11
113.2072991830596
 21
322.23915868614478
 31
0.0
1001
GENIUS_GENODEF_13
1002
{
1000
HIER
1070
     0
1002
}
1002
{
1000
MANEDIT
1070
     0
1002
}
1002
{
1000
NOSEL
1070
     0
1002
}
1002
{
1000
BEHIND
1070
     0
1002
}
1002
{
1000
OTHER
1070
     0
1002
}
1002
{
1000
REACTOR
1002
}
1001
GENIUS_GENOBJ-N-CEN_13
1002
{
1000
OWNER
1000
GEN
1002
}
1001
GENIUS_GENCEN_19
1002
{
1040
6.0
1002
}
  0
LINE
  5
BA3
  8
AM_7
  6
AM_ISO08W050X2
 10
122.7072991830596
 20
303.73915868614472
 30
0.0
 11
122.7072991830596
 21
322.23915868614478
 31
0.0
1001
GENIUS_GENOBJ-N-CEN_13
1002
{
1000
OWNER
1000
GEN
1002
}
1001
GENIUS_GENODEF_13
1002
{
1000
HIER
1070
     0
1002
}
1002
{
1000
MANEDIT
1070
     0
1002
}
1002
{
1000
NOSEL
1070
     0
1002
}
1002
{
1000
BEHIND
1070
     0
1002
}
1002
{
1000
OTHER
1070
     0
1002
}
1002
{
1000
REACTOR
1002
}
1001
GENIUS_GENCEN_19
1002
{
1040
6.0
1002
}
  0
LINE
  5
BA4
  8
AM_7
  6
AM_ISO08W050X2
 10
132.2072991830596
 20
303.73915868614478
 30
0.0
 11
132.2072991830596
 21
322.23915868614478
 31
0.0
1001
GENIUS_GENODEF_13
1002
{
1000
HIER
1070
     0
1002
}
1002
{
1000
MANEDIT
1070
     0
1002
}
1002
{
1000
NOSEL
1070
     0
1002
}
1002
{
1000
BEHIND
1070
     0
1002
}
1002
{
1000
OTHER
1070
     0
1002
}
1002
{
1000
REACTOR
1002
}
1001
GENIUS_GENOBJ-N-CEN_13
1002
{
1000
OWNER
1000
GEN
1002
}
1001
GENIUS_GENCEN_19
1002
{
1040
6.0
1002
}
  0
LINE
  5
BA5
  8
AM_7
  6
AM_ISO08W050X2
 10
141.7072991830596
 20
303.73915868614478
 30
0.0
 11
141.7072991830596
 21
322.23915868614478
 31
0.0
1001
GENIUS_GENODEF_13
1002
{
1000
HIER
1070
     0
1002
}
1002
{
1000
MANEDIT
1070
     0
1002
}
1002
{
1000
NOSEL
1070
     0
1002
}
1002
{
1000
BEHIND
1070
     0
1002
}
1002
{
1000
OTHER
1070
     0
1002
}
1002
{
1000
REACTOR
1002
}
1001
GENIUS_GENOBJ-N-CEN_13
1002
{
1000
OWNER
1000
GEN
1002
}
1001
GENIUS_GENCEN_19
1002
{
1040
6.0
1002
}
  0
LINE
  5
BA6
  8
AM_7
  6
AM_ISO08W050X2
 10
151.2072991830596
 20
303.73915868614478
 30
0.0
 11
151.2072991830596
 21
322.23915868614478
 31
0.0
1001
GENIUS_GENOBJ-N-CEN_13
1002
{
1000
OWNER
1000
GEN
1002
}
1001
GENIUS_GENODEF_13
1002
{
1000
HIER
1070
     0
1002
}
1002
{
1000
MANEDIT
1070
     0
1002
}
1002
{
1000
NOSEL
1070
     0
1002
}
1002
{
1000
BEHIND
1070
     0
1002
}
1002
{
1000
OTHER
1070
     0
1002
}
1002
{
1000
REACTOR
1002
}
1001
GENIUS_GENCEN_19
1002
{
1040
6.0
1002
}
  0
LINE
  5
BA7
  8
AM_7
  6
AM_ISO08W050X2
 10
160.7072991830596
 20
303.73915868614478
 30
0.0
 11
160.7072991830596
 21
322.23915868614478
 31
0.0
1001
GENIUS_GENODEF_13
1002
{
1000
HIER
1070
     0
1002
}
1002
{
1000
MANEDIT
1070
     0
1002
}
1002
{
1000
NOSEL
1070
     0
1002
}
1002
{
1000
BEHIND
1070
     0
1002
}
1002
{
1000
OTHER
1070
     0
1002
}
1002
{
1000
REACTOR
1002
}
1001
GENIUS_GENOBJ-N-CEN_13
1002
{
1000
OWNER
1000
GEN
1002
}
1001
GENIUS_GENCEN_19
1002
{
1040
6.0
1002
}
  0
LINE
  5
BA8
  8
AM_7
  6
AM_ISO08W050X2
 10
170.2072991830596
 20
303.73915868614478
 30
0.0
 11
170.2072991830596
 21
322.23915868614478
 31
0.0
1001
GENIUS_GENOBJ-N-CEN_13
1002
{
1000
OWNER
1000
GEN
1002
}
1001
GENIUS_GENODEF_13
1002
{
1000
HIER
1070
     0
1002
}
1002
{
1000
MANEDIT
1070
     0
1002
}
1002
{
1000
NOSEL
1070
     0
1002
}
1002
{
1000
BEHIND
1070
     0
1002
}
1002
{
1000
OTHER
1070
     0
1002
}
1002
{
1000
REACTOR
1002
}
1001
GENIUS_GENCEN_19
1002
{
1040
6.0
1002
}
  0
LINE
  5
BA9
  8
AM_7
  6
AM_ISO08W050X2
 10
179.7072991830596
 20
303.73915868614478
 30
0.0
 11
179.7072991830596
 21
322.23915868614478
 31
0.0
1001
GENIUS_GENODEF_13
1002
{
1000
HIER
1070
     0
1002
}
1002
{
1000
MANEDIT
1070
     0
1002
}
1002
{
1000
NOSEL
1070
     0
1002
}
1002
{
1000
BEHIND
1070
     0
1002
}
1002
{
1000
OTHER
1070
     0
1002
}
1002
{
1000
REACTOR
1002
}
1001
GENIUS_GENOBJ-N-CEN_13
1002
{
1000
OWNER
1000
GEN
1002
}
1001
GENIUS_GENCEN_19
1002
{
1040
6.0
1002
}
  0
LINE
  5
BAA
  8
AM_7
  6
AM_ISO08W050X2
 10
189.2072991830596
 20
303.73915868614478
 30
0.0
 11
189.2072991830596
 21
322.23915868614478
 31
0.0
1001
GENIUS_GENODEF_13
1002
{
1000
HIER
1070
     0
1002
}
1002
{
1000
MANEDIT
1070
     0
1002
}
1002
{
1000
NOSEL
1070
     0
1002
}
1002
{
1000
BEHIND
1070
     0
1002
}
1002
{
1000
OTHER
1070
     0
1002
}
1002
{
1000
REACTOR
1002
}
1001
GENIUS_GENOBJ-N-CEN_13
1002
{
1000
OWNER
1000
GEN
1002
}
1001
GENIUS_GENCEN_19
1002
{
1040
6.0
1002
}
  0
LINE
  5
BAB
  8
AM_7
  6
AM_ISO08W050X2
 10
198.7072991830596
 20
303.73915868614478
 30
0.0
 11
198.7072991830596
 21
322.23915868614478
 31
0.0
1001
GENIUS_GENODEF_13
1002
{
1000
HIER
1070
     0
1002
}
1002
{
1000
MANEDIT
1070
     0
1002
}
1002
{
1000
NOSEL
1070
     0
1002
}
1002
{
1000
BEHIND
1070
     0
1002
}
1002
{
1000
OTHER
1070
     0
1002
}
1002
{
1000
REACTOR
1002
}
1001
GENIUS_GENOBJ-N-CEN_13
1002
{
1000
OWNER
1000
GEN
1002
}
1001
GENIUS_GENCEN_19
1002
{
1040
6.0
1002
}
  0
LINE
  5
BAC
  8
AM_7
  6
AM_ISO08W050X2
 10
208.2072991830596
 20
303.73915868614478
 30
0.0
 11
208.2072991830596
 21
322.23915868614478
 31
0.0
1001
GENIUS_GENODEF_13
1002
{
1000
HIER
1070
     0
1002
}
1002
{
1000
MANEDIT
1070
     0
1002
}
1002
{
1000
NOSEL
1070
     0
1002
}
1002
{
1000
BEHIND
1070
     0
1002
}
1002
{
1000
OTHER
1070
     0
1002
}
1002
{
1000
REACTOR
1002
}
1001
GENIUS_GENOBJ-N-CEN_13
1002
{
1000
OWNER
1000
GEN
1002
}
1001
GENIUS_GENCEN_19
1002
{
1040
6.0
1002
}
  0
LINE
  5
BAD
  8
AM_7
  6
AM_ISO08W050X2
 10
217.7072991830596
 20
303.73915868614478
 30
0.0
 11
217.7072991830596
 21
322.23915868614478
 31
0.0
1001
GENIUS_GENODEF_13
1002
{
1000
HIER
1070
     0
1002
}
1002
{
1000
MANEDIT
1070
     0
1002
}
1002
{
1000
NOSEL
1070
     0
1002
}
1002
{
1000
BEHIND
1070
     0
1002
}
1002
{
1000
OTHER
1070
     0
1002
}
1002
{
1000
REACTOR
1002
}
1001
GENIUS_GENOBJ-N-CEN_13
1002
{
1000
OWNER
1000
GEN
1002
}
1001
GENIUS_GENCEN_19
1002
{
1040
6.0
1002
}
  0
LINE
  5
BAE
  8
AM_7
  6
AM_ISO08W050X2
 10
227.2072991830596
 20
303.73915868614478
 30
0.0
 11
227.2072991830596
 21
322.23915868614478
 31
0.0
1001
GENIUS_GENOBJ-N-CEN_13
1002
{
1000
OWNER
1000
GEN
1002
}
1001
GENIUS_GENODEF_13
1002
{
1000
HIER
1070
     0
1002
}
1002
{
1000
MANEDIT
1070
     0
1002
}
1002
{
1000
NOSEL
1070
     0
1002
}
1002
{
1000
BEHIND
1070
     0
1002
}
1002
{
1000
OTHER
1070
     0
1002
}
1002
{
1000
REACTOR
1002
}
1001
GENIUS_GENCEN_19
1002
{
1040
6.0
1002
}
  0
LINE
  5
BAF
  8
AM_7
  6
AM_ISO08W050X2
 10
236.7072991830596
 20
303.73915868614478
 30
0.0
 11
236.7072991830596
 21
322.23915868614478
 31
0.0
1001
GENIUS_GENOBJ-N-CEN_13
1002
{
1000
OWNER
1000
GEN
1002
}
1001
GENIUS_GENODEF_13
1002
{
1000
HIER
1070
     0
1002
}
1002
{
1000
MANEDIT
1070
     0
1002
}
1002
{
1000
NOSEL
1070
     0
1002
}
1002
{
1000
BEHIND
1070
     0
1002
}
1002
{
1000
OTHER
1070
     0
1002
}
1002
{
1000
REACTOR
1002
}
1001
GENIUS_GENCEN_19
1002
{
1040
6.0
1002
}
  0
LINE
  5
BB0
  8
AM_7
  6
AM_ISO08W050X2
 10
246.2072991830596
 20
303.73915868614478
 30
0.0
 11
246.2072991830596
 21
322.23915868614478
 31
0.0
1001
GENIUS_GENODEF_13
1002
{
1000
HIER
1070
     0
1002
}
1002
{
1000
MANEDIT
1070
     0
1002
}
1002
{
1000
NOSEL
1070
     0
1002
}
1002
{
1000
BEHIND
1070
     0
1002
}
1002
{
1000
OTHER
1070
     0
1002
}
1002
{
1000
REACTOR
1002
}
1001
GENIUS_GENOBJ-N-CEN_13
1002
{
1000
OWNER
1000
GEN
1002
}
1001
GENIUS_GENCEN_19
1002
{
1040
6.0
1002
}
  0
LINE
  5
BB1
  8
AM_7
  6
AM_ISO08W050X2
 10
255.7072991830596
 20
303.73915868614478
 30
0.0
 11
255.7072991830596
 21
322.23915868614478
 31
0.0
1001
GENIUS_GENODEF_13
1002
{
1000
HIER
1070
     0
1002
}
1002
{
1000
MANEDIT
1070
     0
1002
}
1002
{
1000
NOSEL
1070
     0
1002
}
1002
{
1000
BEHIND
1070
     0
1002
}
1002
{
1000
OTHER
1070
     0
1002
}
1002
{
1000
REACTOR
1002
}
1001
GENIUS_GENOBJ-N-CEN_13
1002
{
1000
OWNER
1000
GEN
1002
}
1001
GENIUS_GENCEN_19
1002
{
1040
6.0
1002
}
  0
LINE
  5
BB2
  8
AM_7
  6
AM_ISO08W050X2
 10
265.2072991830596
 20
303.73915868614478
 30
0.0
 11
265.2072991830596
 21
322.23915868614478
 31
0.0
1001
GENIUS_GENOBJ-N-CEN_13
1002
{
1000
OWNER
1000
GEN
1002
}
1001
GENIUS_GENODEF_13
1002
{
1000
HIER
1070
     0
1002
}
1002
{
1000
MANEDIT
1070
     0
1002
}
1002
{
1000
NOSEL
1070
     0
1002
}
1002
{
1000
BEHIND
1070
     0
1002
}
1002
{
1000
OTHER
1070
     0
1002
}
1002
{
1000
REACTOR
1002
}
1001
GENIUS_GENCEN_19
1002
{
1040
6.0
1002
}
  0
LINE
  5
BB3
  8
AM_7
  6
AM_ISO08W050X2
 10
274.7072991830596
 20
303.73915868614478
 30
0.0
 11
274.7072991830596
 21
322.23915868614478
 31
0.0
1001
GENIUS_GENODEF_13
1002
{
1000
HIER
1070
     0
1002
}
1002
{
1000
MANEDIT
1070
     0
1002
}
1002
{
1000
NOSEL
1070
     0
1002
}
1002
{
1000
BEHIND
1070
     0
1002
}
1002
{
1000
OTHER
1070
     0
1002
}
1002
{
1000
REACTOR
1002
}
1001
GENIUS_GENOBJ-N-CEN_13
1002
{
1000
OWNER
1000
GEN
1002
}
1001
GENIUS_GENCEN_19
1002
{
1040
6.0
1002
}
  0
LINE
  5
BB4
  8
AM_7
  6
AM_ISO08W050X2
 10
284.2072991830596
 20
303.73915868614478
 30
0.0
 11
284.2072991830596
 21
322.23915868614478
 31
0.0
1001
GENIUS_GENOBJ-N-CEN_13
1002
{
1000
OWNER
1000
GEN
1002
}
1001
GENIUS_GENODEF_13
1002
{
1000
HIER
1070
     0
1002
}
1002
{
1000
MANEDIT
1070
     0
1002
}
1002
{
1000
NOSEL
1070
     0
1002
}
1002
{
1000
BEHIND
1070
     0
1002
}
1002
{
1000
OTHER
1070
     0
1002
}
1002
{
1000
REACTOR
1002
}
1001
GENIUS_GENCEN_19
1002
{
1040
6.0
1002
}
  0
LINE
  5
BB5
  8
AM_7
 10
289.4572991830596
 20
312.23915868614478
 30
0.0
 11
98.457299183059632
 21
312.23915868614478
 31
0.0
1001
GENIUS_GENOBJ-N-CEN_13
1002
{
1000
OWNER
1000
GEN
1002
}
1001
GENIUS_GENODEF_13
1002
{
1000
HIER
1070
     0
1002
}
1002
{
1000
MANEDIT
1070
     0
1002
}
1002
{
1000
NOSEL
1070
     0
1002
}
1002
{
1000
BEHIND
1070
     0
1002
}
1002
{
1000
OTHER
1070
     0
1002
}
1002
{
1000
REACTOR
1002
}
1001
GENIUS_GENCEN_19
1002
{
1040
3.0
1002
}
  0
DIMENSION
  5
BB6
  8
AM_5
  2
*D17
 10
101.4572991830596
 20
340.23915969614478
 30
0.0
 11
92.143382351428727
 21
346.3599807364219
 31
0.0
 70
   128
 13
105.9572991830596
 23
315.73915868614478
 33
0.0
 14
101.4572991830596
 24
315.73915868614478
 34
0.0
1001
ACAD_DSTYLE_DIMINSPECT
1070
   396
1000
100%
1070
   395
1000

1070
   394
1070
    33
1070
   393
1070
     0
1001
ACAD
1000
DSTYLE
1002
{
1070
   287
1070
     5
1070
    40
1040
2.0
1070
   279
1070
     2
1002
}
  0
DIMENSION
  5
BB9
  8
AM_5
  2
*D18
 10
100.2072991830596
 20
360.23915969614472
 30
0.0
 11
103.8337425201137
 21
366.73860111917293
 31
0.0
 70
   128
 13
107.2072991830596
 23
315.73915868614478
 33
0.0
 14
100.2072991830596
 24
315.73915868614478
 34
0.0
1001
ACAD_DSTYLE_DIMINSPECT
1070
   396
1000
100%
1070
   395
1000

1070
   394
1070
    33
1070
   393
1070
     0
1001
ACAD
1000
DSTYLE
1002
{
1070
   287
1070
     5
1070
    40
1040
2.0
1070
   279
1070
     2
1002
}
  0
DIMENSION
  5
BBC
  8
AM_5
  2
*D19
 10
141.7072991830596
 20
340.23915969614478
 30
0.0
 11
136.64223412552951
 21
347.29222941907369
 31
0.0
 70
   128
 13
132.2072991830596
 23
322.23915868614478
 33
0.0
 14
141.7072991830596
 24
322.23915868614478
 34
0.0
1001
ACAD_DSTYLE_DIMINSPECT
1070
   396
1000
100%
1070
   395
1000

1070
   394
1070
    33
1070
   393
1070
     0
1001
ACAD
1000
DSTYLE
1002
{
1070
   287
1070
     5
1070
    40
1040
2.0
1070
   279
1070
     2
1002
}
  0
DIMENSION
  5
BBF
  8
AM_5
  2
*D20
 10
287.7072991830596
 20
380.77516733756829
 30
0.0
 11
193.9572991830596
 21
387.62516733756831
 31
0.0
 70
     0
  1
(<>)
 13
100.2072991830596
 23
315.73915868614478
 33
0.0
 14
287.7072991830596
 24
315.73915868614478
 34
0.0
1001
ACAD
1000
DSTYLE
1002
{
1070
    40
1040
2.0
1002
}
1001
ACAD_DSTYLE_DIMINSPECT
1070
   396
1000
100%
1070
   395
1000

1070
   394
1070
    33
1070
   393
1070
     0
  0
LINE
  5
C2B
  8
TK2
 10
122.7072991830596
 20
305.23915868614478
 30
0.0
 11
124.7072991830596
 21
305.23915868614478
 31
0.0
  0
LINE
  5
C2C
  8
TK2
 10
124.7072991830596
 20
305.23915868614478
 30
0.0
 11
124.7072991830596
 21
304.53915868614479
 31
0.0
  0
LINE
  5
C2D
  8
TK2
 10
122.7072991830596
 20
305.23915868614478
 30
0.0
 11
120.7072991830596
 21
305.23915868614478
 31
0.0
  0
LINE
  5
C2E
  8
TK2
 10
120.7072991830596
 20
305.23915868614478
 30
0.0
 11
120.7072991830596
 21
304.53915868614479
 31
0.0
  0
LINE
  5
C2F
  8
TK2
 10
113.2072991830596
 20
305.23915868614478
 30
0.0
 11
115.2072991830596
 21
305.23915868614478
 31
0.0
  0
LINE
  5
C30
  8
TK2
 10
115.2072991830596
 20
305.23915868614478
 30
0.0
 11
115.2072991830596
 21
304.53915868614479
 31
0.0
  0
LINE
  5
C31
  8
TK2
 10
113.2072991830596
 20
305.23915868614478
 30
0.0
 11
111.2072991830596
 21
305.23915868614478
 31
0.0
  0
LINE
  5
C32
  8
TK2
 10
111.2072991830596
 20
305.23915868614478
 30
0.0
 11
111.2072991830596
 21
304.53915868614479
 31
0.0
  0
LINE
  5
C33
  8
TK2
 10
103.7072991830596
 20
305.23915868614478
 30
0.0
 11
105.7072991830596
 21
305.23915868614478
 31
0.0
  0
LINE
  5
C34
  8
TK2
 10
105.7072991830596
 20
305.23915868614478
 30
0.0
 11
105.7072991830596
 21
304.53915868614479
 31
0.0
  0
LINE
  5
C35
  8
TK2
 10
103.7072991830596
 20
305.23915868614478
 30
0.0
 11
100.9572991830596
 21
305.23915868614478
 31
0.0
  0
LINE
  5
C37
  8
TK2
 10
132.2072991830596
 20
305.23915868614478
 30
0.0
 11
134.2072991830596
 21
305.23915868614478
 31
0.0
  0
LINE
  5
C38
  8
TK2
 10
134.2072991830596
 20
305.23915868614478
 30
0.0
 11
134.2072991830596
 21
304.53915868614479
 31
0.0
  0
LINE
  5
C39
  8
TK2
 10
132.2072991830596
 20
305.23915868614478
 30
0.0
 11
130.2072991830596
 21
305.23915868614478
 31
0.0
  0
LINE
  5
C3A
  8
TK2
 10
130.2072991830596
 20
305.23915868614478
 30
0.0
 11
130.2072991830596
 21
304.53915868614479
 31
0.0
  0
LINE
  5
C3B
  8
TK2
 10
141.7072991830596
 20
305.23915868614478
 30
0.0
 11
143.7072991830596
 21
305.23915868614478
 31
0.0
  0
LINE
  5
C3C
  8
TK2
 10
143.7072991830596
 20
305.23915868614478
 30
0.0
 11
143.7072991830596
 21
304.53915868614479
 31
0.0
  0
LINE
  5
C3D
  8
TK2
 10
141.7072991830596
 20
305.23915868614478
 30
0.0
 11
139.7072991830596
 21
305.23915868614478
 31
0.0
  0
LINE
  5
C3E
  8
TK2
 10
139.7072991830596
 20
305.23915868614478
 30
0.0
 11
139.7072991830596
 21
304.53915868614479
 31
0.0
  0
LINE
  5
C3F
  8
TK2
 10
151.2072991830596
 20
305.23915868614478
 30
0.0
 11
153.2072991830596
 21
305.23915868614478
 31
0.0
  0
LINE
  5
C40
  8
TK2
 10
153.2072991830596
 20
305.23915868614478
 30
0.0
 11
153.2072991830596
 21
304.53915868614479
 31
0.0
  0
LINE
  5
C41
  8
TK2
 10
151.2072991830596
 20
305.23915868614478
 30
0.0
 11
149.2072991830596
 21
305.23915868614478
 31
0.0
  0
LINE
  5
C42
  8
TK2
 10
149.2072991830596
 20
305.23915868614478
 30
0.0
 11
149.2072991830596
 21
304.53915868614479
 31
0.0
  0
LINE
  5
C43
  8
TK2
 10
160.7072991830596
 20
305.23915868614478
 30
0.0
 11
162.7072991830596
 21
305.23915868614478
 31
0.0
  0
LINE
  5
C44
  8
TK2
 10
162.7072991830596
 20
305.23915868614478
 30
0.0
 11
162.7072991830596
 21
304.53915868614479
 31
0.0
  0
LINE
  5
C45
  8
TK2
 10
160.7072991830596
 20
305.23915868614478
 30
0.0
 11
158.7072991830596
 21
305.23915868614478
 31
0.0
  0
LINE
  5
C46
  8
TK2
 10
158.7072991830596
 20
305.23915868614478
 30
0.0
 11
158.7072991830596
 21
304.53915868614479
 31
0.0
  0
LINE
  5
C47
  8
TK2
 10
170.2072991830596
 20
305.23915868614478
 30
0.0
 11
172.2072991830596
 21
305.23915868614478
 31
0.0
  0
LINE
  5
C48
  8
TK2
 10
172.2072991830596
 20
305.23915868614478
 30
0.0
 11
172.2072991830596
 21
304.53915868614479
 31
0.0
  0
LINE
  5
C49
  8
TK2
 10
170.2072991830596
 20
305.23915868614478
 30
0.0
 11
168.2072991830596
 21
305.23915868614478
 31
0.0
  0
LINE
  5
C4A
  8
TK2
 10
168.2072991830596
 20
305.23915868614478
 30
0.0
 11
168.2072991830596
 21
304.53915868614479
 31
0.0
  0
LINE
  5
C4B
  8
TK2
 10
179.7072991830596
 20
305.23915868614478
 30
0.0
 11
181.7072991830596
 21
305.23915868614478
 31
0.0
  0
LINE
  5
C4C
  8
TK2
 10
181.7072991830596
 20
305.23915868614478
 30
0.0
 11
181.7072991830596
 21
304.53915868614479
 31
0.0
  0
LINE
  5
C4D
  8
TK2
 10
179.7072991830596
 20
305.23915868614478
 30
0.0
 11
177.7072991830596
 21
305.23915868614478
 31
0.0
  0
LINE
  5
C4E
  8
TK2
 10
177.7072991830596
 20
305.23915868614478
 30
0.0
 11
177.7072991830596
 21
304.53915868614479
 31
0.0
  0
LINE
  5
C4F
  8
TK2
 10
189.2072991830596
 20
305.23915868614478
 30
0.0
 11
191.2072991830596
 21
305.23915868614478
 31
0.0
  0
LINE
  5
C50
  8
TK2
 10
191.2072991830596
 20
305.23915868614478
 30
0.0
 11
191.2072991830596
 21
304.53915868614479
 31
0.0
  0
LINE
  5
C51
  8
TK2
 10
189.2072991830596
 20
305.23915868614478
 30
0.0
 11
187.2072991830596
 21
305.23915868614478
 31
0.0
  0
LINE
  5
C52
  8
TK2
 10
187.2072991830596
 20
305.23915868614478
 30
0.0
 11
187.2072991830596
 21
304.53915868614479
 31
0.0
  0
LINE
  5
C53
  8
TK2
 10
198.7072991830596
 20
305.23915868614478
 30
0.0
 11
200.7072991830596
 21
305.23915868614478
 31
0.0
  0
LINE
  5
C54
  8
TK2
 10
200.7072991830596
 20
305.23915868614478
 30
0.0
 11
200.7072991830596
 21
304.53915868614479
 31
0.0
  0
LINE
  5
C55
  8
TK2
 10
198.7072991830596
 20
305.23915868614478
 30
0.0
 11
196.7072991830596
 21
305.23915868614478
 31
0.0
  0
LINE
  5
C56
  8
TK2
 10
196.7072991830596
 20
305.23915868614478
 30
0.0
 11
196.7072991830596
 21
304.53915868614479
 31
0.0
  0
LINE
  5
C57
  8
TK2
 10
208.2072991830596
 20
305.23915868614478
 30
0.0
 11
210.2072991830596
 21
305.23915868614478
 31
0.0
  0
LINE
  5
C58
  8
TK2
 10
210.2072991830596
 20
305.23915868614478
 30
0.0
 11
210.2072991830596
 21
304.53915868614479
 31
0.0
  0
LINE
  5
C59
  8
TK2
 10
208.2072991830596
 20
305.23915868614478
 30
0.0
 11
206.2072991830596
 21
305.23915868614478
 31
0.0
  0
LINE
  5
C5A
  8
TK2
 10
206.2072991830596
 20
305.23915868614478
 30
0.0
 11
206.2072991830596
 21
304.53915868614479
 31
0.0
  0
LINE
  5
C5B
  8
TK2
 10
217.7072991830596
 20
305.23915868614478
 30
0.0
 11
219.7072991830596
 21
305.23915868614478
 31
0.0
  0
LINE
  5
C5C
  8
TK2
 10
219.7072991830596
 20
305.23915868614478
 30
0.0
 11
219.7072991830596
 21
304.53915868614479
 31
0.0
  0
LINE
  5
C5D
  8
TK2
 10
217.7072991830596
 20
305.23915868614478
 30
0.0
 11
215.7072991830596
 21
305.23915868614478
 31
0.0
  0
LINE
  5
C5E
  8
TK2
 10
215.7072991830596
 20
305.23915868614478
 30
0.0
 11
215.7072991830596
 21
304.53915868614479
 31
0.0
  0
LINE
  5
C5F
  8
TK2
 10
227.2072991830596
 20
305.23915868614478
 30
0.0
 11
229.2072991830596
 21
305.23915868614478
 31
0.0
  0
LINE
  5
C60
  8
TK2
 10
229.2072991830596
 20
305.23915868614478
 30
0.0
 11
229.2072991830596
 21
304.53915868614479
 31
0.0
  0
LINE
  5
C61
  8
TK2
 10
227.2072991830596
 20
305.23915868614478
 30
0.0
 11
225.2072991830596
 21
305.23915868614478
 31
0.0
  0
LINE
  5
C62
  8
TK2
 10
225.2072991830596
 20
305.23915868614478
 30
0.0
 11
225.2072991830596
 21
304.53915868614479
 31
0.0
  0
LINE
  5
C63
  8
TK2
 10
236.7072991830596
 20
305.23915868614478
 30
0.0
 11
238.7072991830596
 21
305.23915868614478
 31
0.0
  0
LINE
  5
C64
  8
TK2
 10
238.7072991830596
 20
305.23915868614478
 30
0.0
 11
238.7072991830596
 21
304.53915868614479
 31
0.0
  0
LINE
  5
C65
  8
TK2
 10
236.7072991830596
 20
305.23915868614478
 30
0.0
 11
234.7072991830596
 21
305.23915868614478
 31
0.0
  0
LINE
  5
C66
  8
TK2
 10
234.7072991830596
 20
305.23915868614478
 30
0.0
 11
234.7072991830596
 21
304.53915868614479
 31
0.0
  0
LINE
  5
C67
  8
TK2
 10
246.2072991830596
 20
305.23915868614478
 30
0.0
 11
248.2072991830596
 21
305.23915868614478
 31
0.0
  0
LINE
  5
C68
  8
TK2
 10
248.2072991830596
 20
305.23915868614478
 30
0.0
 11
248.2072991830596
 21
304.53915868614479
 31
0.0
  0
LINE
  5
C69
  8
TK2
 10
246.2072991830596
 20
305.23915868614478
 30
0.0
 11
244.2072991830596
 21
305.23915868614478
 31
0.0
  0
LINE
  5
C6A
  8
TK2
 10
244.2072991830596
 20
305.23915868614478
 30
0.0
 11
244.2072991830596
 21
304.53915868614479
 31
0.0
  0
LINE
  5
C6B
  8
TK2
 10
255.7072991830596
 20
305.23915868614478
 30
0.0
 11
257.7072991830596
 21
305.23915868614478
 31
0.0
  0
LINE
  5
C6C
  8
TK2
 10
257.7072991830596
 20
305.23915868614478
 30
0.0
 11
257.7072991830596
 21
304.53915868614479
 31
0.0
  0
LINE
  5
C6D
  8
TK2
 10
255.7072991830596
 20
305.23915868614478
 30
0.0
 11
253.7072991830596
 21
305.23915868614478
 31
0.0
  0
LINE
  5
C6E
  8
TK2
 10
253.7072991830596
 20
305.23915868614478
 30
0.0
 11
253.7072991830596
 21
304.53915868614479
 31
0.0
  0
LINE
  5
C6F
  8
TK2
 10
265.2072991830596
 20
305.23915868614478
 30
0.0
 11
267.2072991830596
 21
305.23915868614478
 31
0.0
  0
LINE
  5
C70
  8
TK2
 10
267.2072991830596
 20
305.23915868614478
 30
0.0
 11
267.2072991830596
 21
304.53915868614479
 31
0.0
  0
LINE
  5
C71
  8
TK2
 10
265.2072991830596
 20
305.23915868614478
 30
0.0
 11
263.2072991830596
 21
305.23915868614478
 31
0.0
  0
LINE
  5
C72
  8
TK2
 10
263.2072991830596
 20
305.23915868614478
 30
0.0
 11
263.2072991830596
 21
304.53915868614479
 31
0.0
  0
LINE
  5
C73
  8
TK2
 10
274.7072991830596
 20
305.23915868614478
 30
0.0
 11
276.7072991830596
 21
305.23915868614478
 31
0.0
  0
LINE
  5
C74
  8
TK2
 10
276.7072991830596
 20
305.23915868614478
 30
0.0
 11
276.7072991830596
 21
304.53915868614479
 31
0.0
  0
LINE
  5
C75
  8
TK2
 10
274.7072991830596
 20
305.23915868614478
 30
0.0
 11
272.7072991830596
 21
305.23915868614478
 31
0.0
  0
LINE
  5
C76
  8
TK2
 10
272.7072991830596
 20
305.23915868614478
 30
0.0
 11
272.7072991830596
 21
304.53915868614479
 31
0.0
  0
LINE
  5
C77
  8
TK2
 10
284.2072991830596
 20
305.23915868614478
 30
0.0
 11
286.9572991830596
 21
305.23915868614478
 31
0.0
  0
LINE
  5
C79
  8
TK2
 10
284.2072991830596
 20
305.23915868614478
 30
0.0
 11
282.2072991830596
 21
305.23915868614478
 31
0.0
  0
LINE
  5
C7A
  8
TK2
 10
282.2072991830596
 20
305.23915868614478
 30
0.0
 11
282.2072991830596
 21
304.53915868614479
 31
0.0
  0
LINE
  5
C7B
  8
TK2
 10
107.2072991830596
 20
303.03915868614479
 30
0.0
 11
109.7072991830596
 21
303.03915868614479
 31
0.0
  0
LINE
  5
C7C
  8
TK2
 10
116.7072991830596
 20
303.03915868614479
 30
0.0
 11
119.2072991830596
 21
303.03915868614479
 31
0.0
  0
LINE
  5
C7D
  8
TK2
 10
126.2072991830596
 20
303.03915868614479
 30
0.0
 11
128.7072991830596
 21
303.03915868614479
 31
0.0
  0
LINE
  5
C7E
  8
TK2
 10
135.7072991830596
 20
303.03915868614479
 30
0.0
 11
138.2072991830596
 21
303.03915868614479
 31
0.0
  0
LINE
  5
C7F
  8
TK2
 10
145.2072991830596
 20
303.03915868614479
 30
0.0
 11
147.7072991830596
 21
303.03915868614479
 31
0.0
  0
LINE
  5
C80
  8
TK2
 10
154.7072991830596
 20
303.03915868614479
 30
0.0
 11
157.2072991830596
 21
303.03915868614479
 31
0.0
  0
LINE
  5
C81
  8
TK2
 10
164.2072991830596
 20
303.03915868614479
 30
0.0
 11
166.7072991830596
 21
303.03915868614479
 31
0.0
  0
LINE
  5
C82
  8
TK2
 10
173.7072991830596
 20
303.03915868614479
 30
0.0
 11
176.2072991830596
 21
303.03915868614479
 31
0.0
  0
LINE
  5
C83
  8
TK2
 10
183.2072991830596
 20
303.03915868614479
 30
0.0
 11
185.7072991830596
 21
303.03915868614479
 31
0.0
  0
LINE
  5
C84
  8
TK2
 10
192.7072991830596
 20
303.03915868614479
 30
0.0
 11
195.2072991830596
 21
303.03915868614479
 31
0.0
  0
LINE
  5
C85
  8
TK2
 10
202.2072991830596
 20
303.03915868614479
 30
0.0
 11
204.7072991830596
 21
303.03915868614479
 31
0.0
  0
LINE
  5
C86
  8
TK2
 10
211.7072991830596
 20
303.03915868614479
 30
0.0
 11
214.2072991830596
 21
303.03915868614479
 31
0.0
  0
LINE
  5
C87
  8
TK2
 10
221.2072991830596
 20
303.03915868614479
 30
0.0
 11
223.7072991830596
 21
303.03915868614479
 31
0.0
  0
LINE
  5
C88
  8
TK2
 10
230.7072991830596
 20
303.03915868614479
 30
0.0
 11
233.2072991830596
 21
303.03915868614479
 31
0.0
  0
LINE
  5
C89
  8
TK2
 10
240.2072991830596
 20
303.03915868614479
 30
0.0
 11
242.7072991830596
 21
303.03915868614479
 31
0.0
  0
LINE
  5
C8A
  8
TK2
 10
249.7072991830596
 20
303.03915868614479
 30
0.0
 11
252.2072991830596
 21
303.03915868614479
 31
0.0
  0
LINE
  5
C8B
  8
TK2
 10
259.2072991830596
 20
303.03915868614479
 30
0.0
 11
261.7072991830596
 21
303.03915868614479
 31
0.0
  0
LINE
  5
C8C
  8
TK2
 10
268.7072991830596
 20
303.03915868614479
 30
0.0
 11
271.2072991830596
 21
303.03915868614479
 31
0.0
  0
LINE
  5
C8D
  8
TK2
 10
278.2072991830596
 20
303.03915868614479
 30
0.0
 11
280.7072991830596
 21
303.03915868614479
 31
0.0
  0
LINE
  5
C8E
  8
TK2
 10
285.4572991830596
 20
299.03915868614479
 30
0.0
 11
102.4572991830596
 21
299.03915868614479
 31
0.0
  0
LINE
  5
C8F
  8
TK2
 10
100.9572991830596
 20
300.53915868614479
 30
0.0
 11
100.9572991830596
 21
305.23915868614478
 31
0.0
  0
LINE
  5
C90
  8
TK2
 10
286.9572991830596
 20
305.23915868614478
 30
0.0
 11
286.9572991830596
 21
300.53915868614479
 31
0.0
  0
ARC
  5
C9A
  8
TK2
 10
285.4572991830596
 20
300.53915868614479
 30
0.0
 40
1.5
 50
270.0
 51
0.0
1001
GENIUS_GENODEF_13
1002
{
1000
HIER
1070
     0
1002
}
1002
{
1000
MANEDIT
1070
     0
1002
}
1002
{
1000
NOSEL
1070
     0
1002
}
1002
{
1000
BEHIND
1070
     0
1002
}
1002
{
1000
OTHER
1070
     0
1002
}
1002
{
1000
REACTOR
1002
}
1001
GENIUS_GENOBJ-N-FIL_13
1002
{
1000
OWNER
1000
GEN
1002
}
  0
ARC
  5
C9B
  8
TK2
 10
102.4572991830596
 20
300.53915868614479
 30
0.0
 40
1.5
 50
180.0
 51
270.0
1001
GENIUS_GENOBJ-N-FIL_13
1002
{
1000
OWNER
1000
GEN
1002
}
1001
GENIUS_GENODEF_13
1002
{
1000
HIER
1070
     0
1002
}
1002
{
1000
MANEDIT
1070
     0
1002
}
1002
{
1000
NOSEL
1070
     0
1002
}
1002
{
1000
BEHIND
1070
     0
1002
}
1002
{
1000
OTHER
1070
     0
1002
}
1002
{
1000
REACTOR
1002
}
  0
LINE
  5
C9C
  8
TK1
 10
285.7072991830596
 20
305.23915868614478
 30
0.0
 11
285.7072991830596
 21
306.73915868614478
 31
0.0
  0
LINE
  5
C9E
  8
TK1
 10
276.2072991830596
 20
305.23915868614478
 30
0.0
 11
276.2072991830596
 21
306.73915868614478
 31
0.0
  0
LINE
  5
CA0
  8
TK1
 10
266.7072991830596
 20
305.23915868614478
 30
0.0
 11
266.7072991830596
 21
306.73915868614478
 31
0.0
  0
LINE
  5
CA2
  8
TK1
 10
257.2072991830596
 20
305.23915868614478
 30
0.0
 11
257.2072991830596
 21
306.73915868614478
 31
0.0
  0
LINE
  5
CA4
  8
TK1
 10
247.7072991830596
 20
305.23915868614478
 30
0.0
 11
247.7072991830596
 21
306.73915868614478
 31
0.0
  0
LINE
  5
CA6
  8
TK1
 10
238.2072991830596
 20
305.23915868614478
 30
0.0
 11
238.2072991830596
 21
306.73915868614478
 31
0.0
  0
LINE
  5
CA8
  8
TK1
 10
228.7072991830596
 20
305.23915868614478
 30
0.0
 11
228.7072991830596
 21
306.73915868614478
 31
0.0
  0
LINE
  5
CAA
  8
TK1
 10
219.2072991830596
 20
305.23915868614478
 30
0.0
 11
219.2072991830596
 21
306.73915868614478
 31
0.0
  0
LINE
  5
CAC
  8
TK1
 10
209.7072991830596
 20
305.23915868614478
 30
0.0
 11
209.7072991830596
 21
306.73915868614478
 31
0.0
  0
LINE
  5
CAE
  8
TK1
 10
200.2072991830596
 20
305.23915868614478
 30
0.0
 11
200.2072991830596
 21
306.73915868614478
 31
0.0
  0
LINE
  5
CB0
  8
TK1
 10
190.7072991830596
 20
305.23915868614478
 30
0.0
 11
190.7072991830596
 21
306.73915868614478
 31
0.0
  0
LINE
  5
CB2
  8
TK1
 10
181.2072991830596
 20
305.23915868614478
 30
0.0
 11
181.2072991830596
 21
306.73915868614478
 31
0.0
  0
LINE
  5
CB4
  8
TK1
 10
171.7072991830596
 20
305.23915868614478
 30
0.0
 11
171.7072991830596
 21
306.73915868614478
 31
0.0
  0
LINE
  5
CB6
  8
TK1
 10
162.2072991830596
 20
305.23915868614478
 30
0.0
 11
162.2072991830596
 21
306.73915868614478
 31
0.0
  0
LINE
  5
CB8
  8
TK1
 10
152.7072991830596
 20
305.23915868614478
 30
0.0
 11
152.7072991830596
 21
306.73915868614478
 31
0.0
  0
LINE
  5
CBA
  8
TK1
 10
143.2072991830596
 20
305.23915868614478
 30
0.0
 11
143.2072991830596
 21
306.73915868614478
 31
0.0
  0
LINE
  5
CBC
  8
TK1
 10
133.7072991830596
 20
305.23915868614478
 30
0.0
 11
133.7072991830596
 21
306.73915868614478
 31
0.0
  0
LINE
  5
CBE
  8
TK1
 10
124.2072991830596
 20
305.23915868614478
 30
0.0
 11
124.2072991830596
 21
306.73915868614472
 31
0.0
  0
LINE
  5
CC0
  8
TK1
 10
114.7072991830596
 20
305.23915868614478
 30
0.0
 11
114.7072991830596
 21
306.73915868614478
 31
0.0
  0
LINE
  5
CC2
  8
TK1
 10
105.2072991830596
 20
305.23915868614478
 30
0.0
 11
105.2072991830596
 21
306.73915868614478
 31
0.0
  0
ARC
  5
CFB
  8
TK2
 10
280.7072991830596
 20
304.53915868614479
 30
0.0
 40
1.5
 50
270.0
 51
0.0
1001
GENIUS_GENODEF_13
1002
{
1000
HIER
1070
     0
1002
}
1002
{
1000
MANEDIT
1070
     0
1002
}
1002
{
1000
NOSEL
1070
     0
1002
}
1002
{
1000
BEHIND
1070
     0
1002
}
1002
{
1000
OTHER
1070
     0
1002
}
1002
{
1000
REACTOR
1002
}
1001
GENIUS_GENOBJ-N-FIL_13
1002
{
1000
OWNER
1000
GEN
1002
}
  0
ARC
  5
CFC
  8
TK2
 10
278.2072991830596
 20
304.53915868614479
 30
0.0
 40
1.5
 50
180.0
 51
270.0
1001
GENIUS_GENODEF_13
1002
{
1000
HIER
1070
     0
1002
}
1002
{
1000
MANEDIT
1070
     0
1002
}
1002
{
1000
NOSEL
1070
     0
1002
}
1002
{
1000
BEHIND
1070
     0
1002
}
1002
{
1000
OTHER
1070
     0
1002
}
1002
{
1000
REACTOR
1002
}
1001
GENIUS_GENOBJ-N-FIL_13
1002
{
1000
OWNER
1000
GEN
1002
}
  0
ARC
  5
CFD
  8
TK2
 10
271.2072991830596
 20
304.53915868614479
 30
0.0
 40
1.5
 50
270.0
 51
0.0
1001
GENIUS_GENOBJ-N-FIL_13
1002
{
1000
OWNER
1000
GEN
1002
}
1001
GENIUS_GENODEF_13
1002
{
1000
HIER
1070
     0
1002
}
1002
{
1000
MANEDIT
1070
     0
1002
}
1002
{
1000
NOSEL
1070
     0
1002
}
1002
{
1000
BEHIND
1070
     0
1002
}
1002
{
1000
OTHER
1070
     0
1002
}
1002
{
1000
REACTOR
1002
}
  0
ARC
  5
CFE
  8
TK2
 10
268.7072991830596
 20
304.53915868614479
 30
0.0
 40
1.5
 50
180.0
 51
270.0
1001
GENIUS_GENOBJ-N-FIL_13
1002
{
1000
OWNER
1000
GEN
1002
}
1001
GENIUS_GENODEF_13
1002
{
1000
HIER
1070
     0
1002
}
1002
{
1000
MANEDIT
1070
     0
1002
}
1002
{
1000
NOSEL
1070
     0
1002
}
1002
{
1000
BEHIND
1070
     0
1002
}
1002
{
1000
OTHER
1070
     0
1002
}
1002
{
1000
REACTOR
1002
}
  0
ARC
  5
CFF
  8
TK2
 10
261.7072991830596
 20
304.53915868614479
 30
0.0
 40
1.5
 50
270.0
 51
0.0
1001
GENIUS_GENODEF_13
1002
{
1000
HIER
1070
     0
1002
}
1002
{
1000
MANEDIT
1070
     0
1002
}
1002
{
1000
NOSEL
1070
     0
1002
}
1002
{
1000
BEHIND
1070
     0
1002
}
1002
{
1000
OTHER
1070
     0
1002
}
1002
{
1000
REACTOR
1002
}
1001
GENIUS_GENOBJ-N-FIL_13
1002
{
1000
OWNER
1000
GEN
1002
}
  0
ARC
  5
D00
  8
TK2
 10
259.2072991830596
 20
304.53915868614479
 30
0.0
 40
1.5
 50
180.0
 51
270.0
1001
GENIUS_GENODEF_13
1002
{
1000
HIER
1070
     0
1002
}
1002
{
1000
MANEDIT
1070
     0
1002
}
1002
{
1000
NOSEL
1070
     0
1002
}
1002
{
1000
BEHIND
1070
     0
1002
}
1002
{
1000
OTHER
1070
     0
1002
}
1002
{
1000
REACTOR
1002
}
1001
GENIUS_GENOBJ-N-FIL_13
1002
{
1000
OWNER
1000
GEN
1002
}
  0
ARC
  5
D01
  8
TK2
 10
252.2072991830596
 20
304.53915868614479
 30
0.0
 40
1.5
 50
270.0
 51
0.0
1001
GENIUS_GENODEF_13
1002
{
1000
HIER
1070
     0
1002
}
1002
{
1000
MANEDIT
1070
     0
1002
}
1002
{
1000
NOSEL
1070
     0
1002
}
1002
{
1000
BEHIND
1070
     0
1002
}
1002
{
1000
OTHER
1070
     0
1002
}
1002
{
1000
REACTOR
1002
}
1001
GENIUS_GENOBJ-N-FIL_13
1002
{
1000
OWNER
1000
GEN
1002
}
  0
ARC
  5
D02
  8
TK2
 10
249.7072991830596
 20
304.53915868614479
 30
0.0
 40
1.5
 50
180.0
 51
270.0
1001
GENIUS_GENODEF_13
1002
{
1000
HIER
1070
     0
1002
}
1002
{
1000
MANEDIT
1070
     0
1002
}
1002
{
1000
NOSEL
1070
     0
1002
}
1002
{
1000
BEHIND
1070
     0
1002
}
1002
{
1000
OTHER
1070
     0
1002
}
1002
{
1000
REACTOR
1002
}
1001
GENIUS_GENOBJ-N-FIL_13
1002
{
1000
OWNER
1000
GEN
1002
}
  0
ARC
  5
D03
  8
TK2
 10
242.7072991830596
 20
304.53915868614479
 30
0.0
 40
1.5
 50
270.0
 51
0.0
1001
GENIUS_GENOBJ-N-FIL_13
1002
{
1000
OWNER
1000
GEN
1002
}
1001
GENIUS_GENODEF_13
1002
{
1000
HIER
1070
     0
1002
}
1002
{
1000
MANEDIT
1070
     0
1002
}
1002
{
1000
NOSEL
1070
     0
1002
}
1002
{
1000
BEHIND
1070
     0
1002
}
1002
{
1000
OTHER
1070
     0
1002
}
1002
{
1000
REACTOR
1002
}
  0
ARC
  5
D04
  8
TK2
 10
240.2072991830596
 20
304.53915868614479
 30
0.0
 40
1.5
 50
180.0
 51
270.0
1001
GENIUS_GENODEF_13
1002
{
1000
HIER
1070
     0
1002
}
1002
{
1000
MANEDIT
1070
     0
1002
}
1002
{
1000
NOSEL
1070
     0
1002
}
1002
{
1000
BEHIND
1070
     0
1002
}
1002
{
1000
OTHER
1070
     0
1002
}
1002
{
1000
REACTOR
1002
}
1001
GENIUS_GENOBJ-N-FIL_13
1002
{
1000
OWNER
1000
GEN
1002
}
  0
ARC
  5
D05
  8
TK2
 10
233.2072991830596
 20
304.53915868614479
 30
0.0
 40
1.5
 50
270.0
 51
0.0
1001
GENIUS_GENOBJ-N-FIL_13
1002
{
1000
OWNER
1000
GEN
1002
}
1001
GENIUS_GENODEF_13
1002
{
1000
HIER
1070
     0
1002
}
1002
{
1000
MANEDIT
1070
     0
1002
}
1002
{
1000
NOSEL
1070
     0
1002
}
1002
{
1000
BEHIND
1070
     0
1002
}
1002
{
1000
OTHER
1070
     0
1002
}
1002
{
1000
REACTOR
1002
}
  0
ARC
  5
D06
  8
TK2
 10
230.7072991830596
 20
304.53915868614479
 30
0.0
 40
1.5
 50
180.0
 51
270.0
1001
GENIUS_GENODEF_13
1002
{
1000
HIER
1070
     0
1002
}
1002
{
1000
MANEDIT
1070
     0
1002
}
1002
{
1000
NOSEL
1070
     0
1002
}
1002
{
1000
BEHIND
1070
     0
1002
}
1002
{
1000
OTHER
1070
     0
1002
}
1002
{
1000
REACTOR
1002
}
1001
GENIUS_GENOBJ-N-FIL_13
1002
{
1000
OWNER
1000
GEN
1002
}
  0
ARC
  5
D07
  8
TK2
 10
223.7072991830596
 20
304.53915868614479
 30
0.0
 40
1.5
 50
270.0
 51
0.0
1001
GENIUS_GENOBJ-N-FIL_13
1002
{
1000
OWNER
1000
GEN
1002
}
1001
GENIUS_GENODEF_13
1002
{
1000
HIER
1070
     0
1002
}
1002
{
1000
MANEDIT
1070
     0
1002
}
1002
{
1000
NOSEL
1070
     0
1002
}
1002
{
1000
BEHIND
1070
     0
1002
}
1002
{
1000
OTHER
1070
     0
1002
}
1002
{
1000
REACTOR
1002
}
  0
ARC
  5
D08
  8
TK2
 10
221.2072991830596
 20
304.53915868614479
 30
0.0
 40
1.5
 50
180.0
 51
270.0
1001
GENIUS_GENOBJ-N-FIL_13
1002
{
1000
OWNER
1000
GEN
1002
}
1001
GENIUS_GENODEF_13
1002
{
1000
HIER
1070
     0
1002
}
1002
{
1000
MANEDIT
1070
     0
1002
}
1002
{
1000
NOSEL
1070
     0
1002
}
1002
{
1000
BEHIND
1070
     0
1002
}
1002
{
1000
OTHER
1070
     0
1002
}
1002
{
1000
REACTOR
1002
}
  0
ARC
  5
D09
  8
TK2
 10
214.2072991830596
 20
304.53915868614479
 30
0.0
 40
1.5
 50
270.0
 51
0.0
1001
GENIUS_GENODEF_13
1002
{
1000
HIER
1070
     0
1002
}
1002
{
1000
MANEDIT
1070
     0
1002
}
1002
{
1000
NOSEL
1070
     0
1002
}
1002
{
1000
BEHIND
1070
     0
1002
}
1002
{
1000
OTHER
1070
     0
1002
}
1002
{
1000
REACTOR
1002
}
1001
GENIUS_GENOBJ-N-FIL_13
1002
{
1000
OWNER
1000
GEN
1002
}
  0
ARC
  5
D0A
  8
TK2
 10
211.7072991830596
 20
304.53915868614479
 30
0.0
 40
1.5
 50
180.0
 51
270.0
1001
GENIUS_GENOBJ-N-FIL_13
1002
{
1000
OWNER
1000
GEN
1002
}
1001
GENIUS_GENODEF_13
1002
{
1000
HIER
1070
     0
1002
}
1002
{
1000
MANEDIT
1070
     0
1002
}
1002
{
1000
NOSEL
1070
     0
1002
}
1002
{
1000
BEHIND
1070
     0
1002
}
1002
{
1000
OTHER
1070
     0
1002
}
1002
{
1000
REACTOR
1002
}
  0
ARC
  5
D0B
  8
TK2
 10
204.7072991830596
 20
304.53915868614479
 30
0.0
 40
1.5
 50
270.0
 51
0.0
1001
GENIUS_GENOBJ-N-FIL_13
1002
{
1000
OWNER
1000
GEN
1002
}
1001
GENIUS_GENODEF_13
1002
{
1000
HIER
1070
     0
1002
}
1002
{
1000
MANEDIT
1070
     0
1002
}
1002
{
1000
NOSEL
1070
     0
1002
}
1002
{
1000
BEHIND
1070
     0
1002
}
1002
{
1000
OTHER
1070
     0
1002
}
1002
{
1000
REACTOR
1002
}
  0
ARC
  5
D0C
  8
TK2
 10
202.2072991830596
 20
304.53915868614479
 30
0.0
 40
1.5
 50
180.0
 51
270.0
1001
GENIUS_GENODEF_13
1002
{
1000
HIER
1070
     0
1002
}
1002
{
1000
MANEDIT
1070
     0
1002
}
1002
{
1000
NOSEL
1070
     0
1002
}
1002
{
1000
BEHIND
1070
     0
1002
}
1002
{
1000
OTHER
1070
     0
1002
}
1002
{
1000
REACTOR
1002
}
1001
GENIUS_GENOBJ-N-FIL_13
1002
{
1000
OWNER
1000
GEN
1002
}
  0
ARC
  5
D0D
  8
TK2
 10
195.2072991830596
 20
304.53915868614479
 30
0.0
 40
1.5
 50
270.0
 51
0.0
1001
GENIUS_GENODEF_13
1002
{
1000
HIER
1070
     0
1002
}
1002
{
1000
MANEDIT
1070
     0
1002
}
1002
{
1000
NOSEL
1070
     0
1002
}
1002
{
1000
BEHIND
1070
     0
1002
}
1002
{
1000
OTHER
1070
     0
1002
}
1002
{
1000
REACTOR
1002
}
1001
GENIUS_GENOBJ-N-FIL_13
1002
{
1000
OWNER
1000
GEN
1002
}
  0
ARC
  5
D0E
  8
TK2
 10
192.7072991830596
 20
304.53915868614479
 30
0.0
 40
1.5
 50
180.0
 51
270.0
1001
GENIUS_GENODEF_13
1002
{
1000
HIER
1070
     0
1002
}
1002
{
1000
MANEDIT
1070
     0
1002
}
1002
{
1000
NOSEL
1070
     0
1002
}
1002
{
1000
BEHIND
1070
     0
1002
}
1002
{
1000
OTHER
1070
     0
1002
}
1002
{
1000
REACTOR
1002
}
1001
GENIUS_GENOBJ-N-FIL_13
1002
{
1000
OWNER
1000
GEN
1002
}
  0
ARC
  5
D0F
  8
TK2
 10
185.7072991830596
 20
304.53915868614479
 30
0.0
 40
1.5
 50
270.0
 51
0.0
1001
GENIUS_GENODEF_13
1002
{
1000
HIER
1070
     0
1002
}
1002
{
1000
MANEDIT
1070
     0
1002
}
1002
{
1000
NOSEL
1070
     0
1002
}
1002
{
1000
BEHIND
1070
     0
1002
}
1002
{
1000
OTHER
1070
     0
1002
}
1002
{
1000
REACTOR
1002
}
1001
GENIUS_GENOBJ-N-FIL_13
1002
{
1000
OWNER
1000
GEN
1002
}
  0
ARC
  5
D10
  8
TK2
 10
183.2072991830596
 20
304.53915868614479
 30
0.0
 40
1.5
 50
180.0
 51
270.0
1001
GENIUS_GENODEF_13
1002
{
1000
HIER
1070
     0
1002
}
1002
{
1000
MANEDIT
1070
     0
1002
}
1002
{
1000
NOSEL
1070
     0
1002
}
1002
{
1000
BEHIND
1070
     0
1002
}
1002
{
1000
OTHER
1070
     0
1002
}
1002
{
1000
REACTOR
1002
}
1001
GENIUS_GENOBJ-N-FIL_13
1002
{
1000
OWNER
1000
GEN
1002
}
  0
ARC
  5
D11
  8
TK2
 10
176.2072991830596
 20
304.53915868614479
 30
0.0
 40
1.5
 50
270.0
 51
0.0
1001
GENIUS_GENODEF_13
1002
{
1000
HIER
1070
     0
1002
}
1002
{
1000
MANEDIT
1070
     0
1002
}
1002
{
1000
NOSEL
1070
     0
1002
}
1002
{
1000
BEHIND
1070
     0
1002
}
1002
{
1000
OTHER
1070
     0
1002
}
1002
{
1000
REACTOR
1002
}
1001
GENIUS_GENOBJ-N-FIL_13
1002
{
1000
OWNER
1000
GEN
1002
}
  0
ARC
  5
D12
  8
TK2
 10
173.7072991830596
 20
304.53915868614479
 30
0.0
 40
1.5
 50
180.0
 51
270.0
1001
GENIUS_GENODEF_13
1002
{
1000
HIER
1070
     0
1002
}
1002
{
1000
MANEDIT
1070
     0
1002
}
1002
{
1000
NOSEL
1070
     0
1002
}
1002
{
1000
BEHIND
1070
     0
1002
}
1002
{
1000
OTHER
1070
     0
1002
}
1002
{
1000
REACTOR
1002
}
1001
GENIUS_GENOBJ-N-FIL_13
1002
{
1000
OWNER
1000
GEN
1002
}
  0
ARC
  5
D13
  8
TK2
 10
166.7072991830596
 20
304.53915868614479
 30
0.0
 40
1.5
 50
270.0
 51
0.0
1001
GENIUS_GENODEF_13
1002
{
1000
HIER
1070
     0
1002
}
1002
{
1000
MANEDIT
1070
     0
1002
}
1002
{
1000
NOSEL
1070
     0
1002
}
1002
{
1000
BEHIND
1070
     0
1002
}
1002
{
1000
OTHER
1070
     0
1002
}
1002
{
1000
REACTOR
1002
}
1001
GENIUS_GENOBJ-N-FIL_13
1002
{
1000
OWNER
1000
GEN
1002
}
  0
ARC
  5
D14
  8
TK2
 10
164.2072991830596
 20
304.53915868614479
 30
0.0
 40
1.5
 50
180.0
 51
270.0
1001
GENIUS_GENODEF_13
1002
{
1000
HIER
1070
     0
1002
}
1002
{
1000
MANEDIT
1070
     0
1002
}
1002
{
1000
NOSEL
1070
     0
1002
}
1002
{
1000
BEHIND
1070
     0
1002
}
1002
{
1000
OTHER
1070
     0
1002
}
1002
{
1000
REACTOR
1002
}
1001
GENIUS_GENOBJ-N-FIL_13
1002
{
1000
OWNER
1000
GEN
1002
}
  0
ARC
  5
D15
  8
TK2
 10
157.2072991830596
 20
304.53915868614479
 30
0.0
 40
1.5
 50
270.0
 51
0.0
1001
GENIUS_GENODEF_13
1002
{
1000
HIER
1070
     0
1002
}
1002
{
1000
MANEDIT
1070
     0
1002
}
1002
{
1000
NOSEL
1070
     0
1002
}
1002
{
1000
BEHIND
1070
     0
1002
}
1002
{
1000
OTHER
1070
     0
1002
}
1002
{
1000
REACTOR
1002
}
1001
GENIUS_GENOBJ-N-FIL_13
1002
{
1000
OWNER
1000
GEN
1002
}
  0
ARC
  5
D16
  8
TK2
 10
154.7072991830596
 20
304.53915868614479
 30
0.0
 40
1.5
 50
180.0
 51
270.0
1001
GENIUS_GENODEF_13
1002
{
1000
HIER
1070
     0
1002
}
1002
{
1000
MANEDIT
1070
     0
1002
}
1002
{
1000
NOSEL
1070
     0
1002
}
1002
{
1000
BEHIND
1070
     0
1002
}
1002
{
1000
OTHER
1070
     0
1002
}
1002
{
1000
REACTOR
1002
}
1001
GENIUS_GENOBJ-N-FIL_13
1002
{
1000
OWNER
1000
GEN
1002
}
  0
ARC
  5
D17
  8
TK2
 10
147.7072991830596
 20
304.53915868614479
 30
0.0
 40
1.5
 50
270.0
 51
0.0
1001
GENIUS_GENODEF_13
1002
{
1000
HIER
1070
     0
1002
}
1002
{
1000
MANEDIT
1070
     0
1002
}
1002
{
1000
NOSEL
1070
     0
1002
}
1002
{
1000
BEHIND
1070
     0
1002
}
1002
{
1000
OTHER
1070
     0
1002
}
1002
{
1000
REACTOR
1002
}
1001
GENIUS_GENOBJ-N-FIL_13
1002
{
1000
OWNER
1000
GEN
1002
}
  0
ARC
  5
D18
  8
TK2
 10
145.2072991830596
 20
304.53915868614479
 30
0.0
 40
1.5
 50
180.0
 51
270.0
1001
GENIUS_GENODEF_13
1002
{
1000
HIER
1070
     0
1002
}
1002
{
1000
MANEDIT
1070
     0
1002
}
1002
{
1000
NOSEL
1070
     0
1002
}
1002
{
1000
BEHIND
1070
     0
1002
}
1002
{
1000
OTHER
1070
     0
1002
}
1002
{
1000
REACTOR
1002
}
1001
GENIUS_GENOBJ-N-FIL_13
1002
{
1000
OWNER
1000
GEN
1002
}
  0
ARC
  5
D19
  8
TK2
 10
138.2072991830596
 20
304.53915868614479
 30
0.0
 40
1.5
 50
270.0
 51
0.0
1001
GENIUS_GENODEF_13
1002
{
1000
HIER
1070
     0
1002
}
1002
{
1000
MANEDIT
1070
     0
1002
}
1002
{
1000
NOSEL
1070
     0
1002
}
1002
{
1000
BEHIND
1070
     0
1002
}
1002
{
1000
OTHER
1070
     0
1002
}
1002
{
1000
REACTOR
1002
}
1001
GENIUS_GENOBJ-N-FIL_13
1002
{
1000
OWNER
1000
GEN
1002
}
  0
ARC
  5
D1A
  8
TK2
 10
135.7072991830596
 20
304.53915868614479
 30
0.0
 40
1.5
 50
180.0
 51
270.0
1001
GENIUS_GENODEF_13
1002
{
1000
HIER
1070
     0
1002
}
1002
{
1000
MANEDIT
1070
     0
1002
}
1002
{
1000
NOSEL
1070
     0
1002
}
1002
{
1000
BEHIND
1070
     0
1002
}
1002
{
1000
OTHER
1070
     0
1002
}
1002
{
1000
REACTOR
1002
}
1001
GENIUS_GENOBJ-N-FIL_13
1002
{
1000
OWNER
1000
GEN
1002
}
  0
ARC
  5
D1B
  8
TK2
 10
128.7072991830596
 20
304.53915868614479
 30
0.0
 40
1.5
 50
270.0
 51
0.0
1001
GENIUS_GENODEF_13
1002
{
1000
HIER
1070
     0
1002
}
1002
{
1000
MANEDIT
1070
     0
1002
}
1002
{
1000
NOSEL
1070
     0
1002
}
1002
{
1000
BEHIND
1070
     0
1002
}
1002
{
1000
OTHER
1070
     0
1002
}
1002
{
1000
REACTOR
1002
}
1001
GENIUS_GENOBJ-N-FIL_13
1002
{
1000
OWNER
1000
GEN
1002
}
  0
ARC
  5
D1C
  8
TK2
 10
126.2072991830596
 20
304.53915868614479
 30
0.0
 40
1.5
 50
180.0
 51
270.0
1001
GENIUS_GENODEF_13
1002
{
1000
HIER
1070
     0
1002
}
1002
{
1000
MANEDIT
1070
     0
1002
}
1002
{
1000
NOSEL
1070
     0
1002
}
1002
{
1000
BEHIND
1070
     0
1002
}
1002
{
1000
OTHER
1070
     0
1002
}
1002
{
1000
REACTOR
1002
}
1001
GENIUS_GENOBJ-N-FIL_13
1002
{
1000
OWNER
1000
GEN
1002
}
  0
ARC
  5
D1D
  8
TK2
 10
119.2072991830596
 20
304.53915868614479
 30
0.0
 40
1.5
 50
270.0
 51
0.0
1001
GENIUS_GENODEF_13
1002
{
1000
HIER
1070
     0
1002
}
1002
{
1000
MANEDIT
1070
     0
1002
}
1002
{
1000
NOSEL
1070
     0
1002
}
1002
{
1000
BEHIND
1070
     0
1002
}
1002
{
1000
OTHER
1070
     0
1002
}
1002
{
1000
REACTOR
1002
}
1001
GENIUS_GENOBJ-N-FIL_13
1002
{
1000
OWNER
1000
GEN
1002
}
  0
ARC
  5
D1E
  8
TK2
 10
116.7072991830596
 20
304.53915868614479
 30
0.0
 40
1.5
 50
180.0
 51
270.0
1001
GENIUS_GENODEF_13
1002
{
1000
HIER
1070
     0
1002
}
1002
{
1000
MANEDIT
1070
     0
1002
}
1002
{
1000
NOSEL
1070
     0
1002
}
1002
{
1000
BEHIND
1070
     0
1002
}
1002
{
1000
OTHER
1070
     0
1002
}
1002
{
1000
REACTOR
1002
}
1001
GENIUS_GENOBJ-N-FIL_13
1002
{
1000
OWNER
1000
GEN
1002
}
  0
ARC
  5
D1F
  8
TK2
 10
109.7072991830596
 20
304.53915868614479
 30
0.0
 40
1.5
 50
270.0
 51
0.0
1001
GENIUS_GENODEF_13
1002
{
1000
HIER
1070
     0
1002
}
1002
{
1000
MANEDIT
1070
     0
1002
}
1002
{
1000
NOSEL
1070
     0
1002
}
1002
{
1000
BEHIND
1070
     0
1002
}
1002
{
1000
OTHER
1070
     0
1002
}
1002
{
1000
REACTOR
1002
}
1001
GENIUS_GENOBJ-N-FIL_13
1002
{
1000
OWNER
1000
GEN
1002
}
  0
ARC
  5
D20
  8
TK2
 10
107.2072991830596
 20
304.53915868614479
 30
0.0
 40
1.5
 50
180.0
 51
270.0
1001
GENIUS_GENODEF_13
1002
{
1000
HIER
1070
     0
1002
}
1002
{
1000
MANEDIT
1070
     0
1002
}
1002
{
1000
NOSEL
1070
     0
1002
}
1002
{
1000
BEHIND
1070
     0
1002
}
1002
{
1000
OTHER
1070
     0
1002
}
1002
{
1000
REACTOR
1002
}
1001
GENIUS_GENOBJ-N-FIL_13
1002
{
1000
OWNER
1000
GEN
1002
}
  0
DIMENSION
  5
D55
  8
AM_5
  2
*D23
 10
76.207298183059606
 20
299.03915868614479
 30
0.0
 11
67.439210460199774
 21
308.29522856352401
 31
0.0
 70
   128
  1
(<>)
 13
100.7072991830596
 23
316.23915868614478
 33
0.0
 14
102.4572991830596
 24
299.03915868614479
 34
0.0
 50
90.0
1001
ACAD_DSTYLE_DIMINSPECT
1070
   396
1000
100%
1070
   395
1000

1070
   394
1070
    33
1070
   393
1070
     0
1001
ACAD
1000
DSTYLE
1002
{
1070
   287
1070
     5
1070
    40
1040
2.0
1070
   279
1070
     2
1002
}
  0
VIEWPORT
  5
17C
 67
     1
  8
0
 10
133.34999084472651
 20
101.5999970436096
 30
0.0
 40
370.22669129365238
 41
228.4221935424805
 68
     1
 69
     1
1001
ACAD
1000
MVIEW
1002
{
1070
    16
1010
0.0
1020
0.0
1030
0.0
1010
0.0
1020
0.0
1030
1.0
1040
0.0
1040
228.4221935424805
1040
133.34999084472651
1040
101.5999970436096
1040
50.0
1040
0.0
1040
0.0
1070
     0
1070
   100
1070
     1
1070
     1
1070
     0
1070
     0
1070
     0
1070
     0
1040
0.0
1040
0.0
1040
0.0
1040
10.0
1040
10.0
1040
10.0
1040
10.0
1070
     0
1002
{
1002
}
1002
}
1001
GENIUS_GENODEF_13
1002
{
1000
HIER
1070
     0
1002
}
1002
{
1000
MANEDIT
1070
     0
1002
}
1002
{
1000
NOSEL
1070
     0
1002
}
1002
{
1000
BEHIND
1070
     0
1002
}
1002
{
1000
OTHER
1070
     0
1002
}
1002
{
1000
REACTOR
1002
}
1001
GENIUS_GENOBJ-N-SDF_13
1002
{
1000
OWNER
1000
GEN
1002
}
1001
GENIUS_GENSCREG_15
1000
PF
1040
1.0
1000
DF
1040
1.0
1000
MIN
1011
-51.763354802099627
1021
0.0
1031
-4.7510358937976968E+279
1021
-12.6110997276306
1031
0.0
1000
MAX
1011
318.4633364915527
1021
0.0
1031
-4.7510358937976968E+279
1021
215.8110938148499
1031
0.0
1000
FLAGS
1070
     4
  0
ENDSEC
  0
EOF
