  0
SECTION
  2
HEADER
  9
$ACADVER
  1
AC1015
  9
$ACADMAINTVER
 70
    20
  9
$DWGCODEPAGE
  3
ANSI_932
  9
$INSBASE
 10
0.0
 20
0.0
 30
0.0
  9
$EXTMIN
 10
-0.0000000000000284
 20
-0.0000000000000133
 30
0.0
  9
$EXTMAX
 10
48.25000000000002
 20
70.00000000000001
 30
0.0
  9
$LIMMIN
 10
0.0
 20
0.0
  9
$LIMMAX
 10
48.25
 20
70.00000000000001
  9
$ORTHOMODE
 70
     0
  9
$REGENMODE
 70
     1
  9
$FILLMODE
 70
     1
  9
$QTEXTMODE
 70
     0
  9
$MIRRTEXT
 70
     1
  9
$LTSCALE
 40
0.25
  9
$ATTMODE
 70
     1
  9
$TEXTSIZE
 40
2.5
  9
$TRACEWID
 40
0.05
  9
$TEXTSTYLE
  7
takachi1
  9
$CLAYER
  8
0
  9
$CELTYPE
  6
ByLayer
  9
$CECOLOR
 62
   256
  9
$CELTSCALE
 40
1.0
  9
$DISPSILH
 70
     0
  9
$DIMSCALE
 40
1.0
  9
$DIMASZ
 40
2.5
  9
$DIMEXO
 40
1.0
  9
$DIMDLI
 40
10.0
  9
$DIMRND
 40
0.0
  9
$DIMDLE
 40
0.0
  9
$DIMEXE
 40
1.0
  9
$DIMTP
 40
0.1
  9
$DIMTM
 40
0.1
  9
$DIMTXT
 40
3.5
  9
$DIMCEN
 40
0.0
  9
$DIMTSZ
 40
0.0
  9
$DIMTOL
 70
     0
  9
$DIMLIM
 70
     0
  9
$DIMTIH
 70
     0
  9
$DIMTOH
 70
     0
  9
$DIMSE1
 70
     0
  9
$DIMSE2
 70
     0
  9
$DIMTAD
 70
     1
  9
$DIMZIN
 70
     8
  9
$DIMBLK
  1
Open30
  9
$DIMASO
 70
     1
  9
$DIMSHO
 70
     1
  9
$DIMPOST
  1

  9
$DIMAPOST
  1
"
  9
$DIMALT
 70
     0
  9
$DIMALTD
 70
     2
  9
$DIMALTF
 40
0.0393701
  9
$DIMLFAC
 40
1.0
  9
$DIMTOFL
 70
     1
  9
$DIMTVP
 40
0.0
  9
$DIMTIX
 70
     0
  9
$DIMSOXD
 70
     0
  9
$DIMSAH
 70
     0
  9
$DIMBLK1
  1

  9
$DIMBLK2
  1

  9
$DIMSTYLE
  2
AM_ISO
  9
$DIMCLRD
 70
     3
  9
$DIMCLRE
 70
     3
  9
$DIMCLRT
 70
     2
  9
$DIMTFAC
 40
0.71
  9
$DIMGAP
 40
1.5
  9
$DIMJUST
 70
     0
  9
$DIMSD1
 70
     0
  9
$DIMSD2
 70
     0
  9
$DIMTOLJ
 70
     0
  9
$DIMTZIN
 70
     8
  9
$DIMALTZ
 70
     0
  9
$DIMALTTZ
 70
     0
  9
$DIMUPT
 70
     0
  9
$DIMDEC
 70
     2
  9
$DIMTDEC
 70
     2
  9
$DIMALTU
 70
     2
  9
$DIMALTTD
 70
     2
  9
$DIMTXSTY
  7
STANDARD
  9
$DIMAUNIT
 70
     0
  9
$DIMADEC
 70
     0
  9
$DIMALTRND
 40
0.0
  9
$DIMAZIN
 70
     2
  9
$DIMDSEP
 70
    46
  9
$DIMATFIT
 70
     3
  9
$DIMFRAC
 70
     0
  9
$DIMLDRBLK
  1
Open30
  9
$DIMLUNIT
 70
     2
  9
$DIMLWD
 70
    -1
  9
$DIMLWE
 70
    -1
  9
$DIMTMOVE
 70
     0
  9
$LUNITS
 70
     2
  9
$LUPREC
 70
     2
  9
$SKETCHINC
 40
0.1
  9
$FILLETRAD
 40
0.15
  9
$AUNITS
 70
     0
  9
$AUPREC
 70
     0
  9
$MENU
  1
.
  9
$ELEVATION
 40
0.0
  9
$PELEVATION
 40
0.0
  9
$THICKNESS
 40
0.0
  9
$LIMCHECK
 70
     0
  9
$CHAMFERA
 40
0.625
  9
$CHAMFERB
 40
0.625
  9
$CHAMFERC
 40
1.0
  9
$CHAMFERD
 40
0.0
  9
$SKPOLY
 70
     0
  9
$TDCREATE
 40
2454929.686216181
  9
$TDUCREATE
 40
2454929.311216181
  9
$TDUPDATE
 40
2455065.705355718
  9
$TDUUPDATE
 40
2455065.330355718
  9
$TDINDWG
 40
0.9568008565
  9
$TDUSRTIMER
 40
0.9568008565
  9
$USRTIMER
 70
     1
  9
$ANGBASE
 50
0.0
  9
$ANGDIR
 70
     0
  9
$PDMODE
 70
     0
  9
$PDSIZE
 40
0.0
  9
$PLINEWID
 40
0.0
  9
$SPLFRAME
 70
     0
  9
$SPLINETYPE
 70
     6
  9
$SPLINESEGS
 70
     8
  9
$HANDSEED
  5
37AF
  9
$SURFTAB1
 70
     6
  9
$SURFTAB2
 70
     6
  9
$SURFTYPE
 70
     6
  9
$SURFU
 70
     6
  9
$SURFV
 70
     6
  9
$UCSBASE
  2

  9
$UCSNAME
  2

  9
$UCSORG
 10
0.0
 20
0.0
 30
0.0
  9
$UCSXDIR
 10
1.0
 20
0.0
 30
0.0
  9
$UCSYDIR
 10
0.0
 20
1.0
 30
0.0
  9
$UCSORTHOREF
  2

  9
$UCSORTHOVIEW
 70
     0
  9
$UCSORGTOP
 10
0.0
 20
0.0
 30
0.0
  9
$UCSORGBOTTOM
 10
0.0
 20
0.0
 30
0.0
  9
$UCSORGLEFT
 10
0.0
 20
0.0
 30
0.0
  9
$UCSORGRIGHT
 10
0.0
 20
0.0
 30
0.0
  9
$UCSORGFRONT
 10
0.0
 20
0.0
 30
0.0
  9
$UCSORGBACK
 10
0.0
 20
0.0
 30
0.0
  9
$PUCSBASE
  2

  9
$PUCSNAME
  2

  9
$PUCSORG
 10
0.0
 20
0.0
 30
0.0
  9
$PUCSXDIR
 10
1.0
 20
0.0
 30
0.0
  9
$PUCSYDIR
 10
0.0
 20
1.0
 30
0.0
  9
$PUCSORTHOREF
  2

  9
$PUCSORTHOVIEW
 70
     0
  9
$PUCSORGTOP
 10
0.0
 20
0.0
 30
0.0
  9
$PUCSORGBOTTOM
 10
0.0
 20
0.0
 30
0.0
  9
$PUCSORGLEFT
 10
0.0
 20
0.0
 30
0.0
  9
$PUCSORGRIGHT
 10
0.0
 20
0.0
 30
0.0
  9
$PUCSORGFRONT
 10
0.0
 20
0.0
 30
0.0
  9
$PUCSORGBACK
 10
0.0
 20
0.0
 30
0.0
  9
$USERI1
 70
     0
  9
$USERI2
 70
     0
  9
$USERI3
 70
     0
  9
$USERI4
 70
     0
  9
$USERI5
 70
     0
  9
$USERR1
 40
0.0
  9
$USERR2
 40
0.0
  9
$USERR3
 40
0.0
  9
$USERR4
 40
0.0
  9
$USERR5
 40
0.0
  9
$WORLDVIEW
 70
     1
  9
$SHADEDGE
 70
     3
  9
$SHADEDIF
 70
    70
  9
$TILEMODE
 70
     1
  9
$MAXACTVP
 70
    64
  9
$PINSBASE
 10
0.0
 20
0.0
 30
0.0
  9
$PLIMCHECK
 70
     0
  9
$PEXTMIN
 10
1.000000000000000E+20
 20
1.000000000000000E+20
 30
1.000000000000000E+20
  9
$PEXTMAX
 10
-1.000000000000000E+20
 20
-1.000000000000000E+20
 30
-1.000000000000000E+20
  9
$PLIMMIN
 10
-0.2500002402958907
 20
-0.2499999962453767
  9
$PLIMMAX
 10
10.74999951940821
 20
8.249999763458731
  9
$UNITMODE
 70
     0
  9
$VISRETAIN
 70
     1
  9
$PLINEGEN
 70
     0
  9
$PSLTSCALE
 70
     1
  9
$TREEDEPTH
 70
  3020
  9
$CMLSTYLE
  2
Standard
  9
$CMLJUST
 70
     0
  9
$CMLSCALE
 40
1.0
  9
$PROXYGRAPHICS
 70
     1
  9
$MEASUREMENT
 70
     1
  9
$CELWEIGHT
370
    -1
  9
$ENDCAPS
280
     0
  9
$JOINSTYLE
280
     0
  9
$LWDISPLAY
290
     0
  9
$INSUNITS
 70
     4
  9
$HYPERLINKBASE
  1

  9
$STYLESHEET
  1
takachi-2.ctb
  9
$XEDIT
290
     1
  9
$CEPSNTYPE
380
     0
  9
$PSTYLEMODE
290
     1
  9
$FINGERPRINTGUID
  2
{3DC5110E-CC6C-4393-A403-4BD349DB29D2}
  9
$VERSIONGUID
  2
{386D7EF1-7949-4E89-80E2-F3038186B574}
  9
$EXTNAMES
290
     1
  9
$PSVPSCALE
 40
0.0
  9
$OLESTARTUP
290
     0
  0
ENDSEC
  0
SECTION
  2
CLASSES
  0
CLASS
  1
ACDBDICTIONARYWDFLT
  2
AcDbDictionaryWithDefault
  3
ObjectDBX Classes
 90
        0
280
     0
281
     0
  0
CLASS
  1
ACDBPLACEHOLDER
  2
AcDbPlaceHolder
  3
ObjectDBX Classes
 90
        0
280
     0
281
     0
  0
CLASS
  1
LAYOUT
  2
AcDbLayout
  3
ObjectDBX Classes
 90
        0
280
     0
281
     0
  0
CLASS
  1
ACME_DOCUMENT
  2
AcMeDbDoc
  3
AcMeServices
 90
     1024
280
     0
281
     0
  0
CLASS
  1
AMGSETTINGSOBJ
  2
AmgSettingsObj
  3
"AcadM|Product Description: AutoCAD Mechanical|Company: Autodesk, Inc."
 90
     1024
280
     0
281
     0
  0
CLASS
  1
ACMESCOPE
  2
AcMeScope
  3
AcMeServices
 90
     1024
280
     0
281
     0
  0
CLASS
  1
ACMECOMMANDHISTORY
  2
AcMeCommandHistory
  3
AcMeServices
 90
     1024
280
     0
281
     0
  0
CLASS
  1
ACIMSYSVARMAN
  2
AcImSysVarManager
  3
AcMeServices
 90
     1024
280
     0
281
     0
  0
CLASS
  1
ACIMREALSYSVAR
  2
AcImRealSysVar
  3
AcMeServices
 90
     1024
280
     0
281
     0
  0
CLASS
  1
ACIMINTSYSVAR
  2
AcImIntSysVar
  3
AcMeServices
 90
     1024
280
     0
281
     0
  0
CLASS
  1
ACMEDRAWINGMAN
  2
AcMeDrawingMan
  3
AcMeServices
 90
     1024
280
     0
281
     0
  0
CLASS
  1
ACMEVIEW
  2
AcMeView
  3
AcMeServices
 90
     1024
280
     0
281
     0
  0
CLASS
  1
ACDBENTITYCACHE
  2
AcMeEntityCache
  3
AcMeServices
 90
     1024
280
     0
281
     0
  0
CLASS
  1
GSMANAGER
  2
AcMeGSManager
  3
AcMeServices
 90
     1024
280
     0
281
     0
  0
CLASS
  1
AMDTINTERNALREACTOR
  2
AmdtInternalReactor
  3
AcMeServices
 90
     1024
280
     0
281
     0
  0
CLASS
  1
ACMESTATEMGR
  2
AcMeStateMgr
  3
AcMeServices
 90
     1024
280
     0
281
     0
  0
CLASS
  1
ACGREFMASTER
  2
AcGrefMaster
  3
AcAttribServices
 90
     1024
280
     0
281
     0
  0
CLASS
  1
ACME_DATABASE
  2
AcMeDbDatabase
  3
AcMeServices
 90
     1024
280
     0
281
     0
  0
CLASS
  1
ACRFINSADJUSTERMGR
  2
AcRfInsAdjusterMgr
  3
AcMeServices
 90
     1024
280
     0
281
     0
  0
CLASS
  1
ACGREFACADMASTER
  2
AcGrefacadMaster
  3
AcGrefServices
 90
     1024
280
     0
281
     0
  0
CLASS
  1
AMIMASTER
  2
AmiMaster
  3
AmiServices
 90
     1024
280
     0
281
     0
  0
CLASS
  1
ACMDATADICTIONARY
  2
AcmDataDictionary
  3
"AcmSymBB|Product Description: AutoCAD Mechanical|Company: Autodesk, Inc."
 90
     1024
280
     0
281
     0
  0
CLASS
  1
ACMDATAENTRYBLOCK
  2
AcmDataEntryBlock
  3
AcmSymBB|Product Description: AutoCAD Mechanical|Company: Autodesk, Inc.
 90
     1024
280
     0
281
     0
  0
CLASS
  1
ACIMSTRSYSVAR
  2
AcImStrSysVar
  3
AcMeServices
 90
     1024
280
     0
281
     0
  0
CLASS
  1
ACMSTANDARDANSI
  2
AcmStandardANSI
  3
"Amdt_StdImp|Product Description: AutoCAD Mechanical|Company: Autodesk, Inc."
 90
     1024
280
     0
281
     0
  0
CLASS
  1
AMGOBJPROPCFG
  2
AmgObjPropCfg
  3
"AmgLay|Product Description: AutoCAD Mechanical|Company: Autodesk, Inc."
 90
     1025
280
     0
281
     0
  0
CLASS
  1
ACMSURFSTANDARDANSI
  2
AcmSurfTextStdANSI
  3
"Amdt_StdImp|Product Description: AutoCAD Mechanical|Company: Autodesk, Inc."
 90
     1024
280
     0
281
     0
  0
CLASS
  1
ACMFCFSTANDARDANSI
  2
AcmFCFStdANSI
  3
"Amdt_StdImp|Product Description: AutoCAD Mechanical|Company: Autodesk, Inc."
 90
     1024
280
     0
281
     0
  0
CLASS
  1
ACMWELDSTANDARDANSI
  2
AcmWeldingStdANSI
  3
"Amdt_StdImp|Product Description: AutoCAD Mechanical|Company: Autodesk, Inc."
 90
     1024
280
     0
281
     0
  0
CLASS
  1
ACMIDSTANDARDANSI
  2
AcmIdStdANSI
  3
"Amdt_StdImp|Product Description: AutoCAD Mechanical|Company: Autodesk, Inc."
 90
     1024
280
     0
281
     0
  0
CLASS
  1
ACMDATUMSTANDARDANSI
  2
AcmDatumStdANSI
  3
"Amdt_StdImp|Product Description: AutoCAD Mechanical|Company: Autodesk, Inc."
 90
     1024
280
     0
281
     0
  0
CLASS
  1
ACMBOMSTANDARDANSI
  2
AcmBOMStdANSI
  3
"Amdt_StdImp|Product Description: AutoCAD Mechanical|Company: Autodesk, Inc."
 90
     1024
280
     0
281
     0
  0
CLASS
  1
ACMDETAILSTANDARDANSI
  2
AmdtDetailSymStdANSI
  3
"Amdt_StdImp|Product Description: AutoCAD Mechanical|Company: Autodesk, Inc."
 90
     1024
280
     0
281
     0
  0
CLASS
  1
ACMSECTIONSTANDARDANSI
  2
AmdtSectionSymStdANSI
  3
"Amdt_StdImp|Product Description: AutoCAD Mechanical|Company: Autodesk, Inc."
 90
     1024
280
     0
281
     0
  0
CLASS
  1
ACMCENTERLINESTANDARDANSI
  2
AmdtCenterLineStdANSI
  3
"Amdt_StdImp|Product Description: AutoCAD Mechanical|Company: Autodesk, Inc."
 90
     1024
280
     0
281
     0
  0
CLASS
  1
ACMNOTESTANDARDANSI
  2
AmdtNoteStdANSI
  3
"Amdt_StdImp|Product Description: AutoCAD Mechanical|Company: Autodesk, Inc."
 90
     1024
280
     0
281
     0
  0
CLASS
  1
ACAMGLAYSTD
  2
AcAmgLayStd
  3
"AmgLay|Product Description: AutoCAD Mechanical|Company: Autodesk, Inc."
 90
     1024
280
     0
281
     0
  0
CLASS
  1
ACAMGDIMSTD
  2
AcAmgDimStd
  3
"AmgDim|Product Description: AutoCAD Mechanical|Company: Autodesk, Inc."
 90
     1024
280
     0
281
     0
  0
CLASS
  1
ACAMGHOLECHARTSTDANSI
  2
AcAmgHoleChartStdANSI
  3
AmgDim|Product Description: AutoCAD Mechanical|Company: Autodesk, Inc.
 90
     1024
280
     0
281
     0
  0
CLASS
  1
ACAMGTITLESTD
  2
AcAmgTitleStd
  3
"AmgTitle|Product Description: AutoCAD Mechanical|Company: Autodesk, Inc."
 90
     4095
280
     0
281
     0
  0
CLASS
  1
LAYER_INDEX
  2
AcDbLayerIndex
  3
ObjectDBX Classes
 90
    32768
280
     0
281
     0
  0
CLASS
  1
IDBUFFER
  2
AcDbIdBuffer
  3
ObjectDBX Classes
 90
    32768
280
     0
281
     0
  0
CLASS
  1
DICTIONARYVAR
  2
AcDbDictionaryVar
  3
ObjectDBX Classes
 90
        0
280
     0
281
     0
  0
CLASS
  1
AM_DRAWING_MGR
  2
AcDmDwgMgr
  3
AcMechDwgViewMgmt
 90
     1024
280
     0
281
     0
  0
CLASS
  1
AM_DWG_DOCUMENT
  2
AcDmDwgDocument
  3
AcMechDwgViewMgmt
 90
     1024
280
     0
281
     0
  0
CLASS
  1
AM_DWG_SHEET
  2
AcDmSheet
  3
AcMechDwgViewMgmt
 90
     1024
280
     0
281
     0
  0
CLASS
  1
AM_VIEWDIMPARMAP
  2
AcDmViewDimParMap
  3
AcMechDwgViewMgmt
 90
     1024
280
     0
281
     0
  0
CLASS
  1
AM_DWGMGR_NAME
  2
AcDmDwgMgrName
  3
AcMechDwgViewMgmt
 90
     1024
280
     0
281
     0
  0
CLASS
  1
AMDTMENUSTATEMGR
  2
AmdtMenuStateMgr
  3
McadcomServices
 90
     1024
280
     0
281
     0
  0
CLASS
  1
AMDTMCOMMENUSTATE
  2
AmdtMcomMenuState
  3
McadcomServices
 90
     1024
280
     0
281
     0
  0
CLASS
  1
MAPIAMMOUDLE
  2
MApiAmModule
  3
MApiAmServices
 90
     1024
280
     0
281
     0
  0
CLASS
  1
AMDTADMENUSTATE
  2
AmdtAdMenuState
  3
DesignerServices
 90
     1024
280
     0
281
     0
  0
CLASS
  1
ADAPPL
  2
AcAdAppl
  3
DesignerServices
 90
     1024
280
     0
281
     0
  0
CLASS
  1
DEPMGR
  2
AcAdDepMgr
  3
DesignerServices
 90
     1024
280
     0
281
     0
  0
CLASS
  1
PARAMMGR
  2
AcAdParamMgr
  3
DesignerServices
 90
     1024
280
     0
281
     0
  0
CLASS
  1
PARAMSCOPE
  2
AcAdParamScope
  3
DesignerServices
 90
     1024
280
     0
281
     0
  0
CLASS
  1
NAMEDAPPL
  2
AcAdNamedAppl
  3
DesignerServices
 90
     1024
280
     0
281
     0
  0
CLASS
  1
AMDTDMMENUSTATE
  2
AmdtDmMenuState
  3
AcMechDwgViewMgmt
 90
     1024
280
     0
281
     0
  0
CLASS
  1
AMDTAMMENUSTATE
  2
AmdtAmMenuState
  3
DesignerAssemblies
 90
     1024
280
     0
281
     0
  0
CLASS
  1
ACAMPROJECT
  2
AcAmProject
  3
DesignerAssemblies
 90
     1024
280
     0
281
     0
  0
CLASS
  1
ACAMGRCOMPDEF
  2
AcAmGrCompDef
  3
DesignerAssemblies
 90
     1024
280
     0
281
     0
  0
CLASS
  1
ACCMCONTEXT
  2
AcCmContext
  3
DesignerAssemblies
 90
     1024
280
     0
281
     0
  0
CLASS
  1
ACAMCOMPDEF
  2
AcAmCompDef
  3
DesignerAssemblies
 90
     1024
280
     0
281
     0
  0
CLASS
  1
ACAMCOMPDEFMGR
  2
AcAmCompDefMgr
  3
DesignerAssemblies
 90
     1024
280
     0
281
     0
  0
CLASS
  1
AMCONTEXTMGR
  2
AcAmContextMgr
  3
DesignerAssemblies
 90
     1024
280
     0
281
     0
  0
CLASS
  1
ACAMCONTEXTMODELER
  2
AcAmContextModeler
  3
DesignerAssemblies
 90
     1024
280
     0
281
     0
  0
CLASS
  1
ACMTHREADLINESTANDARDANSI
  2
AmdtThreadLineStdANSI
  3
"Amdt_StdImp|Product Description: AutoCAD Mechanical|Company: Autodesk, Inc."
 90
     1024
280
     0
281
     0
  0
CLASS
  1
CATALOGSTATE
  2
AcAmCatalogState
  3
DesignerAssemblies
 90
     1024
280
     0
281
     0
  0
CLASS
  1
ACAMGRCOMPDEFSET
  2
AcAmGrCompDefSet
  3
DesignerAssemblies
 90
     1024
280
     0
281
     0
  0
CLASS
  1
AMDTBROWSERDBTAB
  2
AmdtBrowserDbTab
  3
McadcomServices
 90
     1024
280
     0
281
     0
  0
CLASS
  1
CBROWSERAPPOBJECT
  2
CBrowserAppObject
  3
McadcomServices
 90
     1024
280
     0
281
     0
  0
CLASS
  1
DM_PLACEHOLDER
  2
AcDmSelsetPlaceholder
  3
AcMechDwgViewMgmt
 90
     1024
280
     0
281
     0
  0
CLASS
  1
AMDTNOTETEMPLATEDB
  2
AmdtNoteTemplateDB
  3
AcmSymBB|Product Description: AutoCAD Mechanical|Company: Autodesk, Inc.
 90
     1024
280
     0
281
     0
  0
CLASS
  1
ACMSTANDARDISO
  2
AcmStandardISO
  3
"Amdt_StdImp|Product Description: AutoCAD Mechanical|Company: Autodesk, Inc."
 90
     1024
280
     0
281
     0
  0
CLASS
  1
AMDTEDGESTANDARDISO
  2
AmdtEdgeStdISO
  3
"Amdt_StdImp|Product Description: AutoCAD Mechanical|Company: Autodesk, Inc."
 90
     1024
280
     0
281
     0
  0
CLASS
  1
ACMSURFSTANDARDISO
  2
AcmSurfTextStdISO
  3
"Amdt_StdImp|Product Description: AutoCAD Mechanical|Company: Autodesk, Inc."
 90
     1024
280
     0
281
     0
  0
CLASS
  1
ACMFCFSTANDARDISO
  2
AcmFCFStdISO
  3
"Amdt_StdImp|Product Description: AutoCAD Mechanical|Company: Autodesk, Inc."
 90
     1024
280
     0
281
     0
  0
CLASS
  1
ACMWELDSTANDARDISO
  2
AcmWeldingStdISO
  3
"Amdt_StdImp|Product Description: AutoCAD Mechanical|Company: Autodesk, Inc."
 90
     1024
280
     0
281
     0
  0
CLASS
  1
ACMIDSTANDARDISO
  2
AcmIdStdISO
  3
"Amdt_StdImp|Product Description: AutoCAD Mechanical|Company: Autodesk, Inc."
 90
     1024
280
     0
281
     0
  0
CLASS
  1
ACMDATUMSTANDARDISO
  2
AcmDatumStdISO
  3
"Amdt_StdImp|Product Description: AutoCAD Mechanical|Company: Autodesk, Inc."
 90
     1024
280
     0
281
     0
  0
CLASS
  1
ACMBOMSTANDARDISO
  2
AcmBOMStdISO
  3
"Amdt_StdImp|Product Description: AutoCAD Mechanical|Company: Autodesk, Inc."
 90
     1024
280
     0
281
     0
  0
CLASS
  1
ACMDETAILSTANDARDISO
  2
AmdtDetailSymStdISO
  3
"Amdt_StdImp|Product Description: AutoCAD Mechanical|Company: Autodesk, Inc."
 90
     1024
280
     0
281
     0
  0
CLASS
  1
ACMSECTIONSTANDARDISO
  2
AmdtSectionSymStdISO
  3
"Amdt_StdImp|Product Description: AutoCAD Mechanical|Company: Autodesk, Inc."
 90
     1024
280
     0
281
     0
  0
CLASS
  1
ACMCENTERLINESTANDARDISO
  2
AmdtCenterLineStdISO
  3
"Amdt_StdImp|Product Description: AutoCAD Mechanical|Company: Autodesk, Inc."
 90
     1024
280
     0
281
     0
  0
CLASS
  1
ACMTHREADLINESTANDARDISO
  2
AmdtThreadLineStdISO
  3
"Amdt_StdImp|Product Description: AutoCAD Mechanical|Company: Autodesk, Inc."
 90
     1024
280
     0
281
     0
  0
CLASS
  1
ACMNOTESTANDARDISO
  2
AmdtNoteStdISO
  3
"Amdt_StdImp|Product Description: AutoCAD Mechanical|Company: Autodesk, Inc."
 90
     1024
280
     0
281
     0
  0
CLASS
  1
ACAMGHOLECHARTSTDISO
  2
AcAmgHoleChartStdISO
  3
AmgDim|Product Description: AutoCAD Mechanical|Company: Autodesk, Inc.
 90
     1024
280
     0
281
     0
  0
CLASS
  1
ACAMGFILTERDAT
  2
AcAmgFilterDat
  3
"AcadM|Product Description: AutoCAD Mechanical|Company: Autodesk, Inc."
 90
     1024
280
     0
281
     0
  0
CLASS
  1
ACMBOM
  2
AcmBom
  3
"AcmSymBB|Product Description: AutoCAD Mechanical|Company: Autodesk, Inc."
 90
     1024
280
     0
281
     0
  0
CLASS
  1
AMDTFORMULAUPDATEDISPATCHER
  2
AmdtFormulaUpdateDispatcher
  3
AcMeServices
 90
     1024
280
     0
281
     0
  0
CLASS
  1
ACMPARTLIST
  2
AcmPartList
  3
"AcmSymBB|Product Description: AutoCAD Mechanical|Company: Autodesk, Inc."
 90
     4095
280
     0
281
     1
  0
CLASS
  1
ACDBOPPOLYLINERES
  2
AcDbOpPolylineRes
  3
AcGrefServices
 90
     1024
280
     0
281
     0
  0
CLASS
  1
ACRFINSADJ
  2
AcRfInsAdjuster
  3
AcMeServices
 90
     1024
280
     0
281
     0
  0
CLASS
  1
MATERIAL
  2
AcDbMaterial
  3
ObjectDBX Classes
 90
     1153
280
     0
281
     0
  0
CLASS
  1
VISUALSTYLE
  2
AcDbVisualStyle
  3
ObjectDBX Classes
 90
     4095
280
     0
281
     0
  0
CLASS
  1
TABLESTYLE
  2
AcDbTableStyle
  3
ObjectDBX Classes
 90
     4095
280
     0
281
     0
  0
CLASS
  1
SCALE
  2
AcDbScale
  3
ObjectDBX Classes
 90
     1153
280
     0
281
     0
  0
CLASS
  1
MLEADERSTYLE
  2
AcDbMLeaderStyle
  3
ACDB_MLEADERSTYLE_CLASS
 90
     4095
280
     0
281
     0
  0
CLASS
  1
ACRFATTGENMGR
  2
AcRfAttGeneralMgr
  3
AcAttribServices
 90
     1024
280
     0
281
     0
  0
CLASS
  1
ACRFOBJATTMGR
  2
AcRfObjAttGroupMgr
  3
AcAttribServices
 90
     1024
280
     0
281
     0
  0
CLASS
  1
ACRFMCADAPIATTHOLDER
  2
AcRfMCADAPIAttHolder
  3
AcAttribServices
 90
     1024
280
     0
281
     0
  0
CLASS
  1
AMDTSYSATTR
  2
AmdtSystemAttribute
  3
AcAttribServices
 90
     1024
280
     0
281
     0
  0
CLASS
  1
ACMTAPERSTANDARDANSI
  2
AcmTaperStdANSI
  3
"Amdt_StdImp|Product Description: AutoCAD Mechanical|Company: Autodesk, Inc."
 90
     1024
280
     0
281
     0
  0
CLASS
  1
ACMANOOTATIONVIEWSTANDARDANSI
  2
AmdtAnViewStdANSI
  3
"Amdt_StdImp|Product Description: AutoCAD Mechanical|Company: Autodesk, Inc."
 90
     1024
280
     0
281
     0
  0
CLASS
  1
ACMTAPERSTANDARDISO
  2
AcmTaperStdISO
  3
"Amdt_StdImp|Product Description: AutoCAD Mechanical|Company: Autodesk, Inc."
 90
     1024
280
     0
281
     0
  0
CLASS
  1
ACMANOOTATIONVIEWSTANDARDISO
  2
AmdtAnViewStdISO
  3
"Amdt_StdImp|Product Description: AutoCAD Mechanical|Company: Autodesk, Inc."
 90
     1024
280
     0
281
     0
  0
CLASS
  1
EXACXREFPANELOBJECT
  2
ExAcXREFPanelObject
  3
EXAC_ESW
 90
     1025
280
     0
281
     0
  0
CLASS
  1
NPOCOLLECTION
  2
AcDbImpNonPersistentObjectsCollection
  3
ObjectDBX Classes
 90
     1153
280
     0
281
     0
  0
CLASS
  1
DIMASSOC
  2
AcDbDimAssoc
  3
"AcDbDimAssoc|Product Desc:     AcDim ARX App For Dimension|Company:          Autodesk, Inc.|WEB Address:      www.autodesk.com"
 90
    32768
280
     0
281
     0
  0
CLASS
  1
CAMSSTRUCTBTNSTATE
  2
StructBtnState
  3
DesignerAssemblies
 90
    33792
280
     0
281
     0
  0
CLASS
  1
CELLSTYLEMAP
  2
AcDbCellStyleMap
  3
ObjectDBX Classes
 90
     1152
280
     0
281
     0
  0
CLASS
  1
SORTENTSTABLE
  2
AcDbSortentsTable
  3
ObjectDBX Classes
 90
        0
280
     0
281
     0
  0
CLASS
  1
ACMDATAENTRYPART
  2
AcmDataEntryPart
  3
AcmSymBB|Product Description: AutoCAD Mechanical|Company: Autodesk, Inc.
 90
     1024
280
     0
281
     0
  0
CLASS
  1
ACMPARTREF
  2
AcmPartRef
  3
"AcmSymBB|Product Description: AutoCAD Mechanical|Company: Autodesk, Inc."
 90
     4095
280
     0
281
     1
  0
CLASS
  1
ACMBOMROW
  2
AcmBomRow
  3
"AcmSymBB|Product Description: AutoCAD Mechanical|Company: Autodesk, Inc."
 90
     1024
280
     0
281
     0
  0
CLASS
  1
ACMBALLOON
  2
AcmBalloon
  3
"AcmSymBB|Product Description: AutoCAD Mechanical|Company: Autodesk, Inc."
 90
     4095
280
     0
281
     1
  0
CLASS
  1
LARGE_RADIAL_DIMENSION
  2
AcDbRadialDimensionLarge
  3
ObjectDBX Classes
 90
    33793
280
     0
281
     1
  0
CLASS
  1
AMDTNOTE
  2
AmdtNote
  3
"AcmSymBB|Product Description: AutoCAD Mechanical|Company: Autodesk, Inc."
 90
     4095
280
     0
281
     1
  0
ENDSEC
  0
SECTION
  2
TABLES
  0
TABLE
  2
VPORT
  5
8
102
{ACAD_XDICTIONARY
360
1545
102
}
330
0
100
AcDbSymbolTable
 70
     1
  0
VPORT
  5
36B9
330
8
100
AcDbSymbolTableRecord
100
AcDbViewportTableRecord
  2
*Active
 70
     0
 10
0.0
 20
0.0
 11
1.0
 21
1.0
 12
24.12500033704296
 22
35.00000048897418
 13
0.0
 23
0.0
 14
0.625
 24
0.625
 15
2.5
 25
2.5
 16
0.0
 26
0.0
 36
1.0
 17
0.0
 27
0.0
 37
0.0
 40
70.47300209259896
 41
1.766554433221099
 42
50.0
 43
0.0
 44
0.0
 50
0.0
 51
0.0
 71
    16
 72
   100
 73
     1
 74
     3
 75
     0
 76
     0
 77
     0
 78
     0
281
     0
 65
     1
110
0.0
120
0.0
130
0.0
111
1.0
121
0.0
131
0.0
112
0.0
122
1.0
132
0.0
 79
     0
146
0.0
  0
ENDTAB
  0
TABLE
  2
LTYPE
  5
5
330
0
100
AcDbSymbolTable
 70
    25
  0
LTYPE
  5
14
330
5
100
AcDbSymbolTableRecord
100
AcDbLinetypeTableRecord
  2
ByBlock
 70
     0
  3

 72
    65
 73
     0
 40
0.0
  0
LTYPE
  5
15
330
5
100
AcDbSymbolTableRecord
100
AcDbLinetypeTableRecord
  2
ByLayer
 70
     0
  3

 72
    65
 73
     0
 40
0.0
  0
LTYPE
  5
16
330
5
100
AcDbSymbolTableRecord
100
AcDbLinetypeTableRecord
  2
Continuous
 70
     0
  3
Solid line
 72
    65
 73
     0
 40
0.0
  0
LTYPE
  5
6C
330
5
100
AcDbSymbolTableRecord
100
AcDbLinetypeTableRecord
  2
AM_ISO02W050
 70
     0
  3
__ __ __ __ __ __ __ __ __ __ __ __ __ __ __
 72
    65
 73
     2
 40
7.5
 49
6.0
 74
     0
 49
-1.5
 74
     0
  0
LTYPE
  5
6D
330
5
100
AcDbSymbolTableRecord
100
AcDbLinetypeTableRecord
  2
AM_ISO08W050
 70
     0
  3
____ . ____ . ____ . ____ . ____ . ____ . ____
 72
    65
 73
     4
 40
18.0
 49
12.0
 74
     0
 49
-1.5
 74
     0
 49
3.0
 74
     0
 49
-1.5
 74
     0
  0
LTYPE
  5
6E
330
5
100
AcDbSymbolTableRecord
100
AcDbLinetypeTableRecord
  2
AM_ISO09W050
 70
     0
  3
_____ . . _____ . . _____ . . ____ .. ____
 72
    65
 73
     6
 40
22.5
 49
12.0
 74
     0
 49
-1.5
 74
     0
 49
3.0
 74
     0
 49
-1.5
 74
     0
 49
3.0
 74
     0
 49
-1.5
 74
     0
  0
LTYPE
  5
6F
330
5
100
AcDbSymbolTableRecord
100
AcDbLinetypeTableRecord
  2
Amconstr
 70
     0
  3
_______________________
 72
    65
 73
     2
 40
9999.0
 49
9999.0
 74
     0
 49
0.0
 74
     0
  0
LTYPE
  5
70
330
5
100
AcDbSymbolTableRecord
100
AcDbLinetypeTableRecord
  2
AM_ISO08W050x2
 70
     0
  3
__ . __ . __ . __ . __ . __
 72
    65
 73
     4
 40
9.0
 49
6.0
 74
     0
 49
-0.75
 74
     0
 49
1.5
 74
     0
 49
-0.75
 74
     0
  0
LTYPE
  5
71
330
5
100
AcDbSymbolTableRecord
100
AcDbLinetypeTableRecord
  2
AM_ISO02W050x2
 70
     0
  3
 _ _ _ _ _ _ _ _ _ _ _ _
 72
    65
 73
     2
 40
3.75
 49
3.0
 74
     0
 49
-0.75
 74
     0
  0
LTYPE
  5
74
330
5
100
AcDbSymbolTableRecord
100
AcDbLinetypeTableRecord
  2
Amzigzag
 70
     0
  3
/\/-/\/-/\/-/\/-/\/-/\/
 72
    65
 73
     2
 40
11.0001
 49
0.0001
 74
     4
 75
   135
340
73
 46
0.04
 50
0.0
 44
0.0
 45
0.0
 49
-11.0
 74
     0
  0
LTYPE
  5
75
330
5
100
AcDbSymbolTableRecord
100
AcDbLinetypeTableRecord
  2
HIDDEN
 70
     0
  3
Hidden __ __ __ __ __ __ __ __ __ __ __ __ __ _
 72
    65
 73
     2
 40
0.375
 49
0.25
 74
     0
 49
-0.125
 74
     0
  0
LTYPE
  5
76
330
5
100
AcDbSymbolTableRecord
100
AcDbLinetypeTableRecord
  2
CENTER
 70
     0
  3
Center ____ _ ____ _ ____ _ ____ _ ____ _ ____
 72
    65
 73
     4
 40
2.0
 49
1.25
 74
     0
 49
-0.25
 74
     0
 49
0.25
 74
     0
 49
-0.25
 74
     0
  0
LTYPE
  5
77
330
5
100
AcDbSymbolTableRecord
100
AcDbLinetypeTableRecord
  2
PHANTOM2
 70
     0
  3
Phantom (.5x) ___ _ _ ___ _ _ ___ _ _ ___ _ _
 72
    65
 73
     6
 40
1.25
 49
0.625
 74
     0
 49
-0.125
 74
     0
 49
0.125
 74
     0
 49
-0.125
 74
     0
 49
0.125
 74
     0
 49
-0.125
 74
     0
  0
LTYPE
  5
78
330
5
100
AcDbSymbolTableRecord
100
AcDbLinetypeTableRecord
  2
CENTER2
 70
     0
  3
Center (.5x) ___ _ ___ _ ___ _ ___ _ ___ _ ___
 72
    65
 73
     4
 40
1.125
 49
0.75
 74
     0
 49
-0.125
 74
     0
 49
0.125
 74
     0
 49
-0.125
 74
     0
  0
LTYPE
  5
79
330
5
100
AcDbSymbolTableRecord
100
AcDbLinetypeTableRecord
  2
HIDDEN2
 70
     0
  3
Hidden (.5x) _ _ _ _ _ _ _ _ _ _ _ _ _ _ _ _ _
 72
    65
 73
     2
 40
0.1875
 49
0.125
 74
     0
 49
-0.0625
 74
     0
  0
LTYPE
  5
7A
330
5
100
AcDbSymbolTableRecord
100
AcDbLinetypeTableRecord
  2
Amzigzag2
 70
     0
  3
/\/-/\/-/\/-/\/-/\/-/\/
 72
    65
 73
     2
 40
0.4401
 49
0.0001
 74
     4
 75
   135
340
73
 46
0.0016
 50
0.0
 44
0.0
 45
0.0
 49
-0.4400000000000001
 74
     0
  0
LTYPE
  5
87
330
5
100
AcDbSymbolTableRecord
100
AcDbLinetypeTableRecord
  2
ACANSTGB
 70
     0
  3
__ . . __ . .
 72
    65
 73
     6
 40
0.35433070866
 49
0.15748031496
 74
     0
 49
-0.03937007874
 74
     0
 49
0.03937007874
 74
     0
 49
-0.03937007874
 74
     0
 49
0.03937007874
 74
     0
 49
-0.03937007874
 74
     0
  0
LTYPE
  5
88
330
5
100
AcDbSymbolTableRecord
100
AcDbLinetypeTableRecord
  2
ACANSTGL
 70
     0
  3
_ _ _ _ _
 72
    65
 73
     2
 40
0.11811023622
 49
0.07874015748
 74
     0
 49
-0.03937007874
 74
     0
  0
LTYPE
  5
1DE
330
5
100
AcDbSymbolTableRecord
100
AcDbLinetypeTableRecord
  2
ACISOWELD
 70
     0
  3
_ _ _ _ _
 72
    65
 73
     2
 40
2.0
 49
2.0
 74
     0
 49
-1.0
 74
     0
  0
LTYPE
  5
1DF
330
5
100
AcDbSymbolTableRecord
100
AcDbLinetypeTableRecord
  2
ACISOTGB
 70
     0
  3
__ . . __ . .
 72
    65
 73
     6
 40
9.0
 49
4.0
 74
     0
 49
-1.0
 74
     0
 49
1.0
 74
     0
 49
-1.0
 74
     0
 49
1.0
 74
     0
 49
-1.0
 74
     0
  0
LTYPE
  5
1E0
330
5
100
AcDbSymbolTableRecord
100
AcDbLinetypeTableRecord
  2
ACISOTGL
 70
     0
  3
_ _ _ _ _
 72
    65
 73
     2
 40
3.0
 49
2.0
 74
     0
 49
-1.0
 74
     0
  0
LTYPE
  5
1FE
330
5
100
AcDbSymbolTableRecord
100
AcDbLinetypeTableRecord
  2
gen3
 70
     0
  3
-- -- -- -- -- -- -- -- -- -- -- -- -- -- --
 72
    65
 73
     2
 40
6.25
 49
4.75
 74
     0
 49
-1.5
 74
     0
  0
LTYPE
  5
1FF
330
5
100
AcDbSymbolTableRecord
100
AcDbLinetypeTableRecord
  2
gen7
 70
     0
  3
____ . ____ . ____ . ____ . ____ . ____ . ____
 72
    65
 73
     4
 40
13.75
 49
9.75
 74
     0
 49
-1.5
 74
     0
 49
1.0
 74
     0
 49
-1.5
 74
     0
  0
LTYPE
  5
200
330
5
100
AcDbSymbolTableRecord
100
AcDbLinetypeTableRecord
  2
gen3a
 70
     0
  3
 - - - - -
 72
    65
 73
     2
 40
3.125
 49
2.25
 74
     0
 49
-0.875
 74
     0
  0
LTYPE
  5
201
330
5
100
AcDbSymbolTableRecord
100
AcDbLinetypeTableRecord
  2
gen7a
 70
     0
  3
__ . __ . __
 72
    65
 73
     4
 40
6.875
 49
4.75
 74
     0
 49
-0.875
 74
     0
 49
0.375
 74
     0
 49
-0.875
 74
     0
  0
LTYPE
  5
202
330
5
100
AcDbSymbolTableRecord
100
AcDbLinetypeTableRecord
  2
gen4a
 70
     0
  3
_____ . . _____ . . _____ . . ____ .. ____
 72
    65
 73
     6
 40
16.25
 49
9.75
 74
     0
 49
-1.5
 74
     0
 49
1.0
 74
     0
 49
-1.5
 74
     0
 49
1.0
 74
     0
 49
-1.5
 74
     0
  0
LTYPE
  5
203
330
5
100
AcDbSymbolTableRecord
100
AcDbLinetypeTableRecord
  2
genzigzag
 70
     0
  3
/\/-/\/-/\/-/\/-/\/-/\/
 72
    65
 73
     2
 40
12.0001
 49
0.0001
 74
     4
 75
   135
340
73
 46
2.0
 50
0.0
 44
0.0
 45
0.0
 49
-12.0
 74
     0
  0
ENDTAB
  0
TABLE
  2
LAYER
  5
2
102
{ACAD_XDICTIONARY
360
2C1
102
}
330
0
100
AcDbSymbolTable
 70
    20
  0
LAYER
  5
10
102
{ACAD_XDICTIONARY
360
1510
102
}
330
2
100
AcDbSymbolTableRecord
100
AcDbLayerTableRecord
  2
0
 70
     0
 62
     7
  6
Continuous
370
    -3
390
F
  0
LAYER
  5
1F0
102
{ACAD_XDICTIONARY
360
1512
102
}
330
2
100
AcDbSymbolTableRecord
100
AcDbLayerTableRecord
  2
AM_5
 70
     0
 62
     3
  6
Continuous
370
    25
390
F
  0
LAYER
  5
204
330
2
100
AcDbSymbolTableRecord
100
AcDbLayerTableRecord
  2
Defpoints
 70
     0
 62
     7
  6
Continuous
290
     0
370
    -3
390
F
  0
LAYER
  5
23E
102
{ACAD_XDICTIONARY
360
1514
102
}
330
2
100
AcDbSymbolTableRecord
100
AcDbLayerTableRecord
  2
7A
 70
     0
 62
     4
  6
gen7a
370
    -3
390
F
  0
LAYER
  5
23F
102
{ACAD_XDICTIONARY
360
1516
102
}
330
2
100
AcDbSymbolTableRecord
100
AcDbLayerTableRecord
  2
RAHM2
 70
     0
 62
     1
  6
Continuous
370
    -3
390
F
  0
LAYER
  5
240
102
{ACAD_XDICTIONARY
360
1518
102
}
330
2
100
AcDbSymbolTableRecord
100
AcDbLayerTableRecord
  2
KLIN
 70
     0
 62
     1
  6
Continuous
370
    -3
390
F
  0
LAYER
  5
2AD
102
{ACAD_XDICTIONARY
360
151A
102
}
330
2
100
AcDbSymbolTableRecord
100
AcDbLayerTableRecord
  2
ﾎﾞﾃﾞｨｰ
 70
     0
 62
     7
  6
Continuous
370
    25
390
F
  0
LAYER
  5
2AE
102
{ACAD_XDICTIONARY
360
151C
102
}
330
2
100
AcDbSymbolTableRecord
100
AcDbLayerTableRecord
  2
ﾌﾟﾗｽ端子
 70
     0
 62
     2
  6
Continuous
370
    25
390
F
  0
LAYER
  5
2AF
102
{ACAD_XDICTIONARY
360
151E
102
}
330
2
100
AcDbSymbolTableRecord
100
AcDbLayerTableRecord
  2
ﾏｲﾅｽ端子
 70
     0
 62
     5
  6
Continuous
370
    25
390
F
  0
LAYER
  5
2B2
102
{ACAD_XDICTIONARY
360
1524
102
}
330
2
100
AcDbSymbolTableRecord
100
AcDbLayerTableRecord
  2
ﾎﾞﾃﾞｨｰ0
 70
     0
 62
     7
  6
AM_ISO02W050x2
370
    13
390
F
  0
LAYER
  5
CD8
102
{ACAD_XDICTIONARY
360
153A
102
}
330
2
100
AcDbSymbolTableRecord
100
AcDbLayerTableRecord
  2
AM_7
 70
     0
 62
     4
  6
AM_ISO08W050
370
    25
390
F
  0
LAYER
  5
CD9
102
{ACAD_XDICTIONARY
360
153C
102
}
330
2
100
AcDbSymbolTableRecord
100
AcDbLayerTableRecord
  2
AM_2
 70
     0
 62
     5
  6
Continuous
370
    50
390
F
  0
LAYER
  5
CDA
102
{ACAD_XDICTIONARY
360
153E
102
}
330
2
100
AcDbSymbolTableRecord
100
AcDbLayerTableRecord
  2
AM_6
 70
     0
 62
     2
  6
Continuous
370
    35
390
F
  0
LAYER
  5
105C
102
{ACAD_XDICTIONARY
360
1540
102
}
330
2
100
AcDbSymbolTableRecord
100
AcDbLayerTableRecord
  2
AM_CL
 70
     0
 62
     1
  6
Amconstr
370
    25
390
F
1001
ACAECLAYERSTANDARD
1000

1000

  0
LAYER
  5
1A8F
330
2
100
AcDbSymbolTableRecord
100
AcDbLayerTableRecord
  2
AM_12
 70
     0
 62
     7
  6
Continuous
290
     0
370
    50
390
F
1001
ACAECLAYERSTANDARD
1000

1000

  0
LAYER
  5
1A90
330
2
100
AcDbSymbolTableRecord
100
AcDbLayerTableRecord
  2
AM_PAREF
 70
     0
 62
     4
  6
Continuous
290
     0
370
    25
390
F
1001
ACAECLAYERSTANDARD
1000

1000

  0
LAYER
  5
1ABE
330
2
100
AcDbSymbolTableRecord
100
AcDbLayerTableRecord
  2
取付穴
 70
     0
 62
     8
  6
AM_ISO02W050
370
    13
390
F
1001
ACAECLAYERSTANDARD
1000

1000

  0
LAYER
  5
1E60
330
2
100
AcDbSymbolTableRecord
100
AcDbLayerTableRecord
  2
AM_0
 70
     0
 62
     7
  6
Continuous
370
    50
390
F
1001
ACAECLAYERSTANDARD
1000

1000

  0
LAYER
  5
316D
330
2
100
AcDbSymbolTableRecord
100
AcDbLayerTableRecord
  2
AM_4
 70
     0
 62
     3
  6
Continuous
370
    25
390
F
1001
ACAECLAYERSTANDARD
1000

1000

  0
LAYER
  5
316F
330
2
100
AcDbSymbolTableRecord
100
AcDbLayerTableRecord
  2
AM_8
 70
     0
 62
     1
  6
Continuous
370
    25
390
F
1001
ACAECLAYERSTANDARD
1000

1000

  0
ENDTAB
  0
TABLE
  2
STYLE
  5
3
330
0
100
AcDbSymbolTable
 70
    11
  0
STYLE
  5
11
330
3
100
AcDbSymbolTableRecord
100
AcDbTextStyleTableRecord
  2
STANDARD
 70
     0
 40
0.0
 41
1.0
 50
0.0
 71
     0
 42
0.2
  3
ISOCP.SHX
  4
EXTFONT.SHX
  0
STYLE
  5
73
330
3
100
AcDbSymbolTableRecord
100
AcDbTextStyleTableRecord
  2

 70
     1
 40
0.0
 41
1.0
 50
0.0
 71
     0
 42
0.2
  3
ltypeshp.shx
  4

  0
STYLE
  5
7B
330
3
100
AcDbSymbolTableRecord
100
AcDbTextStyleTableRecord
  2
ACANSTS
 70
     0
 40
1.0
 41
1.0
 50
0.0
 71
     0
 42
0.2
  3
isoct.shx
  4
extfont.shx
  0
STYLE
  5
86
330
3
100
AcDbSymbolTableRecord
100
AcDbTextStyleTableRecord
  2
ACANSGDT
 70
     0
 40
0.0
 41
1.0
 50
0.0
 71
     0
 42
0.2
  3
amgdtans.shx
  4

  0
STYLE
  5
13C
330
3
100
AcDbSymbolTableRecord
100
AcDbTextStyleTableRecord
  2
USER1
 70
     0
 40
0.0
 41
1.0
 50
0.0
 71
     0
 42
0.2
  3
TXT.SHX
  4

  0
STYLE
  5
13D
330
3
100
AcDbSymbolTableRecord
100
AcDbTextStyleTableRecord
  2
USER2
 70
     0
 40
0.0
 41
1.0
 50
0.0
 71
     0
 42
0.2
  3
SIMPLEX.SHX
  4

  0
STYLE
  5
13E
330
3
100
AcDbSymbolTableRecord
100
AcDbTextStyleTableRecord
  2
USER3
 70
     0
 40
0.0
 41
1.0
 50
0.0
 71
     0
 42
0.2
  3
ITALIC.SHX
  4

  0
STYLE
  5
1D0
330
3
100
AcDbSymbolTableRecord
100
AcDbTextStyleTableRecord
  2
ACISOTS
 70
     0
 40
1.0
 41
1.0
 50
0.0
 71
     0
 42
0.2
  3
isocp.shx
  4
extfont.shx
  0
STYLE
  5
1DD
330
3
100
AcDbSymbolTableRecord
100
AcDbTextStyleTableRecord
  2
ACISOGDT
 70
     0
 40
0.0
 41
1.0
 50
0.0
 71
     0
 42
0.2
  3
amgdt.shx
  4

  0
STYLE
  5
241
330
3
100
AcDbSymbolTableRecord
100
AcDbTextStyleTableRecord
  2

 70
     1
 40
0.0
 41
1.0
 50
0.0
 71
     0
 42
3.0
  3
genltshp.shx
  4

  0
STYLE
  5
94C
330
3
100
AcDbSymbolTableRecord
100
AcDbTextStyleTableRecord
  2
takachi1
 70
     0
 40
2.5
 41
1.0
 50
0.0
 71
     0
 42
2.5
  3
MS PGothic.ttf
  4

1001
ACAD
1000
MS PGothic
1071
    32818
  0
ENDTAB
  0
TABLE
  2
VIEW
  5
6
330
0
100
AcDbSymbolTable
 70
     6
  0
VIEW
  5
2A6
330
6
100
AcDbSymbolTableRecord
100
AcDbViewTableRecord
  2
AM_VIEW1
 70
     0
 40
35.00000000000001
 10
29.43960826985855
 20
52.50000000000001
 41
58.8792165397171
 11
0.0
 21
0.0
 31
1.0
 12
0.0
 22
0.0
 32
0.0
 42
50.0
 43
0.0
 44
0.0
 50
0.0
 71
    16
281
     0
 72
     0
  0
VIEW
  5
2A7
330
6
100
AcDbSymbolTableRecord
100
AcDbViewTableRecord
  2
AM_VIEW2
 70
     0
 40
35.00000000000001
 10
18.81039173014145
 20
52.50000000000001
 41
58.8792165397171
 11
0.0
 21
0.0
 31
1.0
 12
0.0
 22
0.0
 32
0.0
 42
50.0
 43
0.0
 44
0.0
 50
0.0
 71
    16
281
     0
 72
     0
  0
VIEW
  5
2A8
330
6
100
AcDbSymbolTableRecord
100
AcDbViewTableRecord
  2
AM_VIEW3
 70
     0
 40
35.00000000000001
 10
29.43960826985855
 20
17.5
 41
58.8792165397171
 11
0.0
 21
0.0
 31
1.0
 12
0.0
 22
0.0
 32
0.0
 42
50.0
 43
0.0
 44
0.0
 50
0.0
 71
    16
281
     0
 72
     0
  0
VIEW
  5
2A9
330
6
100
AcDbSymbolTableRecord
100
AcDbViewTableRecord
  2
AM_VIEW4
 70
     0
 40
35.00000000000001
 10
18.81039173014145
 20
17.5
 41
58.8792165397171
 11
0.0
 21
0.0
 31
1.0
 12
0.0
 22
0.0
 32
0.0
 42
50.0
 43
0.0
 44
0.0
 50
0.0
 71
    16
281
     0
 72
     0
  0
VIEW
  5
2AA
330
6
100
AcDbSymbolTableRecord
100
AcDbViewTableRecord
  2
AM_VIEW5
 70
     0
 40
35.00000000000002
 10
24.125
 20
35.00000000000001
 41
58.8792165397171
 11
0.0
 21
0.0
 31
1.0
 12
0.0
 22
0.0
 32
0.0
 42
50.0
 43
0.0
 44
0.0
 50
0.0
 71
    16
281
     0
 72
     0
  0
VIEW
  5
2AB
330
6
100
AcDbSymbolTableRecord
100
AcDbViewTableRecord
  2
AM_VIEW6
 70
     0
 40
69.99930000000002
 10
24.125
 20
35.00000000000001
 41
117.7572554951034
 11
0.0
 21
0.0
 31
1.0
 12
0.0
 22
0.0
 32
0.0
 42
50.0
 43
0.0
 44
0.0
 50
0.0
 71
    16
281
     0
 72
     0
  0
ENDTAB
  0
TABLE
  2
UCS
  5
7
330
0
100
AcDbSymbolTable
 70
     0
  0
ENDTAB
  0
TABLE
  2
APPID
  5
9
330
0
100
AcDbSymbolTable
 70
    39
  0
APPID
  5
12
330
9
100
AcDbSymbolTableRecord
100
AcDbRegAppTableRecord
  2
ACAD
 70
     0
  0
APPID
  5
4E
330
9
100
AcDbSymbolTableRecord
100
AcDbRegAppTableRecord
  2
MCAD_NO_VIS
 70
     0
  0
APPID
  5
4F
330
9
100
AcDbSymbolTableRecord
100
AcDbRegAppTableRecord
  2
ACAD_TEMP_GRAPHIC
 70
     0
  0
APPID
  5
60
330
9
100
AcDbSymbolTableRecord
100
AcDbRegAppTableRecord
  2
ACATTRIBSERVICES
 70
     0
  0
APPID
  5
F7
330
9
100
AcDbSymbolTableRecord
100
AcDbRegAppTableRecord
  2
AD_DRAW
 70
     0
  0
APPID
  5
115
330
9
100
AcDbSymbolTableRecord
100
AcDbRegAppTableRecord
  2
DESIGNERASSEMBLIES
 70
     0
  0
APPID
  5
11A
330
9
100
AcDbSymbolTableRecord
100
AcDbRegAppTableRecord
  2
ACADM_DIM_EDIT
 70
     0
  0
APPID
  5
11B
330
9
100
AcDbSymbolTableRecord
100
AcDbRegAppTableRecord
  2
AMDT_DM_ADJ
 70
     0
  0
APPID
  5
20C
330
9
100
AcDbSymbolTableRecord
100
AcDbRegAppTableRecord
  2
GENIUS_GENREC_14
 70
     0
  0
APPID
  5
20D
330
9
100
AcDbSymbolTableRecord
100
AcDbRegAppTableRecord
  2
GENIUS_GENODEF_13
 70
     0
  0
APPID
  5
20E
330
9
100
AcDbSymbolTableRecord
100
AcDbRegAppTableRecord
  2
GENIUS_GENOBJ-N-REC_13
 70
     0
  0
APPID
  5
20F
330
9
100
AcDbSymbolTableRecord
100
AcDbRegAppTableRecord
  2
GENIUS_GENCFG_13
 70
     0
  0
APPID
  5
210
330
9
100
AcDbSymbolTableRecord
100
AcDbRegAppTableRecord
  2
GENIUS_GENCFG0_13
 70
     0
  0
APPID
  5
211
330
9
100
AcDbSymbolTableRecord
100
AcDbRegAppTableRecord
  2
GENIUS_GENCFG1_13
 70
     0
  0
APPID
  5
212
330
9
100
AcDbSymbolTableRecord
100
AcDbRegAppTableRecord
  2
GENIUS_GENCFG2_13
 70
     0
  0
APPID
  5
213
330
9
100
AcDbSymbolTableRecord
100
AcDbRegAppTableRecord
  2
GENIUS_GENCFG3_13
 70
     0
  0
APPID
  5
214
330
9
100
AcDbSymbolTableRecord
100
AcDbRegAppTableRecord
  2
GENIUS_GENCFG4_13
 70
     0
  0
APPID
  5
215
330
9
100
AcDbSymbolTableRecord
100
AcDbRegAppTableRecord
  2
GENIUS_GEVCFG0_13
 70
     0
  0
APPID
  5
216
330
9
100
AcDbSymbolTableRecord
100
AcDbRegAppTableRecord
  2
GENIUS_GENOENT_13
 70
     0
  0
APPID
  5
217
330
9
100
AcDbSymbolTableRecord
100
AcDbRegAppTableRecord
  2
GENIUS_GENDIMSH_14
 70
     0
  0
APPID
  5
218
330
9
100
AcDbSymbolTableRecord
100
AcDbRegAppTableRecord
  2
GENIUS_GENOBJ-N-CRS_13
 70
     0
  0
APPID
  5
219
330
9
100
AcDbSymbolTableRecord
100
AcDbRegAppTableRecord
  2
GENIUS_GENOREF_13
 70
     0
  0
APPID
  5
21A
330
9
100
AcDbSymbolTableRecord
100
AcDbRegAppTableRecord
  2
GENIUS_GENOLIS_13
 70
     0
  0
APPID
  5
21B
330
9
100
AcDbSymbolTableRecord
100
AcDbRegAppTableRecord
  2
GENIUS_GENOBJ-N-TIT_13
 70
     0
  0
APPID
  5
21C
330
9
100
AcDbSymbolTableRecord
100
AcDbRegAppTableRecord
  2
GENIUS_GENTITLE_13
 70
     0
  0
APPID
  5
21D
330
9
100
AcDbSymbolTableRecord
100
AcDbRegAppTableRecord
  2
GENIUS_GENSCREG_15
 70
     0
  0
APPID
  5
21E
330
9
100
AcDbSymbolTableRecord
100
AcDbRegAppTableRecord
  2
GENIUS_GENOBJ-N-SDF_13
 70
     0
  0
APPID
  5
21F
330
9
100
AcDbSymbolTableRecord
100
AcDbRegAppTableRecord
  2
GENIUS_GENOBJ-N-CEN_13
 70
     0
  0
APPID
  5
220
330
9
100
AcDbSymbolTableRecord
100
AcDbRegAppTableRecord
  2
GENIUS_GENOBJ-N-HTC_13
 70
     0
  0
APPID
  5
221
330
9
100
AcDbSymbolTableRecord
100
AcDbRegAppTableRecord
  2
GENIUS_GENHATCH_13
 70
     0
  0
APPID
  5
222
330
9
100
AcDbSymbolTableRecord
100
AcDbRegAppTableRecord
  2
GENIUS_GENOBJ-N-ZOO_13
 70
     0
  0
APPID
  5
223
330
9
100
AcDbSymbolTableRecord
100
AcDbRegAppTableRecord
  2
GENIUS_GENZOO_17
 70
     0
  0
APPID
  5
C15
330
9
100
AcDbSymbolTableRecord
100
AcDbRegAppTableRecord
  2
ACAD_MLEADERVER
 70
     0
  0
APPID
  5
CDB
330
9
100
AcDbSymbolTableRecord
100
AcDbRegAppTableRecord
  2
GENIUS_GENOBJ-N-FIL_13
 70
     0
  0
APPID
  5
105D
330
9
100
AcDbSymbolTableRecord
100
AcDbRegAppTableRecord
  2
ACAECLAYERSTANDARD
 70
     0
  0
APPID
  5
1352
330
9
100
AcDbSymbolTableRecord
100
AcDbRegAppTableRecord
  2
ACAD_EXEMPT_FROM_CAD_STANDARDS
 70
     0
  0
APPID
  5
181D
330
9
100
AcDbSymbolTableRecord
100
AcDbRegAppTableRecord
  2
GENIUS_GENCEN_19
 70
     0
  0
APPID
  5
1B2F
330
9
100
AcDbSymbolTableRecord
100
AcDbRegAppTableRecord
  2
ACAD_DSTYLE_DIMINSPECT
 70
     0
  0
APPID
  5
1B7D
330
9
100
AcDbSymbolTableRecord
100
AcDbRegAppTableRecord
  2
ACAD_DSTYLE_DIMRADIAL_EXTENSION
 70
     0
  0
ENDTAB
  0
TABLE
  2
DIMSTYLE
  5
A
330
0
100
AcDbSymbolTable
 70
    26
100
AcDbDimStyleTable
 71
     2
340
1E7
340
8C
  0
DIMSTYLE
105
27
330
A
100
AcDbSymbolTableRecord
100
AcDbDimStyleTableRecord
  2
Standard
 70
     0
340
11
  0
DIMSTYLE
105
8C
330
A
100
AcDbSymbolTableRecord
100
AcDbDimStyleTableRecord
  2
AM_ANSI
 70
     0
  4
mm
 41
0.1
 42
0.05
 43
0.5
 44
0.1
 47
0.1
 48
0.1
 78
     7
 79
     2
140
0.12
141
0.0
146
0.71
147
0.06
176
   256
177
   256
178
     2
274
     4
284
     7
340
11
371
    -1
372
    -1
  0
DIMSTYLE
105
8D
330
A
100
AcDbSymbolTableRecord
100
AcDbDimStyleTableRecord
  2
AM_ANSI$3
 70
     0
  4
mm
 41
0.1
 42
0.05
 43
0.5
 44
0.1
 47
0.1
 48
0.1
 78
     7
 79
     2
140
0.12
141
0.0
146
0.71
147
0.06
176
   256
177
   256
178
     2
274
     4
284
     7
288
     1
289
     0
340
11
371
    -1
372
    -1
  0
DIMSTYLE
105
8E
330
A
100
AcDbSymbolTableRecord
100
AcDbDimStyleTableRecord
  2
AM_ANSI$4
 70
     0
  4
mm
 41
0.1
 42
0.05
 43
0.5
 44
0.1
 47
0.1
 48
0.1
 78
     7
 79
     2
140
0.12
141
0.0
146
0.71
147
0.06
176
   256
177
   256
178
     2
274
     4
284
     7
288
     1
289
     0
340
11
371
    -1
372
    -1
  0
DIMSTYLE
105
8F
330
A
100
AcDbSymbolTableRecord
100
AcDbDimStyleTableRecord
  2
AM_ANSI$7
 70
     0
  4
mm
 41
0.1
 42
0.05
 43
0.5
 44
0.1
 47
0.1
 48
0.1
 78
     7
 79
     2
140
0.24
141
0.0
146
0.71
147
0.06
176
   256
177
   256
178
     2
274
     4
284
     7
340
11
371
    -1
372
    -1
  0
DIMSTYLE
105
90
330
A
100
AcDbSymbolTableRecord
100
AcDbDimStyleTableRecord
  2
AM_ANSI$SF
 70
     0
  4
mm
 41
0.1
 42
0.05
 43
0.5
 44
0.1
 47
0.1
 48
0.1
 75
     1
 76
     1
 78
     7
 79
     2
140
0.12
141
0.0
146
0.71
147
0.06
176
   256
177
   256
178
     2
274
     4
284
     7
340
11
371
    -1
372
    -1
  0
DIMSTYLE
105
95
330
A
100
AcDbSymbolTableRecord
100
AcDbDimStyleTableRecord
  2
AM_ANSI$SH
 70
     0
  4
mm
 41
0.1
 42
0.05
 43
0.5
 44
0.1
 47
0.1
 48
0.1
 75
     1
 76
     1
 78
     7
 79
     2
140
0.12
141
0.0
146
0.71
147
0.06
173
     1
176
   256
177
   256
178
     2
274
     4
284
     7
340
11
343
91
371
    -1
372
    -1
  0
DIMSTYLE
105
1E7
330
A
100
AcDbSymbolTableRecord
100
AcDbDimStyleTableRecord
  2
AM_ISO
 70
     0
  4
"
 41
2.5
 42
1.0
 43
10.0
 44
1.0
 47
0.1
 48
0.1
 73
     0
 74
     0
 77
     1
 78
     8
 79
     2
140
3.5
141
0.0
143
0.0393701
146
0.71
147
1.5
172
     1
176
     3
177
     3
178
     2
271
     2
272
     2
283
     0
284
     8
340
11
341
1F8
342
1F8
371
    -1
372
    -1
  0
DIMSTYLE
105
1E8
330
A
100
AcDbSymbolTableRecord
100
AcDbDimStyleTableRecord
  2
AM_ISO$3
 70
     0
  4
"
 41
2.5
 42
1.0
 43
10.0
 44
1.0
 47
0.1
 48
0.1
 73
     0
 77
     1
 78
     8
 79
     2
140
3.5
141
0.0
143
0.0393701
146
0.71
147
1.5
176
     3
177
     3
178
     2
271
     2
272
     2
283
     0
284
     8
288
     1
289
     0
340
11
341
1F8
342
1F8
371
    -1
372
    -1
  0
DIMSTYLE
105
1E9
330
A
100
AcDbSymbolTableRecord
100
AcDbDimStyleTableRecord
  2
AM_ISO$4
 70
     0
  4
"
 41
2.5
 42
1.0
 43
10.0
 44
1.0
 47
0.1
 48
0.1
 73
     0
 77
     1
 78
     8
 79
     2
140
3.5
141
0.0
143
0.0393701
146
0.71
147
1.5
176
     3
177
     3
178
     2
271
     2
272
     2
283
     0
284
     8
288
     1
289
     0
340
11
341
1F8
342
1F8
371
    -1
372
    -1
  0
DIMSTYLE
105
1EA
330
A
100
AcDbSymbolTableRecord
100
AcDbDimStyleTableRecord
  2
AM_ISO$6
 70
     0
  4
"
 41
2.5
 42
1.0
 43
10.0
 44
1.0
 47
0.1
 48
0.1
 73
     0
 74
     0
 78
     8
 79
     2
140
3.5
141
0.0
143
0.0393701
146
0.71
147
1.5
172
     1
176
     3
177
     3
178
     2
271
     2
272
     2
283
     0
284
     8
340
11
341
1F8
342
1F8
371
    -1
372
    -1
  0
DIMSTYLE
105
1EB
330
A
100
AcDbSymbolTableRecord
100
AcDbDimStyleTableRecord
  2
AM_ISO$7
 70
     0
  4
"
 41
2.5
 42
1.0
 43
10.0
 44
1.0
 47
0.1
 48
0.1
 73
     0
 74
     0
 77
     1
 78
     8
 79
     2
140
5.0
141
0.0
143
0.0393701
146
0.71
147
1.5
172
     1
176
     3
177
     3
178
     2
271
     2
272
     2
283
     0
284
     8
340
11
341
1F8
342
1F8
371
    -1
372
    -1
  0
DIMSTYLE
105
1EC
330
A
100
AcDbSymbolTableRecord
100
AcDbDimStyleTableRecord
  2
AM_ISO$SF
 70
     0
  4
"
 41
2.5
 42
1.0
 43
10.0
 44
1.0
 47
0.1
 48
0.1
 73
     0
 74
     0
 75
     1
 76
     1
 77
     1
 78
     8
 79
     2
140
3.5
141
0.0
143
0.0393701
146
0.71
147
1.5
172
     1
176
   256
177
   256
178
     2
271
     2
272
     3
274
     4
283
     0
284
     8
340
11
371
    -1
372
    -1
  0
DIMSTYLE
105
1ED
330
A
100
AcDbSymbolTableRecord
100
AcDbDimStyleTableRecord
  2
AM_ISO$SH
 70
     0
  4
"
 41
2.5
 42
1.0
 43
10.0
 44
1.0
 47
0.1
 48
0.1
 73
     0
 74
     0
 75
     1
 76
     1
 77
     1
 78
     8
 79
     2
140
3.5
141
0.0
143
0.0393701
144
2.0
146
0.71
147
1.5
172
     1
173
     1
176
   256
177
   256
178
     2
271
     2
272
     3
274
     4
283
     0
284
     8
340
11
343
91
371
    -1
372
    -1
  0
DIMSTYLE
105
205
330
A
100
AcDbSymbolTableRecord
100
AcDbDimStyleTableRecord
  2
GEN-ISO
 70
     0
  4
"
 41
2.5
 42
1.0
 43
10.0
 44
1.0
 47
0.1
 48
0.1
 73
     0
 74
     0
 77
     1
 78
     8
140
3.5
141
0.0
143
0.0393701
146
0.71
147
1.5
172
     1
176
   256
177
   256
178
     2
271
     2
272
     3
274
     4
283
     0
340
11
  0
DIMSTYLE
105
206
330
A
100
AcDbSymbolTableRecord
100
AcDbDimStyleTableRecord
  2
GEN-ISO$3
 70
     0
  4
"
 41
2.5
 42
1.0
 43
10.0
 44
1.0
 47
0.1
 48
0.1
 73
     0
 77
     1
 78
     8
140
3.5
141
0.0
143
0.0393701
146
0.71
147
1.5
176
   256
177
   256
178
     2
271
     2
272
     3
274
     4
283
     0
288
     1
289
     0
340
11
  0
DIMSTYLE
105
207
330
A
100
AcDbSymbolTableRecord
100
AcDbDimStyleTableRecord
  2
GEN-ISO$4
 70
     0
  4
"
 41
2.5
 42
1.0
 43
10.0
 44
1.0
 47
0.1
 48
0.1
 73
     0
 77
     1
 78
     8
140
3.5
141
0.0
143
0.0393701
146
0.71
147
1.5
176
   256
177
   256
178
     2
271
     2
272
     3
274
     4
283
     0
288
     1
289
     0
340
11
  0
DIMSTYLE
105
208
330
A
100
AcDbSymbolTableRecord
100
AcDbDimStyleTableRecord
  2
GEN-ISO$6
 70
     0
  4
"
 41
2.5
 42
1.0
 43
10.0
 44
1.0
 47
0.1
 48
0.1
 73
     0
 74
     0
 78
     8
140
3.5
141
0.0
143
0.0393701
146
0.71
147
1.5
176
   256
177
   256
178
     2
271
     2
272
     3
274
     4
283
     0
340
11
  0
DIMSTYLE
105
209
330
A
100
AcDbSymbolTableRecord
100
AcDbDimStyleTableRecord
  2
GEN-ISO-POS
 70
     0
  4
"
 41
2.5
 42
1.0
 43
10.0
 44
1.0
 47
0.1
 48
0.1
 73
     0
 74
     0
 78
     8
140
5.0
141
0.0
143
0.0393701
146
0.71
147
1.5
176
   256
177
   256
178
     2
271
     2
272
     3
274
     4
283
     0
340
11
  0
DIMSTYLE
105
20A
330
A
100
AcDbSymbolTableRecord
100
AcDbDimStyleTableRecord
  2
GEN-ISO-AXE-F
 70
     0
  4
"
 41
2.5
 42
1.0
 43
10.0
 44
1.0
 47
0.1
 48
0.1
 73
     0
 74
     0
 75
     1
 76
     1
 77
     1
 78
     8
140
3.5
141
0.0
143
0.0393701
146
0.71
147
1.5
172
     1
176
   256
177
   256
178
     2
271
     2
272
     3
274
     4
283
     0
340
11
  0
DIMSTYLE
105
20B
330
A
100
AcDbSymbolTableRecord
100
AcDbDimStyleTableRecord
  2
GEN-ISO-AXE-H
 70
     0
  4
"
 41
2.5
 42
1.0
 43
10.0
 44
1.0
 47
0.1
 48
0.1
 73
     0
 74
     0
 75
     1
 76
     1
 77
     1
 78
     8
140
3.5
141
0.0
143
0.0393701
144
2.0
146
0.71
147
1.5
172
     1
173
     1
176
   256
177
   256
178
     2
271
     2
272
     3
274
     4
283
     0
340
11
  0
DIMSTYLE
105
2BD
330
A
100
AcDbSymbolTableRecord
100
AcDbDimStyleTableRecord
  2
ISO-35
 70
     0
 41
3.5
 42
0.875
 43
5.25
 44
1.75
 73
     0
 74
     0
 77
     1
 78
     8
140
3.5
141
3.5
143
0.0394
147
0.875
171
     4
172
     1
273
     8
274
     4
277
     6
340
11
341
1F8
342
1F8
  0
DIMSTYLE
105
2BE
330
A
100
AcDbSymbolTableRecord
100
AcDbDimStyleTableRecord
  2
ISO-5
 70
     0
 41
5.0
 42
1.25
 43
7.5
 44
2.5
 73
     0
 74
     0
 77
     1
 78
     8
140
5.0
141
5.0
143
0.0394
147
1.25
171
     4
172
     1
273
     8
274
     4
277
     6
340
11
341
1F8
342
1F8
  0
DIMSTYLE
105
2BF
330
A
100
AcDbSymbolTableRecord
100
AcDbDimStyleTableRecord
  2
ISO-7
 70
     0
 41
7.0
 42
1.75
 43
10.5
 44
3.5
 73
     0
 74
     0
 77
     1
 78
     8
140
7.0
141
7.0
143
0.0394
147
1.75
171
     4
172
     1
273
     8
274
     4
277
     6
340
11
341
1F8
342
1F8
  0
DIMSTYLE
105
2C0
330
A
100
AcDbSymbolTableRecord
100
AcDbDimStyleTableRecord
  2
ISO-4
 70
     0
 41
14.0
 42
3.5
 43
21.0
 44
7.0
 73
     0
 74
     0
 77
     1
 78
     8
140
14.0
141
14.0
143
0.0394
147
3.5
171
     4
172
     1
273
     8
274
     4
277
     6
340
11
341
1F8
342
1F8
  0
DIMSTYLE
105
1B14
102
{ACAD_REACTORS
330
3171
330
3199
330
31C1
330
321D
330
3258
330
3277
330
32F1
330
3377
330
33A7
330
33F8
330
3420
102
}
330
A
100
AcDbSymbolTableRecord
100
AcDbDimStyleTableRecord
  2
AM_ISO$0
 70
     0
  4
"
 41
2.5
 42
1.0
 43
10.0
 44
1.0
 47
0.1
 48
0.1
 73
     0
 74
     0
 77
     1
 78
     8
 79
     2
140
3.5
141
0.0
143
0.0393701
146
0.71
147
1.5
172
     1
176
     3
177
     3
178
     2
271
     2
272
     2
283
     0
284
     8
340
11
341
1F8
342
1F8
371
    -1
372
    -1
  0
ENDTAB
  0
TABLE
  2
BLOCK_RECORD
  5
1
330
0
100
AcDbSymbolTable
 70
    29
  0
BLOCK_RECORD
  5
1F
102
{ACAD_XDICTIONARY
360
99
102
}
330
1
100
AcDbSymbolTableRecord
100
AcDbBlockTableRecord
  2
*Model_Space
340
22
  0
BLOCK_RECORD
  5
23
330
1
100
AcDbSymbolTableRecord
100
AcDbBlockTableRecord
  2
*Paper_Space
340
26
  0
BLOCK_RECORD
  5
1B
330
1
100
AcDbSymbolTableRecord
100
AcDbBlockTableRecord
  2
*Paper_Space0
340
1E
  0
BLOCK_RECORD
  5
91
330
1
100
AcDbSymbolTableRecord
100
AcDbBlockTableRecord
  2
GENAXEH
340
0
  0
BLOCK_RECORD
  5
1F8
330
1
100
AcDbSymbolTableRecord
100
AcDbBlockTableRecord
  2
_Open30
340
0
102
{BLKREFS
331
31B2
331
31B3
331
31BB
331
31BC
331
31E0
331
31E1
331
32D7
331
32D8
331
32E0
331
32E1
331
32EB
331
32EC
331
3313
331
3314
331
33DC
331
33DD
331
33F3
331
33F4
331
341A
331
341B
331
3439
331
343A
102
}
  0
BLOCK_RECORD
  5
224
102
{ACAD_XDICTIONARY
360
22D
102
}
330
1
100
AcDbSymbolTableRecord
100
AcDbBlockTableRecord
  2
TAKACHI-A3
340
0
  0
BLOCK_RECORD
  5
242
102
{ACAD_XDICTIONARY
360
297
102
}
330
1
100
AcDbSymbolTableRecord
100
AcDbBlockTableRecord
  2
TAKACHI-TITLE
340
0
  0
BLOCK_RECORD
  5
A0D
102
{ACAD_XDICTIONARY
360
A15
102
}
330
1
100
AcDbSymbolTableRecord
100
AcDbBlockTableRecord
  2
TAKACHI-A3-2
340
0
  0
BLOCK_RECORD
  5
A20
102
{ACAD_XDICTIONARY
360
A79
102
}
330
1
100
AcDbSymbolTableRecord
100
AcDbBlockTableRecord
  2
TAKACHI-TITLEA3
340
0
  0
BLOCK_RECORD
  5
AA1
102
{ACAD_XDICTIONARY
360
AA9
102
}
330
1
100
AcDbSymbolTableRecord
100
AcDbBlockTableRecord
  2
TAKACHI-A4-2
340
0
  0
BLOCK_RECORD
  5
AE9
102
{ACAD_XDICTIONARY
360
AF1
102
}
330
1
100
AcDbSymbolTableRecord
100
AcDbBlockTableRecord
  2
TK-A3
340
0
  0
BLOCK_RECORD
  5
AFC
102
{ACAD_XDICTIONARY
360
B55
102
}
330
1
100
AcDbSymbolTableRecord
100
AcDbBlockTableRecord
  2
TK-TITLE
340
0
102
{BLKREFS
331
C52
102
}
  0
BLOCK_RECORD
  5
C44
102
{ACAD_XDICTIONARY
360
C4C
102
}
330
1
100
AcDbSymbolTableRecord
100
AcDbBlockTableRecord
  2
TK-A4
340
0
102
{BLKREFS
331
C50
102
}
  0
BLOCK_RECORD
  5
3172
330
1
100
AcDbSymbolTableRecord
100
AcDbBlockTableRecord
  2
*D12
340
0
  0
BLOCK_RECORD
  5
319A
330
1
100
AcDbSymbolTableRecord
100
AcDbBlockTableRecord
  2
*D13
340
0
  0
BLOCK_RECORD
  5
31C2
330
1
100
AcDbSymbolTableRecord
100
AcDbBlockTableRecord
  2
*D14
340
0
  0
BLOCK_RECORD
  5
321E
330
1
100
AcDbSymbolTableRecord
100
AcDbBlockTableRecord
  2
*D15
340
0
  0
BLOCK_RECORD
  5
3259
330
1
100
AcDbSymbolTableRecord
100
AcDbBlockTableRecord
  2
*D16
340
0
  0
BLOCK_RECORD
  5
3278
330
1
100
AcDbSymbolTableRecord
100
AcDbBlockTableRecord
  2
*D17
340
0
  0
BLOCK_RECORD
  5
32F2
330
1
100
AcDbSymbolTableRecord
100
AcDbBlockTableRecord
  2
*D18
340
0
  0
BLOCK_RECORD
  5
3378
330
1
100
AcDbSymbolTableRecord
100
AcDbBlockTableRecord
  2
*D19
340
0
  0
BLOCK_RECORD
  5
33A8
330
1
100
AcDbSymbolTableRecord
100
AcDbBlockTableRecord
  2
*D20
340
0
  0
BLOCK_RECORD
  5
33F9
330
1
100
AcDbSymbolTableRecord
100
AcDbBlockTableRecord
  2
*D21
340
0
  0
BLOCK_RECORD
  5
3421
330
1
100
AcDbSymbolTableRecord
100
AcDbBlockTableRecord
  2
*D22
340
0
  0
BLOCK_RECORD
  5
374F
330
1
100
AcDbSymbolTableRecord
100
AcDbBlockTableRecord
  2
*S23
340
0
  0
BLOCK_RECORD
  5
3756
330
1
100
AcDbSymbolTableRecord
100
AcDbBlockTableRecord
  2
*S24
340
0
  0
BLOCK_RECORD
  5
377D
330
1
100
AcDbSymbolTableRecord
100
AcDbBlockTableRecord
  2
*S25
340
0
  0
BLOCK_RECORD
  5
3784
330
1
100
AcDbSymbolTableRecord
100
AcDbBlockTableRecord
  2
*S26
340
0
  0
BLOCK_RECORD
  5
378C
330
1
100
AcDbSymbolTableRecord
100
AcDbBlockTableRecord
  2
*S27
340
0
  0
BLOCK_RECORD
  5
3794
330
1
100
AcDbSymbolTableRecord
100
AcDbBlockTableRecord
  2
*S28
340
0
  0
ENDTAB
  0
ENDSEC
  0
SECTION
  2
BLOCKS
  0
BLOCK
  5
20
330
1F
100
AcDbEntity
  8
0
100
AcDbBlockBegin
  2
*Model_Space
 70
     0
 10
0.0
 20
0.0
 30
0.0
  3
*Model_Space
  1

  0
ENDBLK
  5
21
330
1F
100
AcDbEntity
  8
0
100
AcDbBlockEnd
  0
BLOCK
  5
24
330
23
100
AcDbEntity
 67
     1
  8
0
100
AcDbBlockBegin
  2
*Paper_Space
 70
     0
 10
0.0
 20
0.0
 30
0.0
  3
*Paper_Space
  1

  0
ENDBLK
  5
25
330
23
100
AcDbEntity
 67
     1
  8
0
100
AcDbBlockEnd
  0
BLOCK
  5
1C
330
1B
100
AcDbEntity
 67
     1
  8
0
100
AcDbBlockBegin
  2
*Paper_Space0
 70
     0
 10
0.0
 20
0.0
 30
0.0
  3
*Paper_Space0
  1

  0
VIEWPORT
  5
182
102
{ACAD_XDICTIONARY
360
37A7
102
}
330
1B
100
AcDbEntity
 67
     1
  8
0
100
AcDbViewport
 10
5.249999639556163
 20
3.999999883606677
 30
0.0
 40
14.57585398793907
 41
8.992999745766947
 68
     0
 69
     0
 12
5.249999639556163
 22
3.999999883606677
 13
0.0
 23
0.0
 14
10.0
 24
10.0
 15
10.0
 25
10.0
 16
0.0
 26
0.0
 36
1.0
 17
0.0
 27
0.0
 37
0.0
 42
50.0
 43
0.0
 44
0.0
 45
8.992999745766947
 50
0.0
 51
0.0
 72
   100
 90
    32800
  1

281
     0
 71
     1
 74
     0
110
0.0
120
0.0
130
0.0
111
1.0
121
0.0
131
0.0
112
0.0
122
1.0
132
0.0
 79
     0
146
0.0
  0
ENDBLK
  5
1D
330
1B
100
AcDbEntity
 67
     1
  8
0
100
AcDbBlockEnd
  0
BLOCK
  5
93
330
91
100
AcDbEntity
  8
0
100
AcDbBlockBegin
  2
GENAXEH
 70
     0
 10
0.0
 20
0.0
 30
0.0
  3
GENAXEH
  1

  0
LINE
  5
92
330
91
100
AcDbEntity
  8
0
100
AcDbLine
 10
-1.0
 20
0.0
 30
0.0
 11
1.0
 21
0.0
 31
0.0
  0
ENDBLK
  5
94
330
91
100
AcDbEntity
  8
0
100
AcDbBlockEnd
  0
BLOCK
  5
1F9
330
1F8
100
AcDbEntity
  8
0
100
AcDbBlockBegin
  2
_Open30
 70
     0
 10
0.0
 20
0.0
 30
0.0
  3
_Open30
  1

  0
LINE
  5
1FA
330
1F8
100
AcDbEntity
  8
0
  6
ByBlock
 62
     0
370
    -2
100
AcDbLine
 10
-1.0
 20
0.26794919
 30
0.0
 11
0.0
 21
0.0
 31
0.0
  0
LINE
  5
1FB
330
1F8
100
AcDbEntity
  8
0
  6
ByBlock
 62
     0
370
    -2
100
AcDbLine
 10
0.0
 20
0.0
 30
0.0
 11
-1.0
 21
-0.26794919
 31
0.0
  0
LINE
  5
1FC
330
1F8
100
AcDbEntity
  8
0
  6
ByBlock
 62
     0
370
    -2
100
AcDbLine
 10
0.0
 20
0.0
 30
0.0
 11
-1.0
 21
0.0
 31
0.0
  0
ENDBLK
  5
1FD
330
1F8
100
AcDbEntity
  8
0
100
AcDbBlockEnd
  0
BLOCK
  5
22E
330
224
100
AcDbEntity
  8
0
100
AcDbBlockBegin
  2
TAKACHI-A3
 70
     0
 10
0.0
 20
0.0
 30
0.0
  3
TAKACHI-A3
  1

  0
LWPOLYLINE
  5
225
330
224
100
AcDbEntity
  8
0
100
AcDbPolyline
 90
        4
 70
     1
 43
0.0
 10
10.0
 20
0.0
 10
410.0
 20
0.0
 10
410.0
 20
280.0
 10
10.00000000000003
 20
280.0
1001
GENIUS_GENREC_14
1002
{
1000
PYDIR
1011
10.00000000000001
1021
280.0
1031
0.0
1002
}
1002
{
1000
PXDIR
1011
410.0
1021
0.0
1031
0.0
1002
}
1002
{
1000
PORI
1011
10.0
1021
0.0
1031
0.0
1002
}
1002
{
1000
PINS
1011
210.0
1021
139.9999999999999
1031
0.0
1002
}
1002
{
1000
HVAL
1000
280
1002
}
1002
{
1000
H
1070
     2
1002
}
1002
{
1000
WVAL
1000
400
1002
}
1002
{
1000
W
1070
     2
1002
}
1002
{
1000
C
1070
     4
1002
}
1001
GENIUS_GENODEF_13
1002
{
1000
HIER
1070
     0
1002
}
1002
{
1000
MANEDIT
1070
     0
1002
}
1002
{
1000
NOSEL
1070
     0
1002
}
1002
{
1000
BEHIND
1070
     0
1002
}
1002
{
1000
REACTOR
1002
}
1001
GENIUS_GENOBJ-N-REC_13
1002
{
1000
OWNER
1000
GEN
1002
}
  0
TEXT
  5
226
330
224
100
AcDbEntity
  8
0
 60
     1
100
AcDbText
 10
15.00000000000003
 20
50.0
 30
0.0
 40
2.5
  1
!GENTITLE-LL
100
AcDbText
  0
TEXT
  5
227
330
224
100
AcDbEntity
  8
0
 60
     1
100
AcDbText
 10
410.0
 20
0.0
 30
0.0
 40
2.5
  1
!GENTITLE-INSERT
100
AcDbText
  0
TEXT
  5
228
330
224
100
AcDbEntity
  8
0
 60
     1
100
AcDbText
 10
405.0
 20
275.0
 30
0.0
 40
2.5
  1
!GENTITLE-RU
100
AcDbText
  0
TEXT
  5
229
330
224
100
AcDbEntity
  8
0
 60
     1
100
AcDbText
 10
410.0
 20
280.0
 30
0.0
 40
2.5
  1
!GENTITLE-MAX
100
AcDbText
  0
LINE
  5
22A
330
224
100
AcDbEntity
  8
0
100
AcDbLine
 10
366.0
 20
275.0
 30
0.0
 11
410.0
 21
275.0
 31
0.0
  0
MTEXT
  5
22B
330
224
100
AcDbEntity
  8
0
100
AcDbMText
 10
409.3592953827348
 20
276.108542987227
 30
0.0
 40
2.5
 41
43.07840397728298
 71
     9
 72
     5
  1
(文書番号：TY-34)2004.10.29
 73
     1
 44
1.0
1001
ACAD
1000
MTEXTBEGIN
1070
    73
1070
     1
1070
    44
1040
1.0
1070
    74
1070
     0
1000
MTEXTEND
  0
LINE
  5
22C
330
224
100
AcDbEntity
  8
0
100
AcDbLine
 10
366.0
 20
280.0
 30
0.0
 11
366.0
 21
275.0
 31
0.0
  0
ENDBLK
  5
22F
330
224
100
AcDbEntity
  8
0
100
AcDbBlockEnd
  0
BLOCK
  5
298
330
242
100
AcDbEntity
  8
0
100
AcDbBlockBegin
  2
TAKACHI-TITLE
 70
     2
 10
0.0
 20
0.0
 30
0.0
  3
TAKACHI-TITLE
  1

  0
LINE
  5
243
330
242
100
AcDbEntity
  8
RAHM2
100
AcDbLine
 10
-195.0
 20
30.00000000000003
 30
0.0
 11
-94.0
 21
30.00000000000003
 31
0.0
  0
LINE
  5
244
330
242
100
AcDbEntity
  8
RAHM2
100
AcDbLine
 10
-195.0
 20
35.00000000000003
 30
0.0
 11
-94.0
 21
35.00000000000003
 31
0.0
  0
LINE
  5
245
330
242
100
AcDbEntity
  8
RAHM2
100
AcDbLine
 10
-195.0
 20
40.00000000000002
 30
0.0
 11
-94.0
 21
40.00000000000002
 31
0.0
  0
LINE
  5
246
330
242
100
AcDbEntity
  8
RAHM2
100
AcDbLine
 10
-195.0
 20
45.00000000000002
 30
0.0
 11
-94.0
 21
45.00000000000002
 31
0.0
  0
LINE
  5
247
330
242
100
AcDbEntity
  8
0
100
AcDbLine
 10
-195.0
 20
7.0
 30
0.0
 11
-94.0
 21
7.0
 31
0.0
  0
LINE
  5
248
330
242
100
AcDbEntity
  8
0
100
AcDbLine
 10
-195.0
 20
19.99999999999997
 30
0.0
 11
-94.0
 21
19.99999999999997
 31
0.0
  0
ATTDEF
  5
249
330
242
100
AcDbEntity
  8
0
100
AcDbText
 10
-183.2438527145607
 20
8.617517191094748
 30
0.0
 40
2.5
  1

 11
-183.2438527145607
 21
8.617517191094748
 31
0.0
100
AcDbAttributeDefinition
  3
サブタイトル
  2
GEN-TITLE-DES2
 70
     0
 74
     1
  0
ATTDEF
  5
24A
330
242
100
AcDbEntity
  8
0
100
AcDbText
 10
-183.2438527145607
 20
1.617517191094748
 30
0.0
 40
3.0
  1

 11
-183.2438527145607
 21
1.617517191094748
 31
0.0
100
AcDbAttributeDefinition
  3
図番
  2
GEN-TITLE-NR
 70
     0
 74
     1
  0
MTEXT
  5
24B
330
242
100
AcDbEntity
  8
RAHM2
100
AcDbMText
 10
-193.8002551371314
 20
5.801035407279641
 30
0.0
 40
2.5
 41
90.0
 71
     1
 72
     5
  1
図番
 73
     1
 44
1.0
1001
ACAD
1000
MTEXTBEGIN
1070
    73
1070
     1
1070
    44
1040
1.0
1070
    74
1070
     0
1000
MTEXTEND
  0
ATTDEF
  5
24C
330
242
100
AcDbEntity
  8
0
100
AcDbText
 10
-183.2438527145607
 20
13.87395286168501
 30
0.0
 40
4.0
  1

 11
-183.2438527145607
 21
13.87395286168501
 31
0.0
100
AcDbAttributeDefinition
  3
品名
  2
GEN-TITLE-DES1
 70
     0
 74
     1
  0
LINE
  5
24D
330
242
100
AcDbEntity
  8
RAHM2
100
AcDbLine
 10
-187.5751288694036
 20
30.40000000000004
 30
0.0
 11
-190.0
 21
34.60000000000003
 31
0.0
  0
LINE
  5
24E
330
242
100
AcDbEntity
  8
RAHM2
100
AcDbLine
 10
-190.0
 20
34.60000000000003
 30
0.0
 11
-192.4248711305964
 21
30.40000000000004
 31
0.0
  0
LINE
  5
24F
330
242
100
AcDbEntity
  8
RAHM2
100
AcDbLine
 10
-185.0
 20
50.00000000000003
 30
0.0
 11
-185.0
 21
19.99999999999994
 31
0.0
  0
LINE
  5
250
330
242
100
AcDbEntity
  8
RAHM2
100
AcDbLine
 10
-192.4248711305964
 20
30.40000000000004
 30
0.0
 11
-187.5751288694036
 21
30.40000000000004
 31
0.0
  0
MTEXT
  5
251
330
242
100
AcDbEntity
  8
RAHM2
100
AcDbMText
 10
-190.0
 20
22.49999999999997
 30
0.0
 40
2.5
 41
10.0
 71
     5
 72
     5
  1
符号
 73
     1
 44
1.0
1001
ACAD
1000
MTEXTBEGIN
1070
    73
1070
     1
1070
    44
1040
1.0
1070
    74
1070
     0
1000
MTEXTEND
  0
MTEXT
  5
252
330
242
100
AcDbEntity
  8
RAHM2
100
AcDbMText
 10
-193.8002551371314
 20
18.80103540727961
 30
0.0
 40
2.5
 41
90.0
 71
     1
 72
     5
  1
品名
 73
     1
 44
1.0
1001
ACAD
1000
MTEXTBEGIN
1070
    73
1070
     1
1070
    44
1040
1.0
1070
    74
1070
     0
1000
MTEXTEND
  0
LINE
  5
253
330
242
100
AcDbEntity
  8
RAHM2
100
AcDbLine
 10
-192.4248711305964
 20
45.40000000000003
 30
0.0
 11
-187.5751288694036
 21
45.40000000000003
 31
0.0
  0
LINE
  5
254
330
242
100
AcDbEntity
  8
RAHM2
100
AcDbLine
 10
-187.5751288694036
 20
45.40000000000003
 30
0.0
 11
-190.0
 21
49.60000000000002
 31
0.0
  0
LINE
  5
255
330
242
100
AcDbEntity
  8
RAHM2
100
AcDbLine
 10
-192.4248711305964
 20
40.40000000000003
 30
0.0
 11
-187.5751288694036
 21
40.40000000000003
 31
0.0
  0
LINE
  5
256
330
242
100
AcDbEntity
  8
RAHM2
100
AcDbLine
 10
-187.5751288694036
 20
40.40000000000003
 30
0.0
 11
-190.0
 21
44.60000000000002
 31
0.0
  0
LINE
  5
257
330
242
100
AcDbEntity
  8
RAHM2
100
AcDbLine
 10
-192.4248711305964
 20
35.40000000000004
 30
0.0
 11
-187.5751288694036
 21
35.40000000000004
 31
0.0
  0
LINE
  5
258
330
242
100
AcDbEntity
  8
RAHM2
100
AcDbLine
 10
-187.5751288694036
 20
35.40000000000004
 30
0.0
 11
-190.0
 21
39.60000000000002
 31
0.0
  0
LINE
  5
259
330
242
100
AcDbEntity
  8
RAHM2
100
AcDbLine
 10
-190.0
 20
39.60000000000002
 30
0.0
 11
-192.4248711305964
 21
35.40000000000004
 31
0.0
  0
LINE
  5
25A
330
242
100
AcDbEntity
  8
RAHM2
100
AcDbLine
 10
-190.0
 20
44.60000000000002
 30
0.0
 11
-192.4248711305964
 21
40.40000000000003
 31
0.0
  0
LINE
  5
25B
330
242
100
AcDbEntity
  8
RAHM2
100
AcDbLine
 10
-190.0
 20
49.60000000000002
 30
0.0
 11
-192.4248711305964
 21
45.40000000000003
 31
0.0
  0
LINE
  5
25C
330
242
100
AcDbEntity
  8
RAHM2
100
AcDbLine
 10
-129.0
 20
50.00000000000003
 30
0.0
 11
-129.0
 21
19.99999999999994
 31
0.0
  0
MTEXT
  5
25D
330
242
100
AcDbEntity
  8
RAHM2
100
AcDbMText
 10
-157.1448171868856
 20
22.49999999999997
 30
0.0
 40
2.5
 41
45.0
 71
     5
 72
     5
  1
変更記事
 73
     1
 44
1.0
1001
ACAD
1000
MTEXTBEGIN
1070
    73
1070
     1
1070
    44
1040
1.0
1070
    74
1070
     0
1000
MTEXTEND
  0
LINE
  5
25E
330
242
100
AcDbEntity
  8
0
100
AcDbLine
 10
-34.0
 20
50.0
 30
0.0
 11
-34.0
 21
0.0
 31
0.0
  0
LINE
  5
25F
330
242
100
AcDbEntity
  8
0
100
AcDbLine
 10
-94.0
 20
50.0
 30
0.0
 11
-94.0
 21
0.0
 31
0.0
  0
MTEXT
  5
260
330
242
100
AcDbEntity
  8
0
100
AcDbMText
 10
-64.0
 20
5.0
 30
0.0
 40
3.5
 41
60.0
 71
     5
 72
     5
  1
\fＭＳ ゴシック|b0|i0|c128|p49;株式会社タカチ電機工業
 73
     1
 44
1.0
1001
ACAD
1000
MTEXTBEGIN
1070
    73
1070
     1
1070
    44
1040
1.0
1070
    74
1070
     0
1000
MTEXTEND
  0
LINE
  5
261
330
242
100
AcDbEntity
  8
0
100
AcDbLine
 10
-94.0
 20
10.0
 30
0.0
 11
-34.0
 21
10.0
 31
0.0
  0
ATTDEF
  5
262
330
242
100
AcDbEntity
  8
0
100
AcDbText
 10
-58.01405119799745
 20
39.25500556178349
 30
0.0
 40
3.0
  1

 72
     2
 11
-58.01405119799745
 21
39.25500556178349
 31
0.0
100
AcDbAttributeDefinition
  3
尺度
  2
GEN-TITLE-SCA
 70
     0
  0
ATTDEF
  5
263
330
242
100
AcDbEntity
  8
0
100
AcDbText
 10
-77.00284966649007
 20
30.62180787943475
 30
0.0
 40
3.0
  1

 11
-77.00284966649007
 21
30.62180787943475
 31
0.0
100
AcDbAttributeDefinition
  3
材質
  2
GEN-TITLE-MAT1
 70
     0
 74
     1
  0
ATTDEF
  5
264
330
242
100
AcDbEntity
  8
0
100
AcDbText
 10
-77.00284966649007
 20
20.62180787943475
 30
0.0
 40
3.0
  1

 11
-77.00284966649007
 21
20.62180787943475
 31
0.0
100
AcDbAttributeDefinition
  3
表面処理
  2
GEN-TITLE-MAT2
 70
     0
 74
     1
  0
ATTDEF
  5
265
330
242
100
AcDbEntity
  8
0
100
AcDbText
 10
-77.00284966649007
 20
11.61751719109475
 30
0.0
 40
3.0
  1

 11
-77.00284966649007
 21
11.61751719109475
 31
0.0
100
AcDbAttributeDefinition
  3
日付
  2
GEN-TITLE-DAT
 70
     0
 74
     1
  0
LINE
  5
266
330
242
100
AcDbEntity
  8
0
100
AcDbLine
 10
-94.0
 20
37.5
 30
0.0
 11
-34.0
 21
37.5
 31
0.0
  0
LINE
  5
267
330
242
100
AcDbEntity
  8
0
100
AcDbLine
 10
-94.0
 20
27.5
 30
0.0
 11
-34.0
 21
27.5
 31
0.0
  0
LINE
  5
268
330
242
100
AcDbEntity
  8
0
100
AcDbLine
 10
-94.0
 20
17.5
 30
0.0
 11
-34.0
 21
17.5
 31
0.0
  0
LINE
  5
269
330
242
100
AcDbEntity
  8
RAHM2
100
AcDbLine
 10
-109.0
 20
50.00000000000003
 30
0.0
 11
-109.0
 21
19.99999999999994
 31
0.0
  0
MTEXT
  5
26A
330
242
100
AcDbEntity
  8
RAHM2
100
AcDbMText
 10
-119.4582894723942
 20
32.50000000000003
 30
0.0
 40
2.5
 41
20.0
 71
     5
 72
     5
  1
・  ・   
 73
     1
 44
1.0
1001
ACAD
1000
MTEXTBEGIN
1070
    73
1070
     1
1070
    44
1040
1.0
1070
    74
1070
     0
1000
MTEXTEND
  0
MTEXT
  5
26B
330
242
100
AcDbEntity
  8
RAHM2
100
AcDbMText
 10
-118.738119805002
 20
22.49999999999997
 30
0.0
 40
2.5
 41
20.0
 71
     5
 72
     5
  1
年・月・日
 73
     1
 44
1.0
1001
ACAD
1000
MTEXTBEGIN
1070
    73
1070
     1
1070
    44
1040
1.0
1070
    74
1070
     0
1000
MTEXTEND
  0
MTEXT
  5
26C
330
242
100
AcDbEntity
  8
RAHM2
100
AcDbMText
 10
-101.5
 20
22.49999999999997
 30
0.0
 40
2.5
 41
15.0
 71
     5
 72
     5
  1
担当
 73
     1
 44
1.0
1001
ACAD
1000
MTEXTBEGIN
1070
    73
1070
     1
1070
    44
1040
1.0
1070
    74
1070
     0
1000
MTEXTEND
  0
MTEXT
  5
26D
330
242
100
AcDbEntity
  8
RAHM2
100
AcDbMText
 10
-119.4582894723942
 20
42.50000000000002
 30
0.0
 40
2.5
 41
20.0
 71
     5
 72
     5
  1
・  ・   
 73
     1
 44
1.0
1001
ACAD
1000
MTEXTBEGIN
1070
    73
1070
     1
1070
    44
1040
1.0
1070
    74
1070
     0
1000
MTEXTEND
  0
MTEXT
  5
26E
330
242
100
AcDbEntity
  8
RAHM2
100
AcDbMText
 10
-119.4582894723942
 20
37.50000000000003
 30
0.0
 40
2.5
 41
20.0
 71
     5
 72
     5
  1
・  ・   
 73
     1
 44
1.0
1001
ACAD
1000
MTEXTBEGIN
1070
    73
1070
     1
1070
    44
1040
1.0
1070
    74
1070
     0
1000
MTEXTEND
  0
MTEXT
  5
26F
330
242
100
AcDbEntity
  8
RAHM2
100
AcDbMText
 10
-119.4582894723942
 20
47.50000000000002
 30
0.0
 40
2.5
 41
20.0
 71
     5
 72
     5
  1
・  ・   
 73
     1
 44
1.0
1001
ACAD
1000
MTEXTBEGIN
1070
    73
1070
     1
1070
    44
1040
1.0
1070
    74
1070
     0
1000
MTEXTEND
  0
MTEXT
  5
270
330
242
100
AcDbEntity
  8
RAHM2
100
AcDbMText
 10
-92.80025513713145
 20
16.30103540727964
 30
0.0
 40
2.5
 41
60.0
 71
     1
 72
     5
  1
日付
 73
     1
 44
1.0
1001
ACAD
1000
MTEXTBEGIN
1070
    73
1070
     1
1070
    44
1040
1.0
1070
    74
1070
     0
1000
MTEXTEND
  0
MTEXT
  5
271
330
242
100
AcDbEntity
  8
RAHM2
100
AcDbMText
 10
-92.80025513713145
 20
26.30103540727964
 30
0.0
 40
2.5
 41
60.0
 71
     1
 72
     5
  1
表面処理
 73
     1
 44
1.0
1001
ACAD
1000
MTEXTBEGIN
1070
    73
1070
     1
1070
    44
1040
1.0
1070
    74
1070
     0
1000
MTEXTEND
  0
LINE
  5
272
330
242
100
AcDbEntity
  8
7A
100
AcDbLine
 10
-89.0
 20
43.75
 30
0.0
 11
-75.2186915997147
 21
43.75
 31
0.0
1001
GENIUS_GENOREF_13
1005
285
  0
LINE
  5
273
330
242
100
AcDbEntity
  8
0
100
AcDbLine
 10
-84.0
 20
45.75
 30
0.0
 11
-76.0
 21
46.74999999999999
 31
0.0
  0
LINE
  5
274
330
242
100
AcDbEntity
  8
0
100
AcDbLine
 10
-76.0
 20
40.75
 30
0.0
 11
-84.0
 21
41.74999999999999
 31
0.0
  0
LINE
  5
275
330
242
100
AcDbEntity
  8
7A
100
AcDbLine
 10
-89.0
 20
43.75
 30
0.0
 11
-89.0
 21
47.32478664473148
 31
0.0
1001
GENIUS_GENOREF_13
1005
285
  0
CIRCLE
  5
276
330
242
100
AcDbEntity
  8
0
100
AcDbCircle
 10
-89.0
 20
43.75
 30
0.0
 40
2.0
  0
CIRCLE
  5
277
330
242
100
AcDbEntity
  8
0
100
AcDbCircle
 10
-89.0
 20
43.75
 30
0.0
 40
3.0
  0
LINE
  5
278
330
242
100
AcDbEntity
  8
0
100
AcDbLine
 10
-84.0
 20
41.74999999999999
 30
0.0
 11
-84.0
 21
45.75
 31
0.0
  0
MTEXT
  5
279
330
242
100
AcDbEntity
  8
RAHM2
100
AcDbMText
 10
-92.80025513713145
 20
36.30103540727964
 30
0.0
 40
2.5
 41
60.0
 71
     1
 72
     5
  1
材質
 73
     1
 44
1.0
1001
ACAD
1000
MTEXTBEGIN
1070
    73
1070
     1
1070
    44
1040
1.0
1070
    74
1070
     0
1000
MTEXTEND
  0
LINE
  5
27A
330
242
100
AcDbEntity
  8
7A
100
AcDbLine
 10
-89.0
 20
43.75
 30
0.0
 11
-92.72303737125117
 21
43.75
 31
0.0
1001
GENIUS_GENOREF_13
1005
285
  0
LINE
  5
27B
330
242
100
AcDbEntity
  8
7A
100
AcDbLine
 10
-89.0
 20
43.75
 30
0.0
 11
-89.0
 21
40.03991724228479
 31
0.0
1001
GENIUS_GENOREF_13
1005
285
  0
LINE
  5
27C
330
242
100
AcDbEntity
  8
0
100
AcDbLine
 10
-76.0
 20
46.74999999999999
 30
0.0
 11
-76.0
 21
40.75
 31
0.0
  0
LINE
  5
27D
330
242
100
AcDbEntity
  8
0
100
AcDbLine
 10
-74.0
 20
50.0
 30
0.0
 11
-74.0
 21
37.5
 31
0.0
  0
MTEXT
  5
27E
330
242
100
AcDbEntity
  8
RAHM2
100
AcDbMText
 10
-72.80025513713145
 20
48.80103540727964
 30
0.0
 40
2.5
 41
20.0
 71
     1
 72
     5
  1
尺度
 73
     1
 44
1.0
1001
ACAD
1000
MTEXTBEGIN
1070
    73
1070
     1
1070
    44
1040
1.0
1070
    74
1070
     0
1000
MTEXTEND
  0
ATTDEF
  5
27F
330
242
100
AcDbEntity
  8
0
100
AcDbText
 10
-37.76317379391503
 20
39.25500556178349
 30
0.0
 40
3.0
  1

 72
     2
 11
-37.76317379391503
 21
39.25500556178349
 31
0.0
100
AcDbAttributeDefinition
  3
数量
  2
GEN-TITLE-QTY
 70
     0
  0
LINE
  5
280
330
242
100
AcDbEntity
  8
0
100
AcDbLine
 10
-34.0
 20
25.0
 30
0.0
 11
0.0
 21
25.0
 31
0.0
  0
LINE
  5
281
330
242
100
AcDbEntity
  8
0
100
AcDbLine
 10
-54.0
 20
50.0
 30
0.0
 11
-54.0
 21
37.5
 31
0.0
  0
MTEXT
  5
282
330
242
100
AcDbEntity
  8
RAHM2
100
AcDbMText
 10
-52.80025513713145
 20
48.80103540727964
 30
0.0
 40
2.5
 41
20.0
 71
     1
 72
     5
  1
数量
 73
     1
 44
1.0
1001
ACAD
1000
MTEXTBEGIN
1070
    73
1070
     1
1070
    44
1040
1.0
1070
    74
1070
     0
1000
MTEXTEND
  0
MTEXT
  5
283
330
242
100
AcDbEntity
  8
RAHM2
100
AcDbMText
 10
-25.5
 20
23.80103540727964
 30
0.0
 40
2.5
 41
17.0
 71
     2
 72
     5
  1
承認
 73
     1
 44
1.0
1001
ACAD
1000
MTEXTBEGIN
1070
    73
1070
     1
1070
    44
1040
1.0
1070
    74
1070
     0
1000
MTEXTEND
  0
MTEXT
  5
284
330
242
100
AcDbEntity
  8
RAHM2
100
AcDbMText
 10
-25.5
 20
48.80103540727964
 30
0.0
 40
2.5
 41
17.0
 71
     2
 72
     5
  1
承認
 73
     1
 44
1.0
1001
ACAD
1000
MTEXTBEGIN
1070
    73
1070
     1
1070
    44
1040
1.0
1070
    74
1070
     0
1000
MTEXTEND
  0
POINT
  5
285
330
242
100
AcDbEntity
  8
0
 60
     1
100
AcDbPoint
 10
-320.5355579819676
 20
-138.1104841268254
 30
0.0
1001
GENIUS_GENODEF_13
1002
{
1000
HIER
1070
    10
1002
}
1002
{
1000
MANEDIT
1070
     0
1002
}
1002
{
1000
NOSEL
1070
     0
1002
}
1002
{
1000
BEHIND
1070
     0
1002
}
1002
{
1000
REACTOR
1002
}
1001
GENIUS_GENOBJ-N-CRS_13
1002
{
1000
OWNER
1000
GEN
1002
}
1001
GENIUS_GENOENT_13
1002
{
1000
MYREF
1005
285
1002
}
1002
{
1000
GRP
1005
0
1002
}
1001
GENIUS_GENOLIS_13
1002
{
1000
ENT
1005
27B
1005
27A
1005
275
1005
272
1002
}
  0
LINE
  5
286
330
242
100
AcDbEntity
  8
RAHM2
100
AcDbLine
 10
-190.0
 20
29.60000000000002
 30
0.0
 11
-192.4248711305964
 21
25.40000000000004
 31
0.0
  0
LINE
  5
287
330
242
100
AcDbEntity
  8
RAHM2
100
AcDbLine
 10
-187.5751288694036
 20
25.40000000000004
 30
0.0
 11
-190.0
 21
29.60000000000002
 31
0.0
  0
LINE
  5
288
330
242
100
AcDbEntity
  8
RAHM2
100
AcDbLine
 10
-192.4248711305964
 20
25.40000000000004
 30
0.0
 11
-187.5751288694036
 21
25.40000000000004
 31
0.0
  0
LINE
  5
289
330
242
100
AcDbEntity
  8
RAHM2
100
AcDbLine
 10
-195.0
 20
25.00000000000003
 30
0.0
 11
-94.0
 21
25.00000000000003
 31
0.0
  0
MTEXT
  5
28A
330
242
100
AcDbEntity
  8
RAHM2
100
AcDbMText
 10
-119.4582894723942
 20
27.50000000000003
 30
0.0
 40
2.5
 41
20.0
 71
     5
 72
     5
  1
・  ・   
 73
     1
 44
1.0
1001
ACAD
1000
MTEXTBEGIN
1070
    73
1070
     1
1070
    44
1040
1.0
1070
    74
1070
     0
1000
MTEXTEND
  0
TEXT
  5
28B
330
242
100
AcDbEntity
  8
RAHM2
100
AcDbText
 10
-190.8155863565801
 20
25.65000000000003
 30
0.0
 40
2.5
  1
1
 72
     1
 11
-190.1905863565802
 21
25.65000000000003
 31
0.0
100
AcDbText
 73
     1
  0
TEXT
  5
28C
330
242
100
AcDbEntity
  8
RAHM2
100
AcDbText
 10
-190.9183316929134
 20
30.65000000000003
 30
0.0
 40
2.5
  1
2
 72
     1
 11
-190.0
 21
30.65000000000003
 31
0.0
100
AcDbText
 73
     1
  0
TEXT
  5
28D
330
242
100
AcDbEntity
  8
RAHM2
100
AcDbText
 10
-190.9267766952966
 20
35.65000000000001
 30
0.0
 40
2.5
  1
3
 72
     1
 11
-190.0
 21
35.65000000000001
 31
0.0
100
AcDbText
 73
     1
  0
TEXT
  5
28E
330
242
100
AcDbEntity
  8
RAHM2
100
AcDbText
 10
-191.0
 20
40.65000000000003
 30
0.0
 40
2.5
  1
4
 72
     1
 11
-190.0
 21
40.65000000000003
 31
0.0
100
AcDbText
 73
     1
  0
TEXT
  5
28F
330
242
100
AcDbEntity
  8
RAHM2
100
AcDbText
 10
-190.9267766952966
 20
45.65000000000003
 30
0.0
 40
2.5
  1
5
 72
     1
 11
-190.0
 21
45.65000000000003
 31
0.0
100
AcDbText
 73
     1
  0
LINE
  5
290
330
242
100
AcDbEntity
  8
0
100
AcDbLine
 10
-17.0
 20
50.0
 30
0.0
 11
-17.0
 21
0.0
 31
0.0
  0
LINE
  5
291
330
242
100
AcDbEntity
  8
0
100
AcDbLine
 10
-195.0
 20
0.0
 30
0.0
 11
0.0
 21
0.0
 31
0.0
1001
GENIUS_GENREC_14
1002
{
1000
PYDIR
1011
-184.0
1021
50.0
1031
0.0
1002
}
1002
{
1000
PXDIR
1011
0.0
1021
0.0
1031
0.0
1002
}
1002
{
1000
PORI
1011
-184.0
1021
0.0
1031
0.0
1002
}
1002
{
1000
PINS
1011
-100.5
1021
25.0
1031
0.0
1002
}
1002
{
1000
HVAL
1000
50
1002
}
1002
{
1000
H
1070
     2
1002
}
1002
{
1000
WVAL
1000
167
1002
}
1002
{
1000
W
1070
     2
1002
}
1002
{
1000
C
1070
     4
1002
}
1001
GENIUS_GENODEF_13
1002
{
1000
HIER
1070
     0
1002
}
1002
{
1000
MANEDIT
1070
     0
1002
}
1002
{
1000
NOSEL
1070
     0
1002
}
1002
{
1000
BEHIND
1070
     0
1002
}
1002
{
1000
REACTOR
1002
}
1001
GENIUS_GENOBJ-N-REC_13
1002
{
1000
OWNER
1000
GEN
1002
}
  0
LINE
  5
292
330
242
100
AcDbEntity
  8
0
100
AcDbLine
 10
0.0
 20
0.0
 30
0.0
 11
0.0
 21
50.0
 31
0.0
1001
GENIUS_GENREC_14
1002
{
1000
PYDIR
1011
-184.0
1021
50.0
1031
0.0
1002
}
1002
{
1000
PXDIR
1011
0.0
1021
0.0
1031
0.0
1002
}
1002
{
1000
PORI
1011
-184.0
1021
0.0
1031
0.0
1002
}
1002
{
1000
PINS
1011
-100.5
1021
25.0
1031
0.0
1002
}
1002
{
1000
HVAL
1000
50
1002
}
1002
{
1000
H
1070
     2
1002
}
1002
{
1000
WVAL
1000
167
1002
}
1002
{
1000
W
1070
     2
1002
}
1002
{
1000
C
1070
     4
1002
}
1001
GENIUS_GENODEF_13
1002
{
1000
HIER
1070
     0
1002
}
1002
{
1000
MANEDIT
1070
     0
1002
}
1002
{
1000
NOSEL
1070
     0
1002
}
1002
{
1000
BEHIND
1070
     0
1002
}
1002
{
1000
REACTOR
1002
}
1001
GENIUS_GENOBJ-N-REC_13
1002
{
1000
OWNER
1000
GEN
1002
}
  0
LINE
  5
293
330
242
100
AcDbEntity
  8
0
100
AcDbLine
 10
0.0
 20
50.0
 30
0.0
 11
-195.0
 21
50.00000000000003
 31
0.0
1001
GENIUS_GENREC_14
1002
{
1000
PYDIR
1011
-184.0
1021
50.0
1031
0.0
1002
}
1002
{
1000
PXDIR
1011
0.0
1021
0.0
1031
0.0
1002
}
1002
{
1000
PORI
1011
-184.0
1021
0.0
1031
0.0
1002
}
1002
{
1000
PINS
1011
-100.5
1021
25.0
1031
0.0
1002
}
1002
{
1000
HVAL
1000
50
1002
}
1002
{
1000
H
1070
     2
1002
}
1002
{
1000
WVAL
1000
167
1002
}
1002
{
1000
W
1070
     2
1002
}
1002
{
1000
C
1070
     4
1002
}
1001
GENIUS_GENODEF_13
1002
{
1000
HIER
1070
     0
1002
}
1002
{
1000
MANEDIT
1070
     0
1002
}
1002
{
1000
NOSEL
1070
     0
1002
}
1002
{
1000
BEHIND
1070
     0
1002
}
1002
{
1000
REACTOR
1002
}
1001
GENIUS_GENOBJ-N-REC_13
1002
{
1000
OWNER
1000
GEN
1002
}
  0
LINE
  5
294
330
242
100
AcDbEntity
  8
0
100
AcDbLine
 10
-195.0
 20
50.00000000000003
 30
0.0
 11
-195.0
 21
0.0
 31
0.0
1001
GENIUS_GENREC_14
1002
{
1000
PYDIR
1011
-195.0
1021
50.0
1031
0.0
1002
}
1002
{
1000
PXDIR
1011
-11.0
1021
0.0
1031
0.0
1002
}
1002
{
1000
PORI
1011
-195.0
1021
0.0
1031
0.0
1002
}
1002
{
1000
PINS
1011
-111.5
1021
25.0
1031
0.0
1002
}
1002
{
1000
HVAL
1000
50
1002
}
1002
{
1000
H
1070
     2
1002
}
1002
{
1000
WVAL
1000
167
1002
}
1002
{
1000
W
1070
     2
1002
}
1002
{
1000
C
1070
     4
1002
}
1001
GENIUS_GENODEF_13
1002
{
1000
HIER
1070
     0
1002
}
1002
{
1000
MANEDIT
1070
     0
1002
}
1002
{
1000
NOSEL
1070
     0
1002
}
1002
{
1000
BEHIND
1070
     0
1002
}
1002
{
1000
REACTOR
1002
}
1001
GENIUS_GENOBJ-N-REC_13
1002
{
1000
OWNER
1000
GEN
1002
}
  0
MTEXT
  5
295
330
242
100
AcDbEntity
  8
RAHM2
100
AcDbMText
 10
-8.5
 20
48.80103540727964
 30
0.0
 40
2.5
 41
17.0
 71
     2
 72
     5
  1
検図
 73
     1
 44
1.0
1001
ACAD
1000
MTEXTBEGIN
1070
    73
1070
     1
1070
    44
1040
1.0
1070
    74
1070
     0
1000
MTEXTEND
  0
MTEXT
  5
296
330
242
100
AcDbEntity
  8
RAHM2
100
AcDbMText
 10
-8.5
 20
23.80103540727964
 30
0.0
 40
2.5
 41
17.0
 71
     2
 72
     5
  1
製図
 73
     1
 44
1.0
1001
ACAD
1000
MTEXTBEGIN
1070
    73
1070
     1
1070
    44
1040
1.0
1070
    74
1070
     0
1000
MTEXTEND
  0
ENDBLK
  5
299
330
242
100
AcDbEntity
  8
0
100
AcDbBlockEnd
  0
BLOCK
  5
A16
330
A0D
100
AcDbEntity
  8
0
100
AcDbBlockBegin
  2
TAKACHI-A3-2
 70
     0
 10
0.0
 20
0.0
 30
0.0
  3
TAKACHI-A3-2
  1

  0
LINE
  5
A0E
330
A0D
100
AcDbEntity
  8
0
100
AcDbLine
 10
359.0
 20
280.0
 30
0.0
 11
359.0
 21
275.0
 31
0.0
  0
MTEXT
  5
A0F
330
A0D
100
AcDbEntity
  8
0
100
AcDbMText
 10
402.3592953827349
 20
276.108542987227
 30
0.0
 40
2.5
 41
43.07840397728298
 71
     9
 72
     5
  1
(文書番号：TY-34)2008.02.08
 73
     1
 44
1.0
1001
ACAD
1000
MTEXTBEGIN
1070
    73
1070
     1
1070
    44
1040
1.0
1070
    74
1070
     0
1000
MTEXTEND
  0
LINE
  5
A10
330
A0D
100
AcDbEntity
  8
0
100
AcDbLine
 10
359.0
 20
275.0
 30
0.0
 11
403.0
 21
275.0
 31
0.0
  0
TEXT
  5
A11
330
A0D
100
AcDbEntity
  8
0
 60
     1
100
AcDbText
 10
403.0
 20
0.0
 30
0.0
 40
2.5
  1
!GENTITLE-INSERT
100
AcDbText
  0
TEXT
  5
A12
330
A0D
100
AcDbEntity
  8
0
 60
     1
100
AcDbText
 10
0.0
 20
0.0
 30
0.0
 40
2.5
  1
!GENTITLE-LL
100
AcDbText
  0
TEXT
  5
A13
330
A0D
100
AcDbEntity
  8
0
 60
     1
100
AcDbText
 10
403.0
 20
280.0
 30
0.0
 40
2.5
  1
!GENTITLE-MAX
100
AcDbText
  0
LWPOLYLINE
  5
A14
330
A0D
100
AcDbEntity
  8
0
100
AcDbPolyline
 90
        4
 70
     1
 43
0.0
 10
0.0
 20
0.0
 10
403.0
 20
0.0
 10
403.0
 20
280.0
 10
0.0
 20
280.0000000000001
1001
GENIUS_GENREC_14
1002
{
1000
PYDIR
1011
0.0000000000000178
1021
280.0
1031
0.0
1002
}
1002
{
1000
PXDIR
1011
403.0
1021
0.0
1031
0.0
1002
}
1002
{
1000
PORI
1011
0.0
1021
0.0
1031
0.0
1002
}
1002
{
1000
PINS
1011
0.0
1021
0.0
1031
0.0
1002
}
1002
{
1000
PINS2
1011
403.0
1021
280.0
1031
0.0
1002
}
1002
{
1000
C
1070
     1
1002
}
1001
GENIUS_GENODEF_13
1002
{
1000
HIER
1070
     0
1002
}
1002
{
1000
MANEDIT
1070
     0
1002
}
1002
{
1000
NOSEL
1070
     0
1002
}
1002
{
1000
BEHIND
1070
     0
1002
}
1002
{
1000
OTHER
1070
     0
1002
}
1002
{
1000
REACTOR
1002
}
1001
GENIUS_GENOBJ-N-REC_13
1002
{
1000
OWNER
1000
GEN
1002
}
  0
ENDBLK
  5
A17
330
A0D
100
AcDbEntity
  8
0
100
AcDbBlockEnd
  0
BLOCK
  5
A7A
330
A20
100
AcDbEntity
  8
0
100
AcDbBlockBegin
  2
TAKACHI-TITLEA3
 70
     2
 10
0.0
 20
0.0
 30
0.0
  3
TAKACHI-TITLEA3
  1

  0
LINE
  5
A21
330
A20
100
AcDbEntity
  8
0
100
AcDbLine
 10
-167.0
 20
12.49999999999996
 30
0.0
 11
-193.0000000000001
 21
12.49999999999996
 31
0.0
  0
LINE
  5
A22
330
A20
100
AcDbEntity
  8
0
100
AcDbLine
 10
-167.0
 20
37.49999999999998
 30
0.0
 11
-193.0000000000001
 21
37.49999999999998
 31
0.0
  0
ATTDEF
  5
A23
330
A20
100
AcDbEntity
  8
0
100
AcDbText
 10
-180.2171951662138
 20
3.588342537610664
 30
0.0
 40
3.0
  1

 72
     1
 11
-180.2171951662138
 21
3.588342537610664
 31
0.0
100
AcDbAttributeDefinition
  3
日付
  2
GEN-TITLE-DAT
 70
     0
 74
     1
  0
MTEXT
  5
A24
330
A20
100
AcDbEntity
  8
RAHM2
100
AcDbMText
 10
-191.8002551371315
 20
11.3010354072796
 30
0.0
 40
2.5
 41
60.0
 71
     1
 72
     5
  1
日付
 73
     1
 44
1.0
1001
ACAD
1000
MTEXTBEGIN
1070
    73
1070
     1
1070
    44
1040
1.0
1070
    74
1070
     0
1000
MTEXTEND
  0
ATTDEF
  5
A25
330
A20
100
AcDbEntity
  8
0
100
AcDbText
 10
-177.824739614424
 20
28.29999999999998
 30
0.0
 40
3.0
  1

 72
     2
 11
-177.824739614424
 21
28.29999999999998
 31
0.0
100
AcDbAttributeDefinition
  3
尺度
  2
GEN-TITLE-SCA
 70
     0
 74
     1
  0
MTEXT
  5
A26
330
A20
100
AcDbEntity
  8
RAHM2
100
AcDbMText
 10
-191.8002551371315
 20
36.30103540727966
 30
0.0
 40
2.5
 41
20.0
 71
     1
 72
     5
  1
尺度
 73
     1
 44
1.0
1001
ACAD
1000
MTEXTBEGIN
1070
    73
1070
     1
1070
    44
1040
1.0
1070
    74
1070
     0
1000
MTEXTEND
  0
MTEXT
  5
A27
330
A20
100
AcDbEntity
  8
RAHM2
100
AcDbMText
 10
-191.8002551371315
 20
23.80103540727963
 30
0.0
 40
2.5
 41
20.0
 71
     1
 72
     5
  1
数量
 73
     1
 44
1.0
1001
ACAD
1000
MTEXTBEGIN
1070
    73
1070
     1
1070
    44
1040
1.0
1070
    74
1070
     0
1000
MTEXTEND
  0
ATTDEF
  5
A28
330
A20
100
AcDbEntity
  8
0
100
AcDbText
 10
-175.6127409126095
 20
15.79999999999994
 30
0.0
 40
3.0
  1

 72
     2
 11
-175.6127409126095
 21
15.79999999999994
 31
0.0
100
AcDbAttributeDefinition
  3
数量
  2
GEN-TITLE-QTY
 70
     0
 74
     1
  0
LINE
  5
A29
330
A20
100
AcDbEntity
  8
0
100
AcDbLine
 10
-193.0000000000001
 20
49.99999999999999
 30
0.0
 11
-193.0000000000001
 21
-0.0000000000000142
 31
0.0
  0
LINE
  5
A2A
330
A20
100
AcDbEntity
  8
7A
100
AcDbLine
 10
-184.7167418745796
 20
43.74999999999995
 30
0.0
 11
-170.9354334742943
 21
43.74999999999995
 31
0.0
1001
GENIUS_GENOREF_13
1005
A78
  0
LINE
  5
A2B
330
A20
100
AcDbEntity
  8
0
100
AcDbLine
 10
-179.7167418745796
 20
45.74999999999994
 30
0.0
 11
-171.7167418745796
 21
46.74999999999995
 31
0.0
  0
LINE
  5
A2C
330
A20
100
AcDbEntity
  8
0
100
AcDbLine
 10
-171.7167418745796
 20
40.74999999999994
 30
0.0
 11
-179.7167418745796
 21
41.74999999999995
 31
0.0
  0
LINE
  5
A2D
330
A20
100
AcDbEntity
  8
7A
100
AcDbLine
 10
-184.7167418745796
 20
43.74999999999995
 30
0.0
 11
-184.7167418745796
 21
47.32478664473144
 31
0.0
1001
GENIUS_GENOREF_13
1005
A78
  0
CIRCLE
  5
A2E
330
A20
100
AcDbEntity
  8
0
100
AcDbCircle
 10
-184.7167418745796
 20
43.74999999999995
 30
0.0
 40
2.0
  0
CIRCLE
  5
A2F
330
A20
100
AcDbEntity
  8
0
100
AcDbCircle
 10
-184.7167418745796
 20
43.74999999999995
 30
0.0
 40
3.0
  0
LINE
  5
A30
330
A20
100
AcDbEntity
  8
0
100
AcDbLine
 10
-179.7167418745796
 20
41.74999999999995
 30
0.0
 11
-179.7167418745796
 21
45.74999999999994
 31
0.0
  0
LINE
  5
A31
330
A20
100
AcDbEntity
  8
7A
100
AcDbLine
 10
-184.7167418745796
 20
43.74999999999995
 30
0.0
 11
-188.4397792458307
 21
43.74999999999995
 31
0.0
1001
GENIUS_GENOREF_13
1005
A78
  0
LINE
  5
A32
330
A20
100
AcDbEntity
  8
7A
100
AcDbLine
 10
-184.7167418745796
 20
43.74999999999995
 30
0.0
 11
-184.7167418745796
 21
40.03991724228473
 31
0.0
1001
GENIUS_GENOREF_13
1005
A78
  0
LINE
  5
A33
330
A20
100
AcDbEntity
  8
0
100
AcDbLine
 10
-171.7167418745796
 20
46.74999999999995
 30
0.0
 11
-171.7167418745796
 21
40.74999999999994
 31
0.0
  0
LINE
  5
A34
330
A20
100
AcDbEntity
  8
0
100
AcDbLine
 10
-167.0
 20
24.99999999999997
 30
0.0
 11
-193.0000000000001
 21
24.99999999999997
 31
0.0
  0
LINE
  5
A35
330
A20
100
AcDbEntity
  8
0
100
AcDbLine
 10
-167.0
 20
39.99999999999991
 30
0.0
 11
-96.0
 21
39.99999999999992
 31
0.0
  0
MTEXT
  5
A36
330
A20
100
AcDbEntity
  8
RAHM2
100
AcDbMText
 10
-165.8002551371314
 20
38.80103540727956
 30
0.0
 40
2.5
 41
60.0
 71
     1
 72
     5
  1
表面処理
 73
     1
 44
1.0
1001
ACAD
1000
MTEXTBEGIN
1070
    73
1070
     1
1070
    44
1040
1.0
1070
    74
1070
     0
1000
MTEXTEND
  0
MTEXT
  5
A37
330
A20
100
AcDbEntity
  8
RAHM2
100
AcDbMText
 10
-165.8002551371314
 20
48.80103540727955
 30
0.0
 40
2.5
 41
60.0
 71
     1
 72
     5
  1
材質
 73
     1
 44
1.0
1001
ACAD
1000
MTEXTBEGIN
1070
    73
1070
     1
1070
    44
1040
1.0
1070
    74
1070
     0
1000
MTEXTEND
  0
ATTDEF
  5
A38
330
A20
100
AcDbEntity
  8
0
100
AcDbText
 10
-148.9618675835291
 20
33.29999999999991
 30
0.0
 40
3.0
  1

100
AcDbAttributeDefinition
  3
表面処理
  2
GEN-TITLE-MAT2
 70
     0
  0
ATTDEF
  5
A39
330
A20
100
AcDbEntity
  8
0
100
AcDbText
 10
-148.9618675835291
 20
43.29999999999991
 30
0.0
 40
3.0
  1

100
AcDbAttributeDefinition
  3
材質
  2
GEN-TITLE-MAT1
 70
     0
  0
MTEXT
  5
A3A
330
A20
100
AcDbEntity
  8
0
100
AcDbMText
 10
-131.5000000000001
 20
24.99999999999992
 30
0.0
 40
3.5
 41
60.0
 71
     5
 72
     5
  1
\fＭＳ ゴシック|b0|i0|c128|p49;株式会社タカチ電機工業
 73
     1
 44
1.0
1001
ACAD
1000
MTEXTBEGIN
1070
    73
1070
     1
1070
    44
1040
1.0
1070
    74
1070
     0
1000
MTEXTEND
  0
LINE
  5
A3B
330
A20
100
AcDbEntity
  8
0
100
AcDbLine
 10
-167.0
 20
29.99999999999992
 30
0.0
 11
-96.0
 21
29.99999999999992
 31
0.0
  0
MTEXT
  5
A3C
330
A20
100
AcDbEntity
  8
RAHM2
100
AcDbMText
 10
-158.1250000000001
 20
18.80103540727956
 30
0.0
 40
2.5
 41
17.0
 71
     2
 72
     5
  1
承認
 73
     1
 44
1.0
1001
ACAD
1000
MTEXTBEGIN
1070
    73
1070
     1
1070
    44
1040
1.0
1070
    74
1070
     0
1000
MTEXTEND
  0
MTEXT
  5
A3D
330
A20
100
AcDbEntity
  8
RAHM2
100
AcDbMText
 10
-140.3750000000001
 20
18.80103540727958
 30
0.0
 40
2.5
 41
17.0
 71
     2
 72
     5
  1
承認
 73
     1
 44
1.0
1001
ACAD
1000
MTEXTBEGIN
1070
    73
1070
     1
1070
    44
1040
1.0
1070
    74
1070
     0
1000
MTEXTEND
  0
LINE
  5
A3E
330
A20
100
AcDbEntity
  8
0
100
AcDbLine
 10
-149.2500000000001
 20
19.99999999999993
 30
0.0
 11
-149.2500000000001
 21
-0.0000000000000462
 31
0.0
  0
LINE
  5
A3F
330
A20
100
AcDbEntity
  8
0
100
AcDbLine
 10
-167.0
 20
49.99999999999995
 30
0.0
 11
-167.0
 21
-0.0000000000000497
 31
0.0
  0
MTEXT
  5
A40
330
A20
100
AcDbEntity
  8
RAHM2
100
AcDbMText
 10
-122.6250000000001
 20
18.80103540727958
 30
0.0
 40
2.5
 41
17.0
 71
     2
 72
     5
  1
検図
 73
     1
 44
1.0
1001
ACAD
1000
MTEXTBEGIN
1070
    73
1070
     1
1070
    44
1040
1.0
1070
    74
1070
     0
1000
MTEXTEND
  0
LINE
  5
A41
330
A20
100
AcDbEntity
  8
0
100
AcDbLine
 10
-131.5000000000001
 20
19.99999999999993
 30
0.0
 11
-131.5000000000001
 21
-0.0000000000000533
 31
0.0
  0
LINE
  5
A42
330
A20
100
AcDbEntity
  8
0
100
AcDbLine
 10
-113.75
 20
19.99999999999993
 30
0.0
 11
-113.75
 21
-0.0000000000000533
 31
0.0
  0
LINE
  5
A43
330
A20
100
AcDbEntity
  8
0
100
AcDbLine
 10
-167.0
 20
19.99999999999993
 30
0.0
 11
-96.0
 21
19.99999999999993
 31
0.0
  0
MTEXT
  5
A44
330
A20
100
AcDbEntity
  8
RAHM2
100
AcDbMText
 10
-104.875
 20
18.80103540727957
 30
0.0
 40
2.5
 41
17.0
 71
     2
 72
     5
  1
製図
 73
     1
 44
1.0
1001
ACAD
1000
MTEXTBEGIN
1070
    73
1070
     1
1070
    44
1040
1.0
1070
    74
1070
     0
1000
MTEXTEND
  0
MTEXT
  5
A45
330
A20
100
AcDbEntity
  8
RAHM2
100
AcDbMText
 10
-16.85742592933491
 20
3.434762466565985
 30
0.0
 40
2.5
 41
7.936478436748416
 71
     5
 72
     5
  1
Rev.
 73
     1
 44
1.0
1001
ACAD
1000
MTEXTBEGIN
1070
    73
1070
     1
1070
    44
1040
1.0
1070
    74
1070
     0
1000
MTEXTEND
  0
LINE
  5
A46
330
A20
100
AcDbEntity
  8
0
100
AcDbLine
 10
-21.17541926625711
 20
0.0
 30
0.0
 11
-21.17541926625734
 21
7.0
 31
0.0
  0
LINE
  5
A47
330
A20
100
AcDbEntity
  8
RAHM2
100
AcDbLine
 10
-96.0
 20
29.99999999999992
 30
0.0
 11
0.0000000000001137
 21
30.00000000000003
 31
0.0
  0
LINE
  5
A48
330
A20
100
AcDbEntity
  8
RAHM2
100
AcDbLine
 10
-96.0
 20
35.00000000000003
 30
0.0
 11
0.0000000000001137
 21
35.00000000000003
 31
0.0
  0
LINE
  5
A49
330
A20
100
AcDbEntity
  8
RAHM2
100
AcDbLine
 10
-96.0
 20
39.99999999999993
 30
0.0
 11
0.0000000000001137
 21
40.00000000000002
 31
0.0
  0
LINE
  5
A4A
330
A20
100
AcDbEntity
  8
RAHM2
100
AcDbLine
 10
-96.0
 20
45.00000000000002
 30
0.0
 11
0.0000000000001137
 21
45.00000000000002
 31
0.0
  0
LINE
  5
A4B
330
A20
100
AcDbEntity
  8
0
100
AcDbLine
 10
-96.0
 20
7.0
 30
0.0
 11
0.0000000000001137
 21
7.0
 31
0.0
  0
LINE
  5
A4C
330
A20
100
AcDbEntity
  8
0
100
AcDbLine
 10
-96.0
 20
19.99999999999997
 30
0.0
 11
0.0000000000001137
 21
19.99999999999997
 31
0.0
  0
MTEXT
  5
A4D
330
A20
100
AcDbEntity
  8
RAHM2
100
AcDbMText
 10
-94.80025513713144
 20
5.801035407279627
 30
0.0
 40
2.5
 41
90.0
 71
     1
 72
     5
  1
図番
 73
     1
 44
1.0
1001
ACAD
1000
MTEXTBEGIN
1070
    73
1070
     1
1070
    44
1040
1.0
1070
    74
1070
     0
1000
MTEXTEND
  0
LINE
  5
A4E
330
A20
100
AcDbEntity
  8
RAHM2
100
AcDbLine
 10
-88.57512886940355
 20
30.40000000000002
 30
0.0
 11
-91.0
 21
34.60000000000001
 31
0.0
  0
LINE
  5
A4F
330
A20
100
AcDbEntity
  8
RAHM2
100
AcDbLine
 10
-91.0
 20
34.60000000000001
 30
0.0
 11
-93.42487113059645
 21
30.40000000000002
 31
0.0
  0
LINE
  5
A50
330
A20
100
AcDbEntity
  8
RAHM2
100
AcDbLine
 10
-86.0
 20
50.00000000000001
 30
0.0
 11
-86.0
 21
19.99999999999993
 31
0.0
  0
LINE
  5
A51
330
A20
100
AcDbEntity
  8
RAHM2
100
AcDbLine
 10
-93.42487113059645
 20
30.40000000000002
 30
0.0
 11
-88.57512886940355
 21
30.40000000000002
 31
0.0
  0
MTEXT
  5
A52
330
A20
100
AcDbEntity
  8
RAHM2
100
AcDbMText
 10
-91.0
 20
22.49999999999996
 30
0.0
 40
2.5
 41
10.0
 71
     5
 72
     5
  1
符号
 73
     1
 44
1.0
1001
ACAD
1000
MTEXTBEGIN
1070
    73
1070
     1
1070
    44
1040
1.0
1070
    74
1070
     0
1000
MTEXTEND
  0
MTEXT
  5
A53
330
A20
100
AcDbEntity
  8
RAHM2
100
AcDbMText
 10
-94.80025513713144
 20
18.8010354072796
 30
0.0
 40
2.5
 41
90.0
 71
     1
 72
     5
  1
品名
 73
     1
 44
1.0
1001
ACAD
1000
MTEXTBEGIN
1070
    73
1070
     1
1070
    44
1040
1.0
1070
    74
1070
     0
1000
MTEXTEND
  0
LINE
  5
A54
330
A20
100
AcDbEntity
  8
RAHM2
100
AcDbLine
 10
-93.42487113059645
 20
45.40000000000001
 30
0.0
 11
-88.57512886940355
 21
45.40000000000001
 31
0.0
  0
LINE
  5
A55
330
A20
100
AcDbEntity
  8
RAHM2
100
AcDbLine
 10
-88.57512886940355
 20
45.40000000000001
 30
0.0
 11
-91.0
 21
49.6
 31
0.0
  0
LINE
  5
A56
330
A20
100
AcDbEntity
  8
RAHM2
100
AcDbLine
 10
-93.42487113059645
 20
40.40000000000001
 30
0.0
 11
-88.57512886940355
 21
40.40000000000001
 31
0.0
  0
LINE
  5
A57
330
A20
100
AcDbEntity
  8
RAHM2
100
AcDbLine
 10
-88.57512886940355
 20
40.40000000000001
 30
0.0
 11
-91.0
 21
44.6
 31
0.0
  0
LINE
  5
A58
330
A20
100
AcDbEntity
  8
RAHM2
100
AcDbLine
 10
-93.42487113059645
 20
35.40000000000002
 30
0.0
 11
-88.57512886940355
 21
35.40000000000002
 31
0.0
  0
LINE
  5
A59
330
A20
100
AcDbEntity
  8
RAHM2
100
AcDbLine
 10
-88.57512886940355
 20
35.40000000000002
 30
0.0
 11
-91.0
 21
39.60000000000001
 31
0.0
  0
LINE
  5
A5A
330
A20
100
AcDbEntity
  8
RAHM2
100
AcDbLine
 10
-91.0
 20
39.60000000000001
 30
0.0
 11
-93.42487113059645
 21
35.40000000000002
 31
0.0
  0
LINE
  5
A5B
330
A20
100
AcDbEntity
  8
RAHM2
100
AcDbLine
 10
-91.0
 20
44.6
 30
0.0
 11
-93.42487113059645
 21
40.40000000000001
 31
0.0
  0
LINE
  5
A5C
330
A20
100
AcDbEntity
  8
RAHM2
100
AcDbLine
 10
-91.0
 20
49.6
 30
0.0
 11
-93.42487113059645
 21
45.40000000000001
 31
0.0
  0
LINE
  5
A5D
330
A20
100
AcDbEntity
  8
RAHM2
100
AcDbLine
 10
-31.82081941068907
 20
50.00000000000003
 30
0.0
 11
-31.82081941068918
 21
19.99999999999994
 31
0.0
  0
MTEXT
  5
A5E
330
A20
100
AcDbEntity
  8
RAHM2
100
AcDbMText
 10
-59.0
 20
22.49999999999996
 30
0.0
 40
2.5
 41
45.0
 71
     5
 72
     5
  1
変更記事
 73
     1
 44
1.0
1001
ACAD
1000
MTEXTBEGIN
1070
    73
1070
     1
1070
    44
1040
1.0
1070
    74
1070
     0
1000
MTEXTEND
  0
LINE
  5
A5F
330
A20
100
AcDbEntity
  8
RAHM2
100
AcDbLine
 10
-11.82081941068907
 20
50.00000000000003
 30
0.0
 11
-11.82081941068907
 21
19.99999999999994
 31
0.0
  0
MTEXT
  5
A60
330
A20
100
AcDbEntity
  8
RAHM2
100
AcDbMText
 10
-22.27910888308327
 20
32.50000000000003
 30
0.0
 40
2.5
 41
20.0
 71
     5
 72
     5
  1
・  ・   
 73
     1
 44
1.0
1001
ACAD
1000
MTEXTBEGIN
1070
    73
1070
     1
1070
    44
1040
1.0
1070
    74
1070
     0
1000
MTEXTEND
  0
MTEXT
  5
A61
330
A20
100
AcDbEntity
  8
RAHM2
100
AcDbMText
 10
-21.55893921569111
 20
22.49999999999997
 30
0.0
 40
2.5
 41
20.0
 71
     5
 72
     5
  1
年・月・日
 73
     1
 44
1.0
1001
ACAD
1000
MTEXTBEGIN
1070
    73
1070
     1
1070
    44
1040
1.0
1070
    74
1070
     0
1000
MTEXTEND
  0
MTEXT
  5
A62
330
A20
100
AcDbEntity
  8
RAHM2
100
AcDbMText
 10
-5.910409705344477
 20
22.49999999999997
 30
0.0
 40
2.5
 41
15.0
 71
     5
 72
     5
  1
担当
 73
     1
 44
1.0
1001
ACAD
1000
MTEXTBEGIN
1070
    73
1070
     1
1070
    44
1040
1.0
1070
    74
1070
     0
1000
MTEXTEND
  0
MTEXT
  5
A63
330
A20
100
AcDbEntity
  8
RAHM2
100
AcDbMText
 10
-22.27910888308327
 20
42.50000000000002
 30
0.0
 40
2.5
 41
20.0
 71
     5
 72
     5
  1
・  ・   
 73
     1
 44
1.0
1001
ACAD
1000
MTEXTBEGIN
1070
    73
1070
     1
1070
    44
1040
1.0
1070
    74
1070
     0
1000
MTEXTEND
  0
MTEXT
  5
A64
330
A20
100
AcDbEntity
  8
RAHM2
100
AcDbMText
 10
-22.27910888308327
 20
37.50000000000003
 30
0.0
 40
2.5
 41
20.0
 71
     5
 72
     5
  1
・  ・   
 73
     1
 44
1.0
1001
ACAD
1000
MTEXTBEGIN
1070
    73
1070
     1
1070
    44
1040
1.0
1070
    74
1070
     0
1000
MTEXTEND
  0
MTEXT
  5
A65
330
A20
100
AcDbEntity
  8
RAHM2
100
AcDbMText
 10
-22.27910888308327
 20
47.50000000000002
 30
0.0
 40
2.5
 41
20.0
 71
     5
 72
     5
  1
・  ・   
 73
     1
 44
1.0
1001
ACAD
1000
MTEXTBEGIN
1070
    73
1070
     1
1070
    44
1040
1.0
1070
    74
1070
     0
1000
MTEXTEND
  0
LINE
  5
A66
330
A20
100
AcDbEntity
  8
RAHM2
100
AcDbLine
 10
-91.0
 20
29.60000000000001
 30
0.0
 11
-93.42487113059645
 21
25.40000000000002
 31
0.0
  0
LINE
  5
A67
330
A20
100
AcDbEntity
  8
RAHM2
100
AcDbLine
 10
-88.57512886940355
 20
25.40000000000002
 30
0.0
 11
-91.0
 21
29.60000000000001
 31
0.0
  0
LINE
  5
A68
330
A20
100
AcDbEntity
  8
RAHM2
100
AcDbLine
 10
-93.42487113059645
 20
25.40000000000002
 30
0.0
 11
-88.57512886940355
 21
25.40000000000002
 31
0.0
  0
LINE
  5
A69
330
A20
100
AcDbEntity
  8
RAHM2
100
AcDbLine
 10
-96.0
 20
25.0
 30
0.0
 11
0.0000000000001137
 21
25.00000000000003
 31
0.0
  0
MTEXT
  5
A6A
330
A20
100
AcDbEntity
  8
RAHM2
100
AcDbMText
 10
-22.27910888308327
 20
27.50000000000003
 30
0.0
 40
2.5
 41
20.0
 71
     5
 72
     5
  1
・  ・   
 73
     1
 44
1.0
1001
ACAD
1000
MTEXTBEGIN
1070
    73
1070
     1
1070
    44
1040
1.0
1070
    74
1070
     0
1000
MTEXTEND
  0
TEXT
  5
A6B
330
A20
100
AcDbEntity
  8
RAHM2
100
AcDbText
 10
-91.81558635658019
 20
25.65000000000002
 30
0.0
 40
2.5
  1
1
 72
     1
 11
-91.19058635658019
 21
25.65000000000002
 31
0.0
100
AcDbText
 73
     1
  0
TEXT
  5
A6C
330
A20
100
AcDbEntity
  8
RAHM2
100
AcDbText
 10
-91.91833169291339
 20
30.65000000000002
 30
0.0
 40
2.5
  1
2
 72
     1
 11
-91.0
 21
30.65000000000002
 31
0.0
100
AcDbText
 73
     1
  0
TEXT
  5
A6D
330
A20
100
AcDbEntity
  8
RAHM2
100
AcDbText
 10
-91.92677669529663
 20
35.64999999999999
 30
0.0
 40
2.5
  1
3
 72
     1
 11
-91.0
 21
35.64999999999999
 31
0.0
100
AcDbText
 73
     1
  0
TEXT
  5
A6E
330
A20
100
AcDbEntity
  8
RAHM2
100
AcDbText
 10
-92.0
 20
40.65000000000002
 30
0.0
 40
2.5
  1
4
 72
     1
 11
-91.0
 21
40.65000000000002
 31
0.0
100
AcDbText
 73
     1
  0
TEXT
  5
A6F
330
A20
100
AcDbEntity
  8
RAHM2
100
AcDbText
 10
-91.92677669529663
 20
45.65000000000002
 30
0.0
 40
2.5
  1
5
 72
     1
 11
-91.0
 21
45.65000000000002
 31
0.0
100
AcDbText
 73
     1
  0
LINE
  5
A70
330
A20
100
AcDbEntity
  8
0
100
AcDbLine
 10
-193.0000000000001
 20
0.0
 30
0.0
 11
0.0
 21
0.0
 31
0.0
1001
GENIUS_GENREC_14
1002
{
1000
PYDIR
1011
-184.0
1021
50.0
1031
0.0
1002
}
1002
{
1000
PXDIR
1011
0.0
1021
0.0
1031
0.0
1002
}
1002
{
1000
PORI
1011
-184.0
1021
0.0
1031
0.0
1002
}
1002
{
1000
PINS
1011
-100.5
1021
25.0
1031
0.0
1002
}
1002
{
1000
HVAL
1000
50
1002
}
1002
{
1000
H
1070
     2
1002
}
1002
{
1000
WVAL
1000
167
1002
}
1002
{
1000
W
1070
     2
1002
}
1002
{
1000
C
1070
     4
1002
}
1001
GENIUS_GENODEF_13
1002
{
1000
HIER
1070
     0
1002
}
1002
{
1000
MANEDIT
1070
     0
1002
}
1002
{
1000
NOSEL
1070
     0
1002
}
1002
{
1000
BEHIND
1070
     0
1002
}
1002
{
1000
REACTOR
1002
}
1001
GENIUS_GENOBJ-N-REC_13
1002
{
1000
OWNER
1000
GEN
1002
}
  0
LINE
  5
A71
330
A20
100
AcDbEntity
  8
0
100
AcDbLine
 10
0.0
 20
50.0
 30
0.0
 11
-193.0000000000001
 21
50.00000000000002
 31
0.0
1001
GENIUS_GENREC_14
1002
{
1000
PYDIR
1011
-184.0
1021
50.0
1031
0.0
1002
}
1002
{
1000
PXDIR
1011
0.0
1021
0.0
1031
0.0
1002
}
1002
{
1000
PORI
1011
-184.0
1021
0.0
1031
0.0
1002
}
1002
{
1000
PINS
1011
-100.5
1021
25.0
1031
0.0
1002
}
1002
{
1000
HVAL
1000
50
1002
}
1002
{
1000
H
1070
     2
1002
}
1002
{
1000
WVAL
1000
167
1002
}
1002
{
1000
W
1070
     2
1002
}
1002
{
1000
C
1070
     4
1002
}
1001
GENIUS_GENODEF_13
1002
{
1000
HIER
1070
     0
1002
}
1002
{
1000
MANEDIT
1070
     0
1002
}
1002
{
1000
NOSEL
1070
     0
1002
}
1002
{
1000
BEHIND
1070
     0
1002
}
1002
{
1000
REACTOR
1002
}
1001
GENIUS_GENOBJ-N-REC_13
1002
{
1000
OWNER
1000
GEN
1002
}
  0
LINE
  5
A72
330
A20
100
AcDbEntity
  8
0
100
AcDbLine
 10
-96.0
 20
50.00000000000001
 30
0.0
 11
-96.0
 21
-0.0000000000000142
 31
0.0
1001
GENIUS_GENREC_14
1002
{
1000
PYDIR
1011
-96.0
1021
49.99999999999999
1031
0.0
1002
}
1002
{
1000
PXDIR
1011
88.0
1021
-0.0000000000000142
1031
0.0
1002
}
1002
{
1000
PORI
1011
-96.0
1021
-0.0000000000000142
1031
0.0
1002
}
1002
{
1000
PINS
1011
-12.5
1021
24.99999999999999
1031
0.0
1002
}
1002
{
1000
HVAL
1000
50
1002
}
1002
{
1000
H
1070
     2
1002
}
1002
{
1000
WVAL
1000
167
1002
}
1002
{
1000
W
1070
     2
1002
}
1002
{
1000
C
1070
     4
1002
}
1001
GENIUS_GENODEF_13
1002
{
1000
HIER
1070
     0
1002
}
1002
{
1000
MANEDIT
1070
     0
1002
}
1002
{
1000
NOSEL
1070
     0
1002
}
1002
{
1000
BEHIND
1070
     0
1002
}
1002
{
1000
REACTOR
1002
}
1001
GENIUS_GENOBJ-N-REC_13
1002
{
1000
OWNER
1000
GEN
1002
}
  0
ATTDEF
  5
A73
330
A20
100
AcDbEntity
  8
0
100
AcDbText
 10
-84.0
 20
1.999999999999957
 30
0.0
 40
3.0
  1

100
AcDbAttributeDefinition
  3
図番
  2
GEN-TITLE-NR1
 70
     0
  0
ATTDEF
  5
A74
330
A20
100
AcDbEntity
  8
0
100
AcDbText
 10
-84.0
 20
9.149999999999948
 30
0.0
 40
2.5
  1

100
AcDbAttributeDefinition
  3
サブタイトル
  2
GEN-TITLE-DES2
 70
     0
  0
LINE
  5
A75
330
A20
100
AcDbEntity
  8
0
100
AcDbLine
 10
0.0
 20
0.0
 30
0.0
 11
0.0
 21
50.0
 31
0.0
1001
GENIUS_GENREC_14
1002
{
1000
PYDIR
1011
-414.0
1021
291.0
1031
0.0
1002
}
1002
{
1000
PXDIR
1011
6.0
1021
-6.0
1031
0.0
1002
}
1002
{
1000
PORI
1011
-414.0
1021
-6.0
1031
0.0
1002
}
1002
{
1000
PINS
1011
-414.0
1021
-6.0
1031
0.0
1002
}
1002
{
1000
HVAL
1000
297
1002
}
1002
{
1000
H
1070
     2
1002
}
1002
{
1000
WVAL
1000
420
1002
}
1002
{
1000
W
1070
     2
1002
}
1002
{
1000
C
1070
     1
1002
}
1001
GENIUS_GENODEF_13
1002
{
1000
HIER
1070
     0
1002
}
1002
{
1000
MANEDIT
1070
     0
1002
}
1002
{
1000
NOSEL
1070
     0
1002
}
1002
{
1000
BEHIND
1070
     0
1002
}
1002
{
1000
OTHER
1070
     0
1002
}
1002
{
1000
REACTOR
1002
}
1001
GENIUS_GENOBJ-N-REC_13
1002
{
1000
OWNER
1000
GEN
1002
}
  0
ATTDEF
  5
A76
330
A20
100
AcDbEntity
  8
0
100
AcDbText
 10
-84.14251901585329
 20
12.82790432564377
 30
0.0
 40
3.5
  1

100
AcDbAttributeDefinition
  3
品名
  2
GEN-TITLE-DES1
 70
     0
  0
ATTDEF
  5
A77
330
A20
100
AcDbEntity
  8
0
100
AcDbText
 10
-8.002309189545826
 20
1.705189434395036
 30
0.0
 40
2.5
  1

100
AcDbAttributeDefinition
  3
Rev.
  2
GEN-TITLE-NR2
 70
     0
  0
POINT
  5
A78
330
A20
100
AcDbEntity
  8
0
 60
     1
100
AcDbPoint
 10
-418.5355579819675
 20
-138.1104841268254
 30
0.0
1001
GENIUS_GENODEF_13
1002
{
1000
HIER
1070
    10
1002
}
1002
{
1000
MANEDIT
1070
     0
1002
}
1002
{
1000
NOSEL
1070
     0
1002
}
1002
{
1000
BEHIND
1070
     0
1002
}
1002
{
1000
REACTOR
1002
}
1001
GENIUS_GENOBJ-N-CRS_13
1002
{
1000
OWNER
1000
GEN
1002
}
1001
GENIUS_GENOENT_13
1002
{
1000
MYREF
1005
A78
1002
}
1002
{
1000
GRP
1005
0
1002
}
1001
GENIUS_GENOLIS_13
1002
{
1000
ENT
1005
A32
1005
A31
1005
A2D
1005
A2A
1002
}
  0
ENDBLK
  5
A7B
330
A20
100
AcDbEntity
  8
0
100
AcDbBlockEnd
  0
BLOCK
  5
AAA
330
AA1
100
AcDbEntity
  8
0
100
AcDbBlockBegin
  2
TAKACHI-A4-2
 70
     0
 10
0.0
 20
0.0
 30
0.0
  3
TAKACHI-A4-2
  1

  0
LINE
  5
AA2
330
AA1
100
AcDbEntity
  8
0
100
AcDbLine
 10
149.0
 20
275.0
 30
0.0
 11
193.0
 21
275.0
 31
0.0
  0
MTEXT
  5
AA3
330
AA1
100
AcDbEntity
  8
0
100
AcDbMText
 10
192.3592953827349
 20
276.1085429872271
 30
0.0
 40
2.5
 41
43.07840397728298
 71
     9
 72
     5
  1
(文書番号：TY-34)2008.02.08
 73
     1
 44
1.0
1001
ACAD
1000
MTEXTBEGIN
1070
    73
1070
     1
1070
    44
1040
1.0
1070
    74
1070
     0
1000
MTEXTEND
  0
LINE
  5
AA4
330
AA1
100
AcDbEntity
  8
0
100
AcDbLine
 10
149.0
 20
280.0000000000001
 30
0.0
 11
149.0
 21
275.0
 31
0.0
  0
LWPOLYLINE
  5
AA5
330
AA1
100
AcDbEntity
  8
0
100
AcDbPolyline
 90
        4
 70
     1
 43
0.0
 10
0.0
 20
0.0
 10
193.0
 20
0.0
 10
193.0
 20
280.0
 10
0.0
 20
280.0
1001
GENIUS_GENREC_14
1002
{
1000
PYDIR
1011
-8.5
1021
288.5
1031
0.0
1002
}
1002
{
1000
PXDIR
1011
201.5
1021
-8.5
1031
0.0
1002
}
1002
{
1000
PORI
1011
-8.5
1021
-8.5
1031
0.0
1002
}
1002
{
1000
PINS
1011
-8.5
1021
-8.5
1031
0.0
1002
}
1002
{
1000
HVAL
1000
297
1002
}
1002
{
1000
H
1070
     2
1002
}
1002
{
1000
WVAL
1000
210
1002
}
1002
{
1000
W
1070
     2
1002
}
1002
{
1000
C
1070
     1
1002
}
1001
GENIUS_GENOBJ-N-REC_13
1002
{
1000
OWNER
1000
GEN
1002
}
1001
GENIUS_GENODEF_13
1002
{
1000
HIER
1070
     0
1002
}
1002
{
1000
MANEDIT
1070
     0
1002
}
1002
{
1000
NOSEL
1070
     0
1002
}
1002
{
1000
BEHIND
1070
     0
1002
}
1002
{
1000
OTHER
1070
     0
1002
}
1002
{
1000
REACTOR
1002
}
  0
TEXT
  5
AA6
330
AA1
100
AcDbEntity
  8
0
 60
     1
100
AcDbText
 10
193.0
 20
0.0
 30
0.0
 40
2.5
  1
!GENTITLE-INSERT
100
AcDbText
  0
TEXT
  5
AA7
330
AA1
100
AcDbEntity
  8
0
 60
     1
100
AcDbText
 10
193.0
 20
280.0
 30
0.0
 40
2.5
  1
!GENTITLE-MAX
100
AcDbText
  0
TEXT
  5
AA8
330
AA1
100
AcDbEntity
  8
0
 60
     1
100
AcDbText
 10
0.0
 20
0.0
 30
0.0
 40
2.5
  1
!GENTITLE-LL
100
AcDbText
  0
ENDBLK
  5
AAB
330
AA1
100
AcDbEntity
  8
0
100
AcDbBlockEnd
  0
BLOCK
  5
AF2
330
AE9
100
AcDbEntity
  8
0
100
AcDbBlockBegin
  2
TK-A3
 70
     0
 10
0.0
 20
0.0
 30
0.0
  3
TK-A3
  1

  0
LINE
  5
AEA
330
AE9
100
AcDbEntity
  8
0
100
AcDbLine
 10
359.0
 20
280.0
 30
0.0
 11
359.0
 21
275.0
 31
0.0
  0
MTEXT
  5
AEB
330
AE9
100
AcDbEntity
  8
0
100
AcDbMText
 10
402.3592953827349
 20
276.108542987227
 30
0.0
 40
2.5
 41
43.07840397728298
 71
     9
 72
     5
  1
(文書番号：TY-34)2008.02.08
 73
     1
 44
1.0
1001
ACAD
1000
MTEXTBEGIN
1070
    73
1070
     1
1070
    44
1040
1.0
1070
    74
1070
     0
1000
MTEXTEND
  0
LINE
  5
AEC
330
AE9
100
AcDbEntity
  8
0
100
AcDbLine
 10
359.0
 20
275.0
 30
0.0
 11
403.0
 21
275.0
 31
0.0
  0
TEXT
  5
AED
330
AE9
100
AcDbEntity
  8
0
 60
     1
100
AcDbText
 10
403.0
 20
0.0
 30
0.0
 40
2.5
  1
!GENTITLE-INSERT
100
AcDbText
  0
TEXT
  5
AEE
330
AE9
100
AcDbEntity
  8
0
 60
     1
100
AcDbText
 10
0.0
 20
0.0
 30
0.0
 40
2.5
  1
!GENTITLE-LL
100
AcDbText
  0
TEXT
  5
AEF
330
AE9
100
AcDbEntity
  8
0
 60
     1
100
AcDbText
 10
403.0
 20
280.0
 30
0.0
 40
2.5
  1
!GENTITLE-MAX
100
AcDbText
  0
LWPOLYLINE
  5
AF0
330
AE9
100
AcDbEntity
  8
0
100
AcDbPolyline
 90
        4
 70
     1
 43
0.0
 10
0.0
 20
0.0
 10
403.0
 20
0.0
 10
403.0
 20
280.0
 10
0.0
 20
280.0000000000001
1001
GENIUS_GENREC_14
1002
{
1000
PYDIR
1011
0.0000000000000178
1021
280.0
1031
0.0
1002
}
1002
{
1000
PXDIR
1011
403.0
1021
0.0
1031
0.0
1002
}
1002
{
1000
PORI
1011
0.0
1021
0.0
1031
0.0
1002
}
1002
{
1000
PINS
1011
0.0
1021
0.0
1031
0.0
1002
}
1002
{
1000
PINS2
1011
403.0
1021
280.0
1031
0.0
1002
}
1002
{
1000
C
1070
     1
1002
}
1001
GENIUS_GENODEF_13
1002
{
1000
HIER
1070
     0
1002
}
1002
{
1000
MANEDIT
1070
     0
1002
}
1002
{
1000
NOSEL
1070
     0
1002
}
1002
{
1000
BEHIND
1070
     0
1002
}
1002
{
1000
OTHER
1070
     0
1002
}
1002
{
1000
REACTOR
1002
}
1001
GENIUS_GENOBJ-N-REC_13
1002
{
1000
OWNER
1000
GEN
1002
}
  0
ENDBLK
  5
AF3
330
AE9
100
AcDbEntity
  8
0
100
AcDbBlockEnd
  0
BLOCK
  5
B56
330
AFC
100
AcDbEntity
  8
0
100
AcDbBlockBegin
  2
TK-TITLE
 70
     2
 10
0.0
 20
0.0
 30
0.0
  3
TK-TITLE
  1

  0
LINE
  5
AFD
330
AFC
100
AcDbEntity
  8
0
100
AcDbLine
 10
-167.0
 20
12.49999999999996
 30
0.0
 11
-193.0000000000001
 21
12.49999999999996
 31
0.0
  0
LINE
  5
AFE
330
AFC
100
AcDbEntity
  8
0
100
AcDbLine
 10
-167.0
 20
37.49999999999998
 30
0.0
 11
-193.0000000000001
 21
37.49999999999998
 31
0.0
  0
ATTDEF
  5
AFF
330
AFC
100
AcDbEntity
  8
0
100
AcDbText
 10
-180.2171951662138
 20
3.588342537610664
 30
0.0
 40
3.0
  1

 72
     1
 11
-180.2171951662138
 21
3.588342537610664
 31
0.0
100
AcDbAttributeDefinition
  3
日付
  2
GEN-TITLE-DAT
 70
     0
 74
     1
  0
MTEXT
  5
B00
330
AFC
100
AcDbEntity
  8
RAHM2
100
AcDbMText
 10
-191.8002551371315
 20
11.3010354072796
 30
0.0
 40
2.5
 41
60.0
 71
     1
 72
     5
  1
日付
 73
     1
 44
1.0
1001
ACAD
1000
MTEXTBEGIN
1070
    73
1070
     1
1070
    44
1040
1.0
1070
    74
1070
     0
1000
MTEXTEND
  0
ATTDEF
  5
B01
330
AFC
100
AcDbEntity
  8
0
100
AcDbText
 10
-177.824739614424
 20
28.29999999999998
 30
0.0
 40
3.0
  1

 72
     2
 11
-177.824739614424
 21
28.29999999999998
 31
0.0
100
AcDbAttributeDefinition
  3
尺度
  2
GEN-TITLE-SCA
 70
     0
 74
     1
  0
MTEXT
  5
B02
330
AFC
100
AcDbEntity
  8
RAHM2
100
AcDbMText
 10
-191.8002551371315
 20
36.30103540727966
 30
0.0
 40
2.5
 41
20.0
 71
     1
 72
     5
  1
尺度
 73
     1
 44
1.0
1001
ACAD
1000
MTEXTBEGIN
1070
    73
1070
     1
1070
    44
1040
1.0
1070
    74
1070
     0
1000
MTEXTEND
  0
MTEXT
  5
B03
330
AFC
100
AcDbEntity
  8
RAHM2
100
AcDbMText
 10
-191.8002551371315
 20
23.80103540727963
 30
0.0
 40
2.5
 41
20.0
 71
     1
 72
     5
  1
数量
 73
     1
 44
1.0
1001
ACAD
1000
MTEXTBEGIN
1070
    73
1070
     1
1070
    44
1040
1.0
1070
    74
1070
     0
1000
MTEXTEND
  0
ATTDEF
  5
B04
330
AFC
100
AcDbEntity
  8
0
100
AcDbText
 10
-175.6127409126095
 20
15.79999999999994
 30
0.0
 40
3.0
  1

 72
     2
 11
-175.6127409126095
 21
15.79999999999994
 31
0.0
100
AcDbAttributeDefinition
  3
数量
  2
GEN-TITLE-QTY
 70
     0
 74
     1
  0
LINE
  5
B05
330
AFC
100
AcDbEntity
  8
0
100
AcDbLine
 10
-193.0000000000001
 20
49.99999999999999
 30
0.0
 11
-193.0000000000001
 21
-0.0000000000000142
 31
0.0
  0
LINE
  5
B06
330
AFC
100
AcDbEntity
  8
7A
100
AcDbLine
 10
-184.7167418745796
 20
43.74999999999995
 30
0.0
 11
-170.9354334742943
 21
43.74999999999995
 31
0.0
1001
GENIUS_GENOREF_13
1005
B54
  0
LINE
  5
B07
330
AFC
100
AcDbEntity
  8
0
100
AcDbLine
 10
-179.7167418745796
 20
45.74999999999994
 30
0.0
 11
-171.7167418745796
 21
46.74999999999995
 31
0.0
  0
LINE
  5
B08
330
AFC
100
AcDbEntity
  8
0
100
AcDbLine
 10
-171.7167418745796
 20
40.74999999999994
 30
0.0
 11
-179.7167418745796
 21
41.74999999999995
 31
0.0
  0
LINE
  5
B09
330
AFC
100
AcDbEntity
  8
7A
100
AcDbLine
 10
-184.7167418745796
 20
43.74999999999995
 30
0.0
 11
-184.7167418745796
 21
47.32478664473144
 31
0.0
1001
GENIUS_GENOREF_13
1005
B54
  0
CIRCLE
  5
B0A
330
AFC
100
AcDbEntity
  8
0
100
AcDbCircle
 10
-184.7167418745796
 20
43.74999999999995
 30
0.0
 40
2.0
  0
CIRCLE
  5
B0B
330
AFC
100
AcDbEntity
  8
0
100
AcDbCircle
 10
-184.7167418745796
 20
43.74999999999995
 30
0.0
 40
3.0
  0
LINE
  5
B0C
330
AFC
100
AcDbEntity
  8
0
100
AcDbLine
 10
-179.7167418745796
 20
41.74999999999995
 30
0.0
 11
-179.7167418745796
 21
45.74999999999994
 31
0.0
  0
LINE
  5
B0D
330
AFC
100
AcDbEntity
  8
7A
100
AcDbLine
 10
-184.7167418745796
 20
43.74999999999995
 30
0.0
 11
-188.4397792458307
 21
43.74999999999995
 31
0.0
1001
GENIUS_GENOREF_13
1005
B54
  0
LINE
  5
B0E
330
AFC
100
AcDbEntity
  8
7A
100
AcDbLine
 10
-184.7167418745796
 20
43.74999999999995
 30
0.0
 11
-184.7167418745796
 21
40.03991724228473
 31
0.0
1001
GENIUS_GENOREF_13
1005
B54
  0
LINE
  5
B0F
330
AFC
100
AcDbEntity
  8
0
100
AcDbLine
 10
-171.7167418745796
 20
46.74999999999995
 30
0.0
 11
-171.7167418745796
 21
40.74999999999994
 31
0.0
  0
LINE
  5
B10
330
AFC
100
AcDbEntity
  8
0
100
AcDbLine
 10
-167.0
 20
24.99999999999997
 30
0.0
 11
-193.0000000000001
 21
24.99999999999997
 31
0.0
  0
LINE
  5
B11
330
AFC
100
AcDbEntity
  8
0
100
AcDbLine
 10
-167.0
 20
39.99999999999991
 30
0.0
 11
-96.0
 21
39.99999999999992
 31
0.0
  0
MTEXT
  5
B12
330
AFC
100
AcDbEntity
  8
RAHM2
100
AcDbMText
 10
-165.8002551371314
 20
38.80103540727956
 30
0.0
 40
2.5
 41
60.0
 71
     1
 72
     5
  1
表面処理
 73
     1
 44
1.0
1001
ACAD
1000
MTEXTBEGIN
1070
    73
1070
     1
1070
    44
1040
1.0
1070
    74
1070
     0
1000
MTEXTEND
  0
MTEXT
  5
B13
330
AFC
100
AcDbEntity
  8
RAHM2
100
AcDbMText
 10
-165.8002551371314
 20
48.80103540727955
 30
0.0
 40
2.5
 41
60.0
 71
     1
 72
     5
  1
材質
 73
     1
 44
1.0
1001
ACAD
1000
MTEXTBEGIN
1070
    73
1070
     1
1070
    44
1040
1.0
1070
    74
1070
     0
1000
MTEXTEND
  0
ATTDEF
  5
B14
330
AFC
100
AcDbEntity
  8
0
100
AcDbText
 10
-148.9618675835291
 20
33.29999999999991
 30
0.0
 40
3.0
  1

100
AcDbAttributeDefinition
  3
表面処理
  2
GEN-TITLE-MAT2
 70
     0
  0
ATTDEF
  5
B15
330
AFC
100
AcDbEntity
  8
0
100
AcDbText
 10
-148.9618675835291
 20
43.29999999999991
 30
0.0
 40
3.0
  1

100
AcDbAttributeDefinition
  3
材質
  2
GEN-TITLE-MAT1
 70
     0
  0
MTEXT
  5
B16
330
AFC
100
AcDbEntity
  8
0
100
AcDbMText
 10
-131.5000000000001
 20
24.99999999999992
 30
0.0
 40
3.5
 41
60.0
 71
     5
 72
     5
  1
\fＭＳ ゴシック|b0|i0|c128|p49;株式会社タカチ電機工業
 73
     1
 44
1.0
1001
ACAD
1000
MTEXTBEGIN
1070
    73
1070
     1
1070
    44
1040
1.0
1070
    74
1070
     0
1000
MTEXTEND
  0
LINE
  5
B17
330
AFC
100
AcDbEntity
  8
0
100
AcDbLine
 10
-167.0
 20
29.99999999999992
 30
0.0
 11
-96.0
 21
29.99999999999992
 31
0.0
  0
MTEXT
  5
B18
330
AFC
100
AcDbEntity
  8
RAHM2
100
AcDbMText
 10
-158.1250000000001
 20
18.80103540727956
 30
0.0
 40
2.5
 41
17.0
 71
     2
 72
     5
  1
承認
 73
     1
 44
1.0
1001
ACAD
1000
MTEXTBEGIN
1070
    73
1070
     1
1070
    44
1040
1.0
1070
    74
1070
     0
1000
MTEXTEND
  0
MTEXT
  5
B19
330
AFC
100
AcDbEntity
  8
RAHM2
100
AcDbMText
 10
-140.3750000000001
 20
18.80103540727958
 30
0.0
 40
2.5
 41
17.0
 71
     2
 72
     5
  1
承認
 73
     1
 44
1.0
1001
ACAD
1000
MTEXTBEGIN
1070
    73
1070
     1
1070
    44
1040
1.0
1070
    74
1070
     0
1000
MTEXTEND
  0
LINE
  5
B1A
330
AFC
100
AcDbEntity
  8
0
100
AcDbLine
 10
-149.2500000000001
 20
19.99999999999993
 30
0.0
 11
-149.2500000000001
 21
-0.0000000000000462
 31
0.0
  0
LINE
  5
B1B
330
AFC
100
AcDbEntity
  8
0
100
AcDbLine
 10
-167.0
 20
49.99999999999995
 30
0.0
 11
-167.0
 21
-0.0000000000000497
 31
0.0
  0
MTEXT
  5
B1C
330
AFC
100
AcDbEntity
  8
RAHM2
100
AcDbMText
 10
-122.6250000000001
 20
18.80103540727958
 30
0.0
 40
2.5
 41
17.0
 71
     2
 72
     5
  1
検図
 73
     1
 44
1.0
1001
ACAD
1000
MTEXTBEGIN
1070
    73
1070
     1
1070
    44
1040
1.0
1070
    74
1070
     0
1000
MTEXTEND
  0
LINE
  5
B1D
330
AFC
100
AcDbEntity
  8
0
100
AcDbLine
 10
-131.5000000000001
 20
19.99999999999993
 30
0.0
 11
-131.5000000000001
 21
-0.0000000000000533
 31
0.0
  0
LINE
  5
B1E
330
AFC
100
AcDbEntity
  8
0
100
AcDbLine
 10
-113.75
 20
19.99999999999993
 30
0.0
 11
-113.75
 21
-0.0000000000000533
 31
0.0
  0
LINE
  5
B1F
330
AFC
100
AcDbEntity
  8
0
100
AcDbLine
 10
-167.0
 20
19.99999999999993
 30
0.0
 11
-96.0
 21
19.99999999999993
 31
0.0
  0
MTEXT
  5
B20
330
AFC
100
AcDbEntity
  8
RAHM2
100
AcDbMText
 10
-104.875
 20
18.80103540727957
 30
0.0
 40
2.5
 41
17.0
 71
     2
 72
     5
  1
製図
 73
     1
 44
1.0
1001
ACAD
1000
MTEXTBEGIN
1070
    73
1070
     1
1070
    44
1040
1.0
1070
    74
1070
     0
1000
MTEXTEND
  0
MTEXT
  5
B21
330
AFC
100
AcDbEntity
  8
RAHM2
100
AcDbMText
 10
-16.85742592933491
 20
3.434762466565985
 30
0.0
 40
2.5
 41
7.936478436748416
 71
     5
 72
     5
  1
Rev.
 73
     1
 44
1.0
1001
ACAD
1000
MTEXTBEGIN
1070
    73
1070
     1
1070
    44
1040
1.0
1070
    74
1070
     0
1000
MTEXTEND
  0
LINE
  5
B22
330
AFC
100
AcDbEntity
  8
0
100
AcDbLine
 10
-21.17541926625711
 20
0.0
 30
0.0
 11
-21.17541926625734
 21
7.0
 31
0.0
  0
LINE
  5
B23
330
AFC
100
AcDbEntity
  8
RAHM2
100
AcDbLine
 10
-96.0
 20
29.99999999999992
 30
0.0
 11
0.0000000000001137
 21
30.00000000000003
 31
0.0
  0
LINE
  5
B24
330
AFC
100
AcDbEntity
  8
RAHM2
100
AcDbLine
 10
-96.0
 20
35.00000000000003
 30
0.0
 11
0.0000000000001137
 21
35.00000000000003
 31
0.0
  0
LINE
  5
B25
330
AFC
100
AcDbEntity
  8
RAHM2
100
AcDbLine
 10
-96.0
 20
39.99999999999993
 30
0.0
 11
0.0000000000001137
 21
40.00000000000002
 31
0.0
  0
LINE
  5
B26
330
AFC
100
AcDbEntity
  8
RAHM2
100
AcDbLine
 10
-96.0
 20
45.00000000000002
 30
0.0
 11
0.0000000000001137
 21
45.00000000000002
 31
0.0
  0
LINE
  5
B27
330
AFC
100
AcDbEntity
  8
0
100
AcDbLine
 10
-96.0
 20
7.0
 30
0.0
 11
0.0000000000001137
 21
7.0
 31
0.0
  0
LINE
  5
B28
330
AFC
100
AcDbEntity
  8
0
100
AcDbLine
 10
-96.0
 20
19.99999999999997
 30
0.0
 11
0.0000000000001137
 21
19.99999999999997
 31
0.0
  0
MTEXT
  5
B29
330
AFC
100
AcDbEntity
  8
RAHM2
100
AcDbMText
 10
-94.80025513713144
 20
5.801035407279627
 30
0.0
 40
2.5
 41
90.0
 71
     1
 72
     5
  1
図番
 73
     1
 44
1.0
1001
ACAD
1000
MTEXTBEGIN
1070
    73
1070
     1
1070
    44
1040
1.0
1070
    74
1070
     0
1000
MTEXTEND
  0
LINE
  5
B2A
330
AFC
100
AcDbEntity
  8
RAHM2
100
AcDbLine
 10
-88.57512886940355
 20
30.40000000000002
 30
0.0
 11
-91.0
 21
34.60000000000001
 31
0.0
  0
LINE
  5
B2B
330
AFC
100
AcDbEntity
  8
RAHM2
100
AcDbLine
 10
-91.0
 20
34.60000000000001
 30
0.0
 11
-93.42487113059645
 21
30.40000000000002
 31
0.0
  0
LINE
  5
B2C
330
AFC
100
AcDbEntity
  8
RAHM2
100
AcDbLine
 10
-86.0
 20
50.00000000000001
 30
0.0
 11
-86.0
 21
19.99999999999993
 31
0.0
  0
LINE
  5
B2D
330
AFC
100
AcDbEntity
  8
RAHM2
100
AcDbLine
 10
-93.42487113059645
 20
30.40000000000002
 30
0.0
 11
-88.57512886940355
 21
30.40000000000002
 31
0.0
  0
MTEXT
  5
B2E
330
AFC
100
AcDbEntity
  8
RAHM2
100
AcDbMText
 10
-91.0
 20
22.49999999999996
 30
0.0
 40
2.5
 41
10.0
 71
     5
 72
     5
  1
符号
 73
     1
 44
1.0
1001
ACAD
1000
MTEXTBEGIN
1070
    73
1070
     1
1070
    44
1040
1.0
1070
    74
1070
     0
1000
MTEXTEND
  0
MTEXT
  5
B2F
330
AFC
100
AcDbEntity
  8
RAHM2
100
AcDbMText
 10
-94.80025513713144
 20
18.8010354072796
 30
0.0
 40
2.5
 41
90.0
 71
     1
 72
     5
  1
品名
 73
     1
 44
1.0
1001
ACAD
1000
MTEXTBEGIN
1070
    73
1070
     1
1070
    44
1040
1.0
1070
    74
1070
     0
1000
MTEXTEND
  0
LINE
  5
B30
330
AFC
100
AcDbEntity
  8
RAHM2
100
AcDbLine
 10
-93.42487113059645
 20
45.40000000000001
 30
0.0
 11
-88.57512886940355
 21
45.40000000000001
 31
0.0
  0
LINE
  5
B31
330
AFC
100
AcDbEntity
  8
RAHM2
100
AcDbLine
 10
-88.57512886940355
 20
45.40000000000001
 30
0.0
 11
-91.0
 21
49.6
 31
0.0
  0
LINE
  5
B32
330
AFC
100
AcDbEntity
  8
RAHM2
100
AcDbLine
 10
-93.42487113059645
 20
40.40000000000001
 30
0.0
 11
-88.57512886940355
 21
40.40000000000001
 31
0.0
  0
LINE
  5
B33
330
AFC
100
AcDbEntity
  8
RAHM2
100
AcDbLine
 10
-88.57512886940355
 20
40.40000000000001
 30
0.0
 11
-91.0
 21
44.6
 31
0.0
  0
LINE
  5
B34
330
AFC
100
AcDbEntity
  8
RAHM2
100
AcDbLine
 10
-93.42487113059645
 20
35.40000000000002
 30
0.0
 11
-88.57512886940355
 21
35.40000000000002
 31
0.0
  0
LINE
  5
B35
330
AFC
100
AcDbEntity
  8
RAHM2
100
AcDbLine
 10
-88.57512886940355
 20
35.40000000000002
 30
0.0
 11
-91.0
 21
39.60000000000001
 31
0.0
  0
LINE
  5
B36
330
AFC
100
AcDbEntity
  8
RAHM2
100
AcDbLine
 10
-91.0
 20
39.60000000000001
 30
0.0
 11
-93.42487113059645
 21
35.40000000000002
 31
0.0
  0
LINE
  5
B37
330
AFC
100
AcDbEntity
  8
RAHM2
100
AcDbLine
 10
-91.0
 20
44.6
 30
0.0
 11
-93.42487113059645
 21
40.40000000000001
 31
0.0
  0
LINE
  5
B38
330
AFC
100
AcDbEntity
  8
RAHM2
100
AcDbLine
 10
-91.0
 20
49.6
 30
0.0
 11
-93.42487113059645
 21
45.40000000000001
 31
0.0
  0
LINE
  5
B39
330
AFC
100
AcDbEntity
  8
RAHM2
100
AcDbLine
 10
-31.82081941068907
 20
50.00000000000003
 30
0.0
 11
-31.82081941068918
 21
19.99999999999994
 31
0.0
  0
MTEXT
  5
B3A
330
AFC
100
AcDbEntity
  8
RAHM2
100
AcDbMText
 10
-59.0
 20
22.49999999999996
 30
0.0
 40
2.5
 41
45.0
 71
     5
 72
     5
  1
変更記事
 73
     1
 44
1.0
1001
ACAD
1000
MTEXTBEGIN
1070
    73
1070
     1
1070
    44
1040
1.0
1070
    74
1070
     0
1000
MTEXTEND
  0
LINE
  5
B3B
330
AFC
100
AcDbEntity
  8
RAHM2
100
AcDbLine
 10
-11.82081941068907
 20
50.00000000000003
 30
0.0
 11
-11.82081941068907
 21
19.99999999999994
 31
0.0
  0
MTEXT
  5
B3C
330
AFC
100
AcDbEntity
  8
RAHM2
100
AcDbMText
 10
-22.27910888308327
 20
32.50000000000003
 30
0.0
 40
2.5
 41
20.0
 71
     5
 72
     5
  1
・  ・   
 73
     1
 44
1.0
1001
ACAD
1000
MTEXTBEGIN
1070
    73
1070
     1
1070
    44
1040
1.0
1070
    74
1070
     0
1000
MTEXTEND
  0
MTEXT
  5
B3D
330
AFC
100
AcDbEntity
  8
RAHM2
100
AcDbMText
 10
-21.55893921569111
 20
22.49999999999997
 30
0.0
 40
2.5
 41
20.0
 71
     5
 72
     5
  1
年・月・日
 73
     1
 44
1.0
1001
ACAD
1000
MTEXTBEGIN
1070
    73
1070
     1
1070
    44
1040
1.0
1070
    74
1070
     0
1000
MTEXTEND
  0
MTEXT
  5
B3E
330
AFC
100
AcDbEntity
  8
RAHM2
100
AcDbMText
 10
-5.910409705344477
 20
22.49999999999997
 30
0.0
 40
2.5
 41
15.0
 71
     5
 72
     5
  1
担当
 73
     1
 44
1.0
1001
ACAD
1000
MTEXTBEGIN
1070
    73
1070
     1
1070
    44
1040
1.0
1070
    74
1070
     0
1000
MTEXTEND
  0
MTEXT
  5
B3F
330
AFC
100
AcDbEntity
  8
RAHM2
100
AcDbMText
 10
-22.27910888308327
 20
42.50000000000002
 30
0.0
 40
2.5
 41
20.0
 71
     5
 72
     5
  1
・  ・   
 73
     1
 44
1.0
1001
ACAD
1000
MTEXTBEGIN
1070
    73
1070
     1
1070
    44
1040
1.0
1070
    74
1070
     0
1000
MTEXTEND
  0
MTEXT
  5
B40
330
AFC
100
AcDbEntity
  8
RAHM2
100
AcDbMText
 10
-22.27910888308327
 20
37.50000000000003
 30
0.0
 40
2.5
 41
20.0
 71
     5
 72
     5
  1
・  ・   
 73
     1
 44
1.0
1001
ACAD
1000
MTEXTBEGIN
1070
    73
1070
     1
1070
    44
1040
1.0
1070
    74
1070
     0
1000
MTEXTEND
  0
MTEXT
  5
B41
330
AFC
100
AcDbEntity
  8
RAHM2
100
AcDbMText
 10
-22.27910888308327
 20
47.50000000000002
 30
0.0
 40
2.5
 41
20.0
 71
     5
 72
     5
  1
・  ・   
 73
     1
 44
1.0
1001
ACAD
1000
MTEXTBEGIN
1070
    73
1070
     1
1070
    44
1040
1.0
1070
    74
1070
     0
1000
MTEXTEND
  0
LINE
  5
B42
330
AFC
100
AcDbEntity
  8
RAHM2
100
AcDbLine
 10
-91.0
 20
29.60000000000001
 30
0.0
 11
-93.42487113059645
 21
25.40000000000002
 31
0.0
  0
LINE
  5
B43
330
AFC
100
AcDbEntity
  8
RAHM2
100
AcDbLine
 10
-88.57512886940355
 20
25.40000000000002
 30
0.0
 11
-91.0
 21
29.60000000000001
 31
0.0
  0
LINE
  5
B44
330
AFC
100
AcDbEntity
  8
RAHM2
100
AcDbLine
 10
-93.42487113059645
 20
25.40000000000002
 30
0.0
 11
-88.57512886940355
 21
25.40000000000002
 31
0.0
  0
LINE
  5
B45
330
AFC
100
AcDbEntity
  8
RAHM2
100
AcDbLine
 10
-96.0
 20
25.0
 30
0.0
 11
0.0000000000001137
 21
25.00000000000003
 31
0.0
  0
MTEXT
  5
B46
330
AFC
100
AcDbEntity
  8
RAHM2
100
AcDbMText
 10
-22.27910888308327
 20
27.50000000000003
 30
0.0
 40
2.5
 41
20.0
 71
     5
 72
     5
  1
・  ・   
 73
     1
 44
1.0
1001
ACAD
1000
MTEXTBEGIN
1070
    73
1070
     1
1070
    44
1040
1.0
1070
    74
1070
     0
1000
MTEXTEND
  0
TEXT
  5
B47
330
AFC
100
AcDbEntity
  8
RAHM2
100
AcDbText
 10
-91.81558635658019
 20
25.65000000000002
 30
0.0
 40
2.5
  1
1
 72
     1
 11
-91.19058635658019
 21
25.65000000000002
 31
0.0
100
AcDbText
 73
     1
  0
TEXT
  5
B48
330
AFC
100
AcDbEntity
  8
RAHM2
100
AcDbText
 10
-91.91833169291339
 20
30.65000000000002
 30
0.0
 40
2.5
  1
2
 72
     1
 11
-91.0
 21
30.65000000000002
 31
0.0
100
AcDbText
 73
     1
  0
TEXT
  5
B49
330
AFC
100
AcDbEntity
  8
RAHM2
100
AcDbText
 10
-91.92677669529663
 20
35.64999999999999
 30
0.0
 40
2.5
  1
3
 72
     1
 11
-91.0
 21
35.64999999999999
 31
0.0
100
AcDbText
 73
     1
  0
TEXT
  5
B4A
330
AFC
100
AcDbEntity
  8
RAHM2
100
AcDbText
 10
-92.0
 20
40.65000000000002
 30
0.0
 40
2.5
  1
4
 72
     1
 11
-91.0
 21
40.65000000000002
 31
0.0
100
AcDbText
 73
     1
  0
TEXT
  5
B4B
330
AFC
100
AcDbEntity
  8
RAHM2
100
AcDbText
 10
-91.92677669529663
 20
45.65000000000002
 30
0.0
 40
2.5
  1
5
 72
     1
 11
-91.0
 21
45.65000000000002
 31
0.0
100
AcDbText
 73
     1
  0
LINE
  5
B4C
330
AFC
100
AcDbEntity
  8
0
100
AcDbLine
 10
-193.0000000000001
 20
0.0
 30
0.0
 11
0.0
 21
0.0
 31
0.0
1001
GENIUS_GENREC_14
1002
{
1000
PYDIR
1011
-184.0
1021
50.0
1031
0.0
1002
}
1002
{
1000
PXDIR
1011
0.0
1021
0.0
1031
0.0
1002
}
1002
{
1000
PORI
1011
-184.0
1021
0.0
1031
0.0
1002
}
1002
{
1000
PINS
1011
-100.5
1021
25.0
1031
0.0
1002
}
1002
{
1000
HVAL
1000
50
1002
}
1002
{
1000
H
1070
     2
1002
}
1002
{
1000
WVAL
1000
167
1002
}
1002
{
1000
W
1070
     2
1002
}
1002
{
1000
C
1070
     4
1002
}
1001
GENIUS_GENODEF_13
1002
{
1000
HIER
1070
     0
1002
}
1002
{
1000
MANEDIT
1070
     0
1002
}
1002
{
1000
NOSEL
1070
     0
1002
}
1002
{
1000
BEHIND
1070
     0
1002
}
1002
{
1000
REACTOR
1002
}
1001
GENIUS_GENOBJ-N-REC_13
1002
{
1000
OWNER
1000
GEN
1002
}
  0
LINE
  5
B4D
330
AFC
100
AcDbEntity
  8
0
100
AcDbLine
 10
0.0
 20
50.0
 30
0.0
 11
-193.0000000000001
 21
50.00000000000002
 31
0.0
1001
GENIUS_GENREC_14
1002
{
1000
PYDIR
1011
-184.0
1021
50.0
1031
0.0
1002
}
1002
{
1000
PXDIR
1011
0.0
1021
0.0
1031
0.0
1002
}
1002
{
1000
PORI
1011
-184.0
1021
0.0
1031
0.0
1002
}
1002
{
1000
PINS
1011
-100.5
1021
25.0
1031
0.0
1002
}
1002
{
1000
HVAL
1000
50
1002
}
1002
{
1000
H
1070
     2
1002
}
1002
{
1000
WVAL
1000
167
1002
}
1002
{
1000
W
1070
     2
1002
}
1002
{
1000
C
1070
     4
1002
}
1001
GENIUS_GENODEF_13
1002
{
1000
HIER
1070
     0
1002
}
1002
{
1000
MANEDIT
1070
     0
1002
}
1002
{
1000
NOSEL
1070
     0
1002
}
1002
{
1000
BEHIND
1070
     0
1002
}
1002
{
1000
REACTOR
1002
}
1001
GENIUS_GENOBJ-N-REC_13
1002
{
1000
OWNER
1000
GEN
1002
}
  0
LINE
  5
B4E
330
AFC
100
AcDbEntity
  8
0
100
AcDbLine
 10
-96.0
 20
50.00000000000001
 30
0.0
 11
-96.0
 21
-0.0000000000000142
 31
0.0
1001
GENIUS_GENREC_14
1002
{
1000
PYDIR
1011
-96.0
1021
49.99999999999999
1031
0.0
1002
}
1002
{
1000
PXDIR
1011
88.0
1021
-0.0000000000000142
1031
0.0
1002
}
1002
{
1000
PORI
1011
-96.0
1021
-0.0000000000000142
1031
0.0
1002
}
1002
{
1000
PINS
1011
-12.5
1021
24.99999999999999
1031
0.0
1002
}
1002
{
1000
HVAL
1000
50
1002
}
1002
{
1000
H
1070
     2
1002
}
1002
{
1000
WVAL
1000
167
1002
}
1002
{
1000
W
1070
     2
1002
}
1002
{
1000
C
1070
     4
1002
}
1001
GENIUS_GENODEF_13
1002
{
1000
HIER
1070
     0
1002
}
1002
{
1000
MANEDIT
1070
     0
1002
}
1002
{
1000
NOSEL
1070
     0
1002
}
1002
{
1000
BEHIND
1070
     0
1002
}
1002
{
1000
REACTOR
1002
}
1001
GENIUS_GENOBJ-N-REC_13
1002
{
1000
OWNER
1000
GEN
1002
}
  0
ATTDEF
  5
B4F
330
AFC
100
AcDbEntity
  8
0
100
AcDbText
 10
-84.0
 20
1.999999999999957
 30
0.0
 40
3.0
  1

100
AcDbAttributeDefinition
  3
図番
  2
GEN-TITLE-NR1
 70
     0
  0
ATTDEF
  5
B50
330
AFC
100
AcDbEntity
  8
0
100
AcDbText
 10
-84.0
 20
9.149999999999948
 30
0.0
 40
2.5
  1

100
AcDbAttributeDefinition
  3
サブタイトル
  2
GEN-TITLE-DES2
 70
     0
  0
LINE
  5
B51
330
AFC
100
AcDbEntity
  8
0
100
AcDbLine
 10
0.0
 20
0.0
 30
0.0
 11
0.0
 21
50.0
 31
0.0
1001
GENIUS_GENREC_14
1002
{
1000
PYDIR
1011
-414.0
1021
291.0
1031
0.0
1002
}
1002
{
1000
PXDIR
1011
6.0
1021
-6.0
1031
0.0
1002
}
1002
{
1000
PORI
1011
-414.0
1021
-6.0
1031
0.0
1002
}
1002
{
1000
PINS
1011
-414.0
1021
-6.0
1031
0.0
1002
}
1002
{
1000
HVAL
1000
297
1002
}
1002
{
1000
H
1070
     2
1002
}
1002
{
1000
WVAL
1000
420
1002
}
1002
{
1000
W
1070
     2
1002
}
1002
{
1000
C
1070
     1
1002
}
1001
GENIUS_GENODEF_13
1002
{
1000
HIER
1070
     0
1002
}
1002
{
1000
MANEDIT
1070
     0
1002
}
1002
{
1000
NOSEL
1070
     0
1002
}
1002
{
1000
BEHIND
1070
     0
1002
}
1002
{
1000
OTHER
1070
     0
1002
}
1002
{
1000
REACTOR
1002
}
1001
GENIUS_GENOBJ-N-REC_13
1002
{
1000
OWNER
1000
GEN
1002
}
  0
ATTDEF
  5
B52
330
AFC
100
AcDbEntity
  8
0
100
AcDbText
 10
-84.14251901585329
 20
12.82790432564377
 30
0.0
 40
3.5
  1

100
AcDbAttributeDefinition
  3
品名
  2
GEN-TITLE-DES1
 70
     0
  0
ATTDEF
  5
B53
330
AFC
100
AcDbEntity
  8
0
100
AcDbText
 10
-8.002309189545826
 20
1.705189434395036
 30
0.0
 40
2.5
  1

100
AcDbAttributeDefinition
  3
Rev.
  2
GEN-TITLE-NR2
 70
     0
  0
POINT
  5
B54
330
AFC
100
AcDbEntity
  8
0
 60
     1
100
AcDbPoint
 10
-418.5355579819675
 20
-138.1104841268254
 30
0.0
1001
GENIUS_GENODEF_13
1002
{
1000
HIER
1070
    10
1002
}
1002
{
1000
MANEDIT
1070
     0
1002
}
1002
{
1000
NOSEL
1070
     0
1002
}
1002
{
1000
BEHIND
1070
     0
1002
}
1002
{
1000
REACTOR
1002
}
1001
GENIUS_GENOBJ-N-CRS_13
1002
{
1000
OWNER
1000
GEN
1002
}
1001
GENIUS_GENOENT_13
1002
{
1000
MYREF
1005
B54
1002
}
1002
{
1000
GRP
1005
0
1002
}
1001
GENIUS_GENOLIS_13
1002
{
1000
ENT
1005
B0E
1005
B0D
1005
B09
1005
B06
1002
}
  0
ENDBLK
  5
B57
330
AFC
100
AcDbEntity
  8
0
100
AcDbBlockEnd
  0
BLOCK
  5
C4D
330
C44
100
AcDbEntity
  8
0
100
AcDbBlockBegin
  2
TK-A4
 70
     0
 10
0.0
 20
0.0
 30
0.0
  3
TK-A4
  1

  0
LINE
  5
C45
330
C44
100
AcDbEntity
  8
0
100
AcDbLine
 10
149.0
 20
275.0
 30
0.0
 11
193.0
 21
275.0
 31
0.0
  0
MTEXT
  5
C46
330
C44
100
AcDbEntity
  8
0
100
AcDbMText
 10
192.3592953827349
 20
276.1085429872271
 30
0.0
 40
2.5
 41
43.07840397728298
 71
     9
 72
     5
  1
(文書番号：TY-34)2008.02.08
 73
     1
 44
1.0
1001
ACAD
1000
MTEXTBEGIN
1070
    73
1070
     1
1070
    44
1040
1.0
1070
    74
1070
     0
1000
MTEXTEND
  0
LINE
  5
C47
330
C44
100
AcDbEntity
  8
0
100
AcDbLine
 10
149.0
 20
280.0000000000001
 30
0.0
 11
149.0
 21
275.0
 31
0.0
  0
LWPOLYLINE
  5
C48
330
C44
100
AcDbEntity
  8
0
100
AcDbPolyline
 90
        4
 70
     1
 43
0.0
 10
0.0
 20
0.0
 10
193.0
 20
0.0
 10
193.0
 20
280.0
 10
0.0
 20
280.0
1001
GENIUS_GENREC_14
1002
{
1000
PYDIR
1011
-8.5
1021
288.5
1031
0.0
1002
}
1002
{
1000
PXDIR
1011
201.5
1021
-8.5
1031
0.0
1002
}
1002
{
1000
PORI
1011
-8.5
1021
-8.5
1031
0.0
1002
}
1002
{
1000
PINS
1011
-8.5
1021
-8.5
1031
0.0
1002
}
1002
{
1000
HVAL
1000
297
1002
}
1002
{
1000
H
1070
     2
1002
}
1002
{
1000
WVAL
1000
210
1002
}
1002
{
1000
W
1070
     2
1002
}
1002
{
1000
C
1070
     1
1002
}
1001
GENIUS_GENOBJ-N-REC_13
1002
{
1000
OWNER
1000
GEN
1002
}
1001
GENIUS_GENODEF_13
1002
{
1000
HIER
1070
     0
1002
}
1002
{
1000
MANEDIT
1070
     0
1002
}
1002
{
1000
NOSEL
1070
     0
1002
}
1002
{
1000
BEHIND
1070
     0
1002
}
1002
{
1000
OTHER
1070
     0
1002
}
1002
{
1000
REACTOR
1002
}
  0
TEXT
  5
C49
330
C44
100
AcDbEntity
  8
0
 60
     1
100
AcDbText
 10
193.0
 20
0.0
 30
0.0
 40
2.5
  1
!GENTITLE-INSERT
100
AcDbText
  0
TEXT
  5
C4A
330
C44
100
AcDbEntity
  8
0
 60
     1
100
AcDbText
 10
193.0
 20
280.0
 30
0.0
 40
2.5
  1
!GENTITLE-MAX
100
AcDbText
  0
TEXT
  5
C4B
330
C44
100
AcDbEntity
  8
0
 60
     1
100
AcDbText
 10
0.0
 20
0.0
 30
0.0
 40
2.5
  1
!GENTITLE-LL
100
AcDbText
  0
ENDBLK
  5
C4E
330
C44
100
AcDbEntity
  8
0
100
AcDbBlockEnd
  0
BLOCK
  5
3173
330
3172
100
AcDbEntity
  8
0
100
AcDbBlockBegin
  2
*D12
 70
     1
 10
0.0
 20
0.0
 30
0.0
  3
*D12
  1

  0
LINE
  5
31B8
330
3172
100
AcDbEntity
  8
AM_5
 62
     3
100
AcDbLine
 10
17.82004427473195
 20
21.88825719871145
 30
0.0
 11
17.82004427473195
 21
25.9821452134851
 31
0.0
  0
LINE
  5
31B9
330
3172
100
AcDbEntity
  8
AM_5
 62
     3
100
AcDbLine
 10
28.62004427473195
 20
21.88825719871145
 30
0.0
 11
28.62004427473195
 21
25.9821452134851
 31
0.0
  0
LINE
  5
31BA
330
3172
100
AcDbEntity
  8
AM_5
 62
     3
100
AcDbLine
 10
18.44504427473195
 20
25.7321452134851
 30
0.0
 11
27.99504427473195
 21
25.7321452134851
 31
0.0
  0
INSERT
  5
31BB
330
3172
100
AcDbEntity
  8
AM_5
 62
     3
100
AcDbBlockReference
  2
_Open30
 10
17.82004427473195
 20
25.7321452134851
 30
0.0
 41
0.625
 42
0.625
 43
0.625
 50
180.0
  0
INSERT
  5
31BC
330
3172
100
AcDbEntity
  8
AM_5
 62
     3
100
AcDbBlockReference
  2
_Open30
 10
28.62004427473195
 20
25.7321452134851
 30
0.0
 41
0.625
 42
0.625
 43
0.625
  0
MTEXT
  5
31BD
330
3172
100
AcDbEntity
  8
AM_5
 62
     2
100
AcDbMText
 10
23.22004427473195
 20
26.5446452134851
 30
0.0
 40
0.875
 41
0.0
 71
     5
 72
     1
  1
10.8
 73
     1
 44
1.0
1001
ACAD
1000
MTEXTBEGIN
1070
    73
1070
     1
1070
    44
1040
1.0
1070
    74
1070
     0
1000
MTEXTEND
  0
POINT
  5
31BE
330
3172
100
AcDbEntity
  8
Defpoints
 62
     0
100
AcDbPoint
 10
17.82004427473195
 20
21.63825719871145
 30
0.0
  0
POINT
  5
31BF
330
3172
100
AcDbEntity
  8
Defpoints
 62
     0
100
AcDbPoint
 10
28.62004427473195
 20
21.63825719871145
 30
0.0
  0
POINT
  5
31C0
330
3172
100
AcDbEntity
  8
Defpoints
 62
     0
100
AcDbPoint
 10
28.62004427473195
 20
25.7321452134851
 30
0.0
  0
ENDBLK
  5
3174
330
3172
100
AcDbEntity
  8
0
100
AcDbBlockEnd
  0
BLOCK
  5
319B
330
319A
100
AcDbEntity
  8
0
100
AcDbBlockBegin
  2
*D13
 70
     1
 10
0.0
 20
0.0
 30
0.0
  3
*D13
  1

  0
LINE
  5
31AF
330
319A
100
AcDbEntity
  8
AM_5
 62
     3
100
AcDbLine
 10
18.92004427473195
 20
21.88825719871145
 30
0.0
 11
18.92004427473195
 21
23.48214521348509
 31
0.0
  0
LINE
  5
31B0
330
319A
100
AcDbEntity
  8
AM_5
 62
     3
100
AcDbLine
 10
27.52004427473195
 20
21.88825719871145
 30
0.0
 11
27.52004427473195
 21
23.48214521348509
 31
0.0
  0
LINE
  5
31B1
330
319A
100
AcDbEntity
  8
AM_5
 62
     3
100
AcDbLine
 10
19.54504427473195
 20
23.23214521348509
 30
0.0
 11
26.89504427473195
 21
23.23214521348509
 31
0.0
  0
INSERT
  5
31B2
330
319A
100
AcDbEntity
  8
AM_5
 62
     3
100
AcDbBlockReference
  2
_Open30
 10
18.92004427473195
 20
23.23214521348509
 30
0.0
 41
0.625
 42
0.625
 43
0.625
 50
180.0
  0
INSERT
  5
31B3
330
319A
100
AcDbEntity
  8
AM_5
 62
     3
100
AcDbBlockReference
  2
_Open30
 10
27.52004427473195
 20
23.23214521348509
 30
0.0
 41
0.625
 42
0.625
 43
0.625
  0
MTEXT
  5
31B4
330
319A
100
AcDbEntity
  8
AM_5
 62
     2
100
AcDbMText
 10
23.22004427473195
 20
24.0446452134851
 30
0.0
 40
0.875
 41
0.0
 71
     5
 72
     1
  1
8.6
 73
     1
 44
1.0
1001
ACAD
1000
MTEXTBEGIN
1070
    73
1070
     1
1070
    44
1040
1.0
1070
    74
1070
     0
1000
MTEXTEND
  0
POINT
  5
31B5
330
319A
100
AcDbEntity
  8
Defpoints
 62
     0
100
AcDbPoint
 10
18.92004427473195
 20
21.63825719871145
 30
0.0
  0
POINT
  5
31B6
330
319A
100
AcDbEntity
  8
Defpoints
 62
     0
100
AcDbPoint
 10
27.52004427473195
 20
21.63825719871145
 30
0.0
  0
POINT
  5
31B7
330
319A
100
AcDbEntity
  8
Defpoints
 62
     0
100
AcDbPoint
 10
27.52004427473195
 20
23.23214521348509
 30
0.0
  0
ENDBLK
  5
319C
330
319A
100
AcDbEntity
  8
0
100
AcDbBlockEnd
  0
BLOCK
  5
31C3
330
31C2
100
AcDbEntity
  8
0
100
AcDbBlockBegin
  2
*D14
 70
     1
 10
0.0
 20
0.0
 30
0.0
  3
*D14
  1

  0
LINE
  5
31DB
330
31C2
100
AcDbEntity
  8
AM_5
 62
     3
100
AcDbLine
 10
17.57004427473195
 20
21.63825719871145
 30
0.0
 11
14.57004427473195
 21
21.63825719871145
 31
0.0
  0
LINE
  5
31DC
330
31C2
100
AcDbEntity
  8
AM_5
 62
     3
100
AcDbLine
 10
17.57004427473195
 20
20.23825719871146
 30
0.0
 11
14.57004427473195
 21
20.23825719871146
 31
0.0
  0
LINE
  5
31DD
330
31C2
100
AcDbEntity
  8
AM_5
 62
     3
100
AcDbLine
 10
14.82004427473194
 20
22.26325719871145
 30
0.0
 11
14.82004427473194
 21
22.88825719871145
 31
0.0
  0
LINE
  5
31DE
330
31C2
100
AcDbEntity
  8
AM_5
 62
     3
100
AcDbLine
 10
14.82004427473194
 20
19.61325719871145
 30
0.0
 11
14.82004427473194
 21
17.10075719871145
 31
0.0
  0
LINE
  5
31DF
330
31C2
100
AcDbEntity
  8
AM_5
 62
     3
100
AcDbLine
 10
14.82004427473194
 20
21.63825719871145
 30
0.0
 11
14.82004427473194
 21
20.23825719871146
 31
0.0
  0
INSERT
  5
31E0
330
31C2
100
AcDbEntity
  8
AM_5
 62
     3
100
AcDbBlockReference
  2
_Open30
 10
14.82004427473194
 20
21.63825719871145
 30
0.0
 41
0.625
 42
0.625
 43
0.625
 50
270.0
  0
INSERT
  5
31E1
330
31C2
100
AcDbEntity
  8
AM_5
 62
     3
100
AcDbBlockReference
  2
_Open30
 10
14.82004427473194
 20
20.23825719871146
 30
0.0
 41
0.625
 42
0.625
 43
0.625
 50
90.0
  0
MTEXT
  5
31E2
330
31C2
100
AcDbEntity
  8
AM_5
 62
     2
100
AcDbMText
 10
14.00754427473194
 20
18.04450719871146
 30
0.0
 40
0.875
 41
0.0
 71
     5
 72
     1
  1
1.4
 11
0.0000000000000001
 21
1.0
 31
0.0
 73
     1
 44
1.0
1001
ACAD
1000
MTEXTBEGIN
1070
    73
1070
     1
1070
    44
1040
1.0
1070
    74
1070
     0
1000
MTEXTEND
  0
POINT
  5
31E3
330
31C2
100
AcDbEntity
  8
Defpoints
 62
     0
100
AcDbPoint
 10
17.82004427473195
 20
21.63825719871145
 30
0.0
  0
POINT
  5
31E4
330
31C2
100
AcDbEntity
  8
Defpoints
 62
     0
100
AcDbPoint
 10
17.82004427473195
 20
20.23825719871146
 30
0.0
  0
POINT
  5
31E5
330
31C2
100
AcDbEntity
  8
Defpoints
 62
     0
100
AcDbPoint
 10
14.82004427473194
 20
20.23825719871146
 30
0.0
  0
ENDBLK
  5
31C4
330
31C2
100
AcDbEntity
  8
0
100
AcDbBlockEnd
  0
BLOCK
  5
321F
330
321E
100
AcDbEntity
  8
0
100
AcDbBlockBegin
  2
*D15
 70
     1
 10
0.0
 20
0.0
 30
0.0
  3
*D15
  1

  0
LINE
  5
32D2
330
321E
100
AcDbEntity
  8
AM_5
 62
     3
100
AcDbLine
 10
28.37004427473195
 20
51.16064082674198
 30
0.0
 11
28.37004427473195
 21
57.87640372183552
 31
0.0
  0
LINE
  5
32D3
330
321E
100
AcDbEntity
  8
AM_5
 62
     3
100
AcDbLine
 10
27.72004427473195
 20
52.53564082674198
 30
0.0
 11
27.72004427473195
 21
57.87640372183552
 31
0.0
  0
LINE
  5
32D4
330
321E
100
AcDbEntity
  8
AM_5
 62
     3
100
AcDbLine
 10
28.99504427473195
 20
57.62640372183551
 30
0.0
 11
29.62004427473195
 21
57.62640372183551
 31
0.0
  0
LINE
  5
32D5
330
321E
100
AcDbEntity
  8
AM_5
 62
     3
100
AcDbLine
 10
27.09504427473195
 20
57.62640372183551
 30
0.0
 11
26.47004427473195
 21
57.62640372183551
 31
0.0
  0
LINE
  5
32D6
330
321E
100
AcDbEntity
  8
AM_5
 62
     3
100
AcDbLine
 10
28.37004427473195
 20
57.62640372183551
 30
0.0
 11
27.72004427473195
 21
57.62640372183551
 31
0.0
  0
INSERT
  5
32D7
330
321E
100
AcDbEntity
  8
AM_5
 62
     3
100
AcDbBlockReference
  2
_Open30
 10
28.37004427473195
 20
57.62640372183551
 30
0.0
 41
0.625
 42
0.625
 43
0.625
 50
180.0
  0
INSERT
  5
32D8
330
321E
100
AcDbEntity
  8
AM_5
 62
     3
100
AcDbBlockReference
  2
_Open30
 10
27.72004427473195
 20
57.62640372183551
 30
0.0
 41
0.625
 42
0.625
 43
0.625
  0
MTEXT
  5
32D9
330
321E
100
AcDbEntity
  8
AM_5
 62
     2
100
AcDbMText
 10
28.04504427473195
 20
58.43890372183551
 30
0.0
 40
0.875
 41
0.0
 71
     5
 72
     1
  1
0.65
 73
     1
 44
1.0
1001
ACAD
1000
MTEXTBEGIN
1070
    73
1070
     1
1070
    44
1040
1.0
1070
    74
1070
     0
1000
MTEXTEND
  0
POINT
  5
32DA
330
321E
100
AcDbEntity
  8
Defpoints
 62
     0
100
AcDbPoint
 10
28.37004427473195
 20
50.91064082674198
 30
0.0
  0
POINT
  5
32DB
330
321E
100
AcDbEntity
  8
Defpoints
 62
     0
100
AcDbPoint
 10
27.72004427473195
 20
52.28564082674198
 30
0.0
  0
POINT
  5
32DC
330
321E
100
AcDbEntity
  8
Defpoints
 62
     0
100
AcDbPoint
 10
27.72004427473195
 20
57.62640372183551
 30
0.0
  0
ENDBLK
  5
3220
330
321E
100
AcDbEntity
  8
0
100
AcDbBlockEnd
  0
BLOCK
  5
325A
330
3259
100
AcDbEntity
  8
0
100
AcDbBlockBegin
  2
*D16
 70
     1
 10
0.0
 20
0.0
 30
0.0
  3
*D16
  1

  0
LINE
  5
32DD
330
3259
100
AcDbEntity
  8
AM_5
 62
     3
100
AcDbLine
 10
27.72004427473195
 20
52.53564082674198
 30
0.0
 11
27.72004427473195
 21
57.87640372183552
 31
0.0
  0
LINE
  5
32DE
330
3259
100
AcDbEntity
  8
AM_5
 62
     3
100
AcDbLine
 10
18.72004427473195
 20
52.53564082674198
 30
0.0
 11
18.72004427473195
 21
57.87640372183552
 31
0.0
  0
LINE
  5
32DF
330
3259
100
AcDbEntity
  8
AM_5
 62
     3
100
AcDbLine
 10
27.09504427473195
 20
57.62640372183551
 30
0.0
 11
19.34504427473195
 21
57.62640372183551
 31
0.0
  0
INSERT
  5
32E0
330
3259
100
AcDbEntity
  8
AM_5
 62
     3
100
AcDbBlockReference
  2
_Open30
 10
27.72004427473195
 20
57.62640372183551
 30
0.0
 41
0.625
 42
0.625
 43
0.625
  0
INSERT
  5
32E1
330
3259
100
AcDbEntity
  8
AM_5
 62
     3
100
AcDbBlockReference
  2
_Open30
 10
18.72004427473195
 20
57.62640372183551
 30
0.0
 41
0.625
 42
0.625
 43
0.625
 50
180.0
  0
MTEXT
  5
32E2
330
3259
100
AcDbEntity
  8
AM_5
 62
     2
100
AcDbMText
 10
23.21291345329007
 20
58.43890372183551
 30
0.0
 40
0.875
 41
0.0
 71
     5
 72
     1
  1
9
 73
     1
 44
1.0
1001
ACAD
1000
MTEXTBEGIN
1070
    73
1070
     1
1070
    44
1040
1.0
1070
    74
1070
     0
1000
MTEXTEND
  0
POINT
  5
32E3
330
3259
100
AcDbEntity
  8
Defpoints
 62
     0
100
AcDbPoint
 10
27.72004427473195
 20
52.28564082674198
 30
0.0
  0
POINT
  5
32E4
330
3259
100
AcDbEntity
  8
Defpoints
 62
     0
100
AcDbPoint
 10
18.72004427473195
 20
52.28564082674198
 30
0.0
  0
POINT
  5
32E5
330
3259
100
AcDbEntity
  8
Defpoints
 62
     0
100
AcDbPoint
 10
18.72004427473195
 20
57.62640372183551
 30
0.0
  0
ENDBLK
  5
325B
330
3259
100
AcDbEntity
  8
0
100
AcDbBlockEnd
  0
BLOCK
  5
3279
330
3278
100
AcDbEntity
  8
0
100
AcDbBlockBegin
  2
*D17
 70
     1
 10
0.0
 20
0.0
 30
0.0
  3
*D17
  1

  0
LINE
  5
32E6
330
3278
100
AcDbEntity
  8
AM_5
 62
     3
100
AcDbLine
 10
18.72004427473195
 20
52.53564082674198
 30
0.0
 11
18.72004427473195
 21
57.87640372183552
 31
0.0
  0
LINE
  5
32E7
330
3278
100
AcDbEntity
  8
AM_5
 62
     3
100
AcDbLine
 10
18.07004427473195
 20
51.16064082674198
 30
0.0
 11
18.07004427473195
 21
57.87640372183552
 31
0.0
  0
LINE
  5
32E8
330
3278
100
AcDbEntity
  8
AM_5
 62
     3
100
AcDbLine
 10
19.34504427473195
 20
57.62640372183551
 30
0.0
 11
19.97004427473195
 21
57.62640372183551
 31
0.0
  0
LINE
  5
32E9
330
3278
100
AcDbEntity
  8
AM_5
 62
     3
100
AcDbLine
 10
17.44504427473195
 20
57.62640372183551
 30
0.0
 11
16.82004427473195
 21
57.62640372183551
 31
0.0
  0
LINE
  5
32EA
330
3278
100
AcDbEntity
  8
AM_5
 62
     3
100
AcDbLine
 10
18.72004427473195
 20
57.62640372183551
 30
0.0
 11
18.07004427473195
 21
57.62640372183551
 31
0.0
  0
INSERT
  5
32EB
330
3278
100
AcDbEntity
  8
AM_5
 62
     3
100
AcDbBlockReference
  2
_Open30
 10
18.72004427473195
 20
57.62640372183551
 30
0.0
 41
0.625
 42
0.625
 43
0.625
 50
180.0
  0
INSERT
  5
32EC
330
3278
100
AcDbEntity
  8
AM_5
 62
     3
100
AcDbBlockReference
  2
_Open30
 10
18.07004427473195
 20
57.62640372183551
 30
0.0
 41
0.625
 42
0.625
 43
0.625
  0
MTEXT
  5
32ED
330
3278
100
AcDbEntity
  8
AM_5
 62
     2
100
AcDbMText
 10
18.39504427473195
 20
58.43890372183551
 30
0.0
 40
0.875
 41
0.0
 71
     5
 72
     1
  1
0.65
 73
     1
 44
1.0
1001
ACAD
1000
MTEXTBEGIN
1070
    73
1070
     1
1070
    44
1040
1.0
1070
    74
1070
     0
1000
MTEXTEND
  0
POINT
  5
32EE
330
3278
100
AcDbEntity
  8
Defpoints
 62
     0
100
AcDbPoint
 10
18.72004427473195
 20
52.28564082674198
 30
0.0
  0
POINT
  5
32EF
330
3278
100
AcDbEntity
  8
Defpoints
 62
     0
100
AcDbPoint
 10
18.07004427473195
 20
50.91064082674198
 30
0.0
  0
POINT
  5
32F0
330
3278
100
AcDbEntity
  8
Defpoints
 62
     0
100
AcDbPoint
 10
18.07004427473195
 20
57.62640372183551
 30
0.0
  0
ENDBLK
  5
327A
330
3278
100
AcDbEntity
  8
0
100
AcDbBlockEnd
  0
BLOCK
  5
32F3
330
32F2
100
AcDbEntity
  8
0
100
AcDbBlockBegin
  2
*D18
 70
     1
 10
0.0
 20
0.0
 30
0.0
  3
*D18
  1

  0
LINE
  5
3310
330
32F2
100
AcDbEntity
  8
AM_5
 62
     3
100
AcDbLine
 10
20.84504427473195
 20
54.33564082674198
 30
0.0
 11
20.84504427473195
 21
55.62860488979149
 31
0.0
  0
LINE
  5
3311
330
32F2
100
AcDbEntity
  8
AM_5
 62
     3
100
AcDbLine
 10
25.59504427473195
 20
54.33564082674198
 30
0.0
 11
25.59504427473195
 21
55.62860488979149
 31
0.0
  0
LINE
  5
3312
330
32F2
100
AcDbEntity
  8
AM_5
 62
     3
100
AcDbLine
 10
21.47004427473195
 20
55.37860488979148
 30
0.0
 11
24.97004427473195
 21
55.37860488979148
 31
0.0
  0
INSERT
  5
3313
330
32F2
100
AcDbEntity
  8
AM_5
 62
     3
100
AcDbBlockReference
  2
_Open30
 10
20.84504427473195
 20
55.37860488979148
 30
0.0
 41
0.625
 42
0.625
 43
0.625
 50
180.0
  0
INSERT
  5
3314
330
32F2
100
AcDbEntity
  8
AM_5
 62
     3
100
AcDbBlockReference
  2
_Open30
 10
25.59504427473195
 20
55.37860488979148
 30
0.0
 41
0.625
 42
0.625
 43
0.625
  0
MTEXT
  5
3315
330
32F2
100
AcDbEntity
  8
AM_5
 62
     2
100
AcDbMText
 10
23.22004427473195
 20
56.19110488979149
 30
0.0
 40
0.875
 41
0.0
 71
     5
 72
     1
  1
4.75
 73
     1
 44
1.0
1001
ACAD
1000
MTEXTBEGIN
1070
    73
1070
     1
1070
    44
1040
1.0
1070
    74
1070
     0
1000
MTEXTEND
  0
POINT
  5
3316
330
32F2
100
AcDbEntity
  8
Defpoints
 62
     0
100
AcDbPoint
 10
20.84504427473195
 20
54.08564082674199
 30
0.0
  0
POINT
  5
3317
330
32F2
100
AcDbEntity
  8
Defpoints
 62
     0
100
AcDbPoint
 10
25.59504427473195
 20
54.08564082674199
 30
0.0
  0
POINT
  5
3318
330
32F2
100
AcDbEntity
  8
Defpoints
 62
     0
100
AcDbPoint
 10
25.59504427473195
 20
55.37860488979148
 30
0.0
  0
ENDBLK
  5
32F4
330
32F2
100
AcDbEntity
  8
0
100
AcDbBlockEnd
  0
BLOCK
  5
3379
330
3378
100
AcDbEntity
  8
0
100
AcDbBlockBegin
  2
*D19
 70
     1
 10
0.0
 20
0.0
 30
0.0
  3
*D19
  1

  0
LINE
  5
33ED
330
3378
100
AcDbEntity
  8
AM_5
 62
     3
100
AcDbLine
 10
28.42004427473194
 20
51.13564082674198
 30
0.0
 11
31.42004427473195
 21
51.13564082674198
 31
0.0
  0
LINE
  5
33EE
330
3378
100
AcDbEntity
  8
AM_5
 62
     3
100
AcDbLine
 10
28.42004427473194
 20
50.33564082674199
 30
0.0
 11
31.42004427473195
 21
50.33564082674199
 31
0.0
  0
LINE
  5
33EF
330
3378
100
AcDbEntity
  8
AM_5
 62
     3
100
AcDbLine
 10
31.17004427473194
 20
51.76064082674198
 30
0.0
 11
31.17004427473194
 21
52.38564082674198
 31
0.0
  0
LINE
  5
33F0
330
3378
100
AcDbEntity
  8
AM_5
 62
     3
100
AcDbLine
 10
31.17004427473194
 20
49.71064082674199
 30
0.0
 11
31.17004427473194
 21
49.08564082674199
 31
0.0
  0
MTEXT
  5
33F1
330
3378
100
AcDbEntity
  8
AM_5
 62
     2
100
AcDbMText
 10
32.20454524569664
 20
50.77265009273464
 30
0.0
 40
0.875
 41
0.0
 71
     5
 72
     1
  1
0.8
 11
0.0000000000000001
 21
1.0
 31
0.0
 73
     1
 44
1.0
1001
ACAD
1000
MTEXTBEGIN
1070
    73
1070
     1
1070
    44
1040
1.0
1070
    74
1070
     0
1000
MTEXTEND
  0
LINE
  5
33F2
330
3378
100
AcDbEntity
  8
AM_5
 62
     3
100
AcDbLine
 10
31.17004427473194
 20
51.13564082674198
 30
0.0
 11
31.17004427473194
 21
50.33564082674199
 31
0.0
  0
INSERT
  5
33F3
330
3378
100
AcDbEntity
  8
AM_5
 62
     3
100
AcDbBlockReference
  2
_Open30
 10
31.17004427473194
 20
51.13564082674198
 30
0.0
 41
0.625
 42
0.625
 43
0.625
 50
270.0
  0
INSERT
  5
33F4
330
3378
100
AcDbEntity
  8
AM_5
 62
     3
100
AcDbBlockReference
  2
_Open30
 10
31.17004427473194
 20
50.33564082674199
 30
0.0
 41
0.625
 42
0.625
 43
0.625
 50
90.0
  0
POINT
  5
33F5
330
3378
100
AcDbEntity
  8
Defpoints
 62
     0
100
AcDbPoint
 10
28.17004427473194
 20
51.13564082674198
 30
0.0
  0
POINT
  5
33F6
330
3378
100
AcDbEntity
  8
Defpoints
 62
     0
100
AcDbPoint
 10
28.17004427473194
 20
50.33564082674199
 30
0.0
  0
POINT
  5
33F7
330
3378
100
AcDbEntity
  8
Defpoints
 62
     0
100
AcDbPoint
 10
31.17004427473194
 20
50.33564082674199
 30
0.0
  0
ENDBLK
  5
337A
330
3378
100
AcDbEntity
  8
0
100
AcDbBlockEnd
  0
BLOCK
  5
33A9
330
33A8
100
AcDbEntity
  8
0
100
AcDbBlockBegin
  2
*D20
 70
     1
 10
0.0
 20
0.0
 30
0.0
  3
*D20
  1

  0
LINE
  5
33D7
330
33A8
100
AcDbEntity
  8
AM_5
 62
     3
100
AcDbLine
 10
18.02004427473195
 20
51.13564082674198
 30
0.0
 11
15.04554598159928
 21
51.13564082674199
 31
0.0
  0
LINE
  5
33D8
330
33A8
100
AcDbEntity
  8
AM_5
 62
     3
100
AcDbLine
 10
18.02004427473195
 20
50.33564082674198
 30
0.0
 11
15.04554598159928
 21
50.33564082674199
 31
0.0
  0
LINE
  5
33D9
330
33A8
100
AcDbEntity
  8
AM_5
 62
     3
100
AcDbLine
 10
15.29554598159928
 20
51.76064082674199
 30
0.0
 11
15.29554598159928
 21
52.38564082674199
 31
0.0
  0
LINE
  5
33DA
330
33A8
100
AcDbEntity
  8
AM_5
 62
     3
100
AcDbLine
 10
15.29554598159928
 20
49.71064082674199
 30
0.0
 11
15.29554598159928
 21
49.08564082674199
 31
0.0
  0
LINE
  5
33DB
330
33A8
100
AcDbEntity
  8
AM_5
 62
     3
100
AcDbLine
 10
15.29554598159928
 20
51.13564082674199
 30
0.0
 11
15.29554598159928
 21
50.33564082674199
 31
0.0
  0
INSERT
  5
33DC
330
33A8
100
AcDbEntity
  8
AM_5
 62
     3
100
AcDbBlockReference
  2
_Open30
 10
15.29554598159928
 20
51.13564082674199
 30
0.0
 41
0.625
 42
0.625
 43
0.625
 50
270.0
  0
INSERT
  5
33DD
330
33A8
100
AcDbEntity
  8
AM_5
 62
     3
100
AcDbBlockReference
  2
_Open30
 10
15.29554598159928
 20
50.33564082674199
 30
0.0
 41
0.625
 42
0.625
 43
0.625
 50
90.0
  0
MTEXT
  5
33DE
330
33A8
100
AcDbEntity
  8
AM_5
 62
     2
100
AcDbMText
 10
14.48304598159927
 20
50.73564082674199
 30
0.0
 40
0.875
 41
0.0
 71
     5
 72
     1
  1
0.8
 11
0.0000000000000001
 21
1.0
 31
0.0
 73
     1
 44
1.0
1001
ACAD
1000
MTEXTBEGIN
1070
    73
1070
     1
1070
    44
1040
1.0
1070
    74
1070
     0
1000
MTEXTEND
  0
POINT
  5
33DF
330
33A8
100
AcDbEntity
  8
Defpoints
 62
     0
100
AcDbPoint
 10
18.27004427473195
 20
51.13564082674198
 30
0.0
  0
POINT
  5
33E0
330
33A8
100
AcDbEntity
  8
Defpoints
 62
     0
100
AcDbPoint
 10
18.27004427473195
 20
50.33564082674198
 30
0.0
  0
POINT
  5
33E1
330
33A8
100
AcDbEntity
  8
Defpoints
 62
     0
100
AcDbPoint
 10
15.29554598159928
 20
50.33564082674199
 30
0.0
  0
ENDBLK
  5
33AA
330
33A8
100
AcDbEntity
  8
0
100
AcDbBlockEnd
  0
BLOCK
  5
33FA
330
33F9
100
AcDbEntity
  8
0
100
AcDbBlockBegin
  2
*D21
 70
     1
 10
0.0
 20
0.0
 30
0.0
  3
*D21
  1

  0
LINE
  5
3417
330
33F9
100
AcDbEntity
  8
AM_5
 62
     3
100
AcDbLine
 10
39.86807293413989
 20
54.08564082674199
 30
0.0
 11
42.86807293413989
 21
54.08564082674199
 31
0.0
  0
LINE
  5
3418
330
33F9
100
AcDbEntity
  8
AM_5
 62
     3
100
AcDbLine
 10
39.86807293413989
 20
47.38564082674198
 30
0.0
 11
42.86807293413988
 21
47.38564082674198
 31
0.0
  0
LINE
  5
3419
330
33F9
100
AcDbEntity
  8
AM_5
 62
     3
100
AcDbLine
 10
42.6180729341399
 20
53.46064082674199
 30
0.0
 11
42.6180729341399
 21
48.01064082674198
 31
0.0
  0
INSERT
  5
341A
330
33F9
100
AcDbEntity
  8
AM_5
 62
     3
100
AcDbBlockReference
  2
_Open30
 10
42.6180729341399
 20
54.08564082674199
 30
0.0
 41
0.625
 42
0.625
 43
0.625
 50
90.0
  0
INSERT
  5
341B
330
33F9
100
AcDbEntity
  8
AM_5
 62
     3
100
AcDbBlockReference
  2
_Open30
 10
42.61807293413989
 20
47.38564082674198
 30
0.0
 41
0.625
 42
0.625
 43
0.625
 50
270.0
  0
MTEXT
  5
341C
330
33F9
100
AcDbEntity
  8
AM_5
 62
     2
100
AcDbMText
 10
41.80557293413988
 20
50.73564082674199
 30
0.0
 40
0.875
 41
0.0
 71
     5
 72
     1
  1
6.7
 11
0.0000000000000001
 21
1.0
 31
0.0
 73
     1
 44
1.0
1001
ACAD
1000
MTEXTBEGIN
1070
    73
1070
     1
1070
    44
1040
1.0
1070
    74
1070
     0
1000
MTEXTEND
  0
POINT
  5
341D
330
33F9
100
AcDbEntity
  8
Defpoints
 62
     0
100
AcDbPoint
 10
39.61807293413989
 20
54.08564082674199
 30
0.0
  0
POINT
  5
341E
330
33F9
100
AcDbEntity
  8
Defpoints
 62
     0
100
AcDbPoint
 10
39.61807293413989
 20
47.38564082674198
 30
0.0
  0
POINT
  5
341F
330
33F9
100
AcDbEntity
  8
Defpoints
 62
     0
100
AcDbPoint
 10
42.61807293413989
 20
47.38564082674198
 30
0.0
  0
ENDBLK
  5
33FB
330
33F9
100
AcDbEntity
  8
0
100
AcDbBlockEnd
  0
BLOCK
  5
3422
330
3421
100
AcDbEntity
  8
0
100
AcDbBlockBegin
  2
*D22
 70
     1
 10
0.0
 20
0.0
 30
0.0
  3
*D22
  1

  0
LINE
  5
3436
330
3421
100
AcDbEntity
  8
AM_5
 62
     3
100
AcDbLine
 10
26.60127654381125
 20
38.95654600218738
 30
0.0
 11
31.62004427473195
 21
38.95654600218738
 31
0.0
  0
LINE
  5
3437
330
3421
100
AcDbEntity
  8
AM_5
 62
     3
100
AcDbLine
 10
28.62004427473195
 20
36.15654600218738
 30
0.0
 11
31.62004427473195
 21
36.15654600218738
 31
0.0
  0
LINE
  5
3438
330
3421
100
AcDbEntity
  8
AM_5
 62
     3
100
AcDbLine
 10
31.37004427473195
 20
38.33154600218738
 30
0.0
 11
31.37004427473195
 21
36.78154600218738
 31
0.0
  0
INSERT
  5
3439
330
3421
100
AcDbEntity
  8
AM_5
 62
     3
100
AcDbBlockReference
  2
_Open30
 10
31.37004427473195
 20
38.95654600218738
 30
0.0
 41
0.625
 42
0.625
 43
0.625
 50
90.0
  0
INSERT
  5
343A
330
3421
100
AcDbEntity
  8
AM_5
 62
     3
100
AcDbBlockReference
  2
_Open30
 10
31.37004427473195
 20
36.15654600218738
 30
0.0
 41
0.625
 42
0.625
 43
0.625
 50
270.0
  0
MTEXT
  5
343B
330
3421
100
AcDbEntity
  8
AM_5
 62
     2
100
AcDbMText
 10
30.5574581526847
 20
37.55654600218739
 30
0.0
 40
0.875
 41
0.0
 71
     5
 72
     1
  1
2.8
 11
0.0000000000000001
 21
1.0
 31
0.0
 73
     1
 44
1.0
1001
ACAD
1000
MTEXTBEGIN
1070
    73
1070
     1
1070
    44
1040
1.0
1070
    74
1070
     0
1000
MTEXTEND
  0
POINT
  5
343C
330
3421
100
AcDbEntity
  8
Defpoints
 62
     0
100
AcDbPoint
 10
26.35127654381125
 20
38.95654600218738
 30
0.0
  0
POINT
  5
343D
330
3421
100
AcDbEntity
  8
Defpoints
 62
     0
100
AcDbPoint
 10
28.37004427473195
 20
36.15654600218738
 30
0.0
  0
POINT
  5
343E
330
3421
100
AcDbEntity
  8
Defpoints
 62
     0
100
AcDbPoint
 10
31.37004427473195
 20
36.15654600218738
 30
0.0
  0
ENDBLK
  5
3423
330
3421
100
AcDbEntity
  8
0
100
AcDbBlockEnd
  0
BLOCK
  5
3753
330
374F
100
AcDbEntity
  8
0
100
AcDbBlockBegin
  2
*S23
 70
     1
 10
0.0
 20
0.0
 30
0.0
  3
*S23
  1

  0
CIRCLE
  5
3750
330
374F
100
AcDbEntity
  8
AM_12
 62
     4
100
AcDbCircle
 10
24.67933770529521
 20
49.42887972595958
 30
0.0
 40
0.4375
  0
LINE
  5
3751
330
374F
100
AcDbEntity
  8
AM_12
 62
     4
100
AcDbLine
 10
24.24183770529521
 20
48.99137972595958
 30
0.0
 11
25.11683770529521
 21
49.86637972595957
 31
0.0
  0
LINE
  5
3752
330
374F
100
AcDbEntity
  8
AM_12
 62
     4
100
AcDbLine
 10
24.24183770529521
 20
49.86637972595957
 30
0.0
 11
25.11683770529521
 21
48.99137972595958
 31
0.0
  0
ENDBLK
  5
3754
330
374F
100
AcDbEntity
  8
0
100
AcDbBlockEnd
  0
BLOCK
  5
377A
330
3756
100
AcDbEntity
  8
0
100
AcDbBlockBegin
  2
*S24
 70
     1
 10
0.0
 20
0.0
 30
0.0
  3
*S24
  1

  0
LINE
  5
3757
330
3756
100
AcDbEntity
  8
ﾎﾞﾃﾞｨｰ
 62
     1
100
AcDbLine
 10
0.0
 20
65.36875000000001
 30
0.0
 11
48.25
 21
65.36875000000001
 31
0.0
  0
MTEXT
  5
3758
330
3756
100
AcDbEntity
  8
ﾎﾞﾃﾞｨｰ
 62
     2
100
AcDbMText
 10
1.875
 20
66.575
 30
0.0
 40
0.875
 41
3.299999999999999
 71
     2
 72
     5
  1
1
  7
ACISOTS
 73
     1
 44
1.0
1001
ACAD
1000
MTEXTBEGIN
1070
    73
1070
     1
1070
    44
1040
1.0
1070
    74
1070
     0
1000
MTEXTEND
  0
LINE
  5
3759
330
3756
100
AcDbEntity
  8
ﾎﾞﾃﾞｨｰ
 62
     1
100
AcDbLine
 10
3.75
 20
66.9125
 30
0.0
 11
3.75
 21
65.36875000000001
 31
0.0
  0
MTEXT
  5
375A
330
3756
100
AcDbEntity
  8
ﾎﾞﾃﾞｨｰ
 62
     2
100
AcDbMText
 10
3.975
 20
66.575
 30
0.0
 40
0.875
 41
8.8
 71
     1
 72
     5
  1
ボディー
  7
ACISOTS
 73
     1
 44
1.0
1001
ACAD
1000
MTEXTBEGIN
1070
    73
1070
     1
1070
    44
1040
1.0
1070
    74
1070
     0
1000
MTEXTEND
  0
LINE
  5
375B
330
3756
100
AcDbEntity
  8
ﾎﾞﾃﾞｨｰ
 62
     1
100
AcDbLine
 10
13.0
 20
66.9125
 30
0.0
 11
13.0
 21
65.36875000000001
 31
0.0
  0
MTEXT
  5
375C
330
3756
100
AcDbEntity
  8
ﾎﾞﾃﾞｨｰ
 62
     2
100
AcDbMText
 10
14.875
 20
66.575
 30
0.0
 40
0.875
 41
3.299999999999999
 71
     2
 72
     5
  1
1
  7
ACISOTS
 73
     1
 44
1.0
1001
ACAD
1000
MTEXTBEGIN
1070
    73
1070
     1
1070
    44
1040
1.0
1070
    74
1070
     0
1000
MTEXTEND
  0
LINE
  5
375D
330
3756
100
AcDbEntity
  8
ﾎﾞﾃﾞｨｰ
 62
     1
100
AcDbLine
 10
16.75
 20
66.9125
 30
0.0
 11
16.75
 21
65.36875000000001
 31
0.0
  0
MTEXT
  5
375E
330
3756
100
AcDbEntity
  8
ﾎﾞﾃﾞｨｰ
 62
     2
100
AcDbMText
 10
16.975
 20
66.575
 30
0.0
 40
0.875
 41
19.55
 71
     1
 72
     5
  1
グラスファイバー入りLCP（UL94V-0）
  7
ACISOTS
 73
     1
 44
1.0
1001
ACAD
1000
MTEXTBEGIN
1070
    73
1070
     1
1070
    44
1040
1.0
1070
    74
1070
     0
1000
MTEXTEND
  0
LINE
  5
375F
330
3756
100
AcDbEntity
  8
ﾎﾞﾃﾞｨｰ
 62
     1
100
AcDbLine
 10
36.75
 20
66.9125
 30
0.0
 11
36.75
 21
65.36875000000001
 31
0.0
  0
MTEXT
  5
3760
330
3756
100
AcDbEntity
  8
ﾎﾞﾃﾞｨｰ
 62
     2
100
AcDbMText
 10
36.975
 20
66.575
 30
0.0
 40
0.875
 41
11.05
 71
     1
 72
     5
  1
アイボリー
  7
ACISOTS
 73
     1
 44
1.0
1001
ACAD
1000
MTEXTBEGIN
1070
    73
1070
     1
1070
    44
1040
1.0
1070
    74
1070
     0
1000
MTEXTEND
  0
MTEXT
  5
3761
330
3756
100
AcDbEntity
  8
ﾎﾞﾃﾞｨｰ
 62
     2
100
AcDbMText
 10
1.875
 20
65.03125
 30
0.0
 40
0.875
 41
3.299999999999999
 71
     2
 72
     5
  1
2
  7
ACISOTS
 73
     1
 44
1.0
1001
ACAD
1000
MTEXTBEGIN
1070
    73
1070
     1
1070
    44
1040
1.0
1070
    74
1070
     0
1000
MTEXTEND
  0
LINE
  5
3762
330
3756
100
AcDbEntity
  8
ﾎﾞﾃﾞｨｰ
 62
     1
100
AcDbLine
 10
3.75
 20
65.36875000000001
 30
0.0
 11
3.75
 21
63.825
 31
0.0
  0
MTEXT
  5
3763
330
3756
100
AcDbEntity
  8
ﾎﾞﾃﾞｨｰ
 62
     2
100
AcDbMText
 10
3.975
 20
65.03125
 30
0.0
 40
0.875
 41
8.8
 71
     1
 72
     5
  1
端子
  7
ACISOTS
 73
     1
 44
1.0
1001
ACAD
1000
MTEXTBEGIN
1070
    73
1070
     1
1070
    44
1040
1.0
1070
    74
1070
     0
1000
MTEXTEND
  0
LINE
  5
3764
330
3756
100
AcDbEntity
  8
ﾎﾞﾃﾞｨｰ
 62
     1
100
AcDbLine
 10
13.0
 20
65.36875000000001
 30
0.0
 11
13.0
 21
63.825
 31
0.0
  0
MTEXT
  5
3765
330
3756
100
AcDbEntity
  8
ﾎﾞﾃﾞｨｰ
 62
     2
100
AcDbMText
 10
14.875
 20
65.03125
 30
0.0
 40
0.875
 41
3.299999999999999
 71
     2
 72
     5
  1
2
  7
ACISOTS
 73
     1
 44
1.0
1001
ACAD
1000
MTEXTBEGIN
1070
    73
1070
     1
1070
    44
1040
1.0
1070
    74
1070
     0
1000
MTEXTEND
  0
LINE
  5
3766
330
3756
100
AcDbEntity
  8
ﾎﾞﾃﾞｨｰ
 62
     1
100
AcDbLine
 10
16.75
 20
65.36875000000001
 30
0.0
 11
16.75
 21
63.825
 31
0.0
  0
MTEXT
  5
3767
330
3756
100
AcDbEntity
  8
ﾎﾞﾃﾞｨｰ
 62
     2
100
AcDbMText
 10
16.975
 20
65.03125
 30
0.0
 40
0.875
 41
19.55
 71
     1
 72
     5
  1
銅合金
  7
ACISOTS
 73
     1
 44
1.0
1001
ACAD
1000
MTEXTBEGIN
1070
    73
1070
     1
1070
    44
1040
1.0
1070
    74
1070
     0
1000
MTEXTEND
  0
LINE
  5
3768
330
3756
100
AcDbEntity
  8
ﾎﾞﾃﾞｨｰ
 62
     1
100
AcDbLine
 10
36.75
 20
65.36875000000001
 30
0.0
 11
36.75
 21
63.825
 31
0.0
  0
MTEXT
  5
3769
330
3756
100
AcDbEntity
  8
ﾎﾞﾃﾞｨｰ
 62
     2
100
AcDbMText
 10
36.975
 20
65.03125
 30
0.0
 40
0.875
 41
11.05
 71
     1
 72
     5
  1
金メッキ
  7
ACISOTS
 73
     1
 44
1.0
1001
ACAD
1000
MTEXTBEGIN
1070
    73
1070
     1
1070
    44
1040
1.0
1070
    74
1070
     0
1000
MTEXTEND
  0
LINE
  5
376A
330
3756
100
AcDbEntity
  8
ﾎﾞﾃﾞｨｰ
 62
     1
100
AcDbLine
 10
0.0
 20
66.9125
 30
0.0
 11
48.25
 21
66.9125
 31
0.0
  0
MTEXT
  5
376B
330
3756
100
AcDbEntity
  8
ﾎﾞﾃﾞｨｰ
 62
     2
100
AcDbMText
 10
1.875
 20
68.11875
 30
0.0
 40
0.875
 41
3.299999999999999
 71
     2
 72
     5
  1
照番
  7
ACISOTS
 73
     1
 44
1.0
1001
ACAD
1000
MTEXTBEGIN
1070
    73
1070
     1
1070
    44
1040
1.0
1070
    74
1070
     0
1000
MTEXTEND
  0
LINE
  5
376C
330
3756
100
AcDbEntity
  8
ﾎﾞﾃﾞｨｰ
 62
     1
100
AcDbLine
 10
3.75
 20
68.45625
 30
0.0
 11
3.75
 21
66.9125
 31
0.0
  0
MTEXT
  5
376D
330
3756
100
AcDbEntity
  8
ﾎﾞﾃﾞｨｰ
 62
     2
100
AcDbMText
 10
8.375
 20
68.11875
 30
0.0
 40
0.875
 41
8.8
 71
     2
 72
     5
  1
名称
  7
ACISOTS
 73
     1
 44
1.0
1001
ACAD
1000
MTEXTBEGIN
1070
    73
1070
     1
1070
    44
1040
1.0
1070
    74
1070
     0
1000
MTEXTEND
  0
LINE
  5
376E
330
3756
100
AcDbEntity
  8
ﾎﾞﾃﾞｨｰ
 62
     1
100
AcDbLine
 10
13.0
 20
68.45625
 30
0.0
 11
13.0
 21
66.9125
 31
0.0
  0
MTEXT
  5
376F
330
3756
100
AcDbEntity
  8
ﾎﾞﾃﾞｨｰ
 62
     2
100
AcDbMText
 10
14.875
 20
68.11875
 30
0.0
 40
0.875
 41
3.299999999999999
 71
     2
 72
     5
  1
数量
  7
ACISOTS
 73
     1
 44
1.0
1001
ACAD
1000
MTEXTBEGIN
1070
    73
1070
     1
1070
    44
1040
1.0
1070
    74
1070
     0
1000
MTEXTEND
  0
LINE
  5
3770
330
3756
100
AcDbEntity
  8
ﾎﾞﾃﾞｨｰ
 62
     1
100
AcDbLine
 10
16.75
 20
68.45625
 30
0.0
 11
16.75
 21
66.9125
 31
0.0
  0
MTEXT
  5
3771
330
3756
100
AcDbEntity
  8
ﾎﾞﾃﾞｨｰ
 62
     2
100
AcDbMText
 10
26.75
 20
68.11875
 30
0.0
 40
0.875
 41
19.55
 71
     2
 72
     5
  1
材質
  7
ACISOTS
 73
     1
 44
1.0
1001
ACAD
1000
MTEXTBEGIN
1070
    73
1070
     1
1070
    44
1040
1.0
1070
    74
1070
     0
1000
MTEXTEND
  0
LINE
  5
3772
330
3756
100
AcDbEntity
  8
ﾎﾞﾃﾞｨｰ
 62
     1
100
AcDbLine
 10
36.75
 20
68.45625
 30
0.0
 11
36.75
 21
66.9125
 31
0.0
  0
MTEXT
  5
3773
330
3756
100
AcDbEntity
  8
ﾎﾞﾃﾞｨｰ
 62
     2
100
AcDbMText
 10
42.5
 20
68.11875
 30
0.0
 40
0.875
 41
11.05
 71
     2
 72
     5
  1
色・表面処理
  7
ACISOTS
 73
     1
 44
1.0
1001
ACAD
1000
MTEXTBEGIN
1070
    73
1070
     1
1070
    44
1040
1.0
1070
    74
1070
     0
1000
MTEXTEND
  0
MTEXT
  5
3774
330
3756
100
AcDbEntity
  8
ﾎﾞﾃﾞｨｰ
 62
     2
100
AcDbMText
 10
24.125
 20
69.228125
 30
0.0
 40
0.875
 41
0.0
 71
     5
 72
     5
  1
構成内容
  7
ACISOTS
 73
     1
 44
1.0
1001
ACAD
1000
MTEXTBEGIN
1070
    73
1070
     1
1070
    44
1040
1.0
1070
    74
1070
     0
1000
MTEXTEND
  0
LINE
  5
3775
330
3756
100
AcDbEntity
  8
ﾎﾞﾃﾞｨｰ
 62
     1
100
AcDbLine
 10
0.0
 20
68.45625
 30
0.0
 11
48.25
 21
68.45625
 31
0.0
  0
LINE
  5
3776
330
3756
100
AcDbEntity
  8
ﾎﾞﾃﾞｨｰ
 62
     7
100
AcDbLine
 10
0.0
 20
70.0
 30
0.0
 11
48.25
 21
70.0
 31
0.0
  0
LINE
  5
3777
330
3756
100
AcDbEntity
  8
ﾎﾞﾃﾞｨｰ
 62
     7
100
AcDbLine
 10
48.25
 20
70.0
 30
0.0
 11
48.25
 21
63.825
 31
0.0
  0
LINE
  5
3778
330
3756
100
AcDbEntity
  8
ﾎﾞﾃﾞｨｰ
 62
     7
100
AcDbLine
 10
48.25
 20
63.825
 30
0.0
 11
0.0
 21
63.825
 31
0.0
  0
LINE
  5
3779
330
3756
100
AcDbEntity
  8
ﾎﾞﾃﾞｨｰ
 62
     7
100
AcDbLine
 10
0.0
 20
63.825
 30
0.0
 11
0.0
 21
70.0
 31
0.0
  0
ENDBLK
  5
377B
330
3756
100
AcDbEntity
  8
0
100
AcDbBlockEnd
  0
BLOCK
  5
3781
330
377D
100
AcDbEntity
  8
0
100
AcDbBlockBegin
  2
*S25
 70
     1
 10
0.0
 20
0.0
 30
0.0
  3
*S25
  1

  0
CIRCLE
  5
377E
330
377D
100
AcDbEntity
  8
AM_12
 62
     4
100
AcDbCircle
 10
19.05140001461811
 20
50.7668708539149
 30
0.0
 40
0.4375
  0
LINE
  5
377F
330
377D
100
AcDbEntity
  8
AM_12
 62
     4
100
AcDbLine
 10
18.61390001461811
 20
50.3293708539149
 30
0.0
 11
19.48890001461811
 21
51.2043708539149
 31
0.0
  0
LINE
  5
3780
330
377D
100
AcDbEntity
  8
AM_12
 62
     4
100
AcDbLine
 10
18.61390001461811
 20
51.2043708539149
 30
0.0
 11
19.48890001461811
 21
50.3293708539149
 31
0.0
  0
ENDBLK
  5
3782
330
377D
100
AcDbEntity
  8
0
100
AcDbBlockEnd
  0
BLOCK
  5
3789
330
3784
100
AcDbEntity
  8
0
100
AcDbBlockBegin
  2
*S26
 70
     1
 10
0.0
 20
0.0
 30
0.0
  3
*S26
  1

  0
LINE
  5
3785
330
3784
100
AcDbEntity
  8
AM_5
 62
     3
100
AcDbLine
 10
28.46305640520779
 20
45.22892599705275
 30
0.0
 11
25.26500334715119
 21
48.77878684340399
 31
0.0
  0
TRACE
  5
3786
330
3784
100
AcDbEntity
  8
AM_5
  6
Continuous
 62
     3
100
AcDbTrace
 10
25.35058969842156
 20
48.85589118756143
 30
0.0
 11
25.17941699588082
 21
48.70168249924654
 31
0.0
 12
24.67933770529521
 22
49.42887972595958
 32
0.0
 13
24.67933770529521
 23
49.42887972595958
 33
0.0
  0
MTEXT
  5
3787
330
3784
100
AcDbEntity
  8
AM_5
 62
     7
100
AcDbMText
 10
29.48797127845575
 20
44.09126345258047
 30
0.0
 40
0.875
 41
0.0
 71
     5
 72
     5
  1
1
  7
ACISOTS
 73
     1
 44
1.0
1001
ACAD
1000
MTEXTBEGIN
1070
    73
1070
     1
1070
    44
1040
1.0
1070
    74
1070
     0
1000
MTEXTEND
  0
CIRCLE
  5
3788
330
3784
100
AcDbEntity
  8
AM_5
 62
     3
100
AcDbCircle
 10
29.48797127845575
 20
44.09126345258047
 30
0.0
 40
1.53125
  0
ENDBLK
  5
378A
330
3784
100
AcDbEntity
  8
0
100
AcDbBlockEnd
  0
BLOCK
  5
3791
330
378C
100
AcDbEntity
  8
0
100
AcDbBlockBegin
  2
*S27
 70
     1
 10
0.0
 20
0.0
 30
0.0
  3
*S27
  1

  0
LINE
  5
378D
330
378C
100
AcDbEntity
  8
AM_5
 62
     3
100
AcDbLine
 10
15.76779137836241
 20
45.38786027461266
 30
0.0
 11
18.59482397881764
 21
50.01375600320983
 31
0.0
  0
TRACE
  5
378E
330
378C
100
AcDbEntity
  8
AM_5
  6
Continuous
 62
     3
100
AcDbTrace
 10
18.69311766667818
 20
49.95368559170383
 30
0.0
 11
18.49653029095711
 21
50.07382641471584
 31
0.0
 12
19.05110405610327
 22
50.7603706903626
 32
0.0
 13
19.05110405610327
 23
50.7603706903626
 33
0.0
  0
MTEXT
  5
378F
330
378C
100
AcDbEntity
  8
AM_5
 62
     7
100
AcDbMText
 10
14.96930124311257
 20
44.08128457209531
 30
0.0
 40
0.875
 41
0.0
 71
     5
 72
     5
  1
2
  7
ACISOTS
 73
     1
 44
1.0
1001
ACAD
1000
MTEXTBEGIN
1070
    73
1070
     1
1070
    44
1040
1.0
1070
    74
1070
     0
1000
MTEXTEND
  0
CIRCLE
  5
3790
330
378C
100
AcDbEntity
  8
AM_5
 62
     3
100
AcDbCircle
 10
14.96930124311257
 20
44.08128457209531
 30
0.0
 40
1.53125
  0
ENDBLK
  5
3792
330
378C
100
AcDbEntity
  8
0
100
AcDbBlockEnd
  0
BLOCK
  5
379B
330
3794
100
AcDbEntity
  8
0
100
AcDbBlockBegin
  2
*S28
 70
     1
 10
0.0
 20
0.0
 30
0.0
  3
*S28
  1

  0
LINE
  5
3795
330
3794
100
AcDbEntity
  8
AM_5
 62
     3
100
AcDbLine
 10
33.83263226461496
 20
15.79538230578134
 30
0.0
 11
24.90763226461496
 21
15.79538230578134
 31
0.0
  0
LINE
  5
3796
330
3794
100
AcDbEntity
  8
AM_5
 62
     3
100
AcDbLine
 10
24.90763226461496
 20
15.79538230578134
 30
0.0
 11
24.03951063342768
 21
19.59811737552125
 31
0.0
  0
LINE
  5
3797
330
3794
100
AcDbEntity
  8
AM_5
  6
Continuous
 62
     3
100
AcDbLine
 10
24.03951063342768
 20
19.59811737552125
 30
0.0
 11
23.84476810724465
 21
20.45117091926622
 31
0.0
  0
LINE
  5
3798
330
3794
100
AcDbEntity
  8
AM_5
  6
Continuous
 62
     3
100
AcDbLine
 10
24.15181726253641
 20
19.62375571536533
 30
0.0
 11
23.84476810724465
 21
20.45117091926622
 31
0.0
  0
LINE
  5
3799
330
3794
100
AcDbEntity
  8
AM_5
  6
Continuous
 62
     3
100
AcDbLine
 10
23.84476810724465
 20
20.45117091926622
 30
0.0
 11
23.92720400431896
 21
19.57247903567716
 31
0.0
  0
MTEXT
  5
379A
330
3794
100
AcDbEntity
  8
AM_5
 62
     2
100
AcDbMText
 10
25.78263226461496
 20
16.23288230578134
 30
0.0
 40
0.875
 41
0.0
 71
     7
 72
     5
  1
パターン禁止領域
  7
ACISOTS
 73
     1
 44
1.0
1001
ACAD
1000
MTEXTBEGIN
1070
    73
1070
     1
1070
    44
1040
1.0
1070
    74
1070
     0
1000
MTEXTEND
  0
ENDBLK
  5
379C
330
3794
100
AcDbEntity
  8
0
100
AcDbBlockEnd
  0
ENDSEC
  0
SECTION
  2
ENTITIES
  0
INSERT
  5
C50
330
1F
100
AcDbEntity
  8
ﾎﾞﾃﾞｨｰ
370
     0
100
AcDbBlockReference
  2
TK-A4
 10
0.0
 20
0.0
 30
0.0
 41
0.25
 42
0.25
 43
0.25
1001
GENIUS_GENOREF_13
1005
C5D
1001
GENIUS_GENOBJ-N-SDF_13
1002
{
1000
OWNER
1000
GEN
1002
}
1001
GENIUS_GENODEF_13
1002
{
1000
HIER
1070
     0
1002
}
1002
{
1000
MANEDIT
1070
     0
1002
}
1002
{
1000
NOSEL
1070
     0
1002
}
1002
{
1000
BEHIND
1070
     0
1002
}
1002
{
1000
OTHER
1070
     0
1002
}
1002
{
1000
REACTOR
1002
}
1001
GENIUS_GENSCREG_15
1040
0.25
1040
1.0
1011
0.0
1021
0.0
1031
0.0
1011
48.25
1021
70.00000000000001
1031
0.0
1070
     3
  0
INSERT
  5
C52
330
1F
100
AcDbEntity
  8
ﾎﾞﾃﾞｨｰ
370
     0
100
AcDbBlockReference
 66
     1
  2
TK-TITLE
 10
48.25
 20
0.0
 30
0.0
 41
0.25
 42
0.25
 43
0.25
1001
GENIUS_GENOREF_13
1005
C5D
  0
ATTRIB
  5
2151
330
C52
100
AcDbEntity
  8
0
100
AcDbText
 10
0.5563913266371694
 20
0.897085634402666
 30
0.0
 40
0.75
  1
2009/06/02
 72
     1
 11
3.195701208446536
 21
0.897085634402666
 31
0.0
100
AcDbAttribute
  2
GEN-TITLE-DAT
 70
     0
 74
     1
  0
ATTRIB
  5
2152
330
C52
100
AcDbEntity
  8
0
100
AcDbText
 10
2.706315096393984
 20
7.074999999999993
 30
0.0
 40
0.75
  1
4:1
 72
     2
 11
3.793815096393984
 21
7.074999999999993
 31
0.0
100
AcDbAttribute
  2
GEN-TITLE-SCA
 70
     0
 74
     1
  0
ATTRIB
  5
2153
330
C52
100
AcDbEntity
  8
0
100
AcDbText
 10
4.346814771847618
 20
3.949999999999985
 30
0.0
 40
0.75
  1

 72
     2
 11
4.346814771847618
 21
3.949999999999985
 31
0.0
100
AcDbAttribute
  2
GEN-TITLE-QTY
 70
     0
 74
     1
  0
ATTRIB
  5
2154
330
C52
100
AcDbEntity
  8
0
100
AcDbText
 10
11.00953310411771
 20
8.324999999999977
 30
0.0
 40
0.75
  1

100
AcDbAttribute
  2
GEN-TITLE-MAT2
 70
     0
  0
ATTRIB
  5
2155
330
C52
100
AcDbEntity
  8
0
100
AcDbText
 10
11.00953310411771
 20
10.82499999999998
 30
0.0
 40
0.75
  1

100
AcDbAttribute
  2
GEN-TITLE-MAT1
 70
     0
  0
ATTRIB
  5
2156
330
C52
100
AcDbEntity
  8
0
100
AcDbText
 10
27.25
 20
0.4999999999999894
 30
0.0
 40
0.75
  1
P090013
100
AcDbAttribute
  2
GEN-TITLE-NR1
 70
     0
  0
ATTRIB
  5
2157
330
C52
100
AcDbEntity
  8
0
100
AcDbText
 10
27.25
 20
2.287499999999987
 30
0.0
 40
0.625
  1
ML621/SR621 小型ボタン電池ホルダー
100
AcDbAttribute
  2
GEN-TITLE-DES2
 70
     0
  0
ATTRIB
  5
2158
330
C52
100
AcDbEntity
  8
0
100
AcDbText
 10
27.21437024603668
 20
3.206976081410942
 30
0.0
 40
0.875
  1
PB621
100
AcDbAttribute
  2
GEN-TITLE-DES1
 70
     0
  0
ATTRIB
  5
2159
330
C52
100
AcDbEntity
  8
0
100
AcDbText
 10
46.24942270261354
 20
0.4262973585987591
 30
0.0
 40
0.625
  1

100
AcDbAttribute
  2
GEN-TITLE-NR2
 70
     0
  0
SEQEND
  5
2150
330
C52
100
AcDbEntity
  8
ﾎﾞﾃﾞｨｰ
370
     0
  0
POINT
  5
C5D
330
1F
100
AcDbEntity
  8
0
 60
     1
100
AcDbPoint
 10
0.0
 20
0.0
 30
0.0
1001
GENIUS_GENOBJ-N-TIT_13
1002
{
1000
OWNER
1000
GEN
1002
}
1001
GENIUS_GENODEF_13
1002
{
1000
HIER
1070
     1
1002
}
1002
{
1000
MANEDIT
1070
     0
1002
}
1002
{
1000
NOSEL
1070
     0
1002
}
1002
{
1000
BEHIND
1070
     0
1002
}
1002
{
1000
OTHER
1070
     0
1002
}
1002
{
1000
REACTOR
1002
}
1001
GENIUS_GENOENT_13
1002
{
1000
MYREF
1005
C5D
1002
}
1002
{
1000
GRP
1005
0
1002
}
1001
GENIUS_GENOLIS_13
1002
{
1000
ENT
1005
C52
1005
C50
1002
}
1001
GENIUS_GENTITLE_13
1002
{
1000
BORDER
1000
TK-A4
1002
}
1002
{
1000
TITLE
1000
TK-TITLE
1002
}
1002
{
1000
ADDITIONAL1
1000

1002
}
1002
{
1000
ADDITIONAL2
1000

1002
}
1002
{
1000
SCALE
1000
4:1
1002
}
1002
{
1000
TITLESTD
1000
ISO
1002
}
1002
{
1000
HRA
1005
C50
1002
}
1002
{
1000
HTIT
1005
C52
1002
}
1002
{
1000
GENIUSID
1005
C5D
1002
}
1002
{
1000
INVTXTID
1005
0
1002
}
1002
{
1000
UNCHG
1002
{
1000
GEN-TITLE-SIZ
1000
GEN-TITLE-SCA
1002
}
1002
}
  0
INSERT
  5
1A92
102
{ACAD_REACTORS
330
1A8E
102
}
330
1F
100
AcDbEntity
  8
AM_12
100
AcDbBlockReference
  2
*S23
 10
0.0
 20
0.0
 30
0.0
  0
INSERT
  5
1AA8
102
{ACAD_REACTORS
330
9A8
102
}
330
1F
100
AcDbEntity
  8
ﾎﾞﾃﾞｨｰ
100
AcDbBlockReference
  2
*S24
 10
0.0
 20
0.0
 30
0.0
  0
INSERT
  5
1AB1
102
{ACAD_REACTORS
330
1AB0
102
}
330
1F
100
AcDbEntity
  8
AM_12
100
AcDbBlockReference
  2
*S25
 10
0.0
 20
0.0
 30
0.0
  0
INSERT
  5
1ABB
102
{ACAD_REACTORS
330
1A93
102
}
330
1F
100
AcDbEntity
  8
AM_5
100
AcDbBlockReference
  2
*S26
 10
0.0
 20
0.0
 30
0.0
  0
INSERT
  5
1ABC
102
{ACAD_REACTORS
330
1AB2
102
}
330
1F
100
AcDbEntity
  8
AM_5
100
AcDbBlockReference
  2
*S27
 10
0.0
 20
0.0
 30
0.0
  0
LINE
  5
2975
330
1F
100
AcDbEntity
  8
ﾎﾞﾃﾞｨｰ
100
AcDbLine
 10
18.72004427473195
 20
52.28564082674198
 30
0.0
 11
19.03469810575537
 21
52.28564082674198
 31
0.0
  0
LINE
  5
2976
330
1F
100
AcDbEntity
  8
ﾎﾞﾃﾞｨｰ
100
AcDbLine
 10
19.17909574677846
 20
52.34725975409486
 30
0.0
 11
20.84504427473195
 21
54.08564082674199
 31
0.0
  0
LINE
  5
2977
330
1F
100
AcDbEntity
  8
ﾎﾞﾃﾞｨｰ
100
AcDbLine
 10
20.84504427473195
 20
54.08564082674199
 30
0.0
 11
25.59504427473195
 21
54.08564082674199
 31
0.0
  0
LINE
  5
2978
330
1F
100
AcDbEntity
  8
ﾎﾞﾃﾞｨｰ
100
AcDbLine
 10
25.59504427473195
 20
54.08564082674199
 30
0.0
 11
27.26099280268544
 21
52.34725975409486
 31
0.0
  0
LINE
  5
2979
330
1F
100
AcDbEntity
  8
ﾎﾞﾃﾞｨｰ
100
AcDbLine
 10
27.40539044370852
 20
52.28564082674198
 30
0.0
 11
27.72004427473195
 21
52.28564082674198
 31
0.0
  0
LINE
  5
297A
330
1F
100
AcDbEntity
  8
ﾎﾞﾃﾞｨｰ
100
AcDbLine
 10
27.72004427473195
 20
52.28564082674198
 30
0.0
 11
27.72004427473194
 21
51.28564082674198
 31
0.0
  0
LINE
  5
297B
330
1F
100
AcDbEntity
  8
ﾎﾞﾃﾞｨｰ
100
AcDbLine
 10
27.72004427473195
 20
49.18564082674198
 30
0.0
 11
27.40539044370852
 21
49.18564082674198
 31
0.0
  0
LINE
  5
297C
330
1F
100
AcDbEntity
  8
ﾎﾞﾃﾞｨｰ
100
AcDbLine
 10
27.26099280268544
 20
49.1240218993891
 30
0.0
 11
25.59504427473195
 21
47.38564082674198
 31
0.0
  0
LINE
  5
297D
330
1F
100
AcDbEntity
  8
ﾎﾞﾃﾞｨｰ
100
AcDbLine
 10
25.59504427473195
 20
47.38564082674198
 30
0.0
 11
20.84504427473195
 21
47.38564082674198
 31
0.0
  0
LINE
  5
297E
330
1F
100
AcDbEntity
  8
ﾎﾞﾃﾞｨｰ
100
AcDbLine
 10
20.84504427473195
 20
47.38564082674198
 30
0.0
 11
19.17909574677846
 21
49.1240218993891
 31
0.0
  0
LINE
  5
297F
330
1F
100
AcDbEntity
  8
ﾎﾞﾃﾞｨｰ
100
AcDbLine
 10
19.03469810575537
 20
49.18564082674198
 30
0.0
 11
18.72004427473195
 21
49.18564082674198
 31
0.0
  0
LINE
  5
2980
330
1F
100
AcDbEntity
  8
ﾎﾞﾃﾞｨｰ
100
AcDbLine
 10
18.72004427473195
 20
49.18564082674198
 30
0.0
 11
18.72004427473195
 21
50.27564082674199
 31
0.0
  0
LINE
  5
29B3
330
1F
100
AcDbEntity
  8
ﾎﾞﾃﾞｨｰ
100
AcDbLine
 10
21.37004152150213
 20
53.58564358656574
 30
0.0
 11
22.07004427473195
 21
52.88396433835019
 31
0.0
  0
LINE
  5
29B4
330
1F
100
AcDbEntity
  8
ﾎﾞﾃﾞｨｰ
100
AcDbLine
 10
22.07004427473195
 20
52.88396433835019
 30
0.0
 11
22.07004427473195
 21
54.085640826742
 31
0.0
  0
ARC
  5
29B7
330
1F
100
AcDbEntity
  8
ﾎﾞﾃﾞｨｰ
100
AcDbCircle
 10
23.22004427473195
 20
50.73564082674199
 30
0.0
 40
2.399999999999999
100
AcDbArc
 50
191.0500649593307
 51
168.9499350406692
  0
ARC
  5
29B8
330
1F
100
AcDbEntity
  8
ﾎﾞﾃﾞｨｰ
100
AcDbCircle
 10
23.22004427473195
 20
50.73564082674199
 30
0.0
 40
3.35
100
AcDbArc
 50
170.5504496915114
 51
172.1075841416815
  0
ARC
  5
29BE
330
1F
100
AcDbEntity
  8
ﾎﾞﾃﾞｨｰ
100
AcDbCircle
 10
23.22121423077948
 20
50.73377409438577
 30
0.0
 40
3.399999999999999
100
AcDbArc
 50
142.1356423482324
 51
170.6587801629227
  0
LINE
  5
29C4
330
1F
100
AcDbEntity
  8
ﾎﾞﾃﾞｨｰ
100
AcDbLine
 10
20.7116230837197
 20
52.64566279049137
 30
0.0
 11
21.3760199443689
 21
53.33894647116879
 31
0.0
  0
LINE
  5
29F9
330
1F
100
AcDbEntity
  8
ﾎﾞﾃﾞｨｰ
100
AcDbLine
 10
20.43494986101675
 20
52.68229426666799
 30
0.0
 11
21.15571927681413
 21
51.9597986200724
 31
0.0
  0
LINE
  5
29FD
330
1F
100
AcDbEntity
  8
ﾎﾞﾃﾞｨｰ
100
AcDbLine
 10
20.74022497147765
 20
53.97626416247663
 30
0.0
 11
21.44666383024571
 21
53.2681333943568
 31
0.0
  0
LINE
  5
29FE
330
1F
100
AcDbEntity
  8
ﾎﾞﾃﾞｨｰ
100
AcDbLine
 10
20.07582811082845
 20
53.2829804817992
 30
0.0
 11
20.78226696959651
 21
52.57484971367939
 31
0.0
  0
LINE
  5
2A02
330
1F
100
AcDbEntity
  8
ﾎﾞﾃﾞｨｰ
100
AcDbLine
 10
20.78226696959651
 20
52.57484971367938
 30
0.0
 11
21.44666383024571
 21
53.26813339435681
 31
0.0
  0
ARC
  5
2A05
330
1F
100
AcDbEntity
  8
ﾎﾞﾃﾞｨｰ
100
AcDbCircle
 10
23.22121423077948
 20
50.73377409438577
 30
0.0
 40
3.399999999999999
100
AcDbArc
 50
122.9879446181445
 51
125.9017098889416
  0
ARC
  5
2A06
330
1F
100
AcDbEntity
  8
ﾎﾞﾃﾞｨｰ
100
AcDbCircle
 10
23.22004427473195
 20
50.73564082674199
 30
0.0
 40
3.35
100
AcDbArc
 50
110.0770544008748
 51
122.8155684681735
  0
LINE
  5
2A09
330
1F
100
AcDbEntity
  8
ﾎﾞﾃﾞｨｰ
100
AcDbLine
 10
21.70560521273927
 20
53.2492762258528
 30
0.0
 11
20.80590113061015
 21
52.31045457493545
 31
0.0
  0
LINE
  5
2A0C
330
1F
100
AcDbEntity
  8
ﾎﾞﾃﾞｨｰ
100
AcDbLine
 10
20.86454008241982
 20
51.19564082674198
 30
0.0
 11
18.97004427473194
 21
51.19564082674198
 31
0.0
  0
LINE
  5
2A0D
330
1F
100
AcDbEntity
  8
ﾎﾞﾃﾞｨｰ
100
AcDbLine
 10
18.72004427473195
 20
50.27564082674198
 30
0.0
 11
18.82004427473195
 21
50.27564082674198
 31
0.0
  0
LINE
  5
2A18
330
1F
100
AcDbEntity
  8
ﾎﾞﾃﾞｨｰ
100
AcDbLine
 10
19.02004427473195
 20
50.18564082674198
 30
0.0
 11
19.91550194636029
 21
50.18564082674199
 31
0.0
  0
ARC
  5
2A1B
330
1F
100
AcDbEntity
  8
ﾎﾞﾃﾞｨｰ
100
AcDbCircle
 10
23.22004427473195
 20
50.73564082674199
 30
0.0
 40
3.35
100
AcDbArc
 50
187.8924158583185
 51
189.4495503084885
  0
LINE
  5
2A25
330
1F
100
AcDbEntity
  8
ﾎﾞﾃﾞｨｰ
100
AcDbLine
 10
25.65782157986739
 20
52.57484971367938
 30
0.0
 11
24.99342471921819
 21
53.26813339435681
 31
0.0
  0
LINE
  5
2A26
330
1F
100
AcDbEntity
  8
ﾎﾞﾃﾞｨｰ
100
AcDbLine
 10
25.07004702796176
 20
53.58564358656574
 30
0.0
 11
24.37004427473195
 21
52.88396433835019
 31
0.0
  0
LINE
  5
2A27
330
1F
100
AcDbEntity
  8
ﾎﾞﾃﾞｨｰ
100
AcDbLine
 10
24.37004427473195
 20
52.88396433835019
 30
0.0
 11
24.37004427473195
 21
54.085640826742
 31
0.0
  0
ARC
  5
2A28
330
1F
100
AcDbEntity
  8
ﾎﾞﾃﾞｨｰ
100
AcDbCircle
 10
23.22004427473195
 20
50.73564082674199
 30
0.0
 40
3.35
100
AcDbArc
 50
57.18443153182658
 51
69.92294559912505
  0
ARC
  5
2A29
330
1F
100
AcDbEntity
  8
ﾎﾞﾃﾞｨｰ
100
AcDbCircle
 10
23.21887431868441
 20
50.73377409438577
 30
0.0
 40
3.399999999999999
100
AcDbArc
 50
9.341219837077302
 51
37.86435765176769
  0
ARC
  5
2A2A
330
1F
100
AcDbEntity
  8
ﾎﾞﾃﾞｨｰ
100
AcDbCircle
 10
23.21887431868441
 20
50.73377409438577
 30
0.0
 40
3.399999999999999
100
AcDbArc
 50
54.0982901110584
 51
57.01205538185545
  0
LINE
  5
2A2B
330
1F
100
AcDbEntity
  8
ﾎﾞﾃﾞｨｰ
100
AcDbLine
 10
25.72846546574419
 20
52.64566279049137
 30
0.0
 11
25.064068605095
 21
53.33894647116879
 31
0.0
  0
LINE
  5
2A2C
330
1F
100
AcDbEntity
  8
ﾎﾞﾃﾞｨｰ
100
AcDbLine
 10
26.00513868844715
 20
52.68229426666799
 30
0.0
 11
25.28436927264977
 21
51.9597986200724
 31
0.0
  0
LINE
  5
2A2D
330
1F
100
AcDbEntity
  8
ﾎﾞﾃﾞｨｰ
100
AcDbLine
 10
25.69986357798625
 20
53.97626416247663
 30
0.0
 11
24.99342471921819
 21
53.2681333943568
 31
0.0
  0
LINE
  5
2A2E
330
1F
100
AcDbEntity
  8
ﾎﾞﾃﾞｨｰ
100
AcDbLine
 10
26.36426043863544
 20
53.2829804817992
 30
0.0
 11
25.65782157986739
 21
52.57484971367939
 31
0.0
  0
LINE
  5
2A2F
330
1F
100
AcDbEntity
  8
ﾎﾞﾃﾞｨｰ
100
AcDbLine
 10
24.73448333672463
 20
53.2492762258528
 30
0.0
 11
25.63418741885375
 21
52.31045457493545
 31
0.0
  0
LINE
  5
2ABA
330
1F
100
AcDbEntity
  8
ﾎﾞﾃﾞｨｰ
100
AcDbLine
 10
27.72004427473195
 20
51.28564082674198
 30
0.0
 11
27.62004427473194
 21
51.28564082674198
 31
0.0
  0
LINE
  5
2ABB
330
1F
100
AcDbEntity
  8
ﾎﾞﾃﾞｨｰ
100
AcDbLine
 10
27.72004427473195
 20
50.18564082674199
 30
0.0
 11
27.62004427473194
 21
50.18564082674199
 31
0.0
  0
LINE
  5
2ABE
330
1F
100
AcDbEntity
  8
ﾎﾞﾃﾞｨｰ
100
AcDbLine
 10
20.78226696959651
 20
48.89643193980458
 30
0.0
 11
21.44666383024571
 21
48.20314825912715
 31
0.0
  0
LINE
  5
2ABF
330
1F
100
AcDbEntity
  8
ﾎﾞﾃﾞｨｰ
100
AcDbLine
 10
21.37004152150213
 20
47.88563806691823
 30
0.0
 11
22.07004427473195
 21
48.58731731513378
 31
0.0
  0
LINE
  5
2AC0
330
1F
100
AcDbEntity
  8
ﾎﾞﾃﾞｨｰ
100
AcDbLine
 10
22.07004427473195
 20
48.58731731513378
 30
0.0
 11
22.07004427473195
 21
47.38564082674197
 31
0.0
  0
ARC
  5
2AC1
330
1F
100
AcDbEntity
  8
ﾎﾞﾃﾞｨｰ
100
AcDbCircle
 10
23.22004427473195
 20
50.73564082674199
 30
0.0
 40
3.35
100
AcDbArc
 50
237.1844315318263
 51
249.9229455991253
  0
ARC
  5
2AC2
330
1F
100
AcDbEntity
  8
ﾎﾞﾃﾞｨｰ
100
AcDbCircle
 10
23.22121423077948
 20
50.73750755909819
 30
0.0
 40
3.399999999999999
100
AcDbArc
 50
189.3412198370772
 51
217.8643576517677
  0
ARC
  5
2AC3
330
1F
100
AcDbEntity
  8
ﾎﾞﾃﾞｨｰ
100
AcDbCircle
 10
23.22121423077948
 20
50.73750755909819
 30
0.0
 40
3.399999999999999
100
AcDbArc
 50
234.0982901110582
 51
237.0120553818556
  0
LINE
  5
2AC4
330
1F
100
AcDbEntity
  8
ﾎﾞﾃﾞｨｰ
100
AcDbLine
 10
20.7116230837197
 20
48.8256188629926
 30
0.0
 11
21.3760199443689
 21
48.13233518231518
 31
0.0
  0
LINE
  5
2AC5
330
1F
100
AcDbEntity
  8
ﾎﾞﾃﾞｨｰ
100
AcDbLine
 10
20.43494986101675
 20
48.78898738681598
 30
0.0
 11
21.15571927681413
 21
49.51148303341157
 31
0.0
  0
LINE
  5
2AC6
330
1F
100
AcDbEntity
  8
ﾎﾞﾃﾞｨｰ
100
AcDbLine
 10
20.74022497147765
 20
47.49501749100733
 30
0.0
 11
21.44666383024571
 21
48.20314825912717
 31
0.0
  0
LINE
  5
2AC7
330
1F
100
AcDbEntity
  8
ﾎﾞﾃﾞｨｰ
100
AcDbLine
 10
20.07582811082845
 20
48.18830117168476
 30
0.0
 11
20.78226696959651
 21
48.89643193980457
 31
0.0
  0
LINE
  5
2AC8
330
1F
100
AcDbEntity
  8
ﾎﾞﾃﾞｨｰ
100
AcDbLine
 10
21.70560521273927
 20
48.22200542763116
 30
0.0
 11
20.80590113061015
 21
49.16082707854852
 31
0.0
  0
LINE
  5
2AC9
330
1F
100
AcDbEntity
  8
ﾎﾞﾃﾞｨｰ
100
AcDbLine
 10
25.65782157986739
 20
48.89643193980458
 30
0.0
 11
24.99342471921819
 21
48.20314825912715
 31
0.0
  0
LINE
  5
2ACA
330
1F
100
AcDbEntity
  8
ﾎﾞﾃﾞｨｰ
100
AcDbLine
 10
25.07004702796176
 20
47.88563806691823
 30
0.0
 11
24.37004427473195
 21
48.58731731513378
 31
0.0
  0
LINE
  5
2ACB
330
1F
100
AcDbEntity
  8
ﾎﾞﾃﾞｨｰ
100
AcDbLine
 10
24.37004427473195
 20
48.58731731513378
 30
0.0
 11
24.37004427473195
 21
47.38564082674197
 31
0.0
  0
ARC
  5
2ACC
330
1F
100
AcDbEntity
  8
ﾎﾞﾃﾞｨｰ
100
AcDbCircle
 10
23.22004427473195
 20
50.73564082674199
 30
0.0
 40
3.35
100
AcDbArc
 50
290.0770544008748
 51
302.8155684681736
  0
ARC
  5
2ACD
330
1F
100
AcDbEntity
  8
ﾎﾞﾃﾞｨｰ
100
AcDbCircle
 10
23.21887431868441
 20
50.73750755909819
 30
0.0
 40
3.399999999999999
100
AcDbArc
 50
322.1356423482323
 51
350.6587801629228
  0
ARC
  5
2ACE
330
1F
100
AcDbEntity
  8
ﾎﾞﾃﾞｨｰ
100
AcDbCircle
 10
23.21887431868441
 20
50.73750755909819
 30
0.0
 40
3.399999999999999
100
AcDbArc
 50
302.9879446181444
 51
305.9017098889417
  0
LINE
  5
2ACF
330
1F
100
AcDbEntity
  8
ﾎﾞﾃﾞｨｰ
100
AcDbLine
 10
25.72846546574419
 20
48.8256188629926
 30
0.0
 11
25.064068605095
 21
48.13233518231518
 31
0.0
  0
LINE
  5
2AD0
330
1F
100
AcDbEntity
  8
ﾎﾞﾃﾞｨｰ
100
AcDbLine
 10
26.00513868844715
 20
48.78898738681598
 30
0.0
 11
25.28436927264977
 21
49.51148303341157
 31
0.0
  0
LINE
  5
2AD1
330
1F
100
AcDbEntity
  8
ﾎﾞﾃﾞｨｰ
100
AcDbLine
 10
25.69986357798625
 20
47.49501749100733
 30
0.0
 11
24.99342471921819
 21
48.20314825912717
 31
0.0
  0
LINE
  5
2AD2
330
1F
100
AcDbEntity
  8
ﾎﾞﾃﾞｨｰ
100
AcDbLine
 10
26.36426043863544
 20
48.18830117168476
 30
0.0
 11
25.65782157986739
 21
48.89643193980457
 31
0.0
  0
LINE
  5
2AD3
330
1F
100
AcDbEntity
  8
ﾎﾞﾃﾞｨｰ
100
AcDbLine
 10
24.73448333672463
 20
48.22200542763116
 30
0.0
 11
25.63418741885375
 21
49.16082707854852
 31
0.0
  0
ARC
  5
2AD5
330
1F
100
AcDbEntity
  8
ﾎﾞﾃﾞｨｰ
100
AcDbCircle
 10
27.40539044370852
 20
52.48564082674199
 30
0.0
 40
0.2
100
AcDbArc
 50
223.7811247648686
 51
270.0
1001
GENIUS_GENOBJ-N-FIL_13
1002
{
1000
OWNER
1000
GEN
1002
}
1001
GENIUS_GENODEF_13
1002
{
1000
HIER
1070
     0
1002
}
1002
{
1000
MANEDIT
1070
     0
1002
}
1002
{
1000
NOSEL
1070
     0
1002
}
1002
{
1000
BEHIND
1070
     0
1002
}
1002
{
1000
OTHER
1070
     0
1002
}
1002
{
1000
REACTOR
1002
}
  0
ARC
  5
2AD6
330
1F
100
AcDbEntity
  8
ﾎﾞﾃﾞｨｰ
100
AcDbCircle
 10
27.40539044370852
 20
48.98564082674198
 30
0.0
 40
0.2
100
AcDbArc
 50
90.0
 51
136.2188752351313
1001
GENIUS_GENOBJ-N-FIL_13
1002
{
1000
OWNER
1000
GEN
1002
}
1001
GENIUS_GENODEF_13
1002
{
1000
HIER
1070
     0
1002
}
1002
{
1000
MANEDIT
1070
     0
1002
}
1002
{
1000
NOSEL
1070
     0
1002
}
1002
{
1000
BEHIND
1070
     0
1002
}
1002
{
1000
OTHER
1070
     0
1002
}
1002
{
1000
REACTOR
1002
}
  0
ARC
  5
2AD7
330
1F
100
AcDbEntity
  8
ﾎﾞﾃﾞｨｰ
100
AcDbCircle
 10
19.03469810575537
 20
48.98564082674198
 30
0.0
 40
0.2
100
AcDbArc
 50
43.78112476486863
 51
90.0
1001
GENIUS_GENODEF_13
1002
{
1000
HIER
1070
     0
1002
}
1002
{
1000
MANEDIT
1070
     0
1002
}
1002
{
1000
NOSEL
1070
     0
1002
}
1002
{
1000
BEHIND
1070
     0
1002
}
1002
{
1000
OTHER
1070
     0
1002
}
1002
{
1000
REACTOR
1002
}
1001
GENIUS_GENOBJ-N-FIL_13
1002
{
1000
OWNER
1000
GEN
1002
}
  0
ARC
  5
2AD8
330
1F
100
AcDbEntity
  8
ﾎﾞﾃﾞｨｰ
100
AcDbCircle
 10
19.03469810575537
 20
52.48564082674199
 30
0.0
 40
0.2
100
AcDbArc
 50
270.0
 51
316.2188752351314
1001
GENIUS_GENOBJ-N-FIL_13
1002
{
1000
OWNER
1000
GEN
1002
}
1001
GENIUS_GENODEF_13
1002
{
1000
HIER
1070
     0
1002
}
1002
{
1000
MANEDIT
1070
     0
1002
}
1002
{
1000
NOSEL
1070
     0
1002
}
1002
{
1000
BEHIND
1070
     0
1002
}
1002
{
1000
OTHER
1070
     0
1002
}
1002
{
1000
REACTOR
1002
}
  0
LINE
  5
2ADA
330
1F
100
AcDbEntity
  8
ﾏｲﾅｽ端子
100
AcDbLine
 10
28.37004427473195
 20
50.91064082674198
 30
0.0
 11
28.37004427473195
 21
50.560640826742
 31
0.0
  0
LINE
  5
2ADD
330
1F
100
AcDbEntity
  8
ﾏｲﾅｽ端子
100
AcDbLine
 10
28.17004427473194
 20
51.13564082674198
 30
0.0
 11
27.62004427473195
 21
51.13564082674198
 31
0.0
  0
LINE
  5
2ADE
330
1F
100
AcDbEntity
  8
ﾏｲﾅｽ端子
100
AcDbLine
 10
28.17004427473194
 20
50.33564082674199
 30
0.0
 11
27.62004427473195
 21
50.33564082674199
 31
0.0
  0
LINE
  5
2AE7
330
1F
100
AcDbEntity
  8
ﾎﾞﾃﾞｨｰ
100
AcDbLine
 10
20.15004427473195
 20
51.19564082674198
 30
0.0
 11
20.15004427473195
 21
50.27564082674198
 31
0.0
  0
LINE
  5
2AF4
330
1F
100
AcDbEntity
  8
ﾏｲﾅｽ端子
100
AcDbLine
 10
28.27004427473195
 20
50.91064082674198
 30
0.0
 11
28.37004427473195
 21
50.91064082674198
 31
0.0
  0
LINE
  5
2AF5
330
1F
100
AcDbEntity
  8
ﾏｲﾅｽ端子
100
AcDbLine
 10
28.27004427473195
 20
50.56064082674199
 30
0.0
 11
28.37004427473195
 21
50.56064082674199
 31
0.0
  0
LINE
  5
2AFD
330
1F
100
AcDbEntity
  8
ﾏｲﾅｽ端子
100
AcDbLine
 10
28.27004427473195
 20
50.91064082674198
 30
0.0
 11
28.17004427473194
 21
51.13564082674198
 31
0.0
  0
LINE
  5
2AFE
330
1F
100
AcDbEntity
  8
ﾏｲﾅｽ端子
100
AcDbLine
 10
28.27004427473195
 20
50.56064082674199
 30
0.0
 11
28.17004427473194
 21
50.33564082674199
 31
0.0
  0
LINE
  5
2B8F
330
1F
100
AcDbEntity
  8
ﾌﾟﾗｽ端子
100
AcDbLine
 10
18.27004427473195
 20
50.33564082674199
 30
0.0
 11
18.17004427473195
 21
50.56064082674199
 31
0.0
  0
LINE
  5
2B90
330
1F
100
AcDbEntity
  8
ﾌﾟﾗｽ端子
100
AcDbLine
 10
18.17004427473195
 20
50.56064082674199
 30
0.0
 11
18.07004427473195
 21
50.56064082674199
 31
0.0
  0
LINE
  5
2B91
330
1F
100
AcDbEntity
  8
ﾌﾟﾗｽ端子
100
AcDbLine
 10
18.07004427473195
 20
50.56064082674199
 30
0.0
 11
18.07004427473195
 21
50.91064082674198
 31
0.0
  0
LINE
  5
2B92
330
1F
100
AcDbEntity
  8
ﾌﾟﾗｽ端子
100
AcDbLine
 10
18.07004427473195
 20
50.91064082674198
 30
0.0
 11
18.17004427473195
 21
50.91064082674198
 31
0.0
  0
LINE
  5
2B93
330
1F
100
AcDbEntity
  8
ﾌﾟﾗｽ端子
100
AcDbLine
 10
18.17004427473195
 20
50.91064082674198
 30
0.0
 11
18.27004427473195
 21
51.13564082674198
 31
0.0
  0
LINE
  5
2B95
330
1F
100
AcDbEntity
  8
ﾏｲﾅｽ端子
100
AcDbLine
 10
27.62004427473195
 20
51.885640826742
 30
0.0
 11
27.62004427473195
 21
49.58564082674197
 31
0.0
  0
LINE
  5
2BA1
330
1F
100
AcDbEntity
  8
ﾏｲﾅｽ端子
100
AcDbLine
 10
27.62004427473195
 20
51.23564082674199
 30
0.0
 11
23.42004427473195
 21
51.23564082674199
 31
0.0
  0
LINE
  5
2BA3
330
1F
100
AcDbEntity
  8
ﾏｲﾅｽ端子
100
AcDbLine
 10
27.62004427473195
 20
50.23564082674198
 30
0.0
 11
23.42004427473194
 21
50.23564082674198
 31
0.0
  0
LINE
  5
2BA8
330
1F
100
AcDbEntity
  8
ﾏｲﾅｽ端子
100
AcDbLine
 10
23.82004427473195
 20
50.73564082674199
 30
0.0
 11
23.82004427473195
 21
50.73564082674199
 31
0.0
  0
LINE
  5
2BAB
330
1F
100
AcDbEntity
  8
ﾏｲﾅｽ端子
100
AcDbLine
 10
23.72004427473195
 20
50.83564082674199
 30
0.0
 11
23.42004427473195
 21
50.83564082674199
 31
0.0
  0
LINE
  5
2BAC
330
1F
100
AcDbEntity
  8
ﾏｲﾅｽ端子
100
AcDbLine
 10
23.72004427473195
 20
50.63564082674198
 30
0.0
 11
23.42004427473194
 21
50.63564082674198
 31
0.0
  0
LINE
  5
2BB0
330
1F
100
AcDbEntity
  8
ﾏｲﾅｽ端子
100
AcDbLine
 10
23.22004427473195
 20
51.03564082674198
 30
0.0
 11
23.22004427473195
 21
51.035640826742
 31
0.0
  0
LINE
  5
2BB1
330
1F
100
AcDbEntity
  8
ﾏｲﾅｽ端子
100
AcDbLine
 10
23.22004427473194
 20
50.43564082674198
 30
0.0
 11
23.22004427473194
 21
50.43564082674198
 31
0.0
  0
ARC
  5
2BB2
330
1F
100
AcDbEntity
  8
ﾏｲﾅｽ端子
100
AcDbCircle
 10
23.42004427473195
 20
51.03564082674198
 30
0.0
 40
0.2
100
AcDbArc
 50
90.0
 51
180.0
1001
GENIUS_GENOBJ-N-FIL_13
1002
{
1000
OWNER
1000
GEN
1002
}
1001
GENIUS_GENODEF_13
1002
{
1000
HIER
1070
     0
1002
}
1002
{
1000
MANEDIT
1070
     0
1002
}
1002
{
1000
NOSEL
1070
     0
1002
}
1002
{
1000
BEHIND
1070
     0
1002
}
1002
{
1000
OTHER
1070
     0
1002
}
1002
{
1000
REACTOR
1002
}
  0
ARC
  5
2BB3
330
1F
100
AcDbEntity
  8
ﾏｲﾅｽ端子
100
AcDbCircle
 10
23.42004427473194
 20
50.43564082674198
 30
0.0
 40
0.2
100
AcDbArc
 50
180.000000000002
 51
270.0
1001
GENIUS_GENODEF_13
1002
{
1000
HIER
1070
     0
1002
}
1002
{
1000
MANEDIT
1070
     0
1002
}
1002
{
1000
NOSEL
1070
     0
1002
}
1002
{
1000
BEHIND
1070
     0
1002
}
1002
{
1000
OTHER
1070
     0
1002
}
1002
{
1000
REACTOR
1002
}
1001
GENIUS_GENOBJ-N-FIL_13
1002
{
1000
OWNER
1000
GEN
1002
}
  0
ARC
  5
2BB4
330
1F
100
AcDbEntity
  8
ﾏｲﾅｽ端子
100
AcDbCircle
 10
23.42004427473194
 20
50.43564082674198
 30
0.0
 40
0.2
100
AcDbArc
 50
90.0
 51
180.0
1001
GENIUS_GENOBJ-N-FIL_13
1002
{
1000
OWNER
1000
GEN
1002
}
1001
GENIUS_GENODEF_13
1002
{
1000
HIER
1070
     0
1002
}
1002
{
1000
MANEDIT
1070
     0
1002
}
1002
{
1000
NOSEL
1070
     0
1002
}
1002
{
1000
BEHIND
1070
     0
1002
}
1002
{
1000
OTHER
1070
     0
1002
}
1002
{
1000
REACTOR
1002
}
  0
ARC
  5
2BB5
330
1F
100
AcDbEntity
  8
ﾏｲﾅｽ端子
100
AcDbCircle
 10
23.42004427473195
 20
51.03564082674199
 30
0.0
 40
0.2
100
AcDbArc
 50
179.9999999999979
 51
270.0
1001
GENIUS_GENODEF_13
1002
{
1000
HIER
1070
     0
1002
}
1002
{
1000
MANEDIT
1070
     0
1002
}
1002
{
1000
NOSEL
1070
     0
1002
}
1002
{
1000
BEHIND
1070
     0
1002
}
1002
{
1000
OTHER
1070
     0
1002
}
1002
{
1000
REACTOR
1002
}
1001
GENIUS_GENOBJ-N-FIL_13
1002
{
1000
OWNER
1000
GEN
1002
}
  0
ARC
  5
2BB6
330
1F
100
AcDbEntity
  8
ﾏｲﾅｽ端子
100
AcDbCircle
 10
23.72004427473195
 20
50.73564082674199
 30
0.0
 40
0.1
100
AcDbArc
 50
0.0
 51
89.9999999999992
1001
GENIUS_GENODEF_13
1002
{
1000
HIER
1070
     0
1002
}
1002
{
1000
MANEDIT
1070
     0
1002
}
1002
{
1000
NOSEL
1070
     0
1002
}
1002
{
1000
BEHIND
1070
     0
1002
}
1002
{
1000
OTHER
1070
     0
1002
}
1002
{
1000
REACTOR
1002
}
1001
GENIUS_GENOBJ-N-FIL_13
1002
{
1000
OWNER
1000
GEN
1002
}
  0
ARC
  5
2BB7
330
1F
100
AcDbEntity
  8
ﾏｲﾅｽ端子
100
AcDbCircle
 10
23.72004427473195
 20
50.73564082674199
 30
0.0
 40
0.1
100
AcDbArc
 50
270.0
 51
0.0
1001
GENIUS_GENODEF_13
1002
{
1000
HIER
1070
     0
1002
}
1002
{
1000
MANEDIT
1070
     0
1002
}
1002
{
1000
NOSEL
1070
     0
1002
}
1002
{
1000
BEHIND
1070
     0
1002
}
1002
{
1000
OTHER
1070
     0
1002
}
1002
{
1000
REACTOR
1002
}
1001
GENIUS_GENOBJ-N-FIL_13
1002
{
1000
OWNER
1000
GEN
1002
}
  0
LINE
  5
2BBE
330
1F
100
AcDbEntity
  8
ﾏｲﾅｽ端子
100
AcDbLine
 10
23.72004427473195
 20
51.23564082674199
 30
0.0
 11
23.72004427473195
 21
50.83564082674199
 31
0.0
  0
LINE
  5
2BBF
330
1F
100
AcDbEntity
  8
ﾏｲﾅｽ端子
100
AcDbLine
 10
23.47004427473195
 20
51.23564082674199
 30
0.0
 11
23.47004427473195
 21
50.83564082674199
 31
0.0
  0
LINE
  5
2BC0
330
1F
100
AcDbEntity
  8
ﾏｲﾅｽ端子
100
AcDbLine
 10
23.72004427473195
 20
50.63564082674198
 30
0.0
 11
23.72004427473195
 21
50.23564082674198
 31
0.0
  0
LINE
  5
2BC1
330
1F
100
AcDbEntity
  8
ﾏｲﾅｽ端子
100
AcDbLine
 10
23.47004427473195
 20
50.63564082674198
 30
0.0
 11
23.47004427473195
 21
50.23564082674198
 31
0.0
  0
LINE
  5
2BC2
330
1F
100
AcDbEntity
  8
ﾎﾞﾃﾞｨｰ
100
AcDbLine
 10
27.72004427473195
 20
52.08564082674199
 30
0.0
 11
26.72004427473195
 21
52.08564082674199
 31
0.0
  0
LINE
  5
2BC3
330
1F
100
AcDbEntity
  8
ﾎﾞﾃﾞｨｰ
100
AcDbLine
 10
27.72004427473195
 20
49.38564082674198
 30
0.0
 11
26.72004427473195
 21
49.38564082674198
 31
0.0
  0
LINE
  5
2BC4
330
1F
100
AcDbEntity
  8
ﾎﾞﾃﾞｨｰ
100
AcDbLine
 10
26.72004427473195
 20
51.66064082674198
 30
0.0
 11
27.42004427473195
 21
51.66064082674198
 31
0.0
  0
LINE
  5
2BC5
330
1F
100
AcDbEntity
  8
ﾎﾞﾃﾞｨｰ
100
AcDbLine
 10
27.42004427473195
 20
49.81064082674198
 30
0.0
 11
26.72004427473195
 21
49.81064082674198
 31
0.0
  0
LINE
  5
2BC7
330
1F
100
AcDbEntity
  8
ﾎﾞﾃﾞｨｰ
100
AcDbLine
 10
26.72004427473195
 20
52.08564082674199
 30
0.0
 11
26.72004427473195
 21
51.66064082674198
 31
0.0
  0
LINE
  5
2BCC
330
1F
100
AcDbEntity
  8
ﾎﾞﾃﾞｨｰ
100
AcDbLine
 10
27.42004427473195
 20
51.66064082674198
 30
0.0
 11
27.42004427473195
 21
51.28564082674198
 31
0.0
  0
LINE
  5
2BCF
330
1F
100
AcDbEntity
  8
ﾎﾞﾃﾞｨｰ
100
AcDbLine
 10
27.42004427473195
 20
50.18564082674199
 30
0.0
 11
27.42004427473195
 21
49.81064082674198
 31
0.0
  0
LINE
  5
2BD4
330
1F
100
AcDbEntity
  8
ﾎﾞﾃﾞｨｰ
100
AcDbLine
 10
26.72004427473195
 20
49.81064082674198
 30
0.0
 11
26.72004427473195
 21
49.38564082674198
 31
0.0
  0
LINE
  5
2C09
330
1F
100
AcDbEntity
  8
ﾎﾞﾃﾞｨｰ
100
AcDbLine
 10
27.42004427473195
 20
50.06064082674199
 30
0.0
 11
23.02004427473195
 21
50.06064082674198
 31
0.0
  0
LINE
  5
2C0A
330
1F
100
AcDbEntity
  8
ﾎﾞﾃﾞｨｰ
100
AcDbLine
 10
27.42004427473195
 20
51.41064082674198
 30
0.0
 11
23.02004427473195
 21
51.41064082674198
 31
0.0
  0
LINE
  5
2C12
330
1F
100
AcDbEntity
  8
ﾎﾞﾃﾞｨｰ
100
AcDbLine
 10
22.82004427473195
 20
51.21064082674198
 30
0.0
 11
22.82004427473195
 21
50.26064082674198
 31
0.0
  0
ARC
  5
2C16
330
1F
100
AcDbEntity
  8
ﾎﾞﾃﾞｨｰ
100
AcDbCircle
 10
23.02004427473195
 20
51.21064082674198
 30
0.0
 40
0.2
100
AcDbArc
 50
90.0
 51
180.0
1001
GENIUS_GENODEF_13
1002
{
1000
HIER
1070
     0
1002
}
1002
{
1000
MANEDIT
1070
     0
1002
}
1002
{
1000
NOSEL
1070
     0
1002
}
1002
{
1000
BEHIND
1070
     0
1002
}
1002
{
1000
OTHER
1070
     0
1002
}
1002
{
1000
REACTOR
1002
}
1001
GENIUS_GENOBJ-N-FIL_13
1002
{
1000
OWNER
1000
GEN
1002
}
  0
ARC
  5
2C17
330
1F
100
AcDbEntity
  8
ﾎﾞﾃﾞｨｰ
100
AcDbCircle
 10
23.02004427473195
 20
50.26064082674198
 30
0.0
 40
0.2
100
AcDbArc
 50
180.0
 51
270.0
1001
GENIUS_GENODEF_13
1002
{
1000
HIER
1070
     0
1002
}
1002
{
1000
MANEDIT
1070
     0
1002
}
1002
{
1000
NOSEL
1070
     0
1002
}
1002
{
1000
BEHIND
1070
     0
1002
}
1002
{
1000
OTHER
1070
     0
1002
}
1002
{
1000
REACTOR
1002
}
1001
GENIUS_GENOBJ-N-FIL_13
1002
{
1000
OWNER
1000
GEN
1002
}
  0
LINE
  5
2C1B
330
1F
100
AcDbEntity
  8
ﾏｲﾅｽ端子
100
AcDbLine
 10
26.82004427473195
 20
51.93564082674199
 30
0.0
 11
27.57004427473195
 21
51.935640826742
 31
0.0
  0
LINE
  5
2C1C
330
1F
100
AcDbEntity
  8
ﾏｲﾅｽ端子
100
AcDbLine
 10
26.82004427473195
 20
49.53564082674198
 30
0.0
 11
27.57004427473195
 21
49.53564082674198
 31
0.0
  0
LINE
  5
2C22
330
1F
100
AcDbEntity
  8
ﾏｲﾅｽ端子
100
AcDbLine
 10
26.82004427473195
 20
51.93564082674199
 30
0.0
 11
26.82004427473195
 21
51.78564082674199
 31
0.0
  0
LINE
  5
2C25
330
1F
100
AcDbEntity
  8
ﾏｲﾅｽ端子
100
AcDbLine
 10
26.82004427473195
 20
51.78564082674199
 30
0.0
 11
27.46004427473194
 21
51.78564082674198
 31
0.0
  0
LINE
  5
2C27
330
1F
100
AcDbEntity
  8
ﾏｲﾅｽ端子
100
AcDbLine
 10
26.82004427473195
 20
49.68564082674198
 30
0.0
 11
26.82004427473195
 21
49.53564082674198
 31
0.0
  0
LINE
  5
2C28
330
1F
100
AcDbEntity
  8
ﾏｲﾅｽ端子
100
AcDbLine
 10
26.82004427473195
 20
49.68564082674198
 30
0.0
 11
27.46004427473195
 21
49.68564082674198
 31
0.0
  0
LINE
  5
2C2B
330
1F
100
AcDbEntity
  8
ﾏｲﾅｽ端子
100
AcDbLine
 10
27.47004427473195
 20
49.69564082674198
 30
0.0
 11
27.47004427473195
 21
50.23564082674199
 31
0.0
  0
LINE
  5
2C31
330
1F
100
AcDbEntity
  8
ﾏｲﾅｽ端子
100
AcDbLine
 10
27.47004427473195
 20
51.23564082674199
 30
0.0
 11
27.47004427473194
 21
51.77564082674198
 31
0.0
  0
LINE
  5
2C32
330
1F
100
AcDbEntity
  8
ﾎﾞﾃﾞｨｰ
100
AcDbLine
 10
27.47004427473195
 20
50.185640826742
 30
0.0
 11
26.5737875977005
 21
50.18564082674199
 31
0.0
  0
LINE
  5
2C33
330
1F
100
AcDbEntity
  8
ﾎﾞﾃﾞｨｰ
100
AcDbLine
 10
27.47004427473194
 20
51.28564082674198
 30
0.0
 11
26.5737875977005
 21
51.28564082674198
 31
0.0
  0
ARC
  5
2C34
330
1F
100
AcDbEntity
  8
ﾏｲﾅｽ端子
100
AcDbCircle
 10
27.57004427473195
 20
51.885640826742
 30
0.0
 40
0.05
100
AcDbArc
 50
0.0000000000001781
 51
90.00000000000047
1001
GENIUS_GENODEF_13
1002
{
1000
HIER
1070
     0
1002
}
1002
{
1000
MANEDIT
1070
     0
1002
}
1002
{
1000
NOSEL
1070
     0
1002
}
1002
{
1000
BEHIND
1070
     0
1002
}
1002
{
1000
OTHER
1070
     0
1002
}
1002
{
1000
REACTOR
1002
}
1001
GENIUS_GENOBJ-N-FIL_13
1002
{
1000
OWNER
1000
GEN
1002
}
  0
ARC
  5
2C36
330
1F
100
AcDbEntity
  8
ﾏｲﾅｽ端子
100
AcDbCircle
 10
27.57004427473195
 20
49.58564082674197
 30
0.0
 40
0.05
100
AcDbArc
 50
270.0
 51
0.0000000000000891
1001
GENIUS_GENODEF_13
1002
{
1000
HIER
1070
     0
1002
}
1002
{
1000
MANEDIT
1070
     0
1002
}
1002
{
1000
NOSEL
1070
     0
1002
}
1002
{
1000
BEHIND
1070
     0
1002
}
1002
{
1000
OTHER
1070
     0
1002
}
1002
{
1000
REACTOR
1002
}
1001
GENIUS_GENOBJ-N-FIL_13
1002
{
1000
OWNER
1000
GEN
1002
}
  0
ARC
  5
2C37
330
1F
100
AcDbEntity
  8
ﾏｲﾅｽ端子
100
AcDbCircle
 10
27.46004427473195
 20
49.69564082674198
 30
0.0
 40
0.01
100
AcDbArc
 50
270.0
 51
0.0
1001
GENIUS_GENOBJ-N-FIL_13
1002
{
1000
OWNER
1000
GEN
1002
}
1001
GENIUS_GENODEF_13
1002
{
1000
HIER
1070
     0
1002
}
1002
{
1000
MANEDIT
1070
     0
1002
}
1002
{
1000
NOSEL
1070
     0
1002
}
1002
{
1000
BEHIND
1070
     0
1002
}
1002
{
1000
OTHER
1070
     0
1002
}
1002
{
1000
REACTOR
1002
}
  0
ARC
  5
2C38
330
1F
100
AcDbEntity
  8
ﾏｲﾅｽ端子
100
AcDbCircle
 10
27.46004427473194
 20
51.77564082674198
 30
0.0
 40
0.01
100
AcDbArc
 50
0.0000000000004071
 51
89.99999999999932
1001
GENIUS_GENOBJ-N-FIL_13
1002
{
1000
OWNER
1000
GEN
1002
}
1001
GENIUS_GENODEF_13
1002
{
1000
HIER
1070
     0
1002
}
1002
{
1000
MANEDIT
1070
     0
1002
}
1002
{
1000
NOSEL
1070
     0
1002
}
1002
{
1000
BEHIND
1070
     0
1002
}
1002
{
1000
OTHER
1070
     0
1002
}
1002
{
1000
REACTOR
1002
}
  0
LINE
  5
2C3B
330
1F
100
AcDbEntity
  8
ﾎﾞﾃﾞｨｰ
100
AcDbLine
 10
27.72004427473195
 20
50.18564082674199
 30
0.0
 11
27.72004427473195
 21
49.18564082674198
 31
0.0
  0
LINE
  5
2C3D
330
1F
100
AcDbEntity
  8
ﾌﾟﾗｽ端子
100
AcDbLine
 10
20.05004427473195
 20
51.13564082674198
 30
0.0
 11
20.05004427473195
 21
50.33564082674199
 31
0.0
  0
LINE
  5
2C3E
330
1F
100
AcDbEntity
  8
ﾌﾟﾗｽ端子
100
AcDbLine
 10
18.27004427473195
 20
51.13564082674198
 30
0.0
 11
20.05004427473195
 21
51.13564082674198
 31
0.0
  0
LINE
  5
2C3F
330
1F
100
AcDbEntity
  8
ﾌﾟﾗｽ端子
100
AcDbLine
 10
18.27004427473195
 20
50.33564082674199
 30
0.0
 11
20.05004427473195
 21
50.33564082674199
 31
0.0
  0
LINE
  5
2C6C
330
1F
100
AcDbEntity
  8
ﾎﾞﾃﾞｨｰ
100
AcDbLine
 10
18.72004427473195
 20
51.98564082674199
 30
0.0
 11
19.72004427473194
 21
51.98564082674199
 31
0.0
  0
LINE
  5
2C6D
330
1F
100
AcDbEntity
  8
ﾎﾞﾃﾞｨｰ
100
AcDbLine
 10
18.72004427473195
 20
49.48564082674199
 30
0.0
 11
19.72004427473194
 21
49.48564082674199
 31
0.0
  0
LINE
  5
2C6E
330
1F
100
AcDbEntity
  8
ﾎﾞﾃﾞｨｰ
100
AcDbLine
 10
19.72004427473194
 20
51.68564082674198
 30
0.0
 11
19.02004427473195
 21
51.68564082674198
 31
0.0
  0
LINE
  5
2C6F
330
1F
100
AcDbEntity
  8
ﾎﾞﾃﾞｨｰ
100
AcDbLine
 10
19.72004427473194
 20
49.78564082674198
 30
0.0
 11
19.02004427473195
 21
49.78564082674197
 31
0.0
  0
LINE
  5
2CD1
330
1F
100
AcDbEntity
  8
ﾎﾞﾃﾞｨｰ
100
AcDbLine
 10
19.02004427473195
 20
51.68564082674198
 30
0.0
 11
19.02004427473195
 21
51.28564082674198
 31
0.0
  0
LINE
  5
2CD3
330
1F
100
AcDbEntity
  8
ﾌﾟﾗｽ端子
100
AcDbLine
 10
18.82004427473195
 20
49.58564082674198
 30
0.0
 11
18.82004427473195
 21
50.33564082674198
 31
0.0
  0
LINE
  5
2CD8
330
1F
100
AcDbEntity
  8
ﾎﾞﾃﾞｨｰ
100
AcDbLine
 10
19.72004427473194
 20
51.98564082674199
 30
0.0
 11
19.72004427473194
 21
51.68564082674198
 31
0.0
  0
LINE
  5
2CDD
330
1F
100
AcDbEntity
  8
ﾎﾞﾃﾞｨｰ
100
AcDbLine
 10
19.02004427473194
 20
51.28564082674198
 30
0.0
 11
19.91550194636029
 21
51.28564082674198
 31
0.0
  0
LINE
  5
2CE0
330
1F
100
AcDbEntity
  8
ﾌﾟﾗｽ端子
100
AcDbLine
 10
18.97004427473195
 20
49.69564082674198
 30
0.0
 11
18.97004427473195
 21
50.33564082674199
 31
0.0
  0
LINE
  5
2CE4
330
1F
100
AcDbEntity
  8
ﾎﾞﾃﾞｨｰ
100
AcDbLine
 10
19.72004427473194
 20
49.78564082674198
 30
0.0
 11
19.72004427473194
 21
49.48564082674199
 31
0.0
  0
LINE
  5
2CE5
330
1F
100
AcDbEntity
  8
ﾎﾞﾃﾞｨｰ
100
AcDbLine
 10
19.02004427473195
 20
50.18564082674199
 30
0.0
 11
19.02004427473195
 21
49.78564082674196
 31
0.0
  0
LINE
  5
2D13
330
1F
100
AcDbEntity
  8
ﾌﾟﾗｽ端子
100
AcDbLine
 10
19.62004427473194
 20
51.93564082674199
 30
0.0
 11
18.87004427473195
 21
51.93564082674199
 31
0.0
  0
LINE
  5
2D14
330
1F
100
AcDbEntity
  8
ﾌﾟﾗｽ端子
100
AcDbLine
 10
19.62004427473194
 20
51.78564082674199
 30
0.0
 11
18.98004427473194
 21
51.78564082674199
 31
0.0
  0
LINE
  5
2D18
330
1F
100
AcDbEntity
  8
ﾌﾟﾗｽ端子
100
AcDbLine
 10
19.62004427473194
 20
51.93564082674199
 30
0.0
 11
19.62004427473194
 21
51.78564082674199
 31
0.0
  0
LINE
  5
2D21
330
1F
100
AcDbEntity
  8
ﾌﾟﾗｽ端子
100
AcDbLine
 10
18.87004427473195
 20
49.53564082674198
 30
0.0
 11
19.62004427473194
 21
49.53564082674198
 31
0.0
  0
LINE
  5
2D22
330
1F
100
AcDbEntity
  8
ﾌﾟﾗｽ端子
100
AcDbLine
 10
18.98004427473195
 20
49.68564082674198
 30
0.0
 11
19.62004427473194
 21
49.68564082674198
 31
0.0
  0
LINE
  5
2D23
330
1F
100
AcDbEntity
  8
ﾌﾟﾗｽ端子
100
AcDbLine
 10
19.62004427473194
 20
49.68564082674198
 30
0.0
 11
19.62004427473194
 21
49.53564082674198
 31
0.0
  0
LINE
  5
2D27
330
1F
100
AcDbEntity
  8
ﾌﾟﾗｽ端子
100
AcDbLine
 10
18.97004427473194
 20
51.13564082674198
 30
0.0
 11
18.97004427473194
 21
51.775640826742
 31
0.0
  0
LINE
  5
2D28
330
1F
100
AcDbEntity
  8
ﾌﾟﾗｽ端子
100
AcDbLine
 10
18.82004427473195
 20
51.13564082674198
 30
0.0
 11
18.82004427473195
 21
51.88564082674199
 31
0.0
  0
LINE
  5
2D29
330
1F
100
AcDbEntity
  8
ﾎﾞﾃﾞｨｰ
100
AcDbLine
 10
18.82004427473195
 20
51.19564082674198
 30
0.0
 11
18.72004427473195
 21
51.19564082674198
 31
0.0
  0
LINE
  5
2D2A
330
1F
100
AcDbEntity
  8
ﾎﾞﾃﾞｨｰ
100
AcDbLine
 10
18.97004427473195
 20
50.27564082674198
 30
0.0
 11
20.86454008241982
 21
50.27564082674198
 31
0.0
  0
LINE
  5
2D2B
330
1F
100
AcDbEntity
  8
ﾎﾞﾃﾞｨｰ
100
AcDbLine
 10
18.72004427473195
 20
51.19564082674198
 30
0.0
 11
18.72004427473195
 21
52.28564082674198
 31
0.0
  0
ARC
  5
2D2D
330
1F
100
AcDbEntity
  8
ﾌﾟﾗｽ端子
100
AcDbCircle
 10
18.87004427473195
 20
51.88564082674199
 30
0.0
 40
0.05
100
AcDbArc
 50
90.0
 51
180.0
1001
GENIUS_GENOBJ-N-FIL_13
1002
{
1000
OWNER
1000
GEN
1002
}
1001
GENIUS_GENODEF_13
1002
{
1000
HIER
1070
     0
1002
}
1002
{
1000
MANEDIT
1070
     0
1002
}
1002
{
1000
NOSEL
1070
     0
1002
}
1002
{
1000
BEHIND
1070
     0
1002
}
1002
{
1000
OTHER
1070
     0
1002
}
1002
{
1000
REACTOR
1002
}
  0
ARC
  5
2D2E
330
1F
100
AcDbEntity
  8
ﾌﾟﾗｽ端子
100
AcDbCircle
 10
18.87004427473195
 20
49.58564082674198
 30
0.0
 40
0.05
100
AcDbArc
 50
180.0
 51
270.0
1001
GENIUS_GENODEF_13
1002
{
1000
HIER
1070
     0
1002
}
1002
{
1000
MANEDIT
1070
     0
1002
}
1002
{
1000
NOSEL
1070
     0
1002
}
1002
{
1000
BEHIND
1070
     0
1002
}
1002
{
1000
OTHER
1070
     0
1002
}
1002
{
1000
REACTOR
1002
}
1001
GENIUS_GENOBJ-N-FIL_13
1002
{
1000
OWNER
1000
GEN
1002
}
  0
ARC
  5
2D2F
330
1F
100
AcDbEntity
  8
ﾌﾟﾗｽ端子
100
AcDbCircle
 10
18.98004427473195
 20
49.69564082674198
 30
0.0
 40
0.01
100
AcDbArc
 50
180.0
 51
270.0
1001
GENIUS_GENODEF_13
1002
{
1000
HIER
1070
     0
1002
}
1002
{
1000
MANEDIT
1070
     0
1002
}
1002
{
1000
NOSEL
1070
     0
1002
}
1002
{
1000
BEHIND
1070
     0
1002
}
1002
{
1000
OTHER
1070
     0
1002
}
1002
{
1000
REACTOR
1002
}
1001
GENIUS_GENOBJ-N-FIL_13
1002
{
1000
OWNER
1000
GEN
1002
}
  0
ARC
  5
2D30
330
1F
100
AcDbEntity
  8
ﾌﾟﾗｽ端子
100
AcDbCircle
 10
18.98004427473194
 20
51.775640826742
 30
0.0
 40
0.01
100
AcDbArc
 50
89.99999999999936
 51
180.0
1001
GENIUS_GENOBJ-N-FIL_13
1002
{
1000
OWNER
1000
GEN
1002
}
1001
GENIUS_GENODEF_13
1002
{
1000
HIER
1070
     0
1002
}
1002
{
1000
MANEDIT
1070
     0
1002
}
1002
{
1000
NOSEL
1070
     0
1002
}
1002
{
1000
BEHIND
1070
     0
1002
}
1002
{
1000
OTHER
1070
     0
1002
}
1002
{
1000
REACTOR
1002
}
  0
LINE
  5
2D32
330
1F
100
AcDbEntity
  8
ﾌﾟﾗｽ端子
100
AcDbLine
 10
19.65004427473195
 20
51.13564082674198
 30
0.0
 11
19.65004427473195
 21
50.33564082674199
 31
0.0
  0
LINE
  5
2D34
330
1F
100
AcDbEntity
  8
ﾌﾟﾗｽ端子
100
AcDbLine
 10
19.75004427473195
 20
51.13564082674198
 30
0.0
 11
19.75004427473195
 21
50.33564082674199
 31
0.0
  0
LINE
  5
2D36
330
1F
100
AcDbEntity
  8
ﾌﾟﾗｽ端子
100
AcDbLine
 10
19.35004427473195
 20
51.13564082674198
 30
0.0
 11
19.35004427473195
 21
50.33564082674199
 31
0.0
  0
LINE
  5
2D38
330
1F
100
AcDbEntity
  8
ﾌﾟﾗｽ端子
100
AcDbLine
 10
18.57004427473195
 20
51.13564082674198
 30
0.0
 11
18.57004427473195
 21
50.33564082674199
 31
0.0
  0
LINE
  5
2D3A
330
1F
100
AcDbEntity
  8
ﾌﾟﾗｽ端子
100
AcDbLine
 10
18.87004427473195
 20
51.13564082674198
 30
0.0
 11
18.87004427473195
 21
50.33564082674199
 31
0.0
  0
LINE
  5
2D46
330
1F
100
AcDbEntity
  8
ﾎﾞﾃﾞｨｰ
100
AcDbLine
 10
18.72004427473195
 20
38.75654600218738
 30
0.0
 11
18.72004427473195
 21
36.15654600218738
 31
0.0
  0
LINE
  5
2D47
330
1F
100
AcDbEntity
  8
ﾎﾞﾃﾞｨｰ
100
AcDbLine
 10
27.72004427473195
 20
38.75654600218738
 30
0.0
 11
27.72004427473195
 21
36.15654600218738
 31
0.0
  0
LINE
  5
2D50
330
1F
100
AcDbEntity
  8
ﾏｲﾅｽ端子
100
AcDbLine
 10
27.72004427473195
 20
36.15654600218738
 30
0.0
 11
28.37004427473195
 21
36.15654600218738
 31
0.0
  0
LINE
  5
2D51
330
1F
100
AcDbEntity
  8
ﾏｲﾅｽ端子
100
AcDbLine
 10
28.37004427473195
 20
36.15654600218738
 30
0.0
 11
28.37004427473195
 21
36.30654600218738
 31
0.0
  0
LINE
  5
2D52
330
1F
100
AcDbEntity
  8
ﾏｲﾅｽ端子
100
AcDbLine
 10
28.37004427473195
 20
36.30654600218738
 30
0.0
 11
27.72004427473195
 21
36.30654600218738
 31
0.0
  0
LINE
  5
2D53
330
1F
100
AcDbEntity
  8
ﾌﾟﾗｽ端子
100
AcDbLine
 10
18.72004427473195
 20
36.30654600218738
 30
0.0
 11
18.07004427473195
 21
36.30654600218738
 31
0.0
  0
LINE
  5
2D54
330
1F
100
AcDbEntity
  8
ﾌﾟﾗｽ端子
100
AcDbLine
 10
18.07004427473195
 20
36.30654600218738
 30
0.0
 11
18.07004427473195
 21
36.15654600218738
 31
0.0
  0
LINE
  5
2D55
330
1F
100
AcDbEntity
  8
ﾌﾟﾗｽ端子
100
AcDbLine
 10
18.07004427473195
 20
36.15654600218738
 30
0.0
 11
18.72004427473195
 21
36.15654600218738
 31
0.0
  0
LINE
  5
2D5F
330
1F
100
AcDbEntity
  8
ﾎﾞﾃﾞｨｰ
100
AcDbLine
 10
26.35127654381125
 20
38.95654600218738
 30
0.0
 11
25.064068605095
 21
38.95654600218738
 31
0.0
  0
LINE
  5
2D91
330
1F
100
AcDbEntity
  8
ﾎﾞﾃﾞｨｰ
100
AcDbLine
 10
18.72004427473195
 20
36.15654600218738
 30
0.0
 11
27.72004427473195
 21
36.15654600218738
 31
0.0
  0
LINE
  5
2D93
330
1F
100
AcDbEntity
  8
ﾎﾞﾃﾞｨｰ
100
AcDbLine
 10
20.07582811082845
 20
38.95654600218738
 30
0.0
 11
20.07582811082845
 21
38.75654600218738
 31
0.0
  0
LINE
  5
2D99
330
1F
100
AcDbEntity
  8
ﾎﾞﾃﾞｨｰ
100
AcDbLine
 10
18.72004427473195
 20
38.75654600218738
 30
0.0
 11
22.07004427473195
 21
38.75654600218738
 31
0.0
  0
LINE
  5
2D9A
330
1F
100
AcDbEntity
  8
ﾎﾞﾃﾞｨｰ
100
AcDbLine
 10
26.35127654381125
 20
38.75654600218738
 30
0.0
 11
26.35127654381125
 21
38.95654600218738
 31
0.0
  0
LINE
  5
2DA3
330
1F
100
AcDbEntity
  8
ﾎﾞﾃﾞｨｰ
100
AcDbLine
 10
21.37446500973417
 20
38.95654600218738
 30
0.0
 11
21.44666383024571
 21
38.75654600218738
 31
0.0
  0
LINE
  5
2DA4
330
1F
100
AcDbEntity
  8
ﾎﾞﾃﾞｨｰ
100
AcDbLine
 10
25.064068605095
 20
38.95654600218738
 30
0.0
 11
24.99342471921819
 21
38.75654600218738
 31
0.0
  0
LINE
  5
2DA5
330
1F
100
AcDbEntity
  8
ﾎﾞﾃﾞｨｰ
100
AcDbLine
 10
20.79533456891544
 20
38.95654600218738
 30
0.0
 11
20.79533456891544
 21
36.15654600218738
 31
0.0
  0
LINE
  5
2DA6
330
1F
100
AcDbEntity
  8
ﾎﾞﾃﾞｨｰ
100
AcDbLine
 10
25.65782157986739
 20
38.95654600218738
 30
0.0
 11
25.65782157986739
 21
36.15654600218738
 31
0.0
  0
LINE
  5
2DAB
330
1F
100
AcDbEntity
  8
ﾎﾞﾃﾞｨｰ
100
AcDbLine
 10
22.07004427473195
 20
36.95654600218738
 30
0.0
 11
22.07004427473195
 21
38.75654600218738
 31
0.0
  0
LINE
  5
2DAC
330
1F
100
AcDbEntity
  8
ﾎﾞﾃﾞｨｰ
100
AcDbLine
 10
24.37004427473195
 20
36.95654600218738
 30
0.0
 11
24.37004427473195
 21
38.75654600218738
 31
0.0
  0
LINE
  5
2DAD
330
1F
100
AcDbEntity
  8
ﾎﾞﾃﾞｨｰ
100
AcDbLine
 10
21.37446500973417
 20
38.95654600218738
 30
0.0
 11
20.07582811082845
 21
38.95654600218738
 31
0.0
  0
LINE
  5
2DB1
330
1F
100
AcDbEntity
  8
ﾎﾞﾃﾞｨｰ
100
AcDbLine
 10
24.37004427473195
 20
38.75654600218738
 30
0.0
 11
27.72004427473195
 21
38.75654600218738
 31
0.0
  0
LINE
  5
2DB2
330
1F
100
AcDbEntity
  8
ﾎﾞﾃﾞｨｰ
100
AcDbLine
 10
24.37004427473195
 20
36.95654600218738
 30
0.0
 11
22.07004427473195
 21
36.95654600218738
 31
0.0
  0
LINE
  5
2DB4
330
1F
100
AcDbEntity
  8
ﾎﾞﾃﾞｨｰ
100
AcDbLine
 10
19.03469810575537
 20
38.75654600218738
 30
0.0
 11
19.03469810575537
 21
36.15654600218738
 31
0.0
  0
LINE
  5
2DB5
330
1F
100
AcDbEntity
  8
ﾎﾞﾃﾞｨｰ
100
AcDbLine
 10
27.40539044370852
 20
38.75654600218738
 30
0.0
 11
27.40539044370852
 21
36.15654600218738
 31
0.0
  0
LINE
  5
2DD0
330
1F
100
AcDbEntity
  8
ﾎﾞﾃﾞｨｰ
100
AcDbLine
 10
39.61807293413989
 20
54.08564082674199
 30
0.0
 11
39.61807293413989
 21
47.38564082674198
 31
0.0
  0
LINE
  5
2DD2
330
1F
100
AcDbEntity
  8
ﾎﾞﾃﾞｨｰ
100
AcDbLine
 10
36.81807293413989
 20
53.97626416247663
 30
0.0
 11
36.8180729341399
 21
52.57484971367939
 31
0.0
  0
LINE
  5
2E04
330
1F
100
AcDbEntity
  8
ﾎﾞﾃﾞｨｰ
100
AcDbLine
 10
37.0180729341399
 20
54.08564082674199
 30
0.0
 11
37.0180729341399
 21
51.28564082674198
 31
0.0
  0
LINE
  5
2E05
330
1F
100
AcDbEntity
  8
ﾎﾞﾃﾞｨｰ
100
AcDbLine
 10
39.61807293413989
 20
54.08564082674199
 30
0.0
 11
37.0180729341399
 21
54.085640826742
 31
0.0
  0
LINE
  5
2E06
330
1F
100
AcDbEntity
  8
ﾎﾞﾃﾞｨｰ
100
AcDbLine
 10
39.61807293413989
 20
47.38564082674198
 30
0.0
 11
37.0180729341399
 21
47.38564082674199
 31
0.0
  0
LINE
  5
2E07
330
1F
100
AcDbEntity
  8
ﾎﾞﾃﾞｨｰ
100
AcDbLine
 10
39.61807293413989
 20
52.28564082674198
 30
0.0
 11
37.0180729341399
 21
52.28564082674198
 31
0.0
  0
LINE
  5
2E08
330
1F
100
AcDbEntity
  8
ﾎﾞﾃﾞｨｰ
100
AcDbLine
 10
39.61807293413989
 20
49.18564082674198
 30
0.0
 11
37.0180729341399
 21
49.18564082674199
 31
0.0
  0
LINE
  5
2E0E
330
1F
100
AcDbEntity
  8
AM_7
100
AcDbLine
 10
23.22004427473195
 20
50.73564082674199
 30
0.0
 11
29.12004427473195
 21
50.73564082674199
 31
0.0
1001
GENIUS_GENOREF_13
1005
2E12
  0
LINE
  5
2E0F
330
1F
100
AcDbEntity
  8
AM_7
100
AcDbLine
 10
23.22004427473195
 20
50.73564082674199
 30
0.0
 11
23.22004427473195
 21
54.87800356786673
 31
0.0
1001
GENIUS_GENOREF_13
1005
2E12
  0
LINE
  5
2E10
330
1F
100
AcDbEntity
  8
AM_7
100
AcDbLine
 10
23.22004427473195
 20
50.73564082674199
 30
0.0
 11
17.32004427473195
 21
50.73564082674199
 31
0.0
1001
GENIUS_GENOREF_13
1005
2E12
  0
LINE
  5
2E11
330
1F
100
AcDbEntity
  8
AM_7
100
AcDbLine
 10
23.22004427473195
 20
50.73564082674199
 30
0.0
 11
23.22004427473195
 21
46.36338031683786
 31
0.0
1001
GENIUS_GENOREF_13
1005
2E12
  0
POINT
  5
2E12
330
1F
100
AcDbEntity
  8
0
 60
     1
100
AcDbPoint
 10
0.0
 20
0.0
 30
0.0
1001
GENIUS_GENODEF_13
1002
{
1000
HIER
1070
    10
1002
}
1002
{
1000
MANEDIT
1070
     0
1002
}
1002
{
1000
NOSEL
1070
     0
1002
}
1002
{
1000
BEHIND
1070
     0
1002
}
1002
{
1000
OTHER
1070
     0
1002
}
1002
{
1000
REACTOR
1002
}
1001
GENIUS_GENOLIS_13
1002
{
1000
ENT
1005
2E11
1005
2E10
1005
2E0F
1005
2E0E
1002
}
1001
GENIUS_GENOBJ-N-CRS_13
1002
{
1000
OWNER
1000
GEN
1002
}
1001
GENIUS_GENOENT_13
1002
{
1000
MYREF
1005
2E12
1002
}
1002
{
1000
GRP
1005
0
1002
}
  0
LINE
  5
2E1C
330
1F
100
AcDbEntity
  8
ﾎﾞﾃﾞｨｰ
100
AcDbLine
 10
37.91807293413989
 20
51.28564082674198
 30
0.0
 11
37.0180729341399
 21
51.28564082674198
 31
0.0
  0
LINE
  5
2E1D
330
1F
100
AcDbEntity
  8
ﾎﾞﾃﾞｨｰ
100
AcDbLine
 10
37.91807293413989
 20
50.18564082674199
 30
0.0
 11
37.0180729341399
 21
50.18564082674199
 31
0.0
  0
LINE
  5
2E5E
330
1F
100
AcDbEntity
  8
ﾏｲﾅｽ端子
100
AcDbLine
 10
37.81807293413989
 20
51.23564082674199
 30
0.0
 11
37.81807293413989
 21
50.24357029929106
 31
0.0
  0
LINE
  5
2E5F
330
1F
100
AcDbEntity
  8
ﾏｲﾅｽ端子
100
AcDbLine
 10
37.9680729341399
 20
51.23564082674199
 30
0.0
 11
37.81807293413989
 21
51.23564082674199
 31
0.0
  0
LINE
  5
2E69
330
1F
100
AcDbEntity
  8
ﾏｲﾅｽ端子
100
AcDbLine
 10
37.81807293413989
 20
50.24357029929106
 30
0.0
 11
37.96807293413989
 21
50.24357029929106
 31
0.0
  0
LINE
  5
2E6B
330
1F
100
AcDbEntity
  8
ﾏｲﾅｽ端子
100
AcDbLine
 10
38.31807293413989
 20
51.13564082674199
 30
0.0
 11
39.4680729341399
 21
51.13564082674198
 31
0.0
  0
LINE
  5
2E6C
330
1F
100
AcDbEntity
  8
ﾏｲﾅｽ端子
100
AcDbLine
 10
39.4680729341399
 20
50.91064082674199
 30
0.0
 11
39.61807293413989
 21
50.91064082674198
 31
0.0
  0
LINE
  5
2E6D
330
1F
100
AcDbEntity
  8
ﾏｲﾅｽ端子
100
AcDbLine
 10
39.4680729341399
 20
50.560640826742
 30
0.0
 11
39.61807293413989
 21
50.560640826742
 31
0.0
  0
LINE
  5
2E6E
330
1F
100
AcDbEntity
  8
ﾏｲﾅｽ端子
100
AcDbLine
 10
38.31807293413989
 20
50.33564082674199
 30
0.0
 11
39.4680729341399
 21
50.33564082674199
 31
0.0
  0
LINE
  5
2E70
330
1F
100
AcDbEntity
  8
ﾏｲﾅｽ端子
100
AcDbLine
 10
39.46807293413989
 20
50.91064082674199
 30
0.0
 11
39.46807293413989
 21
50.560640826742
 31
0.0
  0
LINE
  5
2E74
330
1F
100
AcDbEntity
  8
ﾏｲﾅｽ端子
100
AcDbLine
 10
39.46807293413989
 20
51.13564082674198
 30
0.0
 11
39.61807293413989
 21
50.91064082674198
 31
0.0
  0
LINE
  5
2E75
330
1F
100
AcDbEntity
  8
ﾏｲﾅｽ端子
100
AcDbLine
 10
39.46807293413989
 20
50.33564082674199
 30
0.0
 11
39.61807293413989
 21
50.560640826742
 31
0.0
  0
LINE
  5
2E76
330
1F
100
AcDbEntity
  8
ﾏｲﾅｽ端子
100
AcDbLine
 10
39.61807293413989
 20
50.91064082674198
 30
0.0
 11
39.61807293413989
 21
50.560640826742
 31
0.0
  0
LINE
  5
2E7A
330
1F
100
AcDbEntity
  8
ﾎﾞﾃﾞｨｰ
100
AcDbLine
 10
38.41807293413989
 20
49.38564082674198
 30
0.0
 11
37.0180729341399
 21
49.38564082674197
 31
0.0
  0
LINE
  5
2E7D
330
1F
100
AcDbEntity
  8
ﾎﾞﾃﾞｨｰ
100
AcDbLine
 10
37.0180729341399
 20
52.08564082674198
 30
0.0
 11
38.41807293413989
 21
52.08564082674199
 31
0.0
  0
LINE
  5
2E7E
330
1F
100
AcDbEntity
  8
ﾎﾞﾃﾞｨｰ
100
AcDbLine
 10
38.0180729341399
 20
51.66064082674198
 30
0.0
 11
37.0180729341399
 21
51.66064082674199
 31
0.0
  0
LINE
  5
2E7F
330
1F
100
AcDbEntity
  8
ﾎﾞﾃﾞｨｰ
100
AcDbLine
 10
38.0180729341399
 20
49.81064082674198
 30
0.0
 11
37.0180729341399
 21
49.81064082674198
 31
0.0
  0
LINE
  5
2E80
330
1F
100
AcDbEntity
  8
ﾎﾞﾃﾞｨｰ
100
AcDbLine
 10
38.0180729341399
 20
51.28564082674199
 30
0.0
 11
37.0180729341399
 21
51.28564082674198
 31
0.0
  0
LINE
  5
2E95
330
1F
100
AcDbEntity
  8
ﾎﾞﾃﾞｨｰ
100
AcDbLine
 10
38.41807293413989
 20
51.18564082674198
 30
0.0
 11
38.41807293413989
 21
52.28564082674198
 31
0.0
  0
LINE
  5
2E96
330
1F
100
AcDbEntity
  8
ﾎﾞﾃﾞｨｰ
100
AcDbLine
 10
38.41807293413989
 20
50.28564082674199
 30
0.0
 11
38.41807293413989
 21
49.18564082674198
 31
0.0
  0
LINE
  5
2ECD
330
1F
100
AcDbEntity
  8
ﾎﾞﾃﾞｨｰ
100
AcDbLine
 10
38.0180729341399
 20
50.185640826742
 30
0.0
 11
37.0180729341399
 21
50.18564082674199
 31
0.0
  0
LINE
  5
2F77
330
1F
100
AcDbEntity
  8
ﾎﾞﾃﾞｨｰ
100
AcDbLine
 10
39.61807293413989
 20
50.28564082674199
 30
0.0
 11
38.41807293413989
 21
50.28564082674199
 31
0.0
  0
LINE
  5
2F79
330
1F
100
AcDbEntity
  8
ﾎﾞﾃﾞｨｰ
100
AcDbLine
 10
39.61807293413989
 20
51.18564082674198
 30
0.0
 11
38.41807293413989
 21
51.18564082674198
 31
0.0
  0
LINE
  5
3076
330
1F
100
AcDbEntity
  8
ﾏｲﾅｽ端子
100
AcDbLine
 10
38.31807293413989
 20
50.33564082674199
 30
0.0
 11
38.31807293413989
 21
49.38564082674198
 31
0.0
  0
LINE
  5
3077
330
1F
100
AcDbEntity
  8
ﾏｲﾅｽ端子
100
AcDbLine
 10
38.31807293413989
 20
51.13564082674199
 30
0.0
 11
38.31807293413989
 21
52.08564082674199
 31
0.0
  0
LINE
  5
307B
330
1F
100
AcDbEntity
  8
ﾏｲﾅｽ端子
100
AcDbLine
 10
38.0180729341399
 20
52.08564082674199
 30
0.0
 11
38.0180729341399
 21
51.28564082674198
 31
0.0
  0
ARC
  5
307F
330
1F
100
AcDbEntity
  8
ﾏｲﾅｽ端子
100
AcDbCircle
 10
37.9680729341399
 20
51.28564082674198
 30
0.0
 40
0.05
100
AcDbArc
 50
270.0
 51
0.0
1001
GENIUS_GENODEF_13
1002
{
1000
HIER
1070
     0
1002
}
1002
{
1000
MANEDIT
1070
     0
1002
}
1002
{
1000
NOSEL
1070
     0
1002
}
1002
{
1000
BEHIND
1070
     0
1002
}
1002
{
1000
OTHER
1070
     0
1002
}
1002
{
1000
REACTOR
1002
}
1001
GENIUS_GENOBJ-N-FIL_13
1002
{
1000
OWNER
1000
GEN
1002
}
  0
LINE
  5
3080
330
1F
100
AcDbEntity
  8
ﾏｲﾅｽ端子
100
AcDbLine
 10
38.01807293413989
 20
50.19357029929107
 30
0.0
 11
38.0180729341399
 21
49.38564082674198
 31
0.0
  0
ARC
  5
3081
330
1F
100
AcDbEntity
  8
ﾏｲﾅｽ端子
100
AcDbCircle
 10
37.96807293413989
 20
50.19357029929107
 30
0.0
 40
0.05
100
AcDbArc
 50
0.0
 51
90.0
1001
GENIUS_GENODEF_13
1002
{
1000
HIER
1070
     0
1002
}
1002
{
1000
MANEDIT
1070
     0
1002
}
1002
{
1000
NOSEL
1070
     0
1002
}
1002
{
1000
BEHIND
1070
     0
1002
}
1002
{
1000
OTHER
1070
     0
1002
}
1002
{
1000
REACTOR
1002
}
1001
GENIUS_GENOBJ-N-FIL_13
1002
{
1000
OWNER
1000
GEN
1002
}
  0
LINE
  5
3087
330
1F
100
AcDbEntity
  8
ﾎﾞﾃﾞｨｰ
100
AcDbLine
 10
37.0180729341399
 20
52.57484971367939
 30
0.0
 11
36.81807293413989
 21
52.57484971367939
 31
0.0
  0
LINE
  5
308A
330
1F
100
AcDbEntity
  8
ﾎﾞﾃﾞｨｰ
100
AcDbLine
 10
37.0180729341399
 20
47.49501749100733
 30
0.0
 11
36.81807293413989
 21
47.49501749100733
 31
0.0
  0
LINE
  5
308B
330
1F
100
AcDbEntity
  8
ﾎﾞﾃﾞｨｰ
100
AcDbLine
 10
37.0180729341399
 20
53.97626416247663
 30
0.0
 11
36.81807293413989
 21
53.97626416247663
 31
0.0
  0
LINE
  5
308E
330
1F
100
AcDbEntity
  8
ﾎﾞﾃﾞｨｰ
100
AcDbLine
 10
36.81807293413989
 20
48.89643193980457
 30
0.0
 11
37.0180729341399
 21
48.89643193980457
 31
0.0
  0
LINE
  5
3090
330
1F
100
AcDbEntity
  8
ﾎﾞﾃﾞｨｰ
100
AcDbLine
 10
36.81807293413989
 20
48.89643193980457
 30
0.0
 11
36.81807293413989
 21
47.49501749100733
 31
0.0
  0
LINE
  5
3092
330
1F
100
AcDbEntity
  8
ﾎﾞﾃﾞｨｰ
100
AcDbLine
 10
37.0180729341399
 20
50.18564082674199
 30
0.0
 11
37.0180729341399
 21
47.38564082674198
 31
0.0
  0
LINE
  5
3093
330
1F
100
AcDbEntity
  8
ﾎﾞﾃﾞｨｰ
100
AcDbLine
 10
6.822015615324005
 20
54.08564082674199
 30
0.0
 11
6.822015615324005
 21
47.38564082674198
 31
0.0
  0
LINE
  5
3094
330
1F
100
AcDbEntity
  8
ﾎﾞﾃﾞｨｰ
100
AcDbLine
 10
9.622015615324002
 20
53.97626416247663
 30
0.0
 11
9.622015615323995
 21
52.57484971367939
 31
0.0
  0
LINE
  5
3095
330
1F
100
AcDbEntity
  8
ﾎﾞﾃﾞｨｰ
100
AcDbLine
 10
9.622015615324009
 20
48.89643193980457
 30
0.0
 11
9.622015615324002
 21
47.49501749100733
 31
0.0
  0
LINE
  5
3096
330
1F
100
AcDbEntity
  8
ﾎﾞﾃﾞｨｰ
100
AcDbLine
 10
9.422015615323999
 20
54.08564082674199
 30
0.0
 11
9.422015615323999
 21
51.19564082674198
 31
0.0
  0
LINE
  5
3097
330
1F
100
AcDbEntity
  8
ﾎﾞﾃﾞｨｰ
100
AcDbLine
 10
9.422015615323999
 20
50.27564082674198
 30
0.0
 11
9.422015615323999
 21
47.38564082674198
 31
0.0
  0
LINE
  5
3098
330
1F
100
AcDbEntity
  8
ﾎﾞﾃﾞｨｰ
100
AcDbLine
 10
6.822015615324005
 20
54.08564082674199
 30
0.0
 11
9.422015615323992
 21
54.085640826742
 31
0.0
  0
LINE
  5
3099
330
1F
100
AcDbEntity
  8
ﾎﾞﾃﾞｨｰ
100
AcDbLine
 10
6.822015615324005
 20
47.38564082674198
 30
0.0
 11
9.422015615323992
 21
47.38564082674199
 31
0.0
  0
LINE
  5
309A
330
1F
100
AcDbEntity
  8
ﾎﾞﾃﾞｨｰ
100
AcDbLine
 10
6.822015615324005
 20
52.28564082674198
 30
0.0
 11
9.422015615323992
 21
52.28564082674198
 31
0.0
  0
LINE
  5
309B
330
1F
100
AcDbEntity
  8
ﾎﾞﾃﾞｨｰ
100
AcDbLine
 10
6.822015615324005
 20
49.18564082674198
 30
0.0
 11
9.422015615323992
 21
49.18564082674199
 31
0.0
  0
LINE
  5
309C
330
1F
100
AcDbEntity
  8
ﾎﾞﾃﾞｨｰ
100
AcDbLine
 10
8.522015615324001
 20
51.28564082674198
 30
0.0
 11
9.422015615323999
 21
51.28564082674198
 31
0.0
  0
LINE
  5
309D
330
1F
100
AcDbEntity
  8
ﾎﾞﾃﾞｨｰ
100
AcDbLine
 10
8.522015615324001
 20
50.18564082674199
 30
0.0
 11
9.422015615323999
 21
50.18564082674199
 31
0.0
  0
LINE
  5
309E
330
1F
100
AcDbEntity
  8
ﾌﾟﾗｽ端子
100
AcDbLine
 10
8.622015615324002
 20
51.13564082674198
 30
0.0
 11
8.622015615324002
 21
50.335640826742
 31
0.0
  0
LINE
  5
309F
330
1F
100
AcDbEntity
  8
ﾌﾟﾗｽ端子
100
AcDbLine
 10
8.472015615323998
 20
51.13564082674198
 30
0.0
 11
8.622015615324004
 21
51.13564082674198
 31
0.0
  0
ARC
  5
30A0
330
1F
100
AcDbEntity
  8
ﾌﾟﾗｽ端子
100
AcDbCircle
 10
8.472015615323998
 20
51.18564082674198
 30
0.0
 40
0.05
100
AcDbArc
 50
180.0
 51
270.0
1001
GENIUS_GENODEF_13
1002
{
1000
HIER
1070
     0
1002
}
1002
{
1000
MANEDIT
1070
     0
1002
}
1002
{
1000
NOSEL
1070
     0
1002
}
1002
{
1000
BEHIND
1070
     0
1002
}
1002
{
1000
OTHER
1070
     0
1002
}
1002
{
1000
REACTOR
1002
}
1001
GENIUS_GENOBJ-N-FIL_13
1002
{
1000
OWNER
1000
GEN
1002
}
  0
LINE
  5
30A1
330
1F
100
AcDbEntity
  8
ﾌﾟﾗｽ端子
100
AcDbLine
 10
8.622015615324002
 20
50.33564082674199
 30
0.0
 11
8.472015615324004
 21
50.33564082674199
 31
0.0
  0
LINE
  5
30A2
330
1F
100
AcDbEntity
  8
ﾌﾟﾗｽ端子
100
AcDbLine
 10
8.122015615324002
 20
50.33564082674199
 30
0.0
 11
6.972015615323996
 21
50.33564082674199
 31
0.0
  0
LINE
  5
30A3
330
1F
100
AcDbEntity
  8
ﾌﾟﾗｽ端子
100
AcDbLine
 10
8.122015615324002
 20
51.13564082674199
 30
0.0
 11
6.972015615323996
 21
51.13564082674198
 31
0.0
  0
LINE
  5
30A4
330
1F
100
AcDbEntity
  8
ﾌﾟﾗｽ端子
100
AcDbLine
 10
6.972015615323996
 20
50.91064082674199
 30
0.0
 11
6.822015615324005
 21
50.91064082674198
 31
0.0
  0
LINE
  5
30A5
330
1F
100
AcDbEntity
  8
ﾌﾟﾗｽ端子
100
AcDbLine
 10
6.972015615323996
 20
50.560640826742
 30
0.0
 11
6.822015615324005
 21
50.560640826742
 31
0.0
  0
LINE
  5
30A6
330
1F
100
AcDbEntity
  8
ﾌﾟﾗｽ端子
100
AcDbLine
 10
6.972015615324004
 20
50.91064082674199
 30
0.0
 11
6.972015615324004
 21
50.560640826742
 31
0.0
  0
LINE
  5
30A7
330
1F
100
AcDbEntity
  8
ﾌﾟﾗｽ端子
100
AcDbLine
 10
6.972015615324004
 20
51.13564082674198
 30
0.0
 11
6.822015615324005
 21
50.91064082674198
 31
0.0
  0
LINE
  5
30A8
330
1F
100
AcDbEntity
  8
ﾌﾟﾗｽ端子
100
AcDbLine
 10
6.972015615324004
 20
50.33564082674199
 30
0.0
 11
6.822015615324005
 21
50.560640826742
 31
0.0
  0
LINE
  5
30A9
330
1F
100
AcDbEntity
  8
ﾌﾟﾗｽ端子
100
AcDbLine
 10
6.822015615324005
 20
50.91064082674198
 30
0.0
 11
6.822015615324005
 21
50.560640826742
 31
0.0
  0
LINE
  5
30AA
330
1F
100
AcDbEntity
  8
ﾎﾞﾃﾞｨｰ
100
AcDbLine
 10
8.022015615324022
 20
49.48564082674199
 30
0.0
 11
9.422015615324013
 21
49.48564082674198
 31
0.0
  0
LINE
  5
30AB
330
1F
100
AcDbEntity
  8
ﾎﾞﾃﾞｨｰ
100
AcDbLine
 10
9.422015615323999
 20
51.98564082674198
 30
0.0
 11
8.022015615324008
 21
51.98564082674199
 31
0.0
  0
LINE
  5
30AC
330
1F
100
AcDbEntity
  8
ﾎﾞﾃﾞｨｰ
100
AcDbLine
 10
8.422015615323999
 20
51.68564082674198
 30
0.0
 11
9.422015615323992
 21
51.68564082674198
 31
0.0
  0
LINE
  5
30AD
330
1F
100
AcDbEntity
  8
ﾎﾞﾃﾞｨｰ
100
AcDbLine
 10
8.422015615324006
 20
49.78564082674197
 30
0.0
 11
9.422015615323999
 21
49.78564082674197
 31
0.0
  0
LINE
  5
30AE
330
1F
100
AcDbEntity
  8
ﾎﾞﾃﾞｨｰ
100
AcDbLine
 10
8.422015615323999
 20
51.28564082674199
 30
0.0
 11
9.422015615323992
 21
51.28564082674198
 31
0.0
  0
LINE
  5
30AF
330
1F
100
AcDbEntity
  8
ﾎﾞﾃﾞｨｰ
100
AcDbLine
 10
8.422015615323999
 20
50.185640826742
 30
0.0
 11
9.422015615323992
 21
50.18564082674199
 31
0.0
  0
LINE
  5
30B0
330
1F
100
AcDbEntity
  8
ﾎﾞﾃﾞｨｰ
100
AcDbLine
 10
8.022015615324008
 20
50.28564082674199
 30
0.0
 11
8.022015615324008
 21
49.18564082674198
 31
0.0
  0
LINE
  5
30B1
330
1F
100
AcDbEntity
  8
ﾎﾞﾃﾞｨｰ
100
AcDbLine
 10
8.022015615324008
 20
51.18564082674198
 30
0.0
 11
8.022015615324008
 21
52.28564082674198
 31
0.0
  0
LINE
  5
30B2
330
1F
100
AcDbEntity
  8
ﾎﾞﾃﾞｨｰ
100
AcDbLine
 10
6.822015615324005
 20
50.28564082674199
 30
0.0
 11
8.022015615324008
 21
50.28564082674199
 31
0.0
  0
LINE
  5
30B3
330
1F
100
AcDbEntity
  8
ﾎﾞﾃﾞｨｰ
100
AcDbLine
 10
6.822015615324005
 20
51.18564082674198
 30
0.0
 11
8.022015615324008
 21
51.18564082674198
 31
0.0
  0
LINE
  5
30B4
330
1F
100
AcDbEntity
  8
ﾌﾟﾗｽ端子
100
AcDbLine
 10
8.122015615324002
 20
50.33564082674199
 30
0.0
 11
8.122015615324002
 21
49.48564082674198
 31
0.0
  0
LINE
  5
30B5
330
1F
100
AcDbEntity
  8
ﾌﾟﾗｽ端子
100
AcDbLine
 10
8.122015615324002
 20
51.13564082674199
 30
0.0
 11
8.122015615324002
 21
51.98564082674199
 31
0.0
  0
LINE
  5
30B6
330
1F
100
AcDbEntity
  8
ﾌﾟﾗｽ端子
100
AcDbLine
 10
8.422015615324001
 20
51.98564082674199
 30
0.0
 11
8.422015615324001
 21
51.18564082674198
 31
0.0
  0
LINE
  5
30B7
330
1F
100
AcDbEntity
  8
ﾌﾟﾗｽ端子
100
AcDbLine
 10
8.422015615324006
 20
50.28564082674199
 30
0.0
 11
8.422015615324001
 21
49.48564082674199
 31
0.0
  0
ARC
  5
30B8
330
1F
100
AcDbEntity
  8
ﾌﾟﾗｽ端子
100
AcDbCircle
 10
8.472015615324004
 20
50.28564082674199
 30
0.0
 40
0.05
100
AcDbArc
 50
90.0
 51
180.0
1001
GENIUS_GENODEF_13
1002
{
1000
HIER
1070
     0
1002
}
1002
{
1000
MANEDIT
1070
     0
1002
}
1002
{
1000
NOSEL
1070
     0
1002
}
1002
{
1000
BEHIND
1070
     0
1002
}
1002
{
1000
OTHER
1070
     0
1002
}
1002
{
1000
REACTOR
1002
}
1001
GENIUS_GENOBJ-N-FIL_13
1002
{
1000
OWNER
1000
GEN
1002
}
  0
LINE
  5
30B9
330
1F
100
AcDbEntity
  8
ﾎﾞﾃﾞｨｰ
100
AcDbLine
 10
9.422015615323999
 20
52.57484971367939
 30
0.0
 11
9.622015615324002
 21
52.57484971367939
 31
0.0
  0
LINE
  5
30BA
330
1F
100
AcDbEntity
  8
ﾎﾞﾃﾞｨｰ
100
AcDbLine
 10
9.622015615324002
 20
48.89643193980457
 30
0.0
 11
9.422015615323999
 21
48.89643193980457
 31
0.0
  0
LINE
  5
30BB
330
1F
100
AcDbEntity
  8
ﾎﾞﾃﾞｨｰ
100
AcDbLine
 10
9.422015615323999
 20
47.49501749100733
 30
0.0
 11
9.622015615324002
 21
47.49501749100733
 31
0.0
  0
LINE
  5
30BC
330
1F
100
AcDbEntity
  8
ﾎﾞﾃﾞｨｰ
100
AcDbLine
 10
9.422015615323999
 20
53.97626416247663
 30
0.0
 11
9.622015615324002
 21
53.97626416247663
 31
0.0
  0
LINE
  5
30C2
330
1F
100
AcDbEntity
  8
ﾎﾞﾃﾞｨｰ
100
AcDbLine
 10
9.422015615324001
 20
50.27564082674198
 30
0.0
 11
8.422015615324006
 21
50.27564082674198
 31
0.0
  0
LINE
  5
30C5
330
1F
100
AcDbEntity
  8
ﾎﾞﾃﾞｨｰ
100
AcDbLine
 10
9.422015615323999
 20
51.19564082674199
 30
0.0
 11
8.422015615324001
 21
51.19564082674199
 31
0.0
  0
MTEXT
  5
3139
330
1F
100
AcDbEntity
  8
0
100
AcDbMText
 10
8.890823826713528
 20
29.72334681957875
 30
0.0
 40
1.0
 41
11.12304320826712
 71
     1
 72
     5
  1
基板実装図
  7
takachi1
 73
     1
 44
1.0
1001
ACAD
1000
MTEXTBEGIN
1070
    73
1070
     1
1070
    44
1040
1.0
1070
    74
1070
     0
1000
MTEXTEND
  0
LINE
  5
3145
330
1F
100
AcDbEntity
  8
AM_7
100
AcDbLine
 10
17.07004427473195
 20
20.93825719871146
 30
0.0
 11
29.37004427473194
 21
20.93825719871146
 31
0.0
1001
GENIUS_GENOBJ-N-CEN_13
1002
{
1000
OWNER
1000
GEN
1002
}
1001
GENIUS_GENODEF_13
1002
{
1000
HIER
1070
     0
1002
}
1002
{
1000
MANEDIT
1070
     0
1002
}
1002
{
1000
NOSEL
1070
     0
1002
}
1002
{
1000
BEHIND
1070
     0
1002
}
1002
{
1000
OTHER
1070
     0
1002
}
1002
{
1000
REACTOR
1002
}
1001
GENIUS_GENCEN_19
1002
{
1040
0.75
1002
}
  0
LINE
  5
3146
330
1F
100
AcDbEntity
  8
AM_7
  6
AM_ISO08W050x2
100
AcDbLine
 10
23.22004427473195
 20
22.38825719871146
 30
0.0
 11
23.22004427473195
 21
19.48825719871145
 31
0.0
1001
GENIUS_GENODEF_13
1002
{
1000
HIER
1070
     0
1002
}
1002
{
1000
MANEDIT
1070
     0
1002
}
1002
{
1000
NOSEL
1070
     0
1002
}
1002
{
1000
BEHIND
1070
     0
1002
}
1002
{
1000
OTHER
1070
     0
1002
}
1002
{
1000
REACTOR
1002
}
1001
GENIUS_GENOBJ-N-CEN_13
1002
{
1000
OWNER
1000
GEN
1002
}
1001
GENIUS_GENCEN_19
1002
{
1040
0.75
1002
}
  0
LINE
  5
3147
330
1F
100
AcDbEntity
  8
ﾎﾞﾃﾞｨｰ
100
AcDbLine
 10
28.62004427473195
 20
20.23825719871146
 30
0.0
 11
17.82004427473195
 21
20.23825719871146
 31
0.0
  0
LINE
  5
3149
330
1F
100
AcDbEntity
  8
ﾎﾞﾃﾞｨｰ
100
AcDbLine
 10
28.62004427473195
 20
21.63825719871145
 30
0.0
 11
17.82004427473195
 21
21.63825719871145
 31
0.0
  0
LINE
  5
314A
330
1F
100
AcDbEntity
  8
ﾎﾞﾃﾞｨｰ
100
AcDbLine
 10
28.62004427473195
 20
21.63825719871145
 30
0.0
 11
28.62004427473195
 21
20.23825719871146
 31
0.0
  0
LINE
  5
314B
330
1F
100
AcDbEntity
  8
ﾎﾞﾃﾞｨｰ
100
AcDbLine
 10
27.52004427473195
 20
21.63825719871145
 30
0.0
 11
27.52004427473195
 21
20.23825719871146
 31
0.0
  0
LINE
  5
314C
330
1F
100
AcDbEntity
  8
ﾎﾞﾃﾞｨｰ
100
AcDbLine
 10
18.92004427473195
 20
21.63825719871145
 30
0.0
 11
18.92004427473195
 21
20.23825719871146
 31
0.0
  0
LINE
  5
314D
330
1F
100
AcDbEntity
  8
ﾎﾞﾃﾞｨｰ
100
AcDbLine
 10
17.82004427473195
 20
21.63825719871145
 30
0.0
 11
17.82004427473195
 21
20.23825719871146
 31
0.0
  0
HATCH
  5
316E
330
1F
100
AcDbEntity
  8
AM_8
100
AcDbHatch
 10
0.0
 20
0.0
 30
0.0
210
0.0
220
0.0
230
1.0
  2
_U
 70
     0
 71
     0
 91
        1
 92
        1
 93
        4
 72
     1
 10
18.92004427473195
 20
20.23825719871146
 11
27.52004427473195
 21
20.23825719871146
 72
     1
 10
27.52004427473195
 20
20.23825719871146
 11
27.52004427473195
 21
21.63825719871145
 72
     1
 10
27.52004427473195
 20
21.63825719871145
 11
18.92004427473195
 21
21.63825719871145
 72
     1
 10
18.92004427473195
 20
21.63825719871145
 11
18.92004427473195
 21
20.23825719871146
 97
        0
 75
     0
 76
     0
 52
45.0
 41
0.625
 77
     0
 78
     1
 53
45.0
 43
0.0
 44
0.0
 45
-0.4419417382415922
 46
0.4419417382415923
 79
     0
 98
        1
 10
0.0
 20
0.0
1001
GENIUS_GENODEF_13
1002
{
1000
HIER
1070
     0
1002
}
1002
{
1000
MANEDIT
1070
     0
1002
}
1002
{
1000
NOSEL
1070
     0
1002
}
1002
{
1000
BEHIND
1070
     0
1002
}
1002
{
1000
OTHER
1070
     0
1002
}
1002
{
1000
REACTOR
1002
}
1001
GENIUS_GENOBJ-N-HTC_13
1002
{
1000
OWNER
1000
GEN
1002
}
1001
GENIUS_GENHATCH_13
1002
{
1000
DATA
1040
45.0
1042
2.5
1000
_U
1070
     0
1011
19.99970111232324
1021
21.3573310688185
1031
0.0
1002
}
1002
{
1000
UCS
1010
0.0
1020
0.0
1030
0.0
1010
1.0
1020
0.0
1030
0.0
1010
0.0
1020
1.0
1030
0.0
1002
}
  0
INSERT
  5
3170
330
1F
100
AcDbEntity
  8
AM_5
100
AcDbBlockReference
  2
*S28
 10
0.0
 20
0.0
 30
0.0
  0
DIMENSION
  5
3171
330
1F
100
AcDbEntity
  8
AM_5
100
AcDbDimension
  2
*D12
 10
28.62004427473195
 20
25.7321452134851
 30
0.0
 11
23.22004427473195
 21
26.5446452134851
 31
0.0
 70
    32
 71
     5
 42
10.8
  3
AM_ISO$0
100
AcDbAlignedDimension
 13
17.82004427473195
 23
21.63825719871145
 33
0.0
 14
28.62004427473195
 24
21.63825719871145
 34
0.0
 50
0.0000000000000114
100
AcDbRotatedDimension
1001
ACAD
1000
DSTYLE
1002
{
1070
    40
1040
0.25
1002
}
1001
ACAD_DSTYLE_DIMINSPECT
1070
   396
1000
100%
1070
   395
1000

1070
   394
1070
    33
1070
   393
1070
     0
  0
DIMENSION
  5
3199
330
1F
100
AcDbEntity
  8
AM_5
100
AcDbDimension
  2
*D13
 10
27.52004427473195
 20
23.23214521348509
 30
0.0
 11
23.22004427473195
 21
24.0446452134851
 31
0.0
 70
    32
 71
     5
 42
8.599999999999997
  3
AM_ISO$0
100
AcDbAlignedDimension
 13
18.92004427473195
 23
21.63825719871145
 33
0.0
 14
27.52004427473195
 24
21.63825719871145
 34
0.0
 50
0.0000000000000114
100
AcDbRotatedDimension
1001
ACAD
1000
DSTYLE
1002
{
1070
    40
1040
0.25
1002
}
1001
ACAD_DSTYLE_DIMINSPECT
1070
   396
1000
100%
1070
   395
1000

1070
   394
1070
    33
1070
   393
1070
     0
  0
DIMENSION
  5
31C1
330
1F
100
AcDbEntity
  8
AM_5
100
AcDbDimension
  2
*D14
 10
14.82004427473194
 20
20.23825719871146
 30
0.0
 11
14.00754427473194
 21
18.04450719871146
 31
0.0
 70
    32
 71
     5
 42
1.399999999999998
  3
AM_ISO$0
100
AcDbAlignedDimension
 13
17.82004427473195
 23
21.63825719871145
 33
0.0
 14
17.82004427473195
 24
20.23825719871146
 34
0.0
 50
90.00000000000003
100
AcDbRotatedDimension
1001
ACAD
1000
DSTYLE
1002
{
1070
    40
1040
0.25
1002
}
1001
ACAD_DSTYLE_DIMINSPECT
1070
   396
1000
100%
1070
   395
1000

1070
   394
1070
    33
1070
   393
1070
     0
  0
CIRCLE
  5
31EF
330
1F
100
AcDbEntity
  8
0
100
AcDbCircle
 10
18.32004427473195
 20
19.38877606850906
 30
0.0
 40
0.4
  0
CIRCLE
  5
31F2
330
1F
100
AcDbEntity
  8
0
100
AcDbCircle
 10
28.12004427473194
 20
19.38877606850906
 30
0.0
 40
0.4
  0
MTEXT
  5
31F3
330
1F
100
AcDbEntity
  8
0
100
AcDbMText
 10
17.95645557057907
 20
19.65233426574687
 30
0.0
 40
0.5
 41
0.0
 71
     1
 72
     5
  1
＋
  7
takachi1
 73
     1
 44
1.0
1001
ACAD
1000
MTEXTBEGIN
1070
    73
1070
     1
1070
    44
1040
1.0
1070
    74
1070
     0
1000
MTEXTEND
  0
MTEXT
  5
31F4
330
1F
100
AcDbEntity
  8
0
100
AcDbMText
 10
28.47594416516954
 20
19.62995408452769
 30
0.0
 40
0.5
 41
0.0
 71
     1
 72
     5
  1
－
  7
takachi1
210
0.0
220
0.0
230
-1.0
 11
-1.0
 21
-0.0000000000000056
 31
0.0
 73
     1
 44
1.0
1001
ACAD
1000
MTEXTBEGIN
1070
    73
1070
     1
1070
    44
1040
1.0
1070
    74
1070
     0
1000
MTEXTEND
  0
DIMENSION
  5
321D
330
1F
100
AcDbEntity
  8
AM_5
100
AcDbDimension
  2
*D15
 10
27.72004427473195
 20
57.62640372183551
 30
0.0
 11
28.04504427473195
 21
58.43890372183551
 31
0.0
 70
    32
 71
     5
 42
0.6499999999999986
  3
AM_ISO$0
100
AcDbAlignedDimension
 13
28.37004427473195
 23
50.91064082674198
 33
0.0
 14
27.72004427473195
 24
52.28564082674198
 34
0.0
 50
0.0000000000000127
100
AcDbRotatedDimension
1001
ACAD_DSTYLE_DIMINSPECT
1070
   396
1000
100%
1070
   395
1000

1070
   394
1070
    33
1070
   393
1070
     0
1001
ACAD
1000
DSTYLE
1002
{
1070
    40
1040
0.25
1070
   174
1070
     1
1002
}
  0
DIMENSION
  5
3258
330
1F
100
AcDbEntity
  8
AM_5
100
AcDbDimension
  2
*D16
 10
18.72004427473195
 20
57.62640372183551
 30
0.0
 11
23.21291345329007
 21
57.62640372183551
 31
0.0
 70
   160
 71
     5
 42
9.0
  3
AM_ISO$0
100
AcDbAlignedDimension
 13
27.72004427473195
 23
52.28564082674198
 33
0.0
 14
18.72004427473195
 24
52.28564082674198
 34
0.0
100
AcDbRotatedDimension
1001
ACAD
1000
DSTYLE
1002
{
1070
   174
1070
     1
1070
    40
1040
0.25
1002
}
1001
ACAD_DSTYLE_DIMINSPECT
1070
   396
1000
100%
1070
   395
1000

1070
   394
1070
    33
1070
   393
1070
     0
  0
DIMENSION
  5
3277
330
1F
100
AcDbEntity
  8
AM_5
100
AcDbDimension
  2
*D17
 10
18.07004427473195
 20
57.62640372183551
 30
0.0
 11
18.39504427473195
 21
58.43890372183551
 31
0.0
 70
    32
 71
     5
 42
0.6499999999999986
  3
AM_ISO$0
100
AcDbAlignedDimension
 13
18.72004427473195
 23
52.28564082674198
 33
0.0
 14
18.07004427473195
 24
50.91064082674198
 34
0.0
100
AcDbRotatedDimension
1001
ACAD
1000
DSTYLE
1002
{
1070
   174
1070
     1
1070
    40
1040
0.25
1002
}
1001
ACAD_DSTYLE_DIMINSPECT
1070
   396
1000
100%
1070
   395
1000

1070
   394
1070
    33
1070
   393
1070
     0
  0
DIMENSION
  5
32F1
330
1F
100
AcDbEntity
  8
AM_5
100
AcDbDimension
  2
*D18
 10
25.59504427473195
 20
55.37860488979148
 30
0.0
 11
23.22004427473195
 21
56.19110488979149
 31
0.0
 70
    32
 71
     5
 42
4.75
  3
AM_ISO$0
100
AcDbAlignedDimension
 13
20.84504427473195
 23
54.08564082674199
 33
0.0
 14
25.59504427473195
 24
54.08564082674199
 34
0.0
 50
0.0000000000000114
100
AcDbRotatedDimension
1001
ACAD
1000
DSTYLE
1002
{
1070
    40
1040
0.25
1002
}
1001
ACAD_DSTYLE_DIMINSPECT
1070
   396
1000
100%
1070
   395
1000

1070
   394
1070
    33
1070
   393
1070
     0
  0
DIMENSION
  5
3377
330
1F
100
AcDbEntity
  8
AM_5
100
AcDbDimension
  2
*D19
 10
31.17004427473194
 20
50.33564082674199
 30
0.0
 11
32.20454524569664
 21
50.77265009273464
 31
0.0
 70
   160
 71
     5
 42
0.7999999999999972
  3
AM_ISO$0
100
AcDbAlignedDimension
 13
28.17004427473194
 23
51.13564082674198
 33
0.0
 14
28.17004427473194
 24
50.33564082674199
 34
0.0
 50
90.00000000000076
100
AcDbRotatedDimension
1001
ACAD_DSTYLE_DIMINSPECT
1070
   396
1000
100%
1070
   395
1000

1070
   394
1070
    33
1070
   393
1070
     0
1001
ACAD
1000
DSTYLE
1002
{
1070
    40
1040
0.25
1070
   279
1070
     2
1002
}
  0
DIMENSION
  5
33A7
330
1F
100
AcDbEntity
  8
AM_5
100
AcDbDimension
  2
*D20
 10
15.29554598159928
 20
50.33564082674199
 30
0.0
 11
15.29554598159927
 21
50.73564082674199
 31
0.0
 70
   160
 71
     5
 42
0.8000000000000042
  3
AM_ISO$0
100
AcDbAlignedDimension
 13
18.27004427473195
 23
51.13564082674198
 33
0.0
 14
18.27004427473195
 24
50.33564082674198
 34
0.0
 50
90.00000000000003
100
AcDbRotatedDimension
1001
ACAD
1000
DSTYLE
1002
{
1070
    40
1040
0.25
1002
}
1001
ACAD_DSTYLE_DIMINSPECT
1070
   396
1000
100%
1070
   395
1000

1070
   394
1070
    33
1070
   393
1070
     0
  0
DIMENSION
  5
33F8
330
1F
100
AcDbEntity
  8
AM_5
100
AcDbDimension
  2
*D21
 10
42.61807293413989
 20
47.38564082674198
 30
0.0
 11
41.80557293413988
 21
50.73564082674199
 31
0.0
 70
    32
 71
     5
 42
6.700000000000002
  3
AM_ISO$0
100
AcDbAlignedDimension
 13
39.61807293413989
 23
54.08564082674199
 33
0.0
 14
39.61807293413989
 24
47.38564082674198
 34
0.0
 50
89.99999999999982
100
AcDbRotatedDimension
1001
ACAD
1000
DSTYLE
1002
{
1070
    40
1040
0.25
1002
}
1001
ACAD_DSTYLE_DIMINSPECT
1070
   396
1000
100%
1070
   395
1000

1070
   394
1070
    33
1070
   393
1070
     0
  0
DIMENSION
  5
3420
330
1F
100
AcDbEntity
  8
AM_5
100
AcDbDimension
  2
*D22
 10
31.37004427473195
 20
36.15654600218738
 30
0.0
 11
30.5574581526847
 21
37.55654600218739
 31
0.0
 70
    32
 71
     5
 42
2.799999999999997
  3
AM_ISO$0
100
AcDbAlignedDimension
 13
26.35127654381125
 23
38.95654600218738
 33
0.0
 14
28.37004427473195
 24
36.15654600218738
 34
0.0
 50
90.0
100
AcDbRotatedDimension
1001
ACAD
1000
DSTYLE
1002
{
1070
    40
1040
0.25
1002
}
1001
ACAD_DSTYLE_DIMINSPECT
1070
   396
1000
100%
1070
   395
1000

1070
   394
1070
    33
1070
   393
1070
     0
  0
LINE
  5
3604
330
1F
100
AcDbEntity
  8
ﾏｲﾅｽ端子
100
AcDbLine
 10
24.37004427473195
 20
37.16790510210805
 30
0.0
 11
23.56935170807687
 21
37.52346298384061
 31
0.0
  0
LINE
  5
3605
330
1F
100
AcDbEntity
  8
ﾏｲﾅｽ端子
100
AcDbLine
 10
23.40066718663873
 20
37.54558721236982
 30
0.0
 11
23.21997731826297
 21
37.51696874869481
 31
0.0
  0
LINE
  5
3606
330
1F
100
AcDbEntity
  8
ﾏｲﾅｽ端子
100
AcDbLine
 10
23.21997731826297
 20
37.51696874869481
 30
0.0
 11
23.24374351582248
 21
37.36843001394779
 31
0.0
  0
LINE
  5
3607
330
1F
100
AcDbEntity
  8
ﾏｲﾅｽ端子
100
AcDbLine
 10
23.24374351582248
 20
37.36843001394779
 30
0.0
 11
23.4241338957226
 21
37.3972924747318
 31
0.0
  0
LINE
  5
3608
330
1F
100
AcDbEntity
  8
ﾏｲﾅｽ端子
100
AcDbLine
 10
23.50870956185163
 20
37.38626751676896
 30
0.0
 11
24.37004427473195
 21
37.00378070631457
 31
0.0
  0
ARC
  5
3610
330
1F
100
AcDbEntity
  8
ﾏｲﾅｽ端子
100
AcDbCircle
 10
23.4475975261508
 20
37.24928071019128
 30
0.0
 40
0.3
100
AcDbArc
 50
66.05576746684359
 51
99.00000000000016
1001
GENIUS_GENODEF_13
1002
{
1000
HIER
1070
     0
1002
}
1002
{
1000
MANEDIT
1070
     0
1002
}
1002
{
1000
NOSEL
1070
     0
1002
}
1002
{
1000
BEHIND
1070
     0
1002
}
1002
{
1000
OTHER
1070
     0
1002
}
1002
{
1000
REACTOR
1002
}
1001
GENIUS_GENOBJ-N-FIL_13
1002
{
1000
OWNER
1000
GEN
1002
}
  0
ARC
  5
3614
330
1F
100
AcDbEntity
  8
ﾏｲﾅｽ端子
100
AcDbCircle
 10
23.4478324708886
 20
37.2491763799443
 30
0.0
 40
0.15
100
AcDbArc
 50
66.05576746684384
 51
99.09027692082062
1001
GENIUS_GENODEF_13
1002
{
1000
HIER
1070
     0
1002
}
1002
{
1000
MANEDIT
1070
     0
1002
}
1002
{
1000
NOSEL
1070
     0
1002
}
1002
{
1000
BEHIND
1070
     0
1002
}
1002
{
1000
OTHER
1070
     0
1002
}
1002
{
1000
REACTOR
1002
}
1001
GENIUS_GENOBJ-N-FIL_13
1002
{
1000
OWNER
1000
GEN
1002
}
  0
VIEWPORT
  5
186
102
{ACAD_XDICTIONARY
360
37A9
102
}
330
23
100
AcDbEntity
 67
     1
  8
0
100
AcDbViewport
 10
5.249999639556163
 20
3.999999883606677
 30
0.0
 40
14.57585398793907
 41
8.992999745766947
 68
     1
 69
     1
 12
5.249999639556163
 22
3.999999883606677
 13
0.0
 23
0.0
 14
10.0
 24
10.0
 15
10.0
 25
10.0
 16
0.0
 26
0.0
 36
1.0
 17
0.0
 27
0.0
 37
0.0
 42
50.0
 43
0.0
 44
0.0
 45
8.992999745766947
 50
0.0
 51
0.0
 72
   100
 90
    32800
  1

281
     0
 71
     1
 74
     0
110
0.0
120
0.0
130
0.0
111
1.0
121
0.0
131
0.0
112
0.0
122
1.0
132
0.0
 79
     0
146
0.0
  0
ENDSEC
  0
SECTION
  2
OBJECTS
  0
DICTIONARY
  5
C
330
0
100
AcDbDictionary
281
     1
  3
ACAD_COLOR
350
C9
  3
ACAD_GROUP
350
D
  3
ACAD_LAYOUT
350
1A
  3
ACAD_MATERIAL
350
C8
  3
ACAD_MLEADERSTYLE
350
C13
  3
ACAD_MLINESTYLE
350
17
  3
ACAD_PLOTSETTINGS
350
19
  3
ACAD_PLOTSTYLENAME
350
E
  3
ACAD_SCALELIST
350
C01
  3
ACAD_TABLESTYLE
350
BFF
  3
ACAD_VISUALSTYLE
350
BEE
  3
ACDB_RECOMPOSE_DATA
350
1544
  3
AcDbVariableDictionary
350
9E
  3
AcmDictionary
350
63
  3
AMG
350
49
  3
AMGSNAPSETTINGS
350
234
  3
DWGPROPS
350
37A0
  0
DICTIONARY
  5
1545
330
8
100
AcDbDictionary
280
     1
281
     1
  0
DICTIONARY
  5
2C1
330
2
100
AcDbDictionary
280
     1
281
     1
  3
ACAD_LAYERFILTERS
360
782
  3
ACAD_LAYERSTATES
360
2C2
  3
AMLAYER_GROUPCOLORS
360
1ABF
  0
DICTIONARY
  5
1510
330
10
100
AcDbDictionary
280
     1
281
     1
  3
ADSK_XREC_LAYER_RECONCILED
360
1511
  0
DICTIONARY
  5
1512
330
1F0
100
AcDbDictionary
280
     1
281
     1
  3
ADSK_XREC_LAYER_RECONCILED
360
1513
  0
DICTIONARY
  5
1514
330
23E
100
AcDbDictionary
280
     1
281
     1
  3
ADSK_XREC_LAYER_RECONCILED
360
1515
  0
DICTIONARY
  5
1516
330
23F
100
AcDbDictionary
280
     1
281
     1
  3
ADSK_XREC_LAYER_RECONCILED
360
1517
  0
DICTIONARY
  5
1518
330
240
100
AcDbDictionary
280
     1
281
     1
  3
ADSK_XREC_LAYER_RECONCILED
360
1519
  0
DICTIONARY
  5
151A
330
2AD
100
AcDbDictionary
280
     1
281
     1
  3
ADSK_XREC_LAYER_RECONCILED
360
151B
  0
DICTIONARY
  5
151C
330
2AE
100
AcDbDictionary
280
     1
281
     1
  3
ADSK_XREC_LAYER_RECONCILED
360
151D
  0
DICTIONARY
  5
151E
330
2AF
100
AcDbDictionary
280
     1
281
     1
  3
ADSK_XREC_LAYER_RECONCILED
360
151F
  0
DICTIONARY
  5
1524
330
2B2
100
AcDbDictionary
280
     1
281
     1
  3
ADSK_XREC_LAYER_RECONCILED
360
1525
  0
DICTIONARY
  5
153A
330
CD8
100
AcDbDictionary
280
     1
281
     1
  3
ADSK_XREC_LAYER_RECONCILED
360
153B
  0
DICTIONARY
  5
153C
330
CD9
100
AcDbDictionary
280
     1
281
     1
  3
ADSK_XREC_LAYER_RECONCILED
360
153D
  0
DICTIONARY
  5
153E
330
CDA
100
AcDbDictionary
280
     1
281
     1
  3
ADSK_XREC_LAYER_RECONCILED
360
153F
  0
DICTIONARY
  5
1540
330
105C
100
AcDbDictionary
280
     1
281
     1
  3
ADSK_XREC_LAYER_RECONCILED
360
1541
  0
DICTIONARY
  5
99
330
1F
100
AcDbDictionary
280
     1
281
     1
  3
ACAD_SORTENTS
360
10E1
  0
DICTIONARY
  5
22D
330
224
100
AcDbDictionary
280
     1
281
     1
  0
DICTIONARY
  5
297
330
242
100
AcDbDictionary
280
     1
281
     1
  0
DICTIONARY
  5
A15
330
A0D
100
AcDbDictionary
280
     1
281
     1
  0
DICTIONARY
  5
A79
330
A20
100
AcDbDictionary
280
     1
281
     1
  0
DICTIONARY
  5
AA9
330
AA1
100
AcDbDictionary
280
     1
281
     1
  0
DICTIONARY
  5
AF1
330
AE9
100
AcDbDictionary
280
     1
281
     1
  0
DICTIONARY
  5
B55
330
AFC
100
AcDbDictionary
280
     1
281
     1
  0
DICTIONARY
  5
C4C
330
C44
100
AcDbDictionary
280
     1
281
     1
  0
DICTIONARY
  5
37A7
330
182
100
AcDbDictionary
280
     1
281
     1
  3
ACAD_XREC_ROUNDTRIP
360
37A8
  0
DICTIONARY
  5
37A9
330
186
100
AcDbDictionary
280
     1
281
     1
  3
ACAD_XREC_ROUNDTRIP
360
37AA
  0
DICTIONARY
  5
C9
102
{ACAD_REACTORS
330
C
102
}
330
C
100
AcDbDictionary
281
     1
  0
DICTIONARY
  5
D
102
{ACAD_REACTORS
330
C
102
}
330
C
100
AcDbDictionary
281
     1
  0
DICTIONARY
  5
1A
102
{ACAD_REACTORS
330
C
102
}
330
C
100
AcDbDictionary
281
     1
  3
Model
350
22
  3
レイアウト1
350
1E
  3
レイアウト2
350
26
  0
DICTIONARY
  5
C8
102
{ACAD_REACTORS
330
C
102
}
330
C
100
AcDbDictionary
281
     1
  3
ByBlock
350
BDE
  3
ByLayer
350
BD6
  3
Global
350
BE6
  0
DICTIONARY
  5
C13
102
{ACAD_REACTORS
330
C
102
}
330
C
100
AcDbDictionary
281
     1
  3
Standard
350
C14
  0
DICTIONARY
  5
17
102
{ACAD_REACTORS
330
C
102
}
330
C
100
AcDbDictionary
281
     1
  3
Standard
350
18
  0
DICTIONARY
  5
19
102
{ACAD_REACTORS
330
C
102
}
330
C
100
AcDbDictionary
281
     1
  0
ACDBDICTIONARYWDFLT
  5
E
102
{ACAD_REACTORS
330
C
102
}
330
C
100
AcDbDictionary
281
     1
  3
Normal
350
F
100
AcDbDictionaryWithDefault
340
F
  0
DICTIONARY
  5
C01
102
{ACAD_REACTORS
330
C
102
}
330
C
100
AcDbDictionary
281
     1
  3
A0
350
C02
  3
A1
350
C03
  3
A2
350
C04
  3
A3
350
C05
  3
A4
350
C06
  3
A5
350
C07
  3
A6
350
C08
  3
A7
350
C09
  3
A8
350
C0A
  3
A9
350
C0B
  3
B0
350
C0C
  3
B1
350
C0D
  3
B2
350
C0E
  3
B3
350
C0F
  3
B4
350
C10
  3
B5
350
C11
  3
B6
350
C12
  0
DICTIONARY
  5
BFF
102
{ACAD_REACTORS
330
C
102
}
330
C
100
AcDbDictionary
281
     1
  3
Standard
350
C00
  0
DICTIONARY
  5
BEE
102
{ACAD_REACTORS
330
C
102
}
330
C
100
AcDbDictionary
281
     1
  3
2dWireframe
350
BF4
  3
3D Hidden
350
BF6
  3
3dWireframe
350
BF5
  3
Basic
350
BF3
  3
Brighten
350
BFA
  3
ColorChange
350
BFE
  3
Conceptual
350
BF7
  3
Dim
350
BF9
  3
Facepattern
350
BFD
  3
Flat
350
BEF
  3
FlatWithEdges
350
BF0
  3
Gouraud
350
BF1
  3
GouraudWithEdges
350
BF2
  3
Linepattern
350
BFC
  3
Realistic
350
BF8
  3
Thicken
350
BFB
  0
XRECORD
  5
1544
102
{ACAD_REACTORS
330
C
102
}
330
C
100
AcDbXrecord
280
     1
 90
        1
330
C00
330
3377
  0
DICTIONARY
  5
9E
102
{ACAD_REACTORS
330
C
102
}
330
C
100
AcDbDictionary
281
     1
  3
CANNOSCALE
350
1562
  3
CMLEADERSTYLE
350
1561
  3
CTABLESTYLE
350
1560
  3
DIMASSOC
350
A0
  3
INDEXCTL
350
9F
  3
SORTENTS
350
379E
  0
DICTIONARY
  5
63
102
{ACAD_REACTORS
330
C
102
}
330
C
100
AcDbDictionary
281
     1
  3
AcmBOM
350
9A7
  3
AcmStdDictionary
350
69
  3
AMDTSECTSYM_ARROWCOLOR
350
C38
  0
DICTIONARY
  5
49
102
{ACAD_REACTORS
330
C
102
}
330
C
100
AcDbDictionary
281
     1
  0
DICTIONARY
  5
234
102
{ACAD_REACTORS
330
C
102
}
330
C
100
AcDbDictionary
281
     1
  0
XRECORD
  5
37A0
102
{ACAD_REACTORS
330
C
102
}
330
C
100
AcDbXrecord
280
     1
  1
DWGPROPS COOKIE
  2

  3

  4

  6

  7

  8
Administrator
  9

300
AmdtFileType=84
301
=
302
=
303
=
304
=
305
=
306
=
307
=
308
=
309
=
 40
0.9568006712962963
 41
2454929.686216181
 42
2455065.705355718
  1

 90
        1
  0
DICTIONARY
  5
782
102
{ACAD_REACTORS
330
2C1
102
}
330
2C1
100
AcDbDictionary
281
     1
  0
DICTIONARY
  5
2C2
102
{ACAD_REACTORS
330
2C1
102
}
330
2C1
100
AcDbDictionary
281
     1
  0
DICTIONARY
  5
1ABF
102
{ACAD_REACTORS
330
2C1
102
}
330
2C1
100
AcDbDictionary
280
     1
281
     1
  0
XRECORD
  5
1511
102
{ACAD_REACTORS
330
1510
102
}
330
1510
100
AcDbXrecord
280
     1
290
     1
  0
XRECORD
  5
1513
102
{ACAD_REACTORS
330
1512
102
}
330
1512
100
AcDbXrecord
280
     1
290
     1
  0
XRECORD
  5
1515
102
{ACAD_REACTORS
330
1514
102
}
330
1514
100
AcDbXrecord
280
     1
290
     1
  0
XRECORD
  5
1517
102
{ACAD_REACTORS
330
1516
102
}
330
1516
100
AcDbXrecord
280
     1
290
     1
  0
XRECORD
  5
1519
102
{ACAD_REACTORS
330
1518
102
}
330
1518
100
AcDbXrecord
280
     1
290
     1
  0
XRECORD
  5
151B
102
{ACAD_REACTORS
330
151A
102
}
330
151A
100
AcDbXrecord
280
     1
290
     1
  0
XRECORD
  5
151D
102
{ACAD_REACTORS
330
151C
102
}
330
151C
100
AcDbXrecord
280
     1
290
     1
  0
XRECORD
  5
151F
102
{ACAD_REACTORS
330
151E
102
}
330
151E
100
AcDbXrecord
280
     1
290
     1
  0
XRECORD
  5
1525
102
{ACAD_REACTORS
330
1524
102
}
330
1524
100
AcDbXrecord
280
     1
290
     1
  0
XRECORD
  5
153B
102
{ACAD_REACTORS
330
153A
102
}
330
153A
100
AcDbXrecord
280
     1
290
     1
  0
XRECORD
  5
153D
102
{ACAD_REACTORS
330
153C
102
}
330
153C
100
AcDbXrecord
280
     1
290
     1
  0
XRECORD
  5
153F
102
{ACAD_REACTORS
330
153E
102
}
330
153E
100
AcDbXrecord
280
     1
290
     1
  0
XRECORD
  5
1541
102
{ACAD_REACTORS
330
1540
102
}
330
1540
100
AcDbXrecord
280
     1
290
     1
  0
SORTENTSTABLE
  5
10E1
102
{ACAD_REACTORS
330
99
102
}
330
99
100
AcDbSortentsTable
330
1F
331
2A0C
  5
2A27
331
297D
  5
29B5
331
2CD8
  5
2D1B
331
2D47
  5
2D4F
331
2BB2
  5
2BC7
331
2CE0
  5
2D14
331
2D5F
  5
2D5F
331
2BC2
  5
2BD4
331
2A2C
  5
2AC1
331
2D18
  5
2D2C
331
3092
  5
2E0A
331
309A
  5
309A
331
2E1C
  5
2E61
331
30A2
  5
30A2
331
2DA5
  5
2DA8
331
30AA
  5
30AA
331
2E6C
  5
2E75
331
2DAD
  5
2D91
331
1ABC
  5
1ABC
331
2C31
  5
2C30
331
2AC4
  5
2ACF
331
2D28
  5
2CE2
331
2C0A
  5
2C20
331
2ACC
  5
2AD8
331
29FD
  5
2A1C
331
2B93
  5
2BAB
331
2D30
  5
2D18
331
2D38
  5
2D38
331
2C12
  5
2C29
331
2A05
  5
2A0F
331
2976
  5
2978
331
2BA3
  5
2BB7
331
2CD1
  5
2CDE
331
3139
  5
3139
331
30B2
  5
30B2
331
2E74
  5
2E7D
331
2DB5
  5
2DB6
331
30BA
  5
30BA
331
307B
  5
3087
331
30C2
  5
30C2
331
2E05
  5
2E0E
331
3149
  5
314E
331
308B
  5
3092
331
2BAB
  5
2BBE
331
2A0D
  5
2A2A
331
297E
  5
29B7
331
2D50
  5
2D52
331
2C22
  5
2C40
331
2BB3
  5
2BB8
331
2AF4
  5
2B97
331
2A25
  5
2A2E
331
2A2D
  5
2AC2
331
2BC3
  5
2BD7
331
3093
  5
3093
331
309B
  5
309B
331
2E1D
  5
2E65
331
30A3
  5
30A3
331
2DA6
  5
2DAA
331
30AB
  5
30AB
331
2E6D
  5
2E76
331
2D21
  5
2D29
331
29BE
  5
2A0D
331
2C32
  5
2AC8
331
2D29
  5
2A29
331
2AC5
  5
2AD0
331
2ACD
  5
2ADA
331
29FE
  5
2A25
331
2AD5
  5
297F
331
2A06
  5
2A0A
331
2977
  5
297B
331
30B3
  5
30B3
331
2E75
  5
2E7E
331
30BB
  5
30BB
331
2E7D
  5
2E8F
331
C50
  5
C50
331
314A
  5
314B
331
2E06
  5
2E14
331
2E0E
  5
2E17
331
2C1B
  5
2C33
331
2ADD
  5
2B93
331
297F
  5
29B8
331
2BAC
  5
2BBF
331
2D51
  5
2D53
331
2BB4
  5
2BC1
331
2AF5
  5
2B9D
331
29B7
  5
2A02
331
2A26
  5
2A2F
331
2C2B
  5
2C2F
331
2A2E
  5
2AC3
331
2BC4
  5
2C08
331
3094
  5
3094
331
2E95
  5
3077
331
309C
  5
309C
331
2ECD
  5
2F7F
331
30A4
  5
30A4
331
2E5E
  5
2E68
331
30AC
  5
30AC
331
2E6E
  5
2E71
331
2D22
  5
2D26
331
2AFD
  5
2B9E
331
2ABE
  5
2AC9
331
2BCC
  5
2C1A
331
2C33
  5
2AC6
331
2D2A
  5
2A2B
331
2AC6
  5
2AD1
331
2BD4
  5
2C15
331
2C3B
  5
2981
331
2D32
  5
2D32
331
2ACE
  5
2ADC
331
2B95
  5
2BAD
331
2D3A
  5
2D3A
331
2AD6
  5
29B4
331
2CD3
  5
2CE1
331
30B4
  5
30B4
331
2E76
  5
2E86
331
30BC
  5
30BC
331
2E7E
  5
2E96
331
314B
  5
3145
331
2E07
  5
2E15
331
2E0F
  5
2E1C
331
2978
  5
297D
331
2ADE
  5
2B95
331
2980
  5
29C4
331
2C1C
  5
2C36
331
2BB5
  5
2BC4
331
2D52
  5
2D54
331
2A27
  5
2A30
331
2D13
  5
2D1F
331
2A2F
  5
2AC4
331
2BC5
  5
2C12
331
3095
  5
3095
331
2E96
  5
3073
331
309D
  5
309D
331
30A5
  5
30A5
331
2E5F
  5
2E6A
331
30AD
  5
30AD
331
29B8
  5
2A03
331
2D23
  5
2D2E
331
2AFE
  5
2BA2
331
2ABF
  5
2ACA
331
2C34
  5
2BB1
331
2AC7
  5
2AD2
331
2D2B
  5
29F7
331
2ACF
  5
2ADD
331
2C6C
  5
2CD9
331
2AD7
  5
29C0
331
30B5
  5
30B5
331
2DD0
  5
2DD0
331
3076
  5
3080
331
2E7F
  5
2E97
331
C52
  5
C52
331
30C5
  5
30C6
331
2E08
  5
2E16
331
314C
  5
3140
331
308E
  5
308E
331
2979
  5
297E
331
2A18
  5
2A2D
331
2D53
  5
2D55
331
2C25
  5
2C3B
331
2AE7
  5
2B96
331
2BB6
  5
2BBB
331
2CE4
  5
2D1D
331
2A28
  5
2A31
331
2BBE
  5
2BCA
331
2D14
  5
2D22
331
2E10
  5
2E1F
331
2D91
  5
2D93
331
3096
  5
3096
331
2D99
  5
2DA4
331
309E
  5
309E
331
1AA8
  5
1AA8
331
30A6
  5
30A6
331
2F77
  5
3079
331
30AE
  5
30AE
331
2AC0
  5
2ACB
331
2AC8
  5
2AD3
331
29F9
  5
2A1A
331
2B8F
  5
2BA3
331
2C3D
  5
2C6C
331
2D34
  5
2D34
331
2AD0
  5
2AEB
331
2C6D
  5
2CDB
331
2C16
  5
2C2A
331
2E70
  5
2E7B
331
2DB1
  5
2DA5
331
3077
  5
3081
331
30B6
  5
30B6
331
3145
  5
3153
331
2E80
  5
2ECD
331
307F
  5
2E6D
331
314D
  5
3148
331
3087
  5
308B
331
2AD8
  5
2976
331
2A09
  5
2A26
331
297A
  5
2980
331
2CDD
  5
2A2C
331
2D54
  5
2D5C
331
2BB7
  5
2BC0
331
2CE5
  5
2CDF
331
2BBF
  5
2BCF
331
2A29
  5
2ABA
331
2BC7
  5
2C14
331
2E11
  5
2E5E
331
3097
  5
3097
331
2D9A
  5
2D95
331
309F
  5
309F
331
2E69
  5
2E70
331
30A7
  5
30A7
331
1AB1
  5
1AB1
331
30AF
  5
30AF
331
2AC1
  5
2ACC
331
2BCF
  5
2C1B
331
2C36
  5
2C38
331
2D2D
  5
2CE3
331
2AC9
  5
2AD5
331
2B90
  5
2BA5
331
2C3E
  5
2CD3
331
2AD1
  5
2AED
331
2A02
  5
297A
331
2C6E
  5
2CDC
331
2C17
  5
2C26
331
2DB2
  5
2DB2
331
30B7
  5
30B7
331
2DD2
  5
2DD2
331
3146
  5
3154
331
3080
  5
3089
331
316E
  5
316C
331
2BA8
  5
2BB9
331
297B
  5
29AE
331
2BB0
  5
2BC2
331
29B3
  5
29FF
331
2C27
  5
2C41
331
2D55
  5
2D5D
331
2BC0
  5
2BCD
331
2A2A
  5
2ABC
331
3090
  5
2E05
331
2D93
  5
2D99
331
1A92
  5
1A92
331
3098
  5
3098
331
30A0
  5
30A0
331
2DA3
  5
2DA6
331
30A8
  5
30A8
331
2F79
  5
307C
331
2DAB
  5
2DAD
331
2ABA
  5
2AC5
331
2AC2
  5
2ACD
331
2C37
  5
2C3F
331
2D2E
  5
2D2A
331
2ACA
  5
2AD6
331
2B91
  5
2BA8
331
2C3F
  5
2CD7
331
2D36
  5
2D36
331
2AD2
  5
2AF2
331
2BA1
  5
2BB6
331
2C6F
  5
2CDD
331
30B0
  5
30B0
331
30B8
  5
30B8
331
2E7A
  5
2E89
331
3147
  5
3151
331
3081
  5
308A
331
2ADA
  5
2B8F
331
297C
  5
29B3
331
2D46
  5
2D46
331
2A1B
  5
2A08
331
2BB1
  5
2BC8
331
29B4
  5
2A01
331
2C28
  5
2C3E
331
2BC1
  5
2BD0
331
2A2B
  5
2AC0
331
3099
  5
3099
331
30A1
  5
30A1
331
2DA4
  5
2DA7
331
30A9
  5
30A9
331
2E6B
  5
2E74
331
2DAC
  5
2DB0
331
1ABB
  5
1ABB
331
2ABB
  5
2AC7
331
2AC3
  5
2ACE
331
29C4
  5
2A18
331
2C38
  5
2C3D
331
2D27
  5
2D16
331
2C09
  5
2C23
331
2ACB
  5
2AD7
331
2B92
  5
2BAA
331
2D2F
  5
2D15
331
2AD3
  5
2AFC
331
2975
  5
2975
331
30B1
  5
30B1
331
2DB4
  5
2DB4
331
30B9
  5
30B9
331
2E04
  5
2E07
331
308A
  5
308F
  0
XRECORD
  5
37A8
102
{ACAD_REACTORS
330
37A7
102
}
330
37A7
100
AcDbXrecord
280
     1
102
SHADEPLOT
 70
     0
  0
XRECORD
  5
37AA
102
{ACAD_REACTORS
330
37A9
102
}
330
37A9
100
AcDbXrecord
280
     1
102
SHADEPLOT
 70
     0
  0
LAYOUT
  5
22
102
{ACAD_XDICTIONARY
360
37A3
102
}
102
{ACAD_REACTORS
330
1A
102
}
330
1A
100
AcDbPlotSettings
  1

  2
RICOH IPSiO CX7200 RPCS
  4
A3
  6
AM_VIEW1
 40
5.873749732971191
 41
5.873747825622558
 42
5.873748779296875
 43
5.873748779296875
 44
296.9259948730469
 45
419.9466552734374
 46
2.589999999999999
 47
4.099999999999999
 48
10.00000000000003
 49
0.0
140
410.0
141
280.0
142
1.0
143
1.0
 70
 11956
 72
     1
 73
     1
 74
     4
  7
takachi-2.ctb
 75
    16
147
1.0
148
-10.00000000000003
149
0.0
100
AcDbLayout
  1
Model
 70
     1
 71
     0
 10
0.0
 20
0.0
 11
12.0
 21
9.0
 12
0.0
 22
0.0
 32
0.0
 14
0.0
 24
0.0
 34
0.0
 15
0.0
 25
0.0
 35
0.0
146
0.0
 13
0.0
 23
0.0
 33
0.0
 16
1.0
 26
0.0
 36
0.0
 17
0.0
 27
1.0
 37
0.0
 76
     0
330
1F
331
36B9
  0
LAYOUT
  5
1E
102
{ACAD_XDICTIONARY
360
37A1
102
}
102
{ACAD_REACTORS
330
1A
102
}
330
1A
100
AcDbPlotSettings
  1

  2
none_device
  4
Letter_(8.50_x_11.00_Inches)
  6

 40
6.349999904632568
 41
6.349999904632568
 42
6.350006103515625
 43
6.350006103515625
 44
215.8999938964844
 45
279.3999938964844
 46
0.0
 47
0.0
 48
0.0
 49
0.0
140
0.0
141
0.0
142
1.0
143
1.0
 70
   688
 72
     0
 73
     1
 74
     5
  7
takachi-2.ctb
 75
    16
147
1.0
148
0.0
149
0.0
100
AcDbLayout
  1
レイアウト1
 70
     1
 71
     1
 10
-0.2500002402958907
 20
-0.2499999962453767
 11
10.74999951940821
 21
8.249999763458731
 12
0.0
 22
0.0
 32
0.0
 14
1.000000000000000E+20
 24
1.000000000000000E+20
 34
1.000000000000000E+20
 15
-1.000000000000000E+20
 25
-1.000000000000000E+20
 35
-1.000000000000000E+20
146
0.0
 13
0.0
 23
0.0
 33
0.0
 16
1.0
 26
0.0
 36
0.0
 17
0.0
 27
1.0
 37
0.0
 76
     0
330
1B
331
182
  0
LAYOUT
  5
26
102
{ACAD_XDICTIONARY
360
37A5
102
}
102
{ACAD_REACTORS
330
1A
102
}
330
1A
100
AcDbPlotSettings
  1

  2
none_device
  4
Letter_(8.50_x_11.00_Inches)
  6

 40
6.349999904632568
 41
6.349999904632568
 42
6.350006103515625
 43
6.350006103515625
 44
215.8999938964844
 45
279.3999938964844
 46
0.0
 47
0.0
 48
0.0
 49
0.0
140
0.0
141
0.0
142
1.0
143
1.0
 70
   688
 72
     0
 73
     1
 74
     5
  7
takachi-2.ctb
 75
    16
147
1.0
148
0.0
149
0.0
100
AcDbLayout
  1
レイアウト2
 70
     1
 71
     2
 10
-0.2500002402958907
 20
-0.2499999962453767
 11
10.74999951940821
 21
8.249999763458731
 12
0.0
 22
0.0
 32
0.0
 14
1.000000000000000E+20
 24
1.000000000000000E+20
 34
1.000000000000000E+20
 15
-1.000000000000000E+20
 25
-1.000000000000000E+20
 35
-1.000000000000000E+20
146
0.0
 13
0.0
 23
0.0
 33
0.0
 16
1.0
 26
0.0
 36
0.0
 17
0.0
 27
1.0
 37
0.0
 76
     0
330
23
331
186
  0
MATERIAL
  5
BDE
102
{ACAD_XDICTIONARY
360
BDF
102
}
102
{ACAD_REACTORS
330
C8
102
}
330
C8
100
AcDbMaterial
  1
ByBlock
 72
     0
 43
0.0008202099737533
 43
0.0
 43
0.0
 43
0.0
 43
0.0
 43
0.0008202099737533
 43
0.0
 43
0.0
 43
0.0
 43
0.0
 43
1.0
 43
0.0
 43
0.0
 43
0.0
 43
0.0
 43
1.0
 77
     0
 47
0.0008202099737533
 47
0.0
 47
0.0
 47
0.0
 47
0.0
 47
0.0008202099737533
 47
0.0
 47
0.0
 47
0.0
 47
0.0
 47
1.0
 47
0.0
 47
0.0
 47
0.0
 47
0.0
 47
1.0
171
     0
 49
0.0008202099737533
 49
0.0
 49
0.0
 49
0.0
 49
0.0
 49
0.0008202099737533
 49
0.0
 49
0.0
 49
0.0
 49
0.0
 49
1.0
 49
0.0
 49
0.0
 49
0.0
 49
0.0
 49
1.0
175
     0
142
0.0008202099737533
142
0.0
142
0.0
142
0.0
142
0.0
142
0.0008202099737533
142
0.0
142
0.0
142
0.0
142
0.0
142
1.0
142
0.0
142
0.0
142
0.0
142
0.0
142
1.0
179
     0
144
0.0008202099737533
144
0.0
144
0.0
144
0.0
144
0.0
144
0.0008202099737533
144
0.0
144
0.0
144
0.0
144
0.0
144
1.0
144
0.0
144
0.0
144
0.0
144
0.0
144
1.0
147
0.0008202099737533
147
0.0
147
0.0
147
0.0
147
0.0
147
0.0008202099737533
147
0.0
147
0.0
147
0.0
147
0.0
147
1.0
147
0.0
147
0.0
147
0.0
147
0.0
147
1.0
  0
MATERIAL
  5
BD6
102
{ACAD_XDICTIONARY
360
BD7
102
}
102
{ACAD_REACTORS
330
C8
102
}
330
C8
100
AcDbMaterial
  1
ByLayer
 72
     0
 43
0.0008202099737533
 43
0.0
 43
0.0
 43
0.0
 43
0.0
 43
0.0008202099737533
 43
0.0
 43
0.0
 43
0.0
 43
0.0
 43
1.0
 43
0.0
 43
0.0
 43
0.0
 43
0.0
 43
1.0
 77
     0
 47
0.0008202099737533
 47
0.0
 47
0.0
 47
0.0
 47
0.0
 47
0.0008202099737533
 47
0.0
 47
0.0
 47
0.0
 47
0.0
 47
1.0
 47
0.0
 47
0.0
 47
0.0
 47
0.0
 47
1.0
171
     0
 49
0.0008202099737533
 49
0.0
 49
0.0
 49
0.0
 49
0.0
 49
0.0008202099737533
 49
0.0
 49
0.0
 49
0.0
 49
0.0
 49
1.0
 49
0.0
 49
0.0
 49
0.0
 49
0.0
 49
1.0
175
     0
142
0.0008202099737533
142
0.0
142
0.0
142
0.0
142
0.0
142
0.0008202099737533
142
0.0
142
0.0
142
0.0
142
0.0
142
1.0
142
0.0
142
0.0
142
0.0
142
0.0
142
1.0
179
     0
144
0.0008202099737533
144
0.0
144
0.0
144
0.0
144
0.0
144
0.0008202099737533
144
0.0
144
0.0
144
0.0
144
0.0
144
1.0
144
0.0
144
0.0
144
0.0
144
0.0
144
1.0
147
0.0008202099737533
147
0.0
147
0.0
147
0.0
147
0.0
147
0.0008202099737533
147
0.0
147
0.0
147
0.0
147
0.0
147
1.0
147
0.0
147
0.0
147
0.0
147
0.0
147
1.0
  0
MATERIAL
  5
BE6
102
{ACAD_XDICTIONARY
360
BE7
102
}
102
{ACAD_REACTORS
330
C8
102
}
330
C8
100
AcDbMaterial
  1
Global
 72
     0
 43
0.0008202099737533
 43
0.0
 43
0.0
 43
0.0
 43
0.0
 43
0.0008202099737533
 43
0.0
 43
0.0
 43
0.0
 43
0.0
 43
1.0
 43
0.0
 43
0.0
 43
0.0
 43
0.0
 43
1.0
 77
     0
 47
0.0008202099737533
 47
0.0
 47
0.0
 47
0.0
 47
0.0
 47
0.0008202099737533
 47
0.0
 47
0.0
 47
0.0
 47
0.0
 47
1.0
 47
0.0
 47
0.0
 47
0.0
 47
0.0
 47
1.0
171
     0
 49
0.0008202099737533
 49
0.0
 49
0.0
 49
0.0
 49
0.0
 49
0.0008202099737533
 49
0.0
 49
0.0
 49
0.0
 49
0.0
 49
1.0
 49
0.0
 49
0.0
 49
0.0
 49
0.0
 49
1.0
175
     0
142
0.0008202099737533
142
0.0
142
0.0
142
0.0
142
0.0
142
0.0008202099737533
142
0.0
142
0.0
142
0.0
142
0.0
142
1.0
142
0.0
142
0.0
142
0.0
142
0.0
142
1.0
179
     0
144
0.0008202099737533
144
0.0
144
0.0
144
0.0
144
0.0
144
0.0008202099737533
144
0.0
144
0.0
144
0.0
144
0.0
144
1.0
144
0.0
144
0.0
144
0.0
144
0.0
144
1.0
147
0.0008202099737533
147
0.0
147
0.0
147
0.0
147
0.0
147
0.0008202099737533
147
0.0
147
0.0
147
0.0
147
0.0
147
1.0
147
0.0
147
0.0
147
0.0
147
0.0
147
1.0
  0
MLEADERSTYLE
  5
C14
102
{ACAD_REACTORS
330
C13
102
}
330
C13
100
AcDbMLeaderStyle
170
     2
171
     1
172
     0
 90
        2
 40
0.0
 41
0.0
173
     1
 91
-1056964608
340
14
 92
       -2
290
     1
 42
2.0
291
     1
 43
0.36
  3
Standard
 44
4.0
300

342
11
174
     1
178
     6
175
     1
176
     0
 93
-1056964608
 45
4.0
292
     0
297
     0
 46
4.0
 94
-1056964608
 47
1.0
 49
1.0
140
1.0
293
     1
141
0.0
294
     1
177
     0
142
1.0
295
     0
296
     0
143
0.125
1001
ACAD_MLEADERVER
1070
     2
  0
MLINESTYLE
  5
18
102
{ACAD_REACTORS
330
17
102
}
330
17
100
AcDbMlineStyle
  2
STANDARD
 70
     0
  3

 62
   256
 51
90.0
 52
90.0
 71
     2
 49
0.5
 62
   256
  6
BYLAYER
 49
-0.5
 62
   256
  6
BYLAYER
  0
ACDBPLACEHOLDER
  5
F
102
{ACAD_REACTORS
330
E
102
}
330
E
  0
SCALE
  5
C02
102
{ACAD_REACTORS
330
C01
102
}
330
C01
100
AcDbScale
 70
     0
300
1:1
140
1.0
141
1.0
290
     1
  0
SCALE
  5
C03
102
{ACAD_REACTORS
330
C01
102
}
330
C01
100
AcDbScale
 70
     0
300
1:2
140
1.0
141
2.0
290
     0
  0
SCALE
  5
C04
102
{ACAD_REACTORS
330
C01
102
}
330
C01
100
AcDbScale
 70
     0
300
1:4
140
1.0
141
4.0
290
     0
  0
SCALE
  5
C05
102
{ACAD_REACTORS
330
C01
102
}
330
C01
100
AcDbScale
 70
     0
300
1:5
140
1.0
141
5.0
290
     0
  0
SCALE
  5
C06
102
{ACAD_REACTORS
330
C01
102
}
330
C01
100
AcDbScale
 70
     0
300
1:8
140
1.0
141
8.0
290
     0
  0
SCALE
  5
C07
102
{ACAD_REACTORS
330
C01
102
}
330
C01
100
AcDbScale
 70
     0
300
1:10
140
1.0
141
10.0
290
     0
  0
SCALE
  5
C08
102
{ACAD_REACTORS
330
C01
102
}
330
C01
100
AcDbScale
 70
     0
300
1:16
140
1.0
141
16.0
290
     0
  0
SCALE
  5
C09
102
{ACAD_REACTORS
330
C01
102
}
330
C01
100
AcDbScale
 70
     0
300
1:20
140
1.0
141
20.0
290
     0
  0
SCALE
  5
C0A
102
{ACAD_REACTORS
330
C01
102
}
330
C01
100
AcDbScale
 70
     0
300
1:30
140
1.0
141
30.0
290
     0
  0
SCALE
  5
C0B
102
{ACAD_REACTORS
330
C01
102
}
330
C01
100
AcDbScale
 70
     0
300
1:40
140
1.0
141
40.0
290
     0
  0
SCALE
  5
C0C
102
{ACAD_REACTORS
330
C01
102
}
330
C01
100
AcDbScale
 70
     0
300
1:50
140
1.0
141
50.0
290
     0
  0
SCALE
  5
C0D
102
{ACAD_REACTORS
330
C01
102
}
330
C01
100
AcDbScale
 70
     0
300
1:100
140
1.0
141
100.0
290
     0
  0
SCALE
  5
C0E
102
{ACAD_REACTORS
330
C01
102
}
330
C01
100
AcDbScale
 70
     0
300
2:1
140
2.0
141
1.0
290
     0
  0
SCALE
  5
C0F
102
{ACAD_REACTORS
330
C01
102
}
330
C01
100
AcDbScale
 70
     0
300
4:1
140
4.0
141
1.0
290
     0
  0
SCALE
  5
C10
102
{ACAD_REACTORS
330
C01
102
}
330
C01
100
AcDbScale
 70
     0
300
8:1
140
8.0
141
1.0
290
     0
  0
SCALE
  5
C11
102
{ACAD_REACTORS
330
C01
102
}
330
C01
100
AcDbScale
 70
     0
300
10:1
140
10.0
141
1.0
290
     0
  0
SCALE
  5
C12
102
{ACAD_REACTORS
330
C01
102
}
330
C01
100
AcDbScale
 70
     0
300
100:1
140
100.0
141
1.0
290
     0
  0
TABLESTYLE
  5
C00
102
{ACAD_XDICTIONARY
360
1542
102
}
102
{ACAD_REACTORS
330
BFF
102
}
330
BFF
100
AcDbTableStyle
  3
Standard
 70
     0
 71
     0
 40
1.5
 41
1.5
280
     0
281
     0
  7
STANDARD
140
4.5
170
     2
 62
     0
 63
     7
283
     0
274
    -2
284
     1
 64
     0
275
    -2
285
     1
 65
     0
276
    -2
286
     1
 66
     0
277
    -2
287
     1
 67
     0
278
    -2
288
     1
 68
     0
279
    -2
289
     1
 69
     0
  7
STANDARD
140
6.0
170
     5
 62
     0
 63
     7
283
     0
274
    -2
284
     1
 64
     0
275
    -2
285
     1
 65
     0
276
    -2
286
     1
 66
     0
277
    -2
287
     1
 67
     0
278
    -2
288
     1
 68
     0
279
    -2
289
     1
 69
     0
  7
STANDARD
140
4.5
170
     5
 62
     0
 63
     7
283
     0
274
    -2
284
     1
 64
     0
275
    -2
285
     1
 65
     0
276
    -2
286
     1
 66
     0
277
    -2
287
     1
 67
     0
278
    -2
288
     1
 68
     0
279
    -2
289
     1
 69
     0
  0
VISUALSTYLE
  5
BF4
102
{ACAD_REACTORS
330
BEE
102
}
330
BEE
100
AcDbVisualStyle
  2
2dWireframe
 70
     4
 71
     0
 72
     2
 73
     0
 90
        0
 40
-0.6
 41
-30.0
 62
     5
 63
     7
 74
     1
 91
        4
 64
     7
 65
   257
 75
     1
175
     1
 42
1.0
 92
        0
 66
   257
 43
1.0
 76
     1
 77
     6
 78
     2
 67
     7
 79
     5
170
     0
171
     0
290
     0
174
     0
 93
        1
 44
0.0
173
     0
291
     0
 45
0.0
1001
ACAD
1000
AcDbSavedByObjectVersion
1070
     0
  0
VISUALSTYLE
  5
BF6
102
{ACAD_REACTORS
330
BEE
102
}
330
BEE
100
AcDbVisualStyle
  2
3D Hidden
 70
     6
 71
     1
 72
     2
 73
     2
 90
        0
 40
-0.6
 41
-30.0
 62
     5
 63
     7
 74
     2
 91
        2
 64
     7
 65
   257
 75
     2
175
     1
 42
40.0
 92
        0
 66
   257
 43
1.0
 76
     1
 77
     6
 78
     2
 67
     7
 79
     3
170
     0
171
     0
290
     0
174
     0
 93
        1
 44
0.0
173
     0
291
     0
 45
0.0
1001
ACAD
1000
AcDbSavedByObjectVersion
1070
     0
  0
VISUALSTYLE
  5
BF5
102
{ACAD_REACTORS
330
BEE
102
}
330
BEE
100
AcDbVisualStyle
  2
3dWireframe
 70
     5
 71
     0
 72
     2
 73
     0
 90
        0
 40
-0.6
 41
-30.0
 62
     5
 63
     7
 74
     1
 91
        4
 64
     7
 65
   257
 75
     1
175
     1
 42
1.0
 92
        0
 66
   257
 43
1.0
 76
     1
 77
     6
 78
     2
 67
     7
 79
     5
170
     0
171
     0
290
     0
174
     0
 93
        1
 44
0.0
173
     0
291
     0
 45
0.0
1001
ACAD
1000
AcDbSavedByObjectVersion
1070
     0
  0
VISUALSTYLE
  5
BF3
102
{ACAD_REACTORS
330
BEE
102
}
330
BEE
100
AcDbVisualStyle
  2
Basic
 70
     7
 71
     1
 72
     0
 73
     1
 90
        0
 40
-0.6
 41
-30.0
 62
     5
 63
     7
 74
     0
 91
        4
 64
     7
 65
   257
 75
     1
175
     1
 42
1.0
 92
        8
 66
     7
 43
1.0
 76
     1
 77
     6
 78
     2
 67
     7
 79
     5
170
     0
171
     0
290
     0
174
     0
 93
        1
 44
0.0
173
     0
291
     1
 45
0.0
1001
ACAD
1000
AcDbSavedByObjectVersion
1070
     0
  0
VISUALSTYLE
  5
BFA
102
{ACAD_REACTORS
330
BEE
102
}
330
BEE
100
AcDbVisualStyle
  2
Brighten
 70
    12
 71
     2
 72
     2
 73
     0
 90
        0
 40
-0.6
 41
-30.0
 62
     5
 63
     7
 74
     1
 91
        4
 64
     7
 65
   257
 75
     1
175
     1
 42
1.0
 92
        8
 66
     7
 43
1.0
 76
     1
 77
     6
 78
     2
 67
     7
 79
     5
170
     0
171
     0
290
     0
174
     0
 93
        1
 44
50.0
173
     0
291
     1
 45
0.0
1001
ACAD
1000
AcDbSavedByObjectVersion
1070
     0
  0
VISUALSTYLE
  5
BFE
102
{ACAD_REACTORS
330
BEE
102
}
330
BEE
100
AcDbVisualStyle
  2
ColorChange
 70
    16
 71
     2
 72
     2
 73
     3
 90
        0
 40
-0.6
 41
-30.0
 62
     5
 63
     8
 74
     1
 91
        4
 64
     7
 65
   257
 75
     1
175
     1
 42
1.0
 92
        8
 66
     8
 43
1.0
 76
     1
 77
     6
 78
     2
 67
     7
 79
     5
170
     0
171
     0
290
     0
174
     0
 93
        1
 44
0.0
173
     0
291
     1
 45
0.0
1001
ACAD
1000
AcDbSavedByObjectVersion
1070
     0
  0
VISUALSTYLE
  5
BF7
102
{ACAD_REACTORS
330
BEE
102
}
330
BEE
100
AcDbVisualStyle
  2
Conceptual
 70
     9
 71
     3
 72
     2
 73
     0
 90
        0
 40
-0.6
 41
-30.0
 62
     5
 63
     7
 74
     2
 91
        2
 64
     7
 65
   257
 75
     1
175
     1
 42
40.0
 92
        8
 66
     7
 43
1.0
 76
     1
 77
     6
 78
     2
 67
     7
 79
     3
170
     0
171
     0
290
     0
174
     0
 93
        1
 44
0.0
173
     0
291
     0
 45
0.0
1001
ACAD
1000
AcDbSavedByObjectVersion
1070
     0
  0
VISUALSTYLE
  5
BF9
102
{ACAD_REACTORS
330
BEE
102
}
330
BEE
100
AcDbVisualStyle
  2
Dim
 70
    11
 71
     2
 72
     2
 73
     0
 90
        0
 40
-0.6
 41
-30.0
 62
     5
 63
     7
 74
     1
 91
        4
 64
     7
 65
   257
 75
     1
175
     1
 42
1.0
 92
        8
 66
     7
 43
1.0
 76
     1
 77
     6
 78
     2
 67
     7
 79
     5
170
     0
171
     0
290
     0
174
     0
 93
        1
 44
-50.0
173
     0
291
     1
 45
0.0
1001
ACAD
1000
AcDbSavedByObjectVersion
1070
     0
  0
VISUALSTYLE
  5
BFD
102
{ACAD_REACTORS
330
BEE
102
}
330
BEE
100
AcDbVisualStyle
  2
Facepattern
 70
    15
 71
     2
 72
     2
 73
     0
 90
        0
 40
-0.6
 41
-30.0
 62
     5
 63
     7
 74
     1
 91
        4
 64
     7
 65
   257
 75
     1
175
     1
 42
1.0
 92
        8
 66
     7
 43
1.0
 76
     1
 77
     6
 78
     2
 67
     7
 79
     5
170
     0
171
     0
290
     0
174
     0
 93
        1
 44
0.0
173
     0
291
     1
 45
0.0
1001
ACAD
1000
AcDbSavedByObjectVersion
1070
     0
  0
VISUALSTYLE
  5
BEF
102
{ACAD_REACTORS
330
BEE
102
}
330
BEE
100
AcDbVisualStyle
  2
Flat
 70
     0
 71
     2
 72
     1
 73
     1
 90
        2
 40
-0.6
 41
30.0
 62
     5
 63
     7
 74
     0
 91
        4
 64
     7
 65
   257
 75
     1
175
     1
 42
1.0
 92
        8
 66
     7
 43
1.0
 76
     1
 77
     6
 78
     2
 67
     7
 79
     5
170
     0
171
     0
290
     0
174
     0
 93
       13
 44
0.0
173
     0
291
     1
 45
0.0
1001
ACAD
1000
AcDbSavedByObjectVersion
1070
     0
  0
VISUALSTYLE
  5
BF0
102
{ACAD_REACTORS
330
BEE
102
}
330
BEE
100
AcDbVisualStyle
  2
FlatWithEdges
 70
     1
 71
     2
 72
     1
 73
     1
 90
        2
 40
-0.6
 41
30.0
 62
     5
 63
     7
 74
     1
 91
        4
 64
     7
 65
   257
 75
     1
175
     1
 42
1.0
 92
        0
 66
   257
 43
1.0
 76
     1
 77
     6
 78
     2
 67
     7
 79
     5
170
     0
171
     0
290
     0
174
     0
 93
       13
 44
0.0
173
     0
291
     1
 45
0.0
1001
ACAD
1000
AcDbSavedByObjectVersion
1070
     0
  0
VISUALSTYLE
  5
BF1
102
{ACAD_REACTORS
330
BEE
102
}
330
BEE
100
AcDbVisualStyle
  2
Gouraud
 70
     2
 71
     2
 72
     2
 73
     1
 90
        2
 40
-0.6
 41
30.0
 62
     5
 63
     7
 74
     0
 91
        4
 64
     7
 65
   257
 75
     1
175
     1
 42
1.0
 92
        0
 66
     7
 43
1.0
 76
     1
 77
     6
 78
     2
 67
     7
 79
     5
170
     0
171
     0
290
     0
174
     0
 93
       13
 44
0.0
173
     0
291
     1
 45
0.0
1001
ACAD
1000
AcDbSavedByObjectVersion
1070
     0
  0
VISUALSTYLE
  5
BF2
102
{ACAD_REACTORS
330
BEE
102
}
330
BEE
100
AcDbVisualStyle
  2
GouraudWithEdges
 70
     3
 71
     2
 72
     2
 73
     1
 90
        2
 40
-0.6
 41
30.0
 62
     5
 63
     7
 74
     1
 91
        4
 64
     7
 65
   257
 75
     1
175
     1
 42
1.0
 92
        0
 66
   257
 43
1.0
 76
     1
 77
     6
 78
     2
 67
     7
 79
     5
170
     0
171
     0
290
     0
174
     0
 93
       13
 44
0.0
173
     0
291
     1
 45
0.0
1001
ACAD
1000
AcDbSavedByObjectVersion
1070
     0
  0
VISUALSTYLE
  5
BFC
102
{ACAD_REACTORS
330
BEE
102
}
330
BEE
100
AcDbVisualStyle
  2
Linepattern
 70
    14
 71
     2
 72
     2
 73
     0
 90
        0
 40
-0.6
 41
-30.0
 62
     5
 63
     7
 74
     1
 91
        4
 64
     7
 65
   257
 75
     7
175
     7
 42
1.0
 92
        8
 66
     7
 43
1.0
 76
     1
 77
     6
 78
     2
 67
     7
 79
     5
170
     0
171
     0
290
     0
174
     0
 93
        1
 44
0.0
173
     0
291
     1
 45
0.0
1001
ACAD
1000
AcDbSavedByObjectVersion
1070
     0
  0
VISUALSTYLE
  5
BF8
102
{ACAD_REACTORS
330
BEE
102
}
330
BEE
100
AcDbVisualStyle
  2
Realistic
 70
     8
 71
     2
 72
     2
 73
     0
 90
        0
 40
-0.6
 41
-30.0
 62
     5
 63
     7
 74
     1
 91
        0
 64
     7
 65
   257
 75
     1
175
     1
 42
1.0
 92
        8
 66
     8
 43
1.0
 76
     1
 77
     6
 78
     2
 67
     7
 79
     5
170
     0
171
     0
290
     0
174
     0
 93
       13
 44
0.0
173
     0
291
     0
 45
0.0
1001
ACAD
1000
AcDbSavedByObjectVersion
1070
     0
  0
VISUALSTYLE
  5
BFB
102
{ACAD_REACTORS
330
BEE
102
}
330
BEE
100
AcDbVisualStyle
  2
Thicken
 70
    13
 71
     2
 72
     2
 73
     0
 90
        0
 40
-0.6
 41
-30.0
 62
     5
 63
     7
 74
     1
 91
        4
 64
     7
 65
   257
 75
     1
175
     1
 42
1.0
 92
       12
 66
     7
 43
1.0
 76
     1
 77
     6
 78
     2
 67
     7
 79
     5
170
     0
171
     0
290
     0
174
     0
 93
        1
 44
0.0
173
     0
291
     1
 45
0.0
1001
ACAD
1000
AcDbSavedByObjectVersion
1070
     0
  0
DICTIONARYVAR
  5
1562
102
{ACAD_REACTORS
330
9E
102
}
330
9E
100
DictionaryVariables
280
     0
  1
4:1
  0
DICTIONARYVAR
  5
1561
102
{ACAD_REACTORS
330
9E
102
}
330
9E
100
DictionaryVariables
280
     0
  1
STANDARD
  0
DICTIONARYVAR
  5
1560
102
{ACAD_REACTORS
330
9E
102
}
330
9E
100
DictionaryVariables
280
     0
  1
STANDARD
  0
DICTIONARYVAR
  5
A0
102
{ACAD_REACTORS
330
9E
102
}
330
9E
100
DictionaryVariables
280
     0
  1
1
  0
DICTIONARYVAR
  5
9F
102
{ACAD_REACTORS
330
9E
102
}
330
9E
100
DictionaryVariables
280
     0
  1
0
  0
DICTIONARYVAR
  5
379E
102
{ACAD_REACTORS
330
9E
102
}
330
9E
100
DictionaryVariables
280
     0
  1
127
  0
DICTIONARY
  5
9A7
102
{ACAD_REACTORS
330
63
102
}
330
63
100
AcDbDictionary
281
     1
  0
DICTIONARY
  5
69
102
{ACAD_REACTORS
330
63
102
}
330
63
100
AcDbDictionary
281
     1
  0
XRECORD
  5
C38
102
{ACAD_REACTORS
330
63
102
}
330
63
100
AcDbXrecord
280
     1
 90
-1023410169
  0
DICTIONARY
  5
37A3
330
22
100
AcDbDictionary
280
     1
281
     1
  3
ACAD_XREC_ROUNDTRIP
360
37A4
  0
DICTIONARY
  5
37A1
330
1E
100
AcDbDictionary
280
     1
281
     1
  3
ACAD_XREC_ROUNDTRIP
360
37A2
  0
DICTIONARY
  5
37A5
330
26
100
AcDbDictionary
280
     1
281
     1
  3
ACAD_XREC_ROUNDTRIP
360
37A6
  0
DICTIONARY
  5
BDF
330
BDE
100
AcDbDictionary
280
     1
281
     1
  3
ACAD_XREC_ROUNDTRIP
360
37AC
  3
BUMPTILE
360
BE1
  3
DIFFUSETILE
360
BE0
  3
OPACITYTILE
360
BE4
  3
REFLECTIONTILE
360
BE3
  3
REFRACTIONTILE
360
BE5
  3
SPECULARTILE
360
BE2
  0
DICTIONARY
  5
BD7
330
BD6
100
AcDbDictionary
280
     1
281
     1
  3
ACAD_XREC_ROUNDTRIP
360
37AB
  3
BUMPTILE
360
BD9
  3
DIFFUSETILE
360
BD8
  3
OPACITYTILE
360
BDC
  3
REFLECTIONTILE
360
BDB
  3
REFRACTIONTILE
360
BDD
  3
SPECULARTILE
360
BDA
  0
DICTIONARY
  5
BE7
330
BE6
100
AcDbDictionary
280
     1
281
     1
  3
ACAD_XREC_ROUNDTRIP
360
37AD
  3
BUMPTILE
360
BE9
  3
DIFFUSETILE
360
BE8
  3
OPACITYTILE
360
BEC
  3
REFLECTIONTILE
360
BEB
  3
REFRACTIONTILE
360
BED
  3
SPECULARTILE
360
BEA
  0
DICTIONARY
  5
1542
330
C00
100
AcDbDictionary
280
     1
281
     1
  3
ACAD_ROUNDTRIP_2008_TABLESTYLE_CELLSTYLEMAP
360
379F
  3
ACAD_XREC_ROUNDTRIP
360
37AE
  0
XRECORD
  5
37A4
102
{ACAD_REACTORS
330
37A3
102
}
330
37A3
100
AcDbXrecord
280
     1
102
SHADEPLOT
 70
     0
102
SHADEPLOTRESLEVEL
 70
     2
102
SHADEPLOTCUSTOMDPI
 70
   300
  0
XRECORD
  5
37A2
102
{ACAD_REACTORS
330
37A1
102
}
330
37A1
100
AcDbXrecord
280
     1
102
SHADEPLOT
 70
     1
102
SHADEPLOTRESLEVEL
 70
     2
102
SHADEPLOTCUSTOMDPI
 70
   300
  0
XRECORD
  5
37A6
102
{ACAD_REACTORS
330
37A5
102
}
330
37A5
100
AcDbXrecord
280
     1
102
SHADEPLOT
 70
     1
102
SHADEPLOTRESLEVEL
 70
     2
102
SHADEPLOTCUSTOMDPI
 70
   300
  0
XRECORD
  5
37AC
102
{ACAD_REACTORS
330
BDF
102
}
330
BDF
100
AcDbXrecord
280
     1
102
MATERIAL
148
0.0
149
0.0
149
0.0
 93
        0
 94
      127
282
     0
 72
     0
 77
     0
171
     0
175
     0
179
     0
273
     0
  0
XRECORD
  5
BE1
102
{ACAD_REACTORS
330
BDF
102
}
330
BDF
100
AcDbXrecord
280
     1
270
     1
271
     1
  0
XRECORD
  5
BE0
102
{ACAD_REACTORS
330
BDF
102
}
330
BDF
100
AcDbXrecord
280
     1
270
     1
271
     1
  0
XRECORD
  5
BE4
102
{ACAD_REACTORS
330
BDF
102
}
330
BDF
100
AcDbXrecord
280
     1
270
     1
271
     1
  0
XRECORD
  5
BE3
102
{ACAD_REACTORS
330
BDF
102
}
330
BDF
100
AcDbXrecord
280
     1
270
     1
271
     1
  0
XRECORD
  5
BE5
102
{ACAD_REACTORS
330
BDF
102
}
330
BDF
100
AcDbXrecord
280
     1
270
     1
271
     1
  0
XRECORD
  5
BE2
102
{ACAD_REACTORS
330
BDF
102
}
330
BDF
100
AcDbXrecord
280
     1
270
     1
271
     1
  0
XRECORD
  5
37AB
102
{ACAD_REACTORS
330
BD7
102
}
330
BD7
100
AcDbXrecord
280
     1
102
MATERIAL
148
0.0
149
0.0
149
0.0
 93
        0
 94
      127
282
     0
 72
     0
 77
     0
171
     0
175
     0
179
     0
273
     0
  0
XRECORD
  5
BD9
102
{ACAD_REACTORS
330
BD7
102
}
330
BD7
100
AcDbXrecord
280
     1
270
     1
271
     1
  0
XRECORD
  5
BD8
102
{ACAD_REACTORS
330
BD7
102
}
330
BD7
100
AcDbXrecord
280
     1
270
     1
271
     1
  0
XRECORD
  5
BDC
102
{ACAD_REACTORS
330
BD7
102
}
330
BD7
100
AcDbXrecord
280
     1
270
     1
271
     1
  0
XRECORD
  5
BDB
102
{ACAD_REACTORS
330
BD7
102
}
330
BD7
100
AcDbXrecord
280
     1
270
     1
271
     1
  0
XRECORD
  5
BDD
102
{ACAD_REACTORS
330
BD7
102
}
330
BD7
100
AcDbXrecord
280
     1
270
     1
271
     1
  0
XRECORD
  5
BDA
102
{ACAD_REACTORS
330
BD7
102
}
330
BD7
100
AcDbXrecord
280
     1
270
     1
271
     1
  0
XRECORD
  5
37AD
102
{ACAD_REACTORS
330
BE7
102
}
330
BE7
100
AcDbXrecord
280
     1
102
MATERIAL
148
0.0
149
0.0
149
0.0
 93
        0
 94
      127
282
     0
 72
     0
 77
     0
171
     0
175
     0
179
     0
273
     0
  0
XRECORD
  5
BE9
102
{ACAD_REACTORS
330
BE7
102
}
330
BE7
100
AcDbXrecord
280
     1
270
     1
271
     1
  0
XRECORD
  5
BE8
102
{ACAD_REACTORS
330
BE7
102
}
330
BE7
100
AcDbXrecord
280
     1
270
     1
271
     1
  0
XRECORD
  5
BEC
102
{ACAD_REACTORS
330
BE7
102
}
330
BE7
100
AcDbXrecord
280
     1
270
     1
271
     1
  0
XRECORD
  5
BEB
102
{ACAD_REACTORS
330
BE7
102
}
330
BE7
100
AcDbXrecord
280
     1
270
     1
271
     1
  0
XRECORD
  5
BED
102
{ACAD_REACTORS
330
BE7
102
}
330
BE7
100
AcDbXrecord
280
     1
270
     1
271
     1
  0
XRECORD
  5
BEA
102
{ACAD_REACTORS
330
BE7
102
}
330
BE7
100
AcDbXrecord
280
     1
270
     1
271
     1
  0
CELLSTYLEMAP
  5
379F
102
{ACAD_REACTORS
330
1542
102
}
330
1542
100
AcDbCellStyleMap
 90
        3
300
CELLSTYLE
  1
TABLEFORMAT_BEGIN
 90
        5
170
     1
 91
        0
 92
    32768
 62
   257
 93
        1
300
CONTENTFORMAT
  1
CONTENTFORMAT_BEGIN
 90
        0
 91
        0
 92
      512
 93
        0
300

 40
0.0
140
1.0
 94
        5
 62
     0
340
11
144
6.0
309
CONTENTFORMAT_END
171
     1
301
MARGIN
  1
CELLMARGIN_BEGIN
 40
1.5
 40
1.5
 40
1.5
 40
1.5
 40
0.18
 40
0.18
309
CELLMARGIN_END
 94
        6
 95
        1
302
GRIDFORMAT
  1
GRIDFORMAT_BEGIN
 90
        0
 91
        1
 62
     0
 92
       -2
340
0
 93
        0
 40
1.125
309
GRIDFORMAT_END
 95
        2
302
GRIDFORMAT
  1
GRIDFORMAT_BEGIN
 90
        0
 91
        1
 62
     0
 92
       -2
340
0
 93
        0
 40
1.125
309
GRIDFORMAT_END
 95
        4
302
GRIDFORMAT
  1
GRIDFORMAT_BEGIN
 90
        0
 91
        1
 62
     0
 92
       -2
340
0
 93
        0
 40
1.125
309
GRIDFORMAT_END
 95
        8
302
GRIDFORMAT
  1
GRIDFORMAT_BEGIN
 90
        0
 91
        1
 62
     0
 92
       -2
340
0
 93
        0
 40
1.125
309
GRIDFORMAT_END
 95
       16
302
GRIDFORMAT
  1
GRIDFORMAT_BEGIN
 90
        0
 91
        1
 62
     0
 92
       -2
340
0
 93
        0
 40
1.125
309
GRIDFORMAT_END
 95
       32
302
GRIDFORMAT
  1
GRIDFORMAT_BEGIN
 90
        0
 91
        1
 62
     0
 92
       -2
340
0
 93
        0
 40
1.125
309
GRIDFORMAT_END
309
TABLEFORMAT_END
  1
CELLSTYLE_BEGIN
 90
        1
 91
        1
300
_TITLE
309
CELLSTYLE_END
300
CELLSTYLE
  1
TABLEFORMAT_BEGIN
 90
        5
170
     1
 91
        0
 92
        0
 62
   257
 93
        1
300
CONTENTFORMAT
  1
CONTENTFORMAT_BEGIN
 90
        0
 91
        0
 92
      512
 93
        0
300

 40
0.0
140
1.0
 94
        5
 62
     0
340
11
144
4.5
309
CONTENTFORMAT_END
171
     1
301
MARGIN
  1
CELLMARGIN_BEGIN
 40
1.5
 40
1.5
 40
1.5
 40
1.5
 40
0.18
 40
0.18
309
CELLMARGIN_END
 94
        6
 95
        1
302
GRIDFORMAT
  1
GRIDFORMAT_BEGIN
 90
        0
 91
        1
 62
     0
 92
       -2
340
0
 93
        0
 40
1.125
309
GRIDFORMAT_END
 95
        2
302
GRIDFORMAT
  1
GRIDFORMAT_BEGIN
 90
        0
 91
        1
 62
     0
 92
       -2
340
0
 93
        0
 40
1.125
309
GRIDFORMAT_END
 95
        4
302
GRIDFORMAT
  1
GRIDFORMAT_BEGIN
 90
        0
 91
        1
 62
     0
 92
       -2
340
0
 93
        0
 40
1.125
309
GRIDFORMAT_END
 95
        8
302
GRIDFORMAT
  1
GRIDFORMAT_BEGIN
 90
        0
 91
        1
 62
     0
 92
       -2
340
0
 93
        0
 40
1.125
309
GRIDFORMAT_END
 95
       16
302
GRIDFORMAT
  1
GRIDFORMAT_BEGIN
 90
        0
 91
        1
 62
     0
 92
       -2
340
0
 93
        0
 40
1.125
309
GRIDFORMAT_END
 95
       32
302
GRIDFORMAT
  1
GRIDFORMAT_BEGIN
 90
        0
 91
        1
 62
     0
 92
       -2
340
0
 93
        0
 40
1.125
309
GRIDFORMAT_END
309
TABLEFORMAT_END
  1
CELLSTYLE_BEGIN
 90
        2
 91
        1
300
_HEADER
309
CELLSTYLE_END
300
CELLSTYLE
  1
TABLEFORMAT_BEGIN
 90
        5
170
     1
 91
        0
 92
        0
 62
   257
 93
        1
300
CONTENTFORMAT
  1
CONTENTFORMAT_BEGIN
 90
        0
 91
        0
 92
      512
 93
        0
300

 40
0.0
140
1.0
 94
        2
 62
     0
340
11
144
4.5
309
CONTENTFORMAT_END
171
     1
301
MARGIN
  1
CELLMARGIN_BEGIN
 40
1.5
 40
1.5
 40
1.5
 40
1.5
 40
0.18
 40
0.18
309
CELLMARGIN_END
 94
        6
 95
        1
302
GRIDFORMAT
  1
GRIDFORMAT_BEGIN
 90
        0
 91
        1
 62
     0
 92
       -2
340
0
 93
        0
 40
1.125
309
GRIDFORMAT_END
 95
        2
302
GRIDFORMAT
  1
GRIDFORMAT_BEGIN
 90
        0
 91
        1
 62
     0
 92
       -2
340
0
 93
        0
 40
1.125
309
GRIDFORMAT_END
 95
        4
302
GRIDFORMAT
  1
GRIDFORMAT_BEGIN
 90
        0
 91
        1
 62
     0
 92
       -2
340
0
 93
        0
 40
1.125
309
GRIDFORMAT_END
 95
        8
302
GRIDFORMAT
  1
GRIDFORMAT_BEGIN
 90
        0
 91
        1
 62
     0
 92
       -2
340
0
 93
        0
 40
1.125
309
GRIDFORMAT_END
 95
       16
302
GRIDFORMAT
  1
GRIDFORMAT_BEGIN
 90
        0
 91
        1
 62
     0
 92
       -2
340
0
 93
        0
 40
1.125
309
GRIDFORMAT_END
 95
       32
302
GRIDFORMAT
  1
GRIDFORMAT_BEGIN
 90
        0
 91
        1
 62
     0
 92
       -2
340
0
 93
        0
 40
1.125
309
GRIDFORMAT_END
309
TABLEFORMAT_END
  1
CELLSTYLE_BEGIN
 90
        3
 91
        2
300
_DATA
309
CELLSTYLE_END
  0
XRECORD
  5
37AE
102
{ACAD_REACTORS
330
1542
102
}
330
1542
100
AcDbXrecord
280
     1
102
ACAD_ROUNDTRIP_PRE2007_TABLESTYLE
 90
      512
 91
        0
  1

 92
      512
 93
        0
  2

 94
      512
 95
        0
  3

  0
ENDSEC
  0
EOF
