  0
SECTION
  2
HEADER
  9
$ACADVER
  1
AC1009
  9
$INSBASE
 10
0.0
 20
0.0
 30
0.0
  9
$EXTMIN
 10
19.99091723589731
 20
14.992855039874939
 30
-0.0000000000112498
  9
$EXTMAX
 10
215.01144722420841
 20
290.00198530731831
 30
0.0000000000002956
  9
$LIMMIN
 10
0.0
 20
0.0
  9
$LIMMAX
 10
195.00000000000011
 20
275.0
  9
$ORTHOMODE
 70
     0
  9
$REGENMODE
 70
     1
  9
$FILLMODE
 70
     1
  9
$QTEXTMODE
 70
     0
  9
$MIRRTEXT
 70
     1
  9
$DRAGMODE
 70
     2
  9
$LTSCALE
 40
1.0
  9
$OSMODE
 70
  2999
  9
$ATTMODE
 70
     1
  9
$TEXTSIZE
 40
1.0
  9
$TRACEWID
 40
1.0
  9
$TEXTSTYLE
  7
ACISOTS
  9
$CLAYER
  8
0
  9
$CELTYPE
  6
BYLAYER
  9
$CECOLOR
 62
   256
  9
$DIMSCALE
 40
1.0
  9
$DIMASZ
 40
2.5
  9
$DIMEXO
 40
1.0
  9
$DIMDLI
 40
10.0
  9
$DIMRND
 40
0.0
  9
$DIMDLE
 40
0.0
  9
$DIMEXE
 40
1.0
  9
$DIMTP
 40
0.1
  9
$DIMTM
 40
0.1
  9
$DIMTXT
 40
3.5
  9
$DIMCEN
 40
0.0
  9
$DIMTSZ
 40
0.0
  9
$DIMTOL
 70
     0
  9
$DIMLIM
 70
     0
  9
$DIMTIH
 70
     0
  9
$DIMTOH
 70
     0
  9
$DIMSE1
 70
     0
  9
$DIMSE2
 70
     0
  9
$DIMTAD
 70
     1
  9
$DIMZIN
 70
     8
  9
$DIMBLK
  1

  9
$DIMASO
 70
     1
  9
$DIMSHO
 70
     1
  9
$DIMPOST
  1

  9
$DIMAPOST
  1
"
  9
$DIMALT
 70
     0
  9
$DIMALTD
 70
     2
  9
$DIMALTF
 40
0.0393701
  9
$DIMLFAC
 40
1.0
  9
$DIMTOFL
 70
     1
  9
$DIMTVP
 40
0.0
  9
$DIMTIX
 70
     0
  9
$DIMSOXD
 70
     0
  9
$DIMSAH
 70
     0
  9
$DIMBLK1
  1

  9
$DIMBLK2
  1

  9
$DIMSTYLE
  2
AM_ISO
  9
$DIMCLRD
 70
   256
  9
$DIMCLRE
 70
   256
  9
$DIMCLRT
 70
     2
  9
$DIMTFAC
 40
0.71
  9
$DIMGAP
 40
1.5
  9
$LUNITS
 70
     2
  9
$LUPREC
 70
     2
  9
$SKETCHINC
 40
1.0
  9
$FILLETRAD
 40
1.5
  9
$AUNITS
 70
     0
  9
$AUPREC
 70
     0
  9
$MENU
  1
.
  9
$ELEVATION
 40
0.0
  9
$PELEVATION
 40
0.0
  9
$THICKNESS
 40
0.0
  9
$LIMCHECK
 70
     0
  9
$BLIPMODE
 70
     0
  9
$CHAMFERA
 40
2.5
  9
$CHAMFERB
 40
2.5
  9
$SKPOLY
 70
     0
  9
$TDCREATE
 40
2454067.6480199192
  9
$TDUPDATE
 40
2454067.6840541782
  9
$TDINDWG
 40
0.0354785185
  9
$TDUSRTIMER
 40
0.0354785185
  9
$USRTIMER
 70
     1
  9
$ANGBASE
 50
0.0
  9
$ANGDIR
 70
     0
  9
$PDMODE
 70
     0
  9
$PDSIZE
 40
0.0
  9
$PLINEWID
 40
0.0
  9
$COORDS
 70
     2
  9
$SPLFRAME
 70
     0
  9
$SPLINETYPE
 70
     6
  9
$SPLINESEGS
 70
     8
  9
$ATTDIA
 70
     1
  9
$ATTREQ
 70
     1
  9
$HANDLING
 70
     1
  9
$HANDSEED
  5
14E4
  9
$SURFTAB1
 70
     6
  9
$SURFTAB2
 70
     6
  9
$SURFTYPE
 70
     6
  9
$SURFU
 70
     6
  9
$SURFV
 70
     6
  9
$UCSNAME
  2

  9
$UCSORG
 10
0.0
 20
0.0
 30
0.0
  9
$UCSXDIR
 10
1.0
 20
0.0
 30
0.0
  9
$UCSYDIR
 10
0.0
 20
1.0
 30
0.0
  9
$PUCSNAME
  2

  9
$PUCSORG
 10
0.0
 20
0.0
 30
0.0
  9
$PUCSXDIR
 10
1.0
 20
0.0
 30
0.0
  9
$PUCSYDIR
 10
0.0
 20
1.0
 30
0.0
  9
$USERI1
 70
     0
  9
$USERI2
 70
     0
  9
$USERI3
 70
     0
  9
$USERI4
 70
     0
  9
$USERI5
 70
     0
  9
$USERR1
 40
0.0
  9
$USERR2
 40
0.0
  9
$USERR3
 40
0.0
  9
$USERR4
 40
0.0
  9
$USERR5
 40
0.0
  9
$WORLDVIEW
 70
     1
  9
$SHADEDGE
 70
     3
  9
$SHADEDIF
 70
    70
  9
$TILEMODE
 70
     1
  9
$MAXACTVP
 70
    64
  9
$PLIMCHECK
 70
     0
  9
$PEXTMIN
 10
1.0000000000000000E+020
 20
1.0000000000000000E+020
 30
1.0000000000000000E+020
  9
$PEXTMAX
 10
-1.0000000000000000E+020
 20
-1.0000000000000000E+020
 30
-1.0000000000000000E+020
  9
$PLIMMIN
 10
-6.350006103515625
 20
-6.3499999046325684
  9
$PLIMMAX
 10
273.04998779296881
 20
209.54999399185181
  9
$UNITMODE
 70
     0
  9
$VISRETAIN
 70
     1
  9
$PLINEGEN
 70
     0
  9
$PSLTSCALE
 70
     1
  0
ENDSEC
  0
SECTION
  2
TABLES
  0
TABLE
  2
VPORT
 70
     3
  0
VPORT
  2
*ACTIVE
 70
     0
 10
0.0
 20
0.0
 11
1.0
 21
1.0
 12
117.50118223005281
 22
152.49742017359659
 13
0.0
 23
0.0
 14
2.5
 24
2.5
 15
10.0
 25
10.0
 16
0.0
 26
0.0
 36
1.0
 17
0.0
 27
0.0
 37
0.0
 40
277.01405709806858
 41
1.468369829683698
 42
50.0
 43
0.0
 44
0.0
 50
0.0
 51
0.0
 71
    16
 72
   100
 73
     1
 74
     3
 75
     0
 76
     0
 77
     0
 78
     0
  0
ENDTAB
  0
TABLE
  2
LTYPE
 70
    20
  0
LTYPE
  2
CONTINUOUS
 70
     0
  3
Solid line
 72
    65
 73
     0
 40
0.0
  0
LTYPE
  2
AM_ISO02W050
 70
     0
  3
__ __ __ __ __ __ __ __ __ __ __ __ __ __ __
 72
    65
 73
     2
 40
7.5
 49
6.0
 49
-1.5
  0
LTYPE
  2
AM_ISO08W050
 70
     0
  3
____ . ____ . ____ . ____ . ____ . ____ . ____
 72
    65
 73
     4
 40
18.0
 49
12.0
 49
-1.5
 49
3.0
 49
-1.5
  0
LTYPE
  2
AM_ISO09W050
 70
     0
  3
_____ . . _____ . . _____ . . ____ .. ____
 72
    65
 73
     6
 40
22.5
 49
12.0
 49
-1.5
 49
3.0
 49
-1.5
 49
3.0
 49
-1.5
  0
LTYPE
  2
AMCONSTR
 70
     0
  3
_______________________
 72
    65
 73
     2
 40
9999.0
 49
9999.0
 49
0.0
  0
LTYPE
  2
AM_ISO08W050X2
 70
     0
  3
__ . __ . __ . __ . __ . __
 72
    65
 73
     4
 40
9.0
 49
6.0
 49
-0.75
 49
1.5
 49
-0.75
  0
LTYPE
  2
AM_ISO02W050X2
 70
     0
  3
 _ _ _ _ _ _ _ _ _ _ _ _
 72
    65
 73
     2
 40
3.75
 49
3.0
 49
-0.75
  0
LTYPE
  2
AMZIGZAG
 70
     0
  3
/\/-/\/-/\/-/\/-/\/-/\/
 72
    65
 73
     2
 40
11.0001
 49
0.0001
 49
-11.0
  0
LTYPE
  2
ACISOWELD
 70
     0
  3
_ _ _ _ _
 72
    65
 73
     2
 40
2.0
 49
2.0
 49
-1.0
  0
LTYPE
  2
ACISOTGB
 70
     0
  3
__ . . __ . .
 72
    65
 73
     6
 40
9.0
 49
4.0
 49
-1.0
 49
1.0
 49
-1.0
 49
1.0
 49
-1.0
  0
LTYPE
  2
ACISOTGL
 70
     0
  3
_ _ _ _ _
 72
    65
 73
     2
 40
3.0
 49
2.0
 49
-1.0
  0
LTYPE
  2
CENTER
 70
     0
  3
__ . __
 72
    65
 73
     4
 40
7.0
 49
4.0
 49
-1.0
 49
1.0
 49
-1.0
  0
LTYPE
  2
HIDDEN
 70
     0
  3
Hidden __ __ __ __ __ __ __ __ __ __ __ __ __ _
 72
    65
 73
     2
 40
9.5249999999999986
 49
6.3499999999999988
 49
-3.1749999999999989
  0
LTYPE
  2
PHANTOM2
 70
     0
  3
Phantom (.5x) ___ _ _ ___ _ _ ___ _ _ ___ _ _
 72
    65
 73
     6
 40
31.75
 49
15.875
 49
-3.1749999999999989
 49
3.1749999999999989
 49
-3.1749999999999989
 49
3.1749999999999989
 49
-3.1749999999999989
  0
LTYPE
  2
GEN3
 70
     0
  3
-- -- -- -- -- -- -- -- -- -- -- -- -- -- --
 72
    65
 73
     2
 40
6.25
 49
4.75
 49
-1.5
  0
LTYPE
  2
GEN7
 70
     0
  3
____ . ____ . ____ . ____ . ____ . ____ . ____
 72
    65
 73
     4
 40
13.75
 49
9.75
 49
-1.5
 49
1.0
 49
-1.5
  0
LTYPE
  2
GEN3A
 70
     0
  3
 - - - - -
 72
    65
 73
     2
 40
3.125
 49
2.25
 49
-0.875
  0
LTYPE
  2
GEN7A
 70
     0
  3
__ . __ . __
 72
    65
 73
     4
 40
6.875
 49
4.75
 49
-0.875
 49
0.375
 49
-0.875
  0
LTYPE
  2
GEN4A
 70
     0
  3
_____ . . _____ . . _____ . . ____ .. ____
 72
    65
 73
     6
 40
16.25
 49
9.75
 49
-1.5
 49
1.0
 49
-1.5
 49
1.0
 49
-1.5
  0
LTYPE
  2
GENZIGZAG
 70
     0
  3
/\/-/\/-/\/-/\/-/\/-/\/
 72
    65
 73
     2
 40
12.0001
 49
0.0001
 49
-12.0
  0
ENDTAB
  0
TABLE
  2
LAYER
 70
    25
  0
LAYER
  2
0
 70
     0
 62
     7
  6
CONTINUOUS
  0
LAYER
  2
TK1
 70
     0
 62
     7
  6
CONTINUOUS
  0
LAYER
  2
TK10
 70
     0
 62
     7
  6
AM_ISO02W050X2
  0
LAYER
  2
TK2
 70
     0
 62
     2
  6
CONTINUOUS
  0
LAYER
  2
TK3
 70
     0
 62
     5
  6
CONTINUOUS
  0
LAYER
  2
TK4
 70
     0
 62
     3
  6
CONTINUOUS
  0
LAYER
  2
TK5
 70
     0
 62
     4
  6
CONTINUOUS
  0
LAYER
  2
TK6
 70
     0
 62
     6
  6
CONTINUOUS
  0
LAYER
  2
TK7
 70
     0
 62
     1
  6
CONTINUOUS
  0
LAYER
  2
TK8
 70
     0
 62
     8
  6
CONTINUOUS
  0
LAYER
  2
TK20
 70
     0
 62
     2
  6
AM_ISO02W050X2
  0
LAYER
  2
TK30
 70
     0
 62
     5
  6
AM_ISO02W050X2
  0
LAYER
  2
TK40
 70
     0
 62
     3
  6
AM_ISO02W050X2
  0
LAYER
  2
TK50
 70
     0
 62
     4
  6
AM_ISO02W050X2
  0
LAYER
  2
TK60
 70
     0
 62
     6
  6
AM_ISO02W050X2
  0
LAYER
  2
TK70
 70
     0
 62
     1
  6
AM_ISO02W050X2
  0
LAYER
  2
TK80
 70
     0
 62
     8
  6
AM_ISO02W050X2
  0
LAYER
  2
AM_5
 70
     0
 62
     3
  6
CONTINUOUS
  0
LAYER
  2
AM_7
 70
     0
 62
     4
  6
AM_ISO08W050
  0
LAYER
  2
DEFPOINTS
 70
     0
 62
     7
  6
CONTINUOUS
  0
LAYER
  2
7A
 70
     0
 62
     4
  6
GEN7A
  0
LAYER
  2
RAHM2
 70
     0
 62
     1
  6
CONTINUOUS
  0
LAYER
  2
AM_12
 70
     0
 62
     7
  6
CONTINUOUS
  0
LAYER
  2
AM_PAREF
 70
     0
 62
     4
  6
CONTINUOUS
  0
LAYER
  2
AM_CL
 70
     0
 62
     1
  6
AMCONSTR
  0
ENDTAB
  0
TABLE
  2
STYLE
 70
     8
  0
STYLE
  2
STANDARD
 70
     0
 40
0.0
 41
1.0
 50
0.0
 71
     0
 42
1.0
  3
ISOCP.SHX
  4
EXTFONT.SHX
  0
STYLE
  2

 70
     1
 40
0.0
 41
1.0
 50
0.0
 71
     0
 42
2.5
  3
ltypeshp.shx
  4

  0
STYLE
  2
ACISOTS
 70
     0
 40
1.0
 41
1.0
 50
0.0
 71
     0
 42
1.0
  3
isocp.shx
  4
bigfont.shx
  0
STYLE
  2
ACISOGDT
 70
     0
 40
0.0
 41
1.0
 50
0.0
 71
     0
 42
2.5
  3
amgdt.shx
  4

  0
STYLE
  2
USER1
 70
     0
 40
0.0
 41
1.0
 50
0.0
 71
     0
 42
2.5
  3
TXT.SHX
  4

  0
STYLE
  2
USER2
 70
     0
 40
0.0
 41
1.0
 50
0.0
 71
     0
 42
2.5
  3
SIMPLEX.SHX
  4

  0
STYLE
  2
USER3
 70
     0
 40
0.0
 41
1.0
 50
0.0
 71
     0
 42
2.5
  3
ITALIC.SHX
  4

  0
STYLE
  2

 70
     1
 40
0.0
 41
1.0
 50
0.0
 71
     0
 42
3.0
  3
genltshp.shx
  4

  0
ENDTAB
  0
TABLE
  2
VIEW
 70
     6
  0
VIEW
  2
AM_VIEW1
 70
     0
 40
137.5
 10
100.9113001215067
 20
206.25
 41
201.8226002430134
 11
0.0
 21
0.0
 31
1.0
 12
0.0
 22
0.0
 32
0.0
 42
50.0
 43
0.0
 44
0.0
 50
0.0
 71
    16
  0
VIEW
  2
AM_VIEW2
 70
     0
 40
137.5
 10
94.088699878493415
 20
206.25
 41
201.8226002430134
 11
0.0
 21
0.0
 31
1.0
 12
0.0
 22
0.0
 32
0.0
 42
50.0
 43
0.0
 44
0.0
 50
0.0
 71
    16
  0
VIEW
  2
AM_VIEW3
 70
     0
 40
137.5
 10
100.9113001215067
 20
68.750000000000014
 41
201.8226002430134
 11
0.0
 21
0.0
 31
1.0
 12
0.0
 22
0.0
 32
0.0
 42
50.0
 43
0.0
 44
0.0
 50
0.0
 71
    16
  0
VIEW
  2
AM_VIEW4
 70
     0
 40
137.5
 10
94.088699878493415
 20
68.750000000000014
 41
201.8226002430134
 11
0.0
 21
0.0
 31
1.0
 12
0.0
 22
0.0
 32
0.0
 42
50.0
 43
0.0
 44
0.0
 50
0.0
 71
    16
  0
VIEW
  2
AM_VIEW5
 70
     0
 40
137.5
 10
97.500000000000071
 20
137.5
 41
201.8226002430134
 11
0.0
 21
0.0
 31
1.0
 12
0.0
 22
0.0
 32
0.0
 42
50.0
 43
0.0
 44
0.0
 50
0.0
 71
    16
  0
VIEW
  2
AM_VIEW6
 70
     0
 40
274.99725000000012
 10
97.500000000000071
 20
137.5
 41
403.64116403402193
 11
0.0
 21
0.0
 31
1.0
 12
0.0
 22
0.0
 32
0.0
 42
50.0
 43
0.0
 44
0.0
 50
0.0
 71
    16
  0
ENDTAB
  0
TABLE
  2
UCS
 70
     0
  0
ENDTAB
  0
TABLE
  2
APPID
 70
    35
  0
APPID
  2
ACAD
 70
     0
  0
APPID
  2
MCAD_NO_VIS
 70
     0
  0
APPID
  2
ACAD_TEMP_GRAPHIC
 70
     0
  0
APPID
  2
ACATTRIBSERVICES
 70
     0
  0
APPID
  2
AD_DRAW
 70
     0
  0
APPID
  2
DESIGNERASSEMBLIES
 70
     0
  0
APPID
  2
ACADM_DIM_EDIT
 70
     0
  0
APPID
  2
AMDT_DM_ADJ
 70
     0
  0
APPID
  2
GENIUS_GENREC_14
 70
     0
  0
APPID
  2
GENIUS_GENODEF_13
 70
     0
  0
APPID
  2
GENIUS_GENOBJ-N-REC_13
 70
     0
  0
APPID
  2
GENIUS_GENCFG_13
 70
     0
  0
APPID
  2
GENIUS_GENCFG0_13
 70
     0
  0
APPID
  2
GENIUS_GENCFG1_13
 70
     0
  0
APPID
  2
GENIUS_GENCFG2_13
 70
     0
  0
APPID
  2
GENIUS_GENCFG3_13
 70
     0
  0
APPID
  2
GENIUS_GENCFG4_13
 70
     0
  0
APPID
  2
GENIUS_GEVCFG0_13
 70
     0
  0
APPID
  2
GENIUS_GENOENT_13
 70
     0
  0
APPID
  2
GENIUS_GENDIMSH_14
 70
     0
  0
APPID
  2
GENIUS_GENOBJ-N-CRS_13
 70
     0
  0
APPID
  2
GENIUS_GENOREF_13
 70
     0
  0
APPID
  2
GENIUS_GENOLIS_13
 70
     0
  0
APPID
  2
GENIUS_GENOBJ-N-TIT_13
 70
     0
  0
APPID
  2
GENIUS_GENTITLE_13
 70
     0
  0
APPID
  2
GENIUS_GENSCREG_15
 70
     0
  0
APPID
  2
GENIUS_GENOBJ-N-SDF_13
 70
     0
  0
APPID
  2
GENIUS_GENOBJ-N-CEN_13
 70
     0
  0
APPID
  2
GENIUS_GENOBJ-N-HTC_13
 70
     0
  0
APPID
  2
GENIUS_GENHATCH_13
 70
     0
  0
APPID
  2
GENIUS_GENOBJ-N-ZOO_13
 70
     0
  0
APPID
  2
GENIUS_GENZOO_17
 70
     0
  0
APPID
  2
GEV_VCCNULL_SWITCH_OFF
 70
     0
  0
APPID
  2
GENIUS_GENDTOL_13
 70
     0
  0
APPID
  2
GENIUS_GENSCREG_13
 70
     0
  0
ENDTAB
  0
TABLE
  2
DIMSTYLE
 70
    15
  0
DIMSTYLE
  2
ISO-25
 70
     0
  3

  4

  5

  6

  7

 40
1.0
 41
2.5
 42
0.625
 43
3.75
 44
1.25
 45
0.0
 46
0.0
 47
0.0
 48
0.0
140
2.5
141
2.5
142
0.0
143
0.03937007874016
144
1.0
145
0.0
146
1.0
147
0.625
 71
     0
 72
     0
 73
     0
 74
     0
 75
     0
 76
     0
 77
     1
 78
     8
170
     0
171
     3
172
     1
173
     0
174
     0
175
     0
176
     0
177
     0
178
     0
  0
DIMSTYLE
  2
AM_ISO
 70
     0
  3

  4
"
  5

  6

  7

 40
1.0
 41
2.5
 42
1.0
 43
10.0
 44
1.0
 45
0.0
 46
0.0
 47
0.1
 48
0.1
140
3.5
141
0.0
142
0.0
143
0.0393701
144
1.0
145
0.0
146
0.71
147
1.5
 71
     0
 72
     0
 73
     0
 74
     0
 75
     0
 76
     0
 77
     1
 78
     8
170
     0
171
     2
172
     1
173
     0
174
     0
175
     0
176
   256
177
   256
178
     2
  0
DIMSTYLE
  2
AM_ISO$3
 70
     0
  3

  4
"
  5

  6

  7

 40
1.0
 41
2.5
 42
1.0
 43
10.0
 44
1.0
 45
0.0
 46
0.0
 47
0.1
 48
0.1
140
3.5
141
0.0
142
0.0
143
0.0393701
144
1.0
145
0.0
146
0.71
147
1.5
 71
     0
 72
     0
 73
     0
 74
     1
 75
     0
 76
     0
 77
     1
 78
     8
170
     0
171
     2
172
     0
173
     0
174
     0
175
     0
176
   256
177
   256
178
     2
  0
DIMSTYLE
  2
AM_ISO$4
 70
     0
  3

  4
"
  5

  6

  7

 40
1.0
 41
2.5
 42
1.0
 43
10.0
 44
1.0
 45
0.0
 46
0.0
 47
0.1
 48
0.1
140
3.5
141
0.0
142
0.0
143
0.0393701
144
1.0
145
0.0
146
0.71
147
1.5
 71
     0
 72
     0
 73
     0
 74
     1
 75
     0
 76
     0
 77
     1
 78
     8
170
     0
171
     2
172
     0
173
     0
174
     0
175
     0
176
   256
177
   256
178
     2
  0
DIMSTYLE
  2
AM_ISO$6
 70
     0
  3

  4
"
  5

  6

  7

 40
1.0
 41
2.5
 42
1.0
 43
10.0
 44
1.0
 45
0.0
 46
0.0
 47
0.1
 48
0.1
140
3.5
141
0.0
142
0.0
143
0.0393701
144
1.0
145
0.0
146
0.71
147
1.5
 71
     0
 72
     0
 73
     0
 74
     0
 75
     0
 76
     0
 77
     0
 78
     8
170
     0
171
     2
172
     1
173
     0
174
     0
175
     0
176
   256
177
   256
178
     2
  0
DIMSTYLE
  2
AM_ISO$7
 70
     0
  3

  4
"
  5

  6

  7

 40
1.0
 41
2.5
 42
1.0
 43
10.0
 44
1.0
 45
0.0
 46
0.0
 47
0.1
 48
0.1
140
5.0
141
0.0
142
0.0
143
0.0393701
144
1.0
145
0.0
146
0.71
147
1.5
 71
     0
 72
     0
 73
     0
 74
     0
 75
     0
 76
     0
 77
     1
 78
     8
170
     0
171
     2
172
     1
173
     0
174
     0
175
     0
176
   256
177
   256
178
     2
  0
DIMSTYLE
  2
AM_ISO$SF
 70
     0
  3

  4
"
  5

  6

  7

 40
1.0
 41
2.5
 42
1.0
 43
10.0
 44
1.0
 45
0.0
 46
0.0
 47
0.1
 48
0.1
140
3.5
141
0.0
142
0.0
143
0.0393701
144
1.0
145
0.0
146
0.71
147
1.5
 71
     0
 72
     0
 73
     0
 74
     0
 75
     1
 76
     1
 77
     1
 78
     8
170
     0
171
     2
172
     1
173
     0
174
     0
175
     0
176
   256
177
   256
178
     2
  0
DIMSTYLE
  2
AM_ISO$SH
 70
     0
  3

  4
"
  5

  6
GENAXEH
  7

 40
1.0
 41
2.5
 42
1.0
 43
10.0
 44
1.0
 45
0.0
 46
0.0
 47
0.1
 48
0.1
140
3.5
141
0.0
142
0.0
143
0.0393701
144
2.0
145
0.0
146
0.71
147
1.5
 71
     0
 72
     0
 73
     0
 74
     0
 75
     1
 76
     1
 77
     1
 78
     8
170
     0
171
     2
172
     1
173
     1
174
     0
175
     0
176
   256
177
   256
178
     2
  0
DIMSTYLE
  2
GEN-ISO
 70
     0
  3

  4
"
  5

  6

  7

 40
1.0
 41
2.5
 42
1.0
 43
10.0
 44
1.0
 45
0.0
 46
0.0
 47
0.1
 48
0.1
140
3.5
141
0.0
142
0.0
143
0.0393701
144
1.0
145
0.0
146
0.71
147
1.5
 71
     0
 72
     0
 73
     0
 74
     0
 75
     0
 76
     0
 77
     1
 78
     8
170
     0
171
     2
172
     1
173
     0
174
     0
175
     0
176
   256
177
   256
178
     2
  0
DIMSTYLE
  2
GEN-ISO$3
 70
     0
  3

  4
"
  5

  6

  7

 40
1.0
 41
2.5
 42
1.0
 43
10.0
 44
1.0
 45
0.0
 46
0.0
 47
0.1
 48
0.1
140
3.5
141
0.0
142
0.0
143
0.0393701
144
1.0
145
0.0
146
0.71
147
1.5
 71
     0
 72
     0
 73
     0
 74
     1
 75
     0
 76
     0
 77
     1
 78
     8
170
     0
171
     2
172
     0
173
     0
174
     0
175
     0
176
   256
177
   256
178
     2
  0
DIMSTYLE
  2
GEN-ISO$4
 70
     0
  3

  4
"
  5

  6

  7

 40
1.0
 41
2.5
 42
1.0
 43
10.0
 44
1.0
 45
0.0
 46
0.0
 47
0.1
 48
0.1
140
3.5
141
0.0
142
0.0
143
0.0393701
144
1.0
145
0.0
146
0.71
147
1.5
 71
     0
 72
     0
 73
     0
 74
     1
 75
     0
 76
     0
 77
     1
 78
     8
170
     0
171
     2
172
     0
173
     0
174
     0
175
     0
176
   256
177
   256
178
     2
  0
DIMSTYLE
  2
GEN-ISO$6
 70
     0
  3

  4
"
  5

  6

  7

 40
1.0
 41
2.5
 42
1.0
 43
10.0
 44
1.0
 45
0.0
 46
0.0
 47
0.1
 48
0.1
140
3.5
141
0.0
142
0.0
143
0.0393701
144
1.0
145
0.0
146
0.71
147
1.5
 71
     0
 72
     0
 73
     0
 74
     0
 75
     0
 76
     0
 77
     0
 78
     8
170
     0
171
     2
172
     0
173
     0
174
     0
175
     0
176
   256
177
   256
178
     2
  0
DIMSTYLE
  2
GEN-ISO-POS
 70
     0
  3

  4
"
  5

  6

  7

 40
1.0
 41
2.5
 42
1.0
 43
10.0
 44
1.0
 45
0.0
 46
0.0
 47
0.1
 48
0.1
140
5.0
141
0.0
142
0.0
143
0.0393701
144
1.0
145
0.0
146
0.71
147
1.5
 71
     0
 72
     0
 73
     0
 74
     0
 75
     0
 76
     0
 77
     0
 78
     8
170
     0
171
     2
172
     0
173
     0
174
     0
175
     0
176
   256
177
   256
178
     2
  0
DIMSTYLE
  2
GEN-ISO-AXE-F
 70
     0
  3

  4
"
  5

  6

  7

 40
1.0
 41
2.5
 42
1.0
 43
10.0
 44
1.0
 45
0.0
 46
0.0
 47
0.1
 48
0.1
140
3.5
141
0.0
142
0.0
143
0.0393701
144
1.0
145
0.0
146
0.71
147
1.5
 71
     0
 72
     0
 73
     0
 74
     0
 75
     1
 76
     1
 77
     1
 78
     8
170
     0
171
     2
172
     1
173
     0
174
     0
175
     0
176
   256
177
   256
178
     2
  0
DIMSTYLE
  2
GEN-ISO-AXE-H
 70
     0
  3

  4
"
  5

  6

  7

 40
1.0
 41
2.5
 42
1.0
 43
10.0
 44
1.0
 45
0.0
 46
0.0
 47
0.1
 48
0.1
140
3.5
141
0.0
142
0.0
143
0.0393701
144
2.0
145
0.0
146
0.71
147
1.5
 71
     0
 72
     0
 73
     0
 74
     0
 75
     1
 76
     1
 77
     1
 78
     8
170
     0
171
     2
172
     1
173
     1
174
     0
175
     0
176
   256
177
   256
178
     2
  0
ENDTAB
  0
ENDSEC
  0
SECTION
  2
BLOCKS
  0
BLOCK
  8
0
  2
$MODEL_SPACE
 70
     0
 10
0.0
 20
0.0
 30
0.0
  3
$MODEL_SPACE
  1

  0
ENDBLK
  5
21
  8
0
  0
BLOCK
 67
     1
  8
0
  2
$PAPER_SPACE
 70
     0
 10
0.0
 20
0.0
 30
0.0
  3
$PAPER_SPACE
  1

  0
ENDBLK
  5
1D
 67
     1
  8
0
  0
BLOCK
  8
0
  2
GENAXEH
 70
     0
 10
0.0
 20
0.0
 30
0.0
  3
GENAXEH
  1

  0
LINE
  5
88
  8
0
 10
-1.0
 20
0.0
 30
0.0
 11
1.0
 21
0.0
 31
0.0
  0
ENDBLK
  5
8A
  8
0
  0
BLOCK
  8
0
  2
_OPEN30
 70
     0
 10
0.0
 20
0.0
 30
0.0
  3
_OPEN30
  1

  0
LINE
  5
2FD
  8
0
  6
BYBLOCK
 62
     0
 10
-1.0
 20
0.26794919
 30
0.0
 11
0.0
 21
0.0
 31
0.0
  0
LINE
  5
2FE
  8
0
  6
BYBLOCK
 62
     0
 10
0.0
 20
0.0
 30
0.0
 11
-1.0
 21
-0.26794919
 31
0.0
  0
LINE
  5
2FF
  8
0
  6
BYBLOCK
 62
     0
 10
0.0
 20
0.0
 30
0.0
 11
-1.0
 21
0.0
 31
0.0
  0
ENDBLK
  5
300
  8
0
  0
BLOCK
  8
0
  2
TAKACHI-A3
 70
     0
 10
0.0
 20
0.0
 30
0.0
  3
TAKACHI-A3
  1

  0
POLYLINE
  5
328
  8
0
 66
     1
 10
0.0
 20
0.0
 30
0.0
 70
     1
1001
GENIUS_GENREC_14
1002
{
1000
PYDIR
1011
10.000000000000011
1021
9.2233720396894542E+020
1031
-0.0
1021
280.0
1031
0.0
1002
}
1002
{
1000
PXDIR
1011
410.0
1021
9.2233720396894542E+020
1031
-0.0
1021
0.0
1031
0.0
1002
}
1002
{
1000
PORI
1011
10.0
1021
9.2233720396894542E+020
1031
-0.0
1021
0.0
1031
0.0
1002
}
1002
{
1000
PINS
1011
210.0
1021
9.2233720396894542E+020
1031
-0.0
1021
139.99999999999989
1031
0.0
1002
}
1002
{
1000
HVAL
1000
280
1002
}
1002
{
1000
H
1070
     2
1002
}
1002
{
1000
WVAL
1000
400
1002
}
1002
{
1000
W
1070
     2
1002
}
1002
{
1000
C
1070
     4
1002
}
1001
GENIUS_GENODEF_13
1002
{
1000
HIER
1070
     0
1002
}
1002
{
1000
MANEDIT
1070
     0
1002
}
1002
{
1000
NOSEL
1070
     0
1002
}
1002
{
1000
BEHIND
1070
     0
1002
}
1002
{
1000
REACTOR
1002
}
1001
GENIUS_GENOBJ-N-REC_13
1002
{
1000
OWNER
1000
GEN
1002
}
  0
VERTEX
  5
136B
  8
0
 10
10.0
 20
0.0
 30
0.0
  0
VERTEX
  5
136C
  8
0
 10
410.0
 20
0.0
 30
0.0
  0
VERTEX
  5
136D
  8
0
 10
410.0
 20
280.0
 30
0.0
  0
VERTEX
  5
136E
  8
0
 10
10.00000000000003
 20
280.0
 30
0.0
  0
SEQEND
  5
136F
  8
0
  0
TEXT
  5
329
  8
0
 10
15.00000000000003
 20
50.0
 30
0.0
 40
2.5
  1
!GENTITLE-LL
  0
TEXT
  5
32A
  8
0
 10
410.0
 20
0.0
 30
0.0
 40
2.5
  1
!GENTITLE-INSERT
  0
TEXT
  5
32B
  8
0
 10
405.0
 20
275.0
 30
0.0
 40
2.5
  1
!GENTITLE-RU
  0
TEXT
  5
32C
  8
0
 10
410.0
 20
280.0
 30
0.0
 40
2.5
  1
!GENTITLE-MAX
  0
LINE
  5
32D
  8
0
 10
366.0
 20
275.0
 30
0.0
 11
410.0
 21
275.0
 31
0.0
  0
INSERT
  5
32E
  8
0
  2
*U65
 10
0.0
 20
0.0
 30
0.0
  0
LINE
  5
32F
  8
0
 10
366.0
 20
280.0
 30
0.0
 11
366.0
 21
275.0
 31
0.0
  0
ENDBLK
  5
332
  8
0
  0
BLOCK
  8
0
  2
TAKACHI-TITLE
 70
     2
 10
0.0
 20
0.0
 30
0.0
  3
TAKACHI-TITLE
  1

  0
LINE
  5
341
  8
RAHM2
 10
-195.0
 20
30.000000000000028
 30
0.0
 11
-94.0
 21
30.000000000000028
 31
0.0
  0
LINE
  5
342
  8
RAHM2
 10
-195.0
 20
35.000000000000028
 30
0.0
 11
-94.0
 21
35.000000000000028
 31
0.0
  0
LINE
  5
343
  8
RAHM2
 10
-195.0
 20
40.000000000000021
 30
0.0
 11
-94.0
 21
40.000000000000021
 31
0.0
  0
LINE
  5
344
  8
RAHM2
 10
-195.0
 20
45.000000000000021
 30
0.0
 11
-94.0
 21
45.000000000000021
 31
0.0
  0
LINE
  5
345
  8
0
 10
-195.0
 20
7.0
 30
0.0
 11
-94.0
 21
7.0
 31
0.0
  0
LINE
  5
346
  8
0
 10
-195.0
 20
19.999999999999972
 30
0.0
 11
-94.0
 21
19.999999999999972
 31
0.0
  0
ATTDEF
  5
347
  8
0
 10
-183.24385271456069
 20
8.6175171910947483
 30
0.0
 40
2.5
  1

 11
-183.24385271456069
 21
8.6175171910947483
 31
0.0
  3
サブタイトル
  2
GEN-TITLE-DES2
 70
     0
 74
     1
  0
ATTDEF
  5
348
  8
0
 10
-183.24385271456069
 20
1.6175171910947479
 30
0.0
 40
3.0
  1

 11
-183.24385271456069
 21
1.6175171910947479
 31
0.0
  3
図番
  2
GEN-TITLE-NR
 70
     0
 74
     1
  0
INSERT
  5
349
  8
0
  2
*U66
 10
0.0
 20
0.0
 30
0.0
  0
ATTDEF
  5
34A
  8
0
 10
-183.24385271456069
 20
13.873952861685011
 30
0.0
 40
4.0
  1

 11
-183.24385271456069
 21
13.873952861685011
 31
0.0
  3
品名
  2
GEN-TITLE-DES1
 70
     0
 74
     1
  0
LINE
  5
34B
  8
RAHM2
 10
-187.57512886940361
 20
30.400000000000041
 30
0.0
 11
-190.0
 21
34.60000000000003
 31
0.0
  0
LINE
  5
34C
  8
RAHM2
 10
-190.0
 20
34.60000000000003
 30
0.0
 11
-192.42487113059639
 21
30.400000000000041
 31
0.0
  0
LINE
  5
34D
  8
RAHM2
 10
-185.0
 20
50.000000000000028
 30
0.0
 11
-185.0
 21
19.99999999999994
 31
0.0
  0
LINE
  5
34E
  8
RAHM2
 10
-192.42487113059639
 20
30.400000000000041
 30
0.0
 11
-187.57512886940361
 21
30.400000000000041
 31
0.0
  0
INSERT
  5
34F
  8
0
  2
*U67
 10
0.0
 20
0.0
 30
0.0
  0
INSERT
  5
350
  8
0
  2
*U68
 10
0.0
 20
0.0
 30
0.0
  0
LINE
  5
351
  8
RAHM2
 10
-192.42487113059639
 20
45.400000000000027
 30
0.0
 11
-187.57512886940361
 21
45.400000000000027
 31
0.0
  0
LINE
  5
352
  8
RAHM2
 10
-187.57512886940361
 20
45.400000000000027
 30
0.0
 11
-190.0
 21
49.600000000000023
 31
0.0
  0
LINE
  5
353
  8
RAHM2
 10
-192.42487113059639
 20
40.400000000000027
 30
0.0
 11
-187.57512886940361
 21
40.400000000000027
 31
0.0
  0
LINE
  5
354
  8
RAHM2
 10
-187.57512886940361
 20
40.400000000000027
 30
0.0
 11
-190.0
 21
44.600000000000023
 31
0.0
  0
LINE
  5
355
  8
RAHM2
 10
-192.42487113059639
 20
35.400000000000041
 30
0.0
 11
-187.57512886940361
 21
35.400000000000041
 31
0.0
  0
LINE
  5
356
  8
RAHM2
 10
-187.57512886940361
 20
35.400000000000041
 30
0.0
 11
-190.0
 21
39.600000000000023
 31
0.0
  0
LINE
  5
357
  8
RAHM2
 10
-190.0
 20
39.600000000000023
 30
0.0
 11
-192.42487113059639
 21
35.400000000000041
 31
0.0
  0
LINE
  5
358
  8
RAHM2
 10
-190.0
 20
44.600000000000023
 30
0.0
 11
-192.42487113059639
 21
40.400000000000027
 31
0.0
  0
LINE
  5
359
  8
RAHM2
 10
-190.0
 20
49.600000000000023
 30
0.0
 11
-192.42487113059639
 21
45.400000000000027
 31
0.0
  0
LINE
  5
35A
  8
RAHM2
 10
-129.0
 20
50.000000000000028
 30
0.0
 11
-129.0
 21
19.99999999999994
 31
0.0
  0
INSERT
  5
35B
  8
0
  2
*U69
 10
0.0
 20
0.0
 30
0.0
  0
LINE
  5
35C
  8
0
 10
-34.0
 20
50.0
 30
0.0
 11
-34.0
 21
0.0
 31
0.0
  0
LINE
  5
35D
  8
0
 10
-94.0
 20
50.0
 30
0.0
 11
-94.0
 21
0.0
 31
0.0
  0
INSERT
  5
35E
  8
0
  2
*U70
 10
0.0
 20
0.0
 30
0.0
  0
LINE
  5
35F
  8
0
 10
-94.0
 20
10.0
 30
0.0
 11
-34.0
 21
10.0
 31
0.0
  0
ATTDEF
  5
360
  8
0
 10
-58.014051197997453
 20
39.255005561783491
 30
0.0
 40
3.0
  1

 72
     2
 11
-58.014051197997453
 21
39.255005561783491
 31
0.0
  3
尺度
  2
GEN-TITLE-SCA
 70
     0
  0
ATTDEF
  5
361
  8
0
 10
-77.002849666490064
 20
30.621807879434751
 30
0.0
 40
3.0
  1

 11
-77.002849666490064
 21
30.621807879434751
 31
0.0
  3
材質
  2
GEN-TITLE-MAT1
 70
     0
 74
     1
  0
ATTDEF
  5
362
  8
0
 10
-77.002849666490064
 20
20.621807879434751
 30
0.0
 40
3.0
  1

 11
-77.002849666490064
 21
20.621807879434751
 31
0.0
  3
表面処理
  2
GEN-TITLE-MAT2
 70
     0
 74
     1
  0
ATTDEF
  5
363
  8
0
 10
-77.002849666490064
 20
11.61751719109475
 30
0.0
 40
3.0
  1

 11
-77.002849666490064
 21
11.61751719109475
 31
0.0
  3
日付
  2
GEN-TITLE-DAT
 70
     0
 74
     1
  0
LINE
  5
364
  8
0
 10
-94.0
 20
37.5
 30
0.0
 11
-34.0
 21
37.5
 31
0.0
  0
LINE
  5
365
  8
0
 10
-94.0
 20
27.5
 30
0.0
 11
-34.0
 21
27.5
 31
0.0
  0
LINE
  5
366
  8
0
 10
-94.0
 20
17.5
 30
0.0
 11
-34.0
 21
17.5
 31
0.0
  0
LINE
  5
367
  8
RAHM2
 10
-109.0
 20
50.000000000000028
 30
0.0
 11
-109.0
 21
19.99999999999994
 31
0.0
  0
INSERT
  5
368
  8
0
  2
*U71
 10
0.0
 20
0.0
 30
0.0
  0
INSERT
  5
369
  8
0
  2
*U72
 10
0.0
 20
0.0
 30
0.0
  0
INSERT
  5
36A
  8
0
  2
*U73
 10
0.0
 20
0.0
 30
0.0
  0
INSERT
  5
36B
  8
0
  2
*U74
 10
0.0
 20
0.0
 30
0.0
  0
INSERT
  5
36C
  8
0
  2
*U75
 10
0.0
 20
0.0
 30
0.0
  0
INSERT
  5
36D
  8
0
  2
*U76
 10
0.0
 20
0.0
 30
0.0
  0
INSERT
  5
36E
  8
0
  2
*U77
 10
0.0
 20
0.0
 30
0.0
  0
INSERT
  5
36F
  8
0
  2
*U78
 10
0.0
 20
0.0
 30
0.0
  0
LINE
  5
370
  8
7A
 10
-89.0
 20
43.75
 30
0.0
 11
-75.218691599714703
 21
43.75
 31
0.0
1001
GENIUS_GENOREF_13
1005
383
  0
LINE
  5
371
  8
0
 10
-84.0
 20
45.75
 30
0.0
 11
-76.0
 21
46.749999999999993
 31
0.0
  0
LINE
  5
372
  8
0
 10
-76.0
 20
40.75
 30
0.0
 11
-84.0
 21
41.749999999999993
 31
0.0
  0
LINE
  5
373
  8
7A
 10
-89.0
 20
43.75
 30
0.0
 11
-89.0
 21
47.324786644731482
 31
0.0
1001
GENIUS_GENOREF_13
1005
383
  0
CIRCLE
  5
374
  8
0
 10
-89.0
 20
43.75
 30
0.0
 40
2.0
  0
CIRCLE
  5
375
  8
0
 10
-89.0
 20
43.75
 30
0.0
 40
3.0
  0
LINE
  5
376
  8
0
 10
-84.0
 20
41.749999999999993
 30
0.0
 11
-84.0
 21
45.75
 31
0.0
  0
INSERT
  5
377
  8
0
  2
*U79
 10
0.0
 20
0.0
 30
0.0
  0
LINE
  5
378
  8
7A
 10
-89.0
 20
43.75
 30
0.0
 11
-92.723037371251166
 21
43.75
 31
0.0
1001
GENIUS_GENOREF_13
1005
383
  0
LINE
  5
379
  8
7A
 10
-89.0
 20
43.75
 30
0.0
 11
-89.0
 21
40.039917242284787
 31
0.0
1001
GENIUS_GENOREF_13
1005
383
  0
LINE
  5
37A
  8
0
 10
-76.0
 20
46.749999999999993
 30
0.0
 11
-76.0
 21
40.75
 31
0.0
  0
LINE
  5
37B
  8
0
 10
-74.0
 20
50.0
 30
0.0
 11
-74.0
 21
37.5
 31
0.0
  0
INSERT
  5
37C
  8
0
  2
*U80
 10
0.0
 20
0.0
 30
0.0
  0
ATTDEF
  5
37D
  8
0
 10
-37.76317379391503
 20
39.255005561783491
 30
0.0
 40
3.0
  1

 72
     2
 11
-37.76317379391503
 21
39.255005561783491
 31
0.0
  3
数量
  2
GEN-TITLE-QTY
 70
     0
  0
LINE
  5
37E
  8
0
 10
-34.0
 20
25.0
 30
0.0
 11
0.0
 21
25.0
 31
0.0
  0
LINE
  5
37F
  8
0
 10
-54.0
 20
50.0
 30
0.0
 11
-54.0
 21
37.5
 31
0.0
  0
INSERT
  5
380
  8
0
  2
*U81
 10
0.0
 20
0.0
 30
0.0
  0
INSERT
  5
381
  8
0
  2
*U82
 10
0.0
 20
0.0
 30
0.0
  0
INSERT
  5
382
  8
0
  2
*U83
 10
0.0
 20
0.0
 30
0.0
  0
POINT
  5
383
  8
0
 10
-320.5355579819676
 20
-138.11048412682541
 30
0.0
1001
GENIUS_GENODEF_13
1002
{
1000
HIER
1070
    10
1002
}
1002
{
1000
MANEDIT
1070
     0
1002
}
1002
{
1000
NOSEL
1070
     0
1002
}
1002
{
1000
BEHIND
1070
     0
1002
}
1002
{
1000
REACTOR
1002
}
1001
GENIUS_GENOBJ-N-CRS_13
1002
{
1000
OWNER
1000
GEN
1002
}
1001
GENIUS_GENOENT_13
1002
{
1000
MYREF
1005
383
1002
}
1002
{
1000
GRP
1005
0
1002
}
1001
GENIUS_GENOLIS_13
1002
{
1000
ENT
1005
379
1005
378
1005
373
1005
370
1002
}
  0
LINE
  5
384
  8
RAHM2
 10
-190.0
 20
29.600000000000019
 30
0.0
 11
-192.42487113059639
 21
25.400000000000041
 31
0.0
  0
LINE
  5
385
  8
RAHM2
 10
-187.57512886940361
 20
25.400000000000041
 30
0.0
 11
-190.0
 21
29.600000000000019
 31
0.0
  0
LINE
  5
386
  8
RAHM2
 10
-192.42487113059639
 20
25.400000000000041
 30
0.0
 11
-187.57512886940361
 21
25.400000000000041
 31
0.0
  0
LINE
  5
387
  8
RAHM2
 10
-195.0
 20
25.000000000000028
 30
0.0
 11
-94.0
 21
25.000000000000028
 31
0.0
  0
INSERT
  5
388
  8
0
  2
*U84
 10
0.0
 20
0.0
 30
0.0
  0
TEXT
  5
389
  8
RAHM2
 10
-190.8155863565801
 20
25.650000000000031
 30
0.0
 40
2.5
  1
1
 72
     1
 11
-190.19058635658021
 21
25.650000000000031
 31
0.0
 73
     1
  0
TEXT
  5
38A
  8
RAHM2
 10
-190.9183316929134
 20
30.650000000000031
 30
0.0
 40
2.5
  1
2
 72
     1
 11
-190.0
 21
30.650000000000031
 31
0.0
 73
     1
  0
TEXT
  5
38B
  8
RAHM2
 10
-190.92677669529661
 20
35.650000000000013
 30
0.0
 40
2.5
  1
3
 72
     1
 11
-190.0
 21
35.650000000000013
 31
0.0
 73
     1
  0
TEXT
  5
38C
  8
RAHM2
 10
-191.0
 20
40.650000000000027
 30
0.0
 40
2.5
  1
4
 72
     1
 11
-190.0
 21
40.650000000000027
 31
0.0
 73
     1
  0
TEXT
  5
38D
  8
RAHM2
 10
-190.92677669529661
 20
45.650000000000027
 30
0.0
 40
2.5
  1
5
 72
     1
 11
-190.0
 21
45.650000000000027
 31
0.0
 73
     1
  0
LINE
  5
38E
  8
0
 10
-17.0
 20
50.0
 30
0.0
 11
-17.0
 21
0.0
 31
0.0
  0
LINE
  5
38F
  8
0
 10
-195.0
 20
0.0
 30
0.0
 11
0.0
 21
0.0
 31
0.0
1001
GENIUS_GENREC_14
1002
{
1000
PYDIR
1011
-184.0
1021
9.2233720396894542E+020
1031
-0.0
1021
50.0
1031
0.0
1002
}
1002
{
1000
PXDIR
1011
0.0
1021
9.2233720396894542E+020
1031
-0.0
1021
0.0
1031
0.0
1002
}
1002
{
1000
PORI
1011
-184.0
1021
9.2233720396894542E+020
1031
-0.0
1021
0.0
1031
0.0
1002
}
1002
{
1000
PINS
1011
-100.5
1021
9.2233720396894542E+020
1031
-0.0
1021
25.0
1031
0.0
1002
}
1002
{
1000
HVAL
1000
50
1002
}
1002
{
1000
H
1070
     2
1002
}
1002
{
1000
WVAL
1000
167
1002
}
1002
{
1000
W
1070
     2
1002
}
1002
{
1000
C
1070
     4
1002
}
1001
GENIUS_GENODEF_13
1002
{
1000
HIER
1070
     0
1002
}
1002
{
1000
MANEDIT
1070
     0
1002
}
1002
{
1000
NOSEL
1070
     0
1002
}
1002
{
1000
BEHIND
1070
     0
1002
}
1002
{
1000
REACTOR
1002
}
1001
GENIUS_GENOBJ-N-REC_13
1002
{
1000
OWNER
1000
GEN
1002
}
  0
LINE
  5
390
  8
0
 10
0.0
 20
0.0
 30
0.0
 11
0.0
 21
50.0
 31
0.0
1001
GENIUS_GENREC_14
1002
{
1000
PYDIR
1011
-184.0
1021
9.2233720396894542E+020
1031
-0.0
1021
50.0
1031
0.0
1002
}
1002
{
1000
PXDIR
1011
0.0
1021
9.2233720396894542E+020
1031
-0.0
1021
0.0
1031
0.0
1002
}
1002
{
1000
PORI
1011
-184.0
1021
9.2233720396894542E+020
1031
-0.0
1021
0.0
1031
0.0
1002
}
1002
{
1000
PINS
1011
-100.5
1021
9.2233720396894542E+020
1031
-0.0
1021
25.0
1031
0.0
1002
}
1002
{
1000
HVAL
1000
50
1002
}
1002
{
1000
H
1070
     2
1002
}
1002
{
1000
WVAL
1000
167
1002
}
1002
{
1000
W
1070
     2
1002
}
1002
{
1000
C
1070
     4
1002
}
1001
GENIUS_GENODEF_13
1002
{
1000
HIER
1070
     0
1002
}
1002
{
1000
MANEDIT
1070
     0
1002
}
1002
{
1000
NOSEL
1070
     0
1002
}
1002
{
1000
BEHIND
1070
     0
1002
}
1002
{
1000
REACTOR
1002
}
1001
GENIUS_GENOBJ-N-REC_13
1002
{
1000
OWNER
1000
GEN
1002
}
  0
LINE
  5
391
  8
0
 10
0.0
 20
50.0
 30
0.0
 11
-195.0
 21
50.000000000000028
 31
0.0
1001
GENIUS_GENREC_14
1002
{
1000
PYDIR
1011
-184.0
1021
9.2233720396894542E+020
1031
-0.0
1021
50.0
1031
0.0
1002
}
1002
{
1000
PXDIR
1011
0.0
1021
9.2233720396894542E+020
1031
-0.0
1021
0.0
1031
0.0
1002
}
1002
{
1000
PORI
1011
-184.0
1021
9.2233720396894542E+020
1031
-0.0
1021
0.0
1031
0.0
1002
}
1002
{
1000
PINS
1011
-100.5
1021
9.2233720396894542E+020
1031
-0.0
1021
25.0
1031
0.0
1002
}
1002
{
1000
HVAL
1000
50
1002
}
1002
{
1000
H
1070
     2
1002
}
1002
{
1000
WVAL
1000
167
1002
}
1002
{
1000
W
1070
     2
1002
}
1002
{
1000
C
1070
     4
1002
}
1001
GENIUS_GENODEF_13
1002
{
1000
HIER
1070
     0
1002
}
1002
{
1000
MANEDIT
1070
     0
1002
}
1002
{
1000
NOSEL
1070
     0
1002
}
1002
{
1000
BEHIND
1070
     0
1002
}
1002
{
1000
REACTOR
1002
}
1001
GENIUS_GENOBJ-N-REC_13
1002
{
1000
OWNER
1000
GEN
1002
}
  0
LINE
  5
392
  8
0
 10
-195.0
 20
50.000000000000028
 30
0.0
 11
-195.0
 21
0.0
 31
0.0
1001
GENIUS_GENREC_14
1002
{
1000
PYDIR
1011
-195.0
1021
9.2233720396894542E+020
1031
-0.0
1021
50.0
1031
0.0
1002
}
1002
{
1000
PXDIR
1011
-11.0
1021
9.2233720396894542E+020
1031
-0.0
1021
0.0
1031
0.0
1002
}
1002
{
1000
PORI
1011
-195.0
1021
9.2233720396894542E+020
1031
-0.0
1021
0.0
1031
0.0
1002
}
1002
{
1000
PINS
1011
-111.5
1021
9.2233720396894542E+020
1031
-0.0
1021
25.0
1031
0.0
1002
}
1002
{
1000
HVAL
1000
50
1002
}
1002
{
1000
H
1070
     2
1002
}
1002
{
1000
WVAL
1000
167
1002
}
1002
{
1000
W
1070
     2
1002
}
1002
{
1000
C
1070
     4
1002
}
1001
GENIUS_GENODEF_13
1002
{
1000
HIER
1070
     0
1002
}
1002
{
1000
MANEDIT
1070
     0
1002
}
1002
{
1000
NOSEL
1070
     0
1002
}
1002
{
1000
BEHIND
1070
     0
1002
}
1002
{
1000
REACTOR
1002
}
1001
GENIUS_GENOBJ-N-REC_13
1002
{
1000
OWNER
1000
GEN
1002
}
  0
INSERT
  5
393
  8
0
  2
*U85
 10
0.0
 20
0.0
 30
0.0
  0
INSERT
  5
394
  8
0
  2
*U86
 10
0.0
 20
0.0
 30
0.0
  0
ENDBLK
  5
397
  8
0
  0
BLOCK
  8
0
  2
GEVCON
 70
     0
 10
0.0
 20
0.0
 30
0.0
  3
GEVCON
  1
GEVCON
  0
ENDBLK
  5
722
  8
0
  0
BLOCK
  8
0
  2
GEVEP
 70
     0
 10
0.0
 20
0.0
 30
0.0
  3
GEVEP
  1

  0
LINE
  5
725
  8
0
 10
2.0
 20
-2.0
 30
0.0
 11
-2.0
 21
-2.0
 31
0.0
  0
LINE
  5
726
  8
0
 10
-2.0
 20
2.0
 30
0.0
 11
2.0
 21
2.0
 31
0.0
  0
LINE
  5
727
  8
0
 10
2.0
 20
-2.0
 30
0.0
 11
-2.0
 21
2.0
 31
0.0
  0
LINE
  5
728
  8
0
 10
-2.0
 20
-2.0
 30
0.0
 11
2.0
 21
2.0
 31
0.0
  0
LINE
  5
729
  8
0
 10
-2.0
 20
-2.0
 30
0.0
 11
-2.0
 21
2.0
 31
0.0
  0
LINE
  5
72A
  8
0
 10
2.0
 20
2.0
 30
0.0
 11
2.0
 21
-2.0
 31
0.0
  0
ENDBLK
  5
72B
  8
0
  0
BLOCK
  8
0
  2
GEVFRAME
 70
     0
 10
0.0
 20
0.0
 30
0.0
  3
GEVFRAME
  1
GEVFRAME
  0
LINE
  5
72E
  8
0
 10
0.0
 20
0.0
 30
0.0
 11
1.0
 21
0.0
 31
0.0
  0
LINE
  5
72F
  8
0
 10
1.0
 20
0.0
 30
0.0
 11
1.0
 21
1.0
 31
0.0
  0
LINE
  5
730
  8
0
 10
1.0
 20
1.0
 30
0.0
 11
0.0
 21
1.0
 31
0.0
  0
LINE
  5
731
  8
0
 10
0.0
 20
1.0
 30
0.0
 11
0.0
 21
0.0
 31
0.0
  0
ENDBLK
  5
732
  8
0
  0
BLOCK
  8
0
  2
TAKACHI-A4
 70
     0
 10
0.0
 20
0.0
 30
0.0
  3
TAKACHI-A4
  1

  0
TEXT
  5
739
  8
0
 10
10.0
 20
54.999999999999943
 30
0.0
 40
2.5
  1
!GENTITLE-LL
  0
TEXT
  5
73A
  8
0
 10
215.0
 20
15.0
 30
0.0
 40
2.5
  1
!GENTITLE-INSERT
  0
TEXT
  5
73B
  8
0
 10
215.0
 20
285.00000000000011
 30
0.0
 40
2.5
  1
!GENTITLE-RU
  0
TEXT
  5
73C
  8
0
 10
215.00000000000011
 20
290.0
 30
0.0
 40
2.5
  1
!GENTITLE-MAX
  0
LINE
  5
73D
  8
0
 10
215.0
 20
290.00000000000011
 30
0.0
 11
20.000000000000028
 21
290.0
 31
0.0
1001
GENIUS_GENREC_14
1002
{
1000
PYDIR
1011
15.00000000000003
1021
9.2233720396894542E+020
1031
-0.0
1021
295.0
1031
0.0
1002
}
1002
{
1000
PXDIR
1011
215.0
1021
9.2233720396894542E+020
1031
-0.0
1021
15.0
1031
0.0
1002
}
1002
{
1000
PORI
1011
15.0
1021
9.2233720396894542E+020
1031
-0.0
1021
15.0
1031
0.0
1002
}
1002
{
1000
PINS
1011
115.0
1021
9.2233720396894542E+020
1031
-0.0
1021
155.0
1031
0.0
1002
}
1002
{
1000
HVAL
1000
280
1002
}
1002
{
1000
H
1070
     2
1002
}
1002
{
1000
WVAL
1000
200
1002
}
1002
{
1000
W
1070
     2
1002
}
1002
{
1000
C
1070
     4
1002
}
  0
LINE
  5
73E
  8
0
 10
20.000000000000028
 20
290.0
 30
0.0
 11
19.999999999999972
 21
15.0
 31
0.0
1001
GENIUS_GENREC_14
1002
{
1000
PYDIR
1011
15.00000000000003
1021
9.2233720396894542E+020
1031
-0.0
1021
295.0
1031
0.0
1002
}
1002
{
1000
PXDIR
1011
215.0
1021
9.2233720396894542E+020
1031
-0.0
1021
15.0
1031
0.0
1002
}
1002
{
1000
PORI
1011
15.0
1021
9.2233720396894542E+020
1031
-0.0
1021
15.0
1031
0.0
1002
}
1002
{
1000
PINS
1011
115.0
1021
9.2233720396894542E+020
1031
-0.0
1021
155.0
1031
0.0
1002
}
1002
{
1000
HVAL
1000
280
1002
}
1002
{
1000
H
1070
     2
1002
}
1002
{
1000
WVAL
1000
200
1002
}
1002
{
1000
W
1070
     2
1002
}
1002
{
1000
C
1070
     4
1002
}
  0
LINE
  5
73F
  8
0
 10
19.999999999999972
 20
15.0
 30
0.0
 11
215.0
 21
15.0
 31
0.0
1001
GENIUS_GENREC_14
1002
{
1000
PYDIR
1011
15.00000000000003
1021
9.2233720396894542E+020
1031
-0.0
1021
295.0
1031
0.0
1002
}
1002
{
1000
PXDIR
1011
215.0
1021
9.2233720396894542E+020
1031
-0.0
1021
15.0
1031
0.0
1002
}
1002
{
1000
PORI
1011
15.0
1021
9.2233720396894542E+020
1031
-0.0
1021
15.0
1031
0.0
1002
}
1002
{
1000
PINS
1011
115.0
1021
9.2233720396894542E+020
1031
-0.0
1021
155.0
1031
0.0
1002
}
1002
{
1000
HVAL
1000
280
1002
}
1002
{
1000
H
1070
     2
1002
}
1002
{
1000
WVAL
1000
200
1002
}
1002
{
1000
W
1070
     2
1002
}
1002
{
1000
C
1070
     4
1002
}
  0
LINE
  5
740
  8
0
 10
215.0
 20
15.0
 30
0.0
 11
215.00000000000011
 21
290.00000000000011
 31
0.0
1001
GENIUS_GENREC_14
1002
{
1000
PYDIR
1011
15.00000000000003
1021
9.2233720396894542E+020
1031
-0.0
1021
295.0
1031
0.0
1002
}
1002
{
1000
PXDIR
1011
215.0
1021
9.2233720396894542E+020
1031
-0.0
1021
15.0
1031
0.0
1002
}
1002
{
1000
PORI
1011
15.0
1021
9.2233720396894542E+020
1031
-0.0
1021
15.0
1031
0.0
1002
}
1002
{
1000
PINS
1011
115.0
1021
9.2233720396894542E+020
1031
-0.0
1021
155.0
1031
0.0
1002
}
1002
{
1000
HVAL
1000
280
1002
}
1002
{
1000
H
1070
     2
1002
}
1002
{
1000
WVAL
1000
200
1002
}
1002
{
1000
W
1070
     2
1002
}
1002
{
1000
C
1070
     4
1002
}
  0
LINE
  5
741
  8
0
 10
171.00000000000011
 20
285.00000000000011
 30
0.0
 11
215.00000000000011
 21
285.00000000000011
 31
0.0
  0
LINE
  5
742
  8
0
 10
171.00000000000011
 20
290.00000000000011
 30
0.0
 11
171.00000000000011
 21
285.00000000000011
 31
0.0
  0
INSERT
  5
743
  8
0
  2
*U97
 10
0.0
 20
0.0
 30
0.0
  0
ENDBLK
  5
746
  8
0
  0
BLOCK
  8
0
  2
*D35
 70
     1
 10
0.0
 20
0.0
 30
0.0
  3
*D35
  1

  0
LINE
  5
141C
  8
AM_5
 10
92.527734172822264
 20
187.93718886501981
 30
0.0
 11
92.527734172822264
 21
175.93718886501981
 31
0.0
  0
LINE
  5
141D
  8
AM_5
 10
88.52773312136847
 20
189.6692396725887
 30
0.0
 11
88.52773312136847
 21
175.93718886501981
 31
0.0
  0
LINE
  5
141E
  8
AM_5
 10
95.027734172822264
 20
176.93718886501981
 30
0.0
 11
97.527734172822264
 21
176.93718886501981
 31
0.0
  0
LINE
  5
141F
  8
AM_5
 10
86.02773312136847
 20
176.93718886501981
 30
0.0
 11
83.52773312136847
 21
176.93718886501981
 31
0.0
  0
TEXT
  8
AM_5
  40
3.5
  5
14E3
  62
2
  72
0
  71
0
 10
90.9211
 20
174.899
 30
0.000000
  1
4
  0
LINE
  5
1421
  8
AM_5
 10
92.527734172822264
 20
176.93718886501981
 30
0.0
 11
88.52773312136847
 21
176.93718886501981
 31
0.0
  0
SOLID
  5
1422
  8
AM_5
 10
95.027734172822264
 20
177.35385553168649
 30
0.0
 11
95.027734172822264
 21
176.52052219835321
 31
0.0
 12
92.527734172822264
 22
176.93718886501981
 32
0.0
 13
92.527734172822264
 23
176.93718886501981
 33
0.0
  0
SOLID
  5
1423
  8
AM_5
 10
86.02773312136847
 20
177.35385553168649
 30
0.0
 11
86.02773312136847
 21
176.52052219835321
 31
0.0
 12
88.52773312136847
 22
176.93718886501981
 32
0.0
 13
88.52773312136847
 23
176.93718886501981
 33
0.0
  0
POINT
  5
1424
  8
DEFPOINTS
 62
     0
 10
92.527734172822264
 20
188.93718886501981
 30
0.0
  0
POINT
  5
1425
  8
DEFPOINTS
 62
     0
 10
88.52773312136847
 20
190.6692396725887
 30
0.0
  0
POINT
  5
1426
  8
DEFPOINTS
 62
     0
 10
88.52773312136847
 20
176.93718886501981
 30
0.0
  0
ENDBLK
  5
93C
  8
0
  0
BLOCK
  8
0
  2
*D36
 70
     1
 10
0.0
 20
0.0
 30
0.0
  3
*D36
  1

  0
LINE
  5
10D7
  8
AM_5
 10
76.969941133168334
 20
191.4012904801576
 30
0.0
 11
76.969941133168334
 21
175.93718786501981
 31
0.0
  0
LINE
  5
10D8
  8
AM_5
 10
64.969941133168334
 20
191.4012904801576
 30
0.0
 11
64.969941133168334
 21
175.93718786501981
 31
0.0
  0
LINE
  5
10D9
  8
AM_5
 10
74.469941133168334
 20
176.93718786501981
 30
0.0
 11
67.469941133168334
 21
176.93718786501981
 31
0.0
  0
SOLID
  5
10DA
  8
AM_5
 10
74.469941133168334
 20
177.35385453168649
 30
0.0
 11
74.469941133168334
 21
176.52052119835321
 31
0.0
 12
76.969941133168334
 22
176.93718786501981
 32
0.0
 13
76.969941133168334
 23
176.93718786501981
 33
0.0
  0
SOLID
  5
10DB
  8
AM_5
 10
67.469941133168334
 20
177.35385453168649
 30
0.0
 11
67.469941133168334
 21
176.52052119835321
 31
0.0
 12
64.969941133168334
 22
176.93718786501981
 32
0.0
 13
64.969941133168334
 23
176.93718786501981
 33
0.0
  0
INSERT
  5
10DC
  8
0
  2
*U134
 10
0.0
 20
0.0
 30
0.0
  0
POINT
  5
10DD
  8
DEFPOINTS
 62
     0
 10
76.969941133168334
 20
192.4012904801576
 30
0.0
  0
POINT
  5
10DE
  8
DEFPOINTS
 62
     0
 10
64.969941133168334
 20
192.4012904801576
 30
0.0
  0
POINT
  5
10DF
  8
DEFPOINTS
 62
     0
 10
64.969941133168334
 20
176.93718786501981
 30
0.0
  0
ENDBLK
  5
97A
  8
0
  0
BLOCK
  8
0
  2
*D56
 70
     1
 10
0.0
 20
0.0
 30
0.0
  3
*D56
  1

  0
LINE
  5
10CE
  8
AM_5
 10
170.40668666543601
 20
190.3653920952955
 30
0.0
 11
170.40668666543601
 21
178.3653920952955
 31
0.0
  0
LINE
  5
10CF
  8
AM_5
 10
142.4066866654361
 20
191.36539209529559
 30
0.0
 11
142.4066866654361
 21
178.3653920952955
 31
0.0
  0
LINE
  5
10D0
  8
AM_5
 10
167.90668666543601
 20
179.3653920952955
 30
0.0
 11
144.9066866654361
 21
179.3653920952955
 31
0.0
  0
SOLID
  5
10D1
  8
AM_5
 10
167.90668666543601
 20
179.78205876196211
 30
0.0
 11
167.90668666543601
 21
178.94872542862879
 31
0.0
 12
170.40668666543601
 22
179.3653920952955
 32
0.0
 13
170.40668666543601
 23
179.3653920952955
 33
0.0
  0
SOLID
  5
10D2
  8
AM_5
 10
144.9066866654361
 20
179.78205876196211
 30
0.0
 11
144.9066866654361
 21
178.94872542862879
 31
0.0
 12
142.4066866654361
 22
179.3653920952955
 32
0.0
 13
142.4066866654361
 23
179.3653920952955
 33
0.0
  0
INSERT
  5
10D3
  8
0
  2
*U133
 10
0.0
 20
0.0
 30
0.0
  0
POINT
  5
10D4
  8
DEFPOINTS
 62
     0
 10
170.40668666543601
 20
191.3653920952955
 30
0.0
  0
POINT
  5
10D5
  8
DEFPOINTS
 62
     0
 10
142.4066866654361
 20
192.36539209529559
 30
0.0
  0
POINT
  5
10D6
  8
DEFPOINTS
 62
     0
 10
142.4066866654361
 20
179.3653920952955
 30
0.0
  0
ENDBLK
  5
103C
  8
0
  0
BLOCK
  8
0
  2
*D57
 70
     1
 10
0.0
 20
0.0
 30
0.0
  3
*D57
  1

  0
LINE
  5
10C5
  8
AM_5
 10
148.4066866654361
 20
189.36539209529559
 30
0.0
 11
136.40668666543601
 21
189.36539209529559
 31
0.0
  0
LINE
  5
10C6
  8
AM_5
 10
148.4066866654361
 20
202.36539209529559
 30
0.0
 11
136.4066866654361
 21
202.36539209529559
 31
0.0
  0
LINE
  5
10C7
  8
AM_5
 10
137.40668666543601
 20
191.8653920952955
 30
0.0
 11
137.4066866654361
 21
199.86539209529559
 31
0.0
  0
SOLID
  5
10C8
  8
AM_5
 10
136.99001999876941
 20
191.8653920952955
 30
0.0
 11
137.8233533321027
 21
191.8653920952955
 31
0.0
 12
137.40668666543601
 22
189.36539209529559
 32
0.0
 13
137.40668666543601
 23
189.36539209529559
 33
0.0
  0
SOLID
  5
10C9
  8
AM_5
 10
136.99001999876941
 20
199.86539209529559
 30
0.0
 11
137.8233533321027
 21
199.86539209529559
 31
0.0
 12
137.4066866654361
 22
202.36539209529559
 32
0.0
 13
137.4066866654361
 23
202.36539209529559
 33
0.0
  0
INSERT
  5
10CA
  8
0
  2
*U132
 10
0.0
 20
0.0
 30
0.0
  0
POINT
  5
10CB
  8
DEFPOINTS
 62
     0
 10
149.4066866654361
 20
189.36539209529559
 30
0.0
  0
POINT
  5
10CC
  8
DEFPOINTS
 62
     0
 10
149.4066866654361
 20
202.36539209529559
 30
0.0
  0
POINT
  5
10CD
  8
DEFPOINTS
 62
     0
 10
137.4066866654361
 20
202.36539209529559
 30
0.0
  0
ENDBLK
  5
1074
  8
0
  0
BLOCK
  8
0
  2
*S58
 70
     1
 10
0.0
 20
0.0
 30
0.0
  3
*S58
  1

  0
LINE
  5
10EC
  8
AM_5
 10
189.56377049154941
 20
146.54268604593159
 30
0.0
 11
173.43633865511441
 21
146.54268604593159
 31
0.0
  0
LINE
  5
10ED
  8
AM_5
 10
173.43633865511441
 20
146.54268604593159
 30
0.0
 11
169.1560318417479
 21
139.0002641756065
 31
0.0
  0
TRACE
  5
10EE
  8
AM_5
 10
168.7552826887636
 20
139.22768838489381
 30
0.0
 11
169.55678099473221
 21
138.7728399663192
 31
0.0
 12
167.4285734610134
 22
135.95627213507319
 32
0.0
 13
167.4285734610134
 23
135.95627213507319
 33
0.0
  0
INSERT
  5
10EF
  8
0
  2
*U135
 10
0.0
 20
0.0
 30
0.0
  0
ENDBLK
  5
10F1
  8
0
  0
BLOCK
  8
0
  2
*S59
 70
     1
 10
0.0
 20
0.0
 30
0.0
  3
*S59
  1

  0
CIRCLE
  5
10F4
  8
AM_12
 62
     4
 10
153.12925656757389
 20
198.90992279660111
 30
0.0
 40
1.75
  0
LINE
  5
10F5
  8
AM_12
 62
     4
 10
151.379256567574
 20
197.15992279660111
 30
0.0
 11
154.87925656757389
 21
200.65992279660111
 31
0.0
  0
LINE
  5
10F6
  8
AM_12
 62
     4
 10
151.379256567574
 20
200.65992279660111
 30
0.0
 11
154.87925656757389
 21
197.15992279660111
 31
0.0
  0
ENDBLK
  5
10F8
  8
0
  0
BLOCK
  8
0
  2
*S60
 70
     1
 10
0.0
 20
0.0
 30
0.0
  3
*S60
  1

  0
LINE
  5
10FB
  8
AM_5
 10
160.0700936026013
 20
218.0432165203926
 30
0.0
 11
154.32281686128431
 21
202.2001224600377
 31
0.0
  0
TRACE
  5
10FC
  8
AM_5
 10
153.88965385996431
 20
202.3572576530247
 30
0.0
 11
154.75597986260431
 21
202.04298726705059
 31
0.0
 12
153.12925656757389
 22
198.90992279660111
 32
0.0
 13
153.12925656757389
 23
198.90992279660111
 33
0.0
  0
INSERT
  5
10FD
  8
0
  2
*U136
 10
0.0
 20
0.0
 30
0.0
  0
CIRCLE
  5
10FE
  8
AM_5
 62
     3
 10
163.48026587034519
 20
227.4437869873542
 30
0.0
 40
10.0
  0
ENDBLK
  5
1100
  8
0
  0
BLOCK
  8
0
  2
*S61
 70
     1
 10
0.0
 20
0.0
 30
0.0
  3
*S61
  1

  0
CIRCLE
  5
1103
  8
AM_12
 62
     4
 10
90.923010712004498
 20
201.00008315949739
 30
0.0
 40
1.75
  0
LINE
  5
1104
  8
AM_12
 62
     4
 10
89.173010712004498
 20
199.25008315949739
 30
0.0
 11
92.673010712004483
 21
202.75008315949739
 31
0.0
  0
LINE
  5
1105
  8
AM_12
 62
     4
 10
89.173010712004498
 20
202.75008315949739
 30
0.0
 11
92.673010712004483
 21
199.25008315949739
 31
0.0
  0
ENDBLK
  5
1107
  8
0
  0
BLOCK
  8
0
  2
*S62
 70
     1
 10
0.0
 20
0.0
 30
0.0
  3
*S62
  1

  0
LINE
  5
110A
  8
AM_5
 10
83.93564503353781
 20
220.22342390964161
 30
0.0
 11
89.727354338892553
 21
204.28952168870521
 31
0.0
  0
TRACE
  5
110B
  8
AM_5
 10
89.29429154279434
 20
204.13211054163111
 30
0.0
 11
90.160417134990766
 21
204.44693283577931
 31
0.0
 12
90.923010712004498
 22
201.00008315949739
 32
0.0
 13
90.923010712004498
 23
201.00008315949739
 33
0.0
  0
INSERT
  5
110C
  8
0
  2
*U137
 10
0.0
 20
0.0
 30
0.0
  0
CIRCLE
  5
110D
  8
AM_5
 62
     3
 10
80.519483967503675
 20
229.62181970737819
 30
0.0
 40
10.0
  0
ENDBLK
  5
110F
  8
0
  0
BLOCK
  8
0
  2
*S63
 70
     1
 10
0.0
 20
0.0
 30
0.0
  3
*S63
  1

  0
LINE
  5
1112
  8
0
 62
     1
 10
20.000000000000028
 20
83.525000000000034
 30
0.0
 11
215.0
 21
83.525000000000034
 31
0.0
  0
INSERT
  5
1113
  8
0
  2
*U138
 10
0.0
 20
0.0
 30
0.0
  0
LINE
  5
1114
  8
0
 62
     1
 10
35.000000000000028
 20
83.525000000000034
 30
0.0
 11
35.000000000000028
 21
77.350000000000023
 31
0.0
  0
INSERT
  5
1115
  8
0
  2
*U139
 10
0.0
 20
0.0
 30
0.0
  0
LINE
  5
1116
  8
0
 62
     1
 10
85.000000000000028
 20
83.525000000000034
 30
0.0
 11
85.000000000000028
 21
77.350000000000023
 31
0.0
  0
INSERT
  5
1117
  8
0
  2
*U140
 10
0.0
 20
0.0
 30
0.0
  0
LINE
  5
1118
  8
0
 62
     1
 10
100.0
 20
83.525000000000034
 30
0.0
 11
100.0
 21
77.350000000000023
 31
0.0
  0
INSERT
  5
1119
  8
0
  2
*U141
 10
0.0
 20
0.0
 30
0.0
  0
LINE
  5
111A
  8
0
 62
     1
 10
155.0
 20
83.525000000000034
 30
0.0
 11
155.0
 21
77.350000000000023
 31
0.0
  0
INSERT
  5
111B
  8
0
  2
*U142
 10
0.0
 20
0.0
 30
0.0
  0
INSERT
  5
111C
  8
0
  2
*U143
 10
0.0
 20
0.0
 30
0.0
  0
LINE
  5
111D
  8
0
 62
     1
 10
35.000000000000028
 20
89.700000000000045
 30
0.0
 11
35.000000000000028
 21
83.525000000000034
 31
0.0
  0
INSERT
  5
111E
  8
0
  2
*U144
 10
0.0
 20
0.0
 30
0.0
  0
LINE
  5
111F
  8
0
 62
     1
 10
85.000000000000028
 20
89.700000000000045
 30
0.0
 11
85.000000000000028
 21
83.525000000000034
 31
0.0
  0
INSERT
  5
1120
  8
0
  2
*U145
 10
0.0
 20
0.0
 30
0.0
  0
LINE
  5
1121
  8
0
 62
     1
 10
100.0
 20
89.700000000000045
 30
0.0
 11
100.0
 21
83.525000000000034
 31
0.0
  0
INSERT
  5
1122
  8
0
  2
*U146
 10
0.0
 20
0.0
 30
0.0
  0
LINE
  5
1123
  8
0
 62
     1
 10
155.0
 20
89.700000000000045
 30
0.0
 11
155.0
 21
83.525000000000034
 31
0.0
  0
INSERT
  5
1124
  8
0
  2
*U147
 10
0.0
 20
0.0
 30
0.0
  0
LINE
  5
1125
  8
0
 62
     1
 10
20.000000000000028
 20
77.350000000000023
 30
0.0
 11
215.0
 21
77.350000000000023
 31
0.0
  0
INSERT
  5
1126
  8
0
  2
*U148
 10
0.0
 20
0.0
 30
0.0
  0
LINE
  5
1127
  8
0
 62
     1
 10
35.000000000000028
 20
77.350000000000023
 30
0.0
 11
35.000000000000028
 21
71.175000000000026
 31
0.0
  0
INSERT
  5
1128
  8
0
  2
*U149
 10
0.0
 20
0.0
 30
0.0
  0
LINE
  5
1129
  8
0
 62
     1
 10
85.000000000000028
 20
77.350000000000023
 30
0.0
 11
85.000000000000028
 21
71.175000000000026
 31
0.0
  0
INSERT
  5
112A
  8
0
  2
*U150
 10
0.0
 20
0.0
 30
0.0
  0
LINE
  5
112B
  8
0
 62
     1
 10
100.0
 20
77.350000000000023
 30
0.0
 11
100.0
 21
71.175000000000026
 31
0.0
  0
INSERT
  5
112C
  8
0
  2
*U151
 10
0.0
 20
0.0
 30
0.0
  0
LINE
  5
112D
  8
0
 62
     1
 10
155.0
 20
77.350000000000023
 30
0.0
 11
155.0
 21
71.175000000000026
 31
0.0
  0
INSERT
  5
112E
  8
0
  2
*U152
 10
0.0
 20
0.0
 30
0.0
  0
INSERT
  5
112F
  8
0
  2
*U153
 10
0.0
 20
0.0
 30
0.0
  0
LINE
  5
1130
  8
0
 62
     1
 10
20.000000000000028
 20
71.175000000000026
 30
0.0
 11
215.0
 21
71.175000000000026
 31
0.0
  0
LINE
  5
1131
  8
0
 62
     7
 10
20.000000000000028
 20
89.700000000000045
 30
0.0
 11
215.0
 21
89.700000000000045
 31
0.0
  0
LINE
  5
1132
  8
0
 62
     7
 10
215.0
 20
89.700000000000045
 30
0.0
 11
215.0
 21
65.000000000000028
 31
0.0
  0
LINE
  5
1133
  8
0
 62
     7
 10
215.0
 20
65.000000000000028
 30
0.0
 11
20.000000000000028
 21
65.000000000000028
 31
0.0
  0
LINE
  5
1134
  8
0
 62
     7
 10
20.000000000000028
 20
65.000000000000028
 30
0.0
 11
20.000000000000028
 21
89.700000000000045
 31
0.0
  0
ENDBLK
  5
1136
  8
0
  0
BLOCK
  8
0
  2
*U65
 70
     1
 10
0.0
 20
0.0
 30
0.0
  3
*U65
  1

  0
TEXT
  5
1371
  8
0
 10
367.55531168523049
 20
276.233542987227
 30
0.0
 40
2.5
  1
(文書番号：TY-34)2004.10.29
  0
ENDBLK
  5
1373
  8
0
  0
BLOCK
  8
0
  2
*U66
 70
     1
 10
0.0
 20
0.0
 30
0.0
  3
*U66
  1

  0
TEXT
  5
1375
  8
RAHM2
 10
-193.80025513713139
 20
3.3010354072796408
 30
0.0
 40
2.5
  1
図番
  0
ENDBLK
  5
1377
  8
0
  0
BLOCK
  8
0
  2
*U67
 70
     1
 10
0.0
 20
0.0
 30
0.0
  3
*U67
  1

  0
TEXT
  5
1379
  8
RAHM2
 10
-193.0
 20
21.249999999999972
 30
0.0
 40
2.5
  1
符号
  0
ENDBLK
  5
137B
  8
0
  0
BLOCK
  8
0
  2
*U68
 70
     1
 10
0.0
 20
0.0
 30
0.0
  3
*U68
  1

  0
TEXT
  5
137D
  8
RAHM2
 10
-193.80025513713139
 20
16.30103540727961
 30
0.0
 40
2.5
  1
品名
  0
ENDBLK
  5
137F
  8
0
  0
BLOCK
  8
0
  2
*U69
 70
     1
 10
0.0
 20
0.0
 30
0.0
  3
*U69
  1

  0
TEXT
  5
1381
  8
RAHM2
 10
-163.1448171868856
 20
21.249999999999972
 30
0.0
 40
2.5
  1
変更記事
  0
ENDBLK
  5
1383
  8
0
  0
BLOCK
  8
0
  2
*U70
 70
     1
 10
0.0
 20
0.0
 30
0.0
  3
*U70
  1

  0
TEXT
  5
1385
  8
0
 10
-88.85532994923858
 20
3.4187817258883251
 30
0.0
 40
3.5
  1
株式会社タカチ電機工業
  0
ENDBLK
  5
1387
  8
0
  0
BLOCK
  8
0
  2
*U71
 70
     1
 10
0.0
 20
0.0
 30
0.0
  3
*U71
  1

  0
TEXT
  5
1389
  8
RAHM2
 10
-123.3362656628704
 20
31.250000000000028
 30
0.0
 40
2.5
  1
・  ・   
  0
ENDBLK
  5
138B
  8
0
  0
BLOCK
  8
0
  2
*U72
 70
     1
 10
0.0
 20
0.0
 30
0.0
  3
*U72
  1

  0
TEXT
  5
138D
  8
RAHM2
 10
-126.238119805002
 20
21.249999999999972
 30
0.0
 40
2.5
  1
年・月・日
  0
ENDBLK
  5
138F
  8
0
  0
BLOCK
  8
0
  2
*U73
 70
     1
 10
0.0
 20
0.0
 30
0.0
  3
*U73
  1

  0
TEXT
  5
1391
  8
RAHM2
 10
-104.4702380952381
 20
21.249999999999972
 30
0.0
 40
2.5
  1
担当
  0
ENDBLK
  5
1393
  8
0
  0
BLOCK
  8
0
  2
*U74
 70
     1
 10
0.0
 20
0.0
 30
0.0
  3
*U74
  1

  0
TEXT
  5
1395
  8
RAHM2
 10
-123.3362656628704
 20
41.250000000000021
 30
0.0
 40
2.5
  1
・  ・   
  0
ENDBLK
  5
1397
  8
0
  0
BLOCK
  8
0
  2
*U75
 70
     1
 10
0.0
 20
0.0
 30
0.0
  3
*U75
  1

  0
TEXT
  5
1399
  8
RAHM2
 10
-123.3362656628704
 20
36.250000000000028
 30
0.0
 40
2.5
  1
・  ・   
  0
ENDBLK
  5
139B
  8
0
  0
BLOCK
  8
0
  2
*U76
 70
     1
 10
0.0
 20
0.0
 30
0.0
  3
*U76
  1

  0
TEXT
  5
139D
  8
RAHM2
 10
-123.3362656628704
 20
46.250000000000021
 30
0.0
 40
2.5
  1
・  ・   
  0
ENDBLK
  5
139F
  8
0
  0
BLOCK
  8
0
  2
*U77
 70
     1
 10
0.0
 20
0.0
 30
0.0
  3
*U77
  1

  0
TEXT
  5
13A1
  8
RAHM2
 10
-92.800255137131444
 20
13.80103540727964
 30
0.0
 40
2.5
  1
日付
  0
ENDBLK
  5
13A3
  8
0
  0
BLOCK
  8
0
  2
*U78
 70
     1
 10
0.0
 20
0.0
 30
0.0
  3
*U78
  1

  0
TEXT
  5
13A5
  8
RAHM2
 10
-92.800255137131444
 20
23.801035407279642
 30
0.0
 40
2.5
  1
表面処理
  0
ENDBLK
  5
13A7
  8
0
  0
BLOCK
  8
0
  2
*U79
 70
     1
 10
0.0
 20
0.0
 30
0.0
  3
*U79
  1

  0
TEXT
  5
13A9
  8
RAHM2
 10
-92.800255137131444
 20
33.801035407279642
 30
0.0
 40
2.5
  1
材質
  0
ENDBLK
  5
13AB
  8
0
  0
BLOCK
  8
0
  2
*U80
 70
     1
 10
0.0
 20
0.0
 30
0.0
  3
*U80
  1

  0
TEXT
  5
13AD
  8
RAHM2
 10
-72.800255137131444
 20
46.301035407279642
 30
0.0
 40
2.5
  1
尺度
  0
ENDBLK
  5
13AF
  8
0
  0
BLOCK
  8
0
  2
*U81
 70
     1
 10
0.0
 20
0.0
 30
0.0
  3
*U81
  1

  0
TEXT
  5
13B1
  8
RAHM2
 10
-52.800255137131451
 20
46.301035407279642
 30
0.0
 40
2.5
  1
数量
  0
ENDBLK
  5
13B3
  8
0
  0
BLOCK
  8
0
  2
*U82
 70
     1
 10
0.0
 20
0.0
 30
0.0
  3
*U82
  1

  0
TEXT
  5
13B5
  8
RAHM2
 10
-28.3125
 20
21.301035407279642
 30
0.0
 40
2.5
  1
承認
  0
ENDBLK
  5
13B7
  8
0
  0
BLOCK
  8
0
  2
*U83
 70
     1
 10
0.0
 20
0.0
 30
0.0
  3
*U83
  1

  0
TEXT
  5
13B9
  8
RAHM2
 10
-28.3125
 20
46.301035407279642
 30
0.0
 40
2.5
  1
承認
  0
ENDBLK
  5
13BB
  8
0
  0
BLOCK
  8
0
  2
*U84
 70
     1
 10
0.0
 20
0.0
 30
0.0
  3
*U84
  1

  0
TEXT
  5
13BD
  8
RAHM2
 10
-123.3362656628704
 20
26.250000000000028
 30
0.0
 40
2.5
  1
・  ・   
  0
ENDBLK
  5
13BF
  8
0
  0
BLOCK
  8
0
  2
*U85
 70
     1
 10
0.0
 20
0.0
 30
0.0
  3
*U85
  1

  0
TEXT
  5
13C1
  8
RAHM2
 10
-11.3125
 20
46.301035407279642
 30
0.0
 40
2.5
  1
検図
  0
ENDBLK
  5
13C3
  8
0
  0
BLOCK
  8
0
  2
*U86
 70
     1
 10
0.0
 20
0.0
 30
0.0
  3
*U86
  1

  0
TEXT
  5
13C5
  8
RAHM2
 10
-11.3125
 20
21.301035407279642
 30
0.0
 40
2.5
  1
製図
  0
ENDBLK
  5
13C7
  8
0
  0
BLOCK
  8
0
  2
*U87
 70
     1
 10
0.0
 20
0.0
 30
0.0
  3
*U87
  1

  0
TEXT
  5
13C9
  8
AM_5
 62
     2
 10
240.26540184751079
 20
173.0747771475836
 30
0.0
 40
3.5
  1
B
  0
ENDBLK
  5
13CB
  8
0
  0
BLOCK
  8
0
  2
*U88
 70
     1
 10
0.0
 20
0.0
 30
0.0
  3
*U88
  1

  0
TEXT
  5
13CD
  8
AM_5
 62
     2
 10
244.021950142603
 20
163.0747771475836
 30
0.0
 40
3.5
  1
C
  0
ENDBLK
  5
13CF
  8
0
  0
BLOCK
  8
0
  2
*U89
 70
     1
 10
0.0
 20
0.0
 30
0.0
  3
*U89
  1

  0
TEXT
  5
13D1
  8
AM_5
 62
     2
 10
132.22865631524289
 20
141.4997771475835
 30
0.0
 40
3.5
  1
A
 50
90.0
  0
ENDBLK
  5
13D3
  8
0
  0
BLOCK
  8
0
  2
*U90
 70
     1
 10
0.0
 20
0.0
 30
0.0
  3
*U90
  1

  0
TEXT
  5
13D5
  8
AM_5
 62
     2
 10
229.6657317090648
 20
163.09911742447571
 30
0.0
 40
3.5
  1
D
  0
ENDBLK
  5
13D7
  8
0
  0
BLOCK
  8
0
  2
*U91
 70
     1
 10
0.0
 20
0.0
 30
0.0
  3
*U91
  1

  0
TEXT
  5
13D9
  8
AM_5
 62
     2
 10
207.1664067404966
 20
141.76538636435271
 30
0.0
 40
3.5
  1
G
 50
90.0
  0
ENDBLK
  5
13DB
  8
0
  0
BLOCK
  8
0
  2
*U92
 70
     1
 10
0.0
 20
0.0
 30
0.0
  3
*U92
  1

  0
TEXT
  5
13DD
  8
AM_5
 62
     2
 10
202.6476251740348
 20
129.77477714758351
 30
0.0
 40
3.5
  1
H
  0
ENDBLK
  5
13DF
  8
0
  0
BLOCK
  8
0
  2
*U93
 70
     1
 10
0.0
 20
0.0
 30
0.0
  3
*U93
  1

  0
TEXT
  5
13E1
  8
AM_5
 62
     2
 10
142.472967338865
 20
129.1106755324457
 30
0.0
 40
3.5
  1
SW
  0
ENDBLK
  5
13E3
  8
0
  0
BLOCK
  8
0
  2
*U94
 70
     1
 10
0.0
 20
0.0
 30
0.0
  3
*U94
  1

  0
TEXT
  5
13E5
  8
AM_5
 62
     2
 10
163.64802237743169
 20
129.2901591549066
 30
0.0
 40
3.5
  1
m
  0
ENDBLK
  5
13E7
  8
0
  0
BLOCK
  8
0
  2
*U95
 70
     1
 10
0.0
 20
0.0
 30
0.0
  3
*U95
  1

  0
TEXT
  5
13E9
  8
AM_5
 62
     2
 10
221.16540184751079
 20
141.84977714758369
 30
0.0
 40
3.5
  1
E
 50
90.0
  0
ENDBLK
  5
13EB
  8
0
  0
BLOCK
  8
0
  2
*U96
 70
     1
 10
0.0
 20
0.0
 30
0.0
  3
*U96
  1

  0
TEXT
  5
13ED
  8
AM_5
 62
     2
 10
266.16540284751079
 20
141.84977714758361
 30
0.0
 40
3.5
  1
F
 50
90.0
  0
ENDBLK
  5
13EF
  8
0
  0
BLOCK
  8
0
  2
*U97
 70
     1
 10
0.0
 20
0.0
 30
0.0
  3
*U97
  1

  0
TEXT
  5
13F1
  8
0
 10
172.55531168523049
 20
286.233542987227
 30
0.0
 40
2.5
  1
(文書番号：TY-34)2004.10.29
  0
ENDBLK
  5
13F3
  8
0
  0
BLOCK
  8
0
  2
*U98
 70
     1
 10
0.0
 20
0.0
 30
0.0
  3
*U98
  1

  0
TEXT
  5
13F5
  8
AM_5
 62
     2
 10
52.837470143398612
 20
174.7662942291459
 30
0.0
 40
3.5
  1
A
 50
90.0
  0
ENDBLK
  5
13F7
  8
0
  0
BLOCK
  8
0
  2
*U99
 70
     1
 10
0.0
 20
0.0
 30
0.0
  3
*U99
  1

  0
TEXT
  5
13F9
  8
AM_5
 62
     2
 10
160.87421567566639
 20
206.341294229146
 30
0.0
 40
3.5
  1
B
  0
ENDBLK
  5
13FB
  8
0
  0
BLOCK
  8
0
  2
*U100
 70
     1
 10
0.0
 20
0.0
 30
0.0
  3
*U100
  1

  0
TEXT
  5
13FD
  8
AM_5
 62
     2
 10
150.2745455372204
 20
196.36563450603811
 30
0.0
 40
3.5
  1
D
  0
ENDBLK
  5
13FF
  8
0
  0
BLOCK
  8
0
  2
*U101
 70
     1
 10
0.0
 20
0.0
 30
0.0
  3
*U101
  1

  0
TEXT
  5
1401
  8
AM_5
 62
     2
 10
164.63076397075861
 20
196.341294229146
 30
0.0
 40
3.5
  1
C
  0
ENDBLK
  5
1403
  8
0
  0
BLOCK
  8
0
  2
*U102
 70
     1
 10
0.0
 20
0.0
 30
0.0
  3
*U102
  1

  0
TEXT
  5
1405
  8
AM_5
 62
     2
 10
127.7752205686522
 20
175.03190344591511
 30
0.0
 40
3.5
  1
G
 50
90.0
  0
ENDBLK
  5
1407
  8
0
  0
BLOCK
  8
0
  2
*U103
 70
     1
 10
0.0
 20
0.0
 30
0.0
  3
*U103
  1

  0
TEXT
  5
1409
  8
AM_5
 62
     2
 10
123.2564390021904
 20
163.0412942291459
 30
0.0
 40
3.5
  1
H
  0
ENDBLK
  5
140B
  8
0
  0
BLOCK
  8
0
  2
*U104
 70
     1
 10
0.0
 20
0.0
 30
0.0
  3
*U104
  1

  0
TEXT
  5
140D
  8
AM_5
 62
     2
 10
63.081781167020701
 20
162.3771926140081
 30
0.0
 40
3.5
  1
SW
  0
ENDBLK
  5
140F
  8
0
  0
BLOCK
  8
0
  2
*U105
 70
     1
 10
0.0
 20
0.0
 30
0.0
  3
*U105
  1

  0
TEXT
  5
1411
  8
AM_5
 62
     2
 10
84.256836205587319
 20
162.556676236469
 30
0.0
 40
3.5
  1
m
  0
ENDBLK
  5
1413
  8
0
  0
BLOCK
  8
0
  2
*U106
 70
     1
 10
0.0
 20
0.0
 30
0.0
  3
*U106
  1

  0
TEXT
  5
1415
  8
AM_5
 62
     2
 10
141.7742156756664
 20
175.11629422914609
 30
0.0
 40
3.5
  1
E
 50
90.0
  0
ENDBLK
  5
1417
  8
0
  0
BLOCK
  8
0
  2
*U107
 70
     1
 10
0.0
 20
0.0
 30
0.0
  3
*U107
  1

  0
TEXT
  5
1419
  8
AM_5
 62
     2
 10
186.77421667566639
 20
175.11629422914601
 30
0.0
 40
3.5
  1
F
 50
90.0
  0
ENDBLK
  5
141B
  8
0
  0
BLOCK
  8
0
  2
*U108
 70
     1
 10
0.0
 20
0.0
 30
0.0
  3
*U108
  1

  0
TEXT
  5
1428
  8
AM_5
 62
     2
 10
159.22808421365579
 20
182.1344022959814
 30
0.0
 40
3.5
  1
19.5
  0
ENDBLK
  5
142A
  8
0
  0
BLOCK
  8
0
  2
*U109
 70
     1
 10
0.0
 20
0.0
 30
0.0
  3
*U109
  1

  0
TEXT
  5
142C
  8
AM_5
 62
     2
 10
49.469941133168298
 20
190.7035810716734
 30
0.0
 40
3.5
  1
13.86
 50
90.0
  0
ENDBLK
  5
142E
  8
0
  0
BLOCK
  8
0
  2
*U110
 70
     1
 10
0.0
 20
0.0
 30
0.0
  3
*U110
  1

  0
TEXT
  5
1430
  8
AM_5
 62
     2
 10
156.50112564181401
 20
172.13440229598149
 30
0.0
 40
3.5
  1
28
  0
ENDBLK
  5
1432
  8
0
  0
BLOCK
  8
0
  2
*U111
 70
     1
 10
0.0
 20
0.0
 30
0.0
  3
*U111
  1

  0
TEXT
  5
1434
  8
AM_5
 62
     2
 10
146.1091992920208
 20
178.86539109529559
 30
0.0
 40
3.5
  1
8.5
  0
ENDBLK
  5
1436
  8
0
  0
BLOCK
  8
0
  2
*U112
 70
     1
 10
0.0
 20
0.0
 30
0.0
  3
*U112
  1

  0
TEXT
  5
1438
  8
AM_5
 62
     2
 10
183.40668666543601
 20
192.94010350704249
 30
0.0
 40
3.5
  1
\U+2205
 50
90.0
  0
TEXT
  5
1439
  8
AM_5
 62
     2
 10
183.40668666543601
 20
196.0901035070425
 30
0.0
 40
3.5
  1
9
 50
90.0
  0
ENDBLK
  5
143B
  8
0
  0
BLOCK
  8
0
  2
*U113
 70
     1
 10
0.0
 20
0.0
 30
0.0
  3
*U113
  1

  0
TEXT
  5
143D
  8
AM_5
 62
     2
 10
131.40668566543599
 20
203.84039209529561
 30
0.0
 40
3.5
  1
4
 50
90.0
  0
ENDBLK
  5
143F
  8
0
  0
BLOCK
  8
0
  2
*U114
 70
     1
 10
0.0
 20
0.0
 30
0.0
  3
*U114
  1

  0
TEXT
  5
1441
  8
AM_5
 62
     2
 10
111.5419787336355
 20
212.39343754560031
 30
0.0
 40
3.5
  1
3
  0
ENDBLK
  5
1443
  8
0
  0
BLOCK
  8
0
  2
*U115
 70
     1
 10
0.0
 20
0.0
 30
0.0
  3
*U115
  1

  0
TEXT
  5
1445
  8
AM_5
 62
     2
 10
125.2982227480465
 20
192.95217342886849
 30
0.0
 40
3.5
  1
5.5
 50
90.0
  0
ENDBLK
  5
1447
  8
0
  0
BLOCK
  8
0
  2
*U116
 70
     1
 10
0.0
 20
0.0
 30
0.0
  3
*U116
  1

  0
TEXT
  5
1449
  8
AM_5
 62
     2
 10
99.113909991960128
 20
193.69290472188021
 30
0.0
 40
3.5
  1
13
 50
90.0
  0
ENDBLK
  5
144B
  8
0
  0
BLOCK
  8
0
  2
*U117
 70
     1
 10
0.0
 20
0.0
 30
0.0
  3
*U117
  1

  0
TEXT
  5
144D
  8
AM_5
 62
     2
 10
59.691377092796209
 20
209.50071930543169
 30
0.0
 40
3.5
  1
7.8
  0
ENDBLK
  5
144F
  8
0
  0
BLOCK
  8
0
  2
*U118
 70
     1
 10
0.0
 20
0.0
 30
0.0
  3
*U118
  1

  0
TEXT
  5
1451
  8
AM_5
 62
     2
 10
131.40668566543599
 20
194.6403920952956
 30
0.0
 40
3.5
  1
7
 50
90.0
  0
ENDBLK
  5
1453
  8
0
  0
BLOCK
  8
0
  2
*U119
 70
     1
 10
0.0
 20
0.0
 30
0.0
  3
*U119
  1

  0
TEXT
  5
1455
  8
AM_5
 62
     2
 10
147.1816866654361
 20
215.86539309529559
 30
0.0
 40
3.5
  1
7
  0
ENDBLK
  5
1457
  8
0
  0
BLOCK
  8
0
  2
*U120
 70
     1
 10
0.0
 20
0.0
 30
0.0
  3
*U120
  1

  0
TEXT
  5
1459
  8
AM_5
 62
     2
 10
160.35112564181401
 20
215.86539309529559
 30
0.0
 40
3.5
  1
21
  0
ENDBLK
  5
145B
  8
0
  0
BLOCK
  8
0
  2
*U121
 70
     1
 10
0.0
 20
0.0
 30
0.0
  3
*U121
  1

  0
TEXT
  5
145D
  8
AM_5
 62
     2
 10
147.1816866654361
 20
215.86539309529559
 30
0.0
 40
3.5
  1
7
  0
ENDBLK
  5
145F
  8
0
  0
BLOCK
  8
0
  2
*U122
 70
     1
 10
0.0
 20
0.0
 30
0.0
  3
*U122
  1

  0
TEXT
  5
1461
  8
AM_5
 62
     2
 10
159.38168666543609
 20
208.6178806175665
 30
0.0
 40
3.5
  1
1.5
  0
ENDBLK
  5
1463
  8
0
  0
BLOCK
  8
0
  2
*U123
 70
     1
 10
0.0
 20
0.0
 30
0.0
  3
*U123
  1

  0
TEXT
  5
1465
  8
AM_5
 62
     2
 10
173.88168666543609
 20
188.69523599135621
 30
0.0
 40
3.5
  1
1
  0
ENDBLK
  5
1467
  8
0
  0
BLOCK
  8
0
  2
*U124
 70
     1
 10
0.0
 20
0.0
 30
0.0
  3
*U124
  1

  0
TEXT
  5
1469
  8
AM_5
 62
     2
 10
175.88168666543609
 20
202.93809317698441
 30
0.0
 40
3.5
  1
1
  0
ENDBLK
  5
146B
  8
0
  0
BLOCK
  8
0
  2
*U125
 70
     1
 10
0.0
 20
0.0
 30
0.0
  3
*U125
  1

  0
TEXT
  5
146D
  8
AM_5
 62
     2
 10
178.88168666543609
 20
212.9380931769843
 30
0.0
 40
3.5
  1
4
  0
ENDBLK
  5
146F
  8
0
  0
BLOCK
  8
0
  2
*U126
 70
     1
 10
0.0
 20
0.0
 30
0.0
  3
*U126
  1

  0
TEXT
  5
1471
  8
AM_5
 62
     2
 10
157.33671191860549
 20
225.86539309529559
 30
0.0
 40
3.5
  1
3
  0
ENDBLK
  5
1473
  8
0
  0
BLOCK
  8
0
  2
*U127
 70
     1
 10
0.0
 20
0.0
 30
0.0
  3
*U127
  1

  0
TEXT
  5
1475
  8
AM_5
 62
     2
 10
178.88168666543609
 20
205.82875281352639
 30
0.0
 40
3.5
  1
3
  0
ENDBLK
  5
1477
  8
0
  0
BLOCK
  8
0
  2
*U128
 70
     1
 10
0.0
 20
0.0
 30
0.0
  3
*U128
  1

  0
TEXT
  5
1479
  8
AM_5
 62
     2
 10
156.13168666543609
 20
215.82875281352639
 30
0.0
 40
3.5
  1
4
  0
ENDBLK
  5
147B
  8
0
  0
BLOCK
  8
0
  2
*U129
 70
     1
 10
0.0
 20
0.0
 30
0.0
  3
*U129
  1

  0
TEXT
  5
147D
  8
AM_5
 62
     2
 10
151.13168666543609
 20
225.82875281352639
 30
0.0
 40
3.5
  1
4
  0
ENDBLK
  5
147F
  8
0
  0
BLOCK
  8
0
  2
*U130
 70
     1
 10
0.0
 20
0.0
 30
0.0
  3
*U130
  1

  0
TEXT
  5
1481
  8
AM_5
 62
     2
 10
155.33671191860549
 20
187.39707807372611
 30
0.0
 40
3.5
  1
5.5
  0
ENDBLK
  5
1483
  8
0
  0
BLOCK
  8
0
  2
*U131
 70
     1
 10
0.0
 20
0.0
 30
0.0
  3
*U131
  1

  0
TEXT
  5
1485
  8
AM_5
 62
     2
 10
172.38168666543609
 20
162.13440229598231
 30
0.0
 40
3.5
  1
4
  0
ENDBLK
  5
1487
  8
0
  0
BLOCK
  8
0
  2
*U132
 70
     1
 10
0.0
 20
0.0
 30
0.0
  3
*U132
  1

  0
TEXT
  5
1489
  8
AM_5
 62
     2
 10
135.90668666543601
 20
192.11790472188031
 30
0.0
 40
3.5
  1
\U+2205
 50
90.0
  0
TEXT
  5
148A
  8
AM_5
 62
     2
 10
135.90668666543601
 20
195.26790472188031
 30
0.0
 40
3.5
  1
13
 50
90.0
  0
ENDBLK
  5
148C
  8
0
  0
BLOCK
  8
0
  2
*U133
 70
     1
 10
0.0
 20
0.0
 30
0.0
  3
*U133
  1

  0
TEXT
  5
148E
  8
AM_5
 62
     2
 10
154.00112564181401
 20
180.8653920952955
 30
0.0
 40
3.5
  1
28
  0
ENDBLK
  5
1490
  8
0
  0
BLOCK
  8
0
  2
*U134
 70
     1
 10
0.0
 20
0.0
 30
0.0
  3
*U134
  1

  0
TEXT
  5
1492
  8
AM_5
 62
     2
 10
68.764837786711638
 20
178.43718786501981
 30
0.0
 40
3.5
  1
12
  0
ENDBLK
  5
1494
  8
0
  0
BLOCK
  8
0
  2
*U135
 70
     1
 10
0.0
 20
0.0
 30
0.0
  3
*U135
  1

  0
TEXT
  5
1496
  8
AM_5
 62
     2
 10
176.43877049154941
 20
148.06137950757531
 30
0.0
 40
3.5
  1
\U+2205
  7
ACISOTS
  0
TEXT
  5
1497
  8
AM_5
 62
     2
 10
179.58877049154941
 20
148.06137950757531
 30
0.0
 40
3.5
  1
9
  7
ACISOTS
  0
TEXT
  5
1498
  8
AM_5
 62
     2
 10
176.96377049154941
 20
142.228046174242
 30
0.0
 40
3.5
  1
取付穴
  7
ACISOTS
  0
ENDBLK
  5
149A
  8
0
  0
BLOCK
  8
0
  2
*U136
 70
     1
 10
0.0
 20
0.0
 30
0.0
  3
*U136
  1

  0
TEXT
  5
149C
  8
AM_5
 62
     7
 10
162.23026587034519
 20
224.9437869873542
 30
0.0
 40
5.0
  1
1
  7
ACISOTS
  0
ENDBLK
  5
149E
  8
0
  0
BLOCK
  8
0
  2
*U137
 70
     1
 10
0.0
 20
0.0
 30
0.0
  3
*U137
  1

  0
TEXT
  5
14A0
  8
AM_5
 62
     7
 10
78.682820581676907
 20
227.1213275813939
 30
0.0
 40
5.0
  1
2
  7
ACISOTS
  0
ENDBLK
  5
14A2
  8
0
  0
BLOCK
  8
0
  2
*U138
 70
     1
 10
0.0
 20
0.0
 30
0.0
  3
*U138
  1

  0
TEXT
  5
14A4
  8
0
 62
     2
 10
26.625000000000028
 20
78.675000000000026
 30
0.0
 40
3.5
  1
1
  7
ACISOTS
  0
ENDBLK
  5
14A6
  8
0
  0
BLOCK
  8
0
  2
*U139
 70
     1
 10
0.0
 20
0.0
 30
0.0
  3
*U139
  1

  0
TEXT
  5
14A8
  8
0
 62
     2
 10
35.900000000000027
 20
78.675000000000026
 30
0.0
 40
3.5
  1
コネクタ本体
  7
ACISOTS
  0
ENDBLK
  5
14AA
  8
0
  0
BLOCK
  8
0
  2
*U140
 70
     1
 10
0.0
 20
0.0
 30
0.0
  3
*U140
  1

  0
TEXT
  5
14AC
  8
0
 62
     2
 10
85.375000000000028
 20
78.675000000000026
 30
0.0
 40
3.5
  1
1
  7
ACISOTS
  0
ENDBLK
  5
14AE
  8
0
  0
BLOCK
  8
0
  2
*U141
 70
     1
 10
0.0
 20
0.0
 30
0.0
  3
*U141
  1

  0
TEXT
  5
14B0
  8
0
 62
     2
 10
100.90000000000001
 20
78.675000000000026
 30
0.0
 40
3.5
  1
塩化ビニール
  7
ACISOTS
  0
ENDBLK
  5
14B2
  8
0
  0
BLOCK
  8
0
  2
*U142
 70
     1
 10
0.0
 20
0.0
 30
0.0
  3
*U142
  1

  0
TEXT
  5
14B4
  8
0
 62
     2
 10
155.90000000000001
 20
78.675000000000026
 30
0.0
 40
3.5
  1
ブラック・ライトグレー
  7
ACISOTS
  0
ENDBLK
  5
14B6
  8
0
  0
BLOCK
  8
0
  2
*U143
 70
     1
 10
0.0
 20
0.0
 30
0.0
  3
*U143
  1

  0
TEXT
  5
14B8
  8
0
 62
     2
 10
26.21433562992129
 20
84.849311023622064
 30
0.0
 40
3.5
  1
2
  7
ACISOTS
  0
ENDBLK
  5
14BA
  8
0
  0
BLOCK
  8
0
  2
*U144
 70
     1
 10
0.0
 20
0.0
 30
0.0
  3
*U144
  1

  0
TEXT
  5
14BC
  8
0
 62
     2
 10
35.900000000000027
 20
84.850000000000023
 30
0.0
 40
3.5
  1
ナット
  7
ACISOTS
  0
ENDBLK
  5
14BE
  8
0
  0
BLOCK
  8
0
  2
*U145
 70
     1
 10
0.0
 20
0.0
 30
0.0
  3
*U145
  1

  0
TEXT
  5
14C0
  8
0
 62
     2
 10
85.375000000000028
 20
84.850000000000023
 30
0.0
 40
3.5
  1
1
  7
ACISOTS
  0
ENDBLK
  5
14C2
  8
0
  0
BLOCK
  8
0
  2
*U146
 70
     1
 10
0.0
 20
0.0
 30
0.0
  3
*U146
  1

  0
TEXT
  5
14C4
  8
0
 62
     2
 10
100.90000000000001
 20
84.850000000000023
 30
0.0
 40
3.5
  1
ポリアミド
  7
ACISOTS
  0
ENDBLK
  5
14C6
  8
0
  0
BLOCK
  8
0
  2
*U147
 70
     1
 10
0.0
 20
0.0
 30
0.0
  3
*U147
  1

  0
TEXT
  5
14C8
  8
0
 62
     2
 10
155.90000000000001
 20
84.850000000000023
 30
0.0
 40
3.5
  1
ブラック・ライトグレー
  7
ACISOTS
  0
ENDBLK
  5
14CA
  8
0
  0
BLOCK
  8
0
  2
*U148
 70
     1
 10
0.0
 20
0.0
 30
0.0
  3
*U148
  1

  0
TEXT
  5
14CC
  8
0
 62
     2
 10
23.650000000000031
 20
72.500000000000028
 30
0.0
 40
3.5
  1
照番
  7
ACISOTS
  0
ENDBLK
  5
14CE
  8
0
  0
BLOCK
  8
0
  2
*U149
 70
     1
 10
0.0
 20
0.0
 30
0.0
  3
*U149
  1

  0
TEXT
  5
14D0
  8
0
 62
     2
 10
56.15000000000002
 20
72.500000000000028
 30
0.0
 40
3.5
  1
名称
  7
ACISOTS
  0
ENDBLK
  5
14D2
  8
0
  0
BLOCK
  8
0
  2
*U150
 70
     1
 10
0.0
 20
0.0
 30
0.0
  3
*U150
  1

  0
TEXT
  5
14D4
  8
0
 62
     2
 10
88.300000000000026
 20
72.500000000000028
 30
0.0
 40
3.5
  1
個数
  7
ACISOTS
  0
ENDBLK
  5
14D6
  8
0
  0
BLOCK
  8
0
  2
*U151
 70
     1
 10
0.0
 20
0.0
 30
0.0
  3
*U151
  1

  0
TEXT
  5
14D8
  8
0
 62
     2
 10
123.65000000000001
 20
72.500000000000028
 30
0.0
 40
3.5
  1
材質
  7
ACISOTS
  0
ENDBLK
  5
14DA
  8
0
  0
BLOCK
  8
0
  2
*U152
 70
     1
 10
0.0
 20
0.0
 30
0.0
  3
*U152
  1

  0
TEXT
  5
14DC
  8
0
 62
     2
 10
172.40000000000001
 20
72.500000000000028
 30
0.0
 40
3.5
  1
色・表面処理
  7
ACISOTS
  0
ENDBLK
  5
14DE
  8
0
  0
BLOCK
  8
0
  2
*U153
 70
     1
 10
0.0
 20
0.0
 30
0.0
  3
*U153
  1

  0
TEXT
  5
14E0
  8
0
 62
     2
 10
109.3625
 20
66.337500000000034
 30
0.0
 40
3.5
  1
構成内容
  7
ACISOTS
  0
ENDBLK
  5
14E2
  8
0
  0
ENDSEC
  0
SECTION
  2
ENTITIES
  0
LINE
  5
5D3
  8
TK1
 10
149.4066866654361
 20
195.86539209529559
 30
0.0
 11
149.4066866654361
 21
202.36539209529559
 31
0.0
  0
LINE
  5
5D4
  8
TK1
 10
149.4066866654361
 20
202.36539209529559
 30
0.0
 11
150.9066866654361
 21
202.36539209529559
 31
0.0
  0
LINE
  5
5D5
  8
TK1
 10
150.9066866654361
 20
202.36539209529559
 30
0.0
 11
150.90668666543621
 21
195.8653920952955
 31
0.0
  0
LINE
  5
5D6
  8
TK1
 10
152.4066866654361
 20
200.36539209529559
 30
0.0
 11
156.4066866654361
 21
200.36539209529559
 31
0.0
  0
LINE
  5
5D7
  8
TK1
 10
170.4066866654361
 20
200.36539209529559
 30
0.0
 11
170.4066866654361
 21
195.86539209529559
 31
0.0
  0
LINE
  5
5D8
  8
TK1
 10
142.4066866654361
 20
199.36539209529559
 30
0.0
 11
149.4066866654361
 21
200.11539209529559
 31
0.0
  0
LINE
  5
5D9
  8
TK1
 10
142.4066866654361
 20
195.86539209529559
 30
0.0
 11
142.4066866654361
 21
199.36539209529559
 31
0.0
  0
LINE
  5
5DB
  8
TK1
 10
156.4066866654361
 20
200.36539209529559
 30
0.0
 11
156.4066866654361
 21
195.86539209529559
 31
0.0
  0
LINE
  5
5DC
  8
TK1
 10
156.4066866654361
 20
195.86539209529559
 30
0.0
 11
157.4066866654361
 21
195.86539209529559
 31
0.0
  0
LINE
  5
5DD
  8
TK1
 10
157.4066866654361
 20
195.86539209529559
 30
0.0
 11
157.4066866654361
 21
200.36539209529559
 31
0.0
  0
LINE
  5
5DE
  8
TK1
 10
161.4066866654361
 20
200.36539209529559
 30
0.0
 11
161.4066866654361
 21
195.86539209529559
 31
0.0
  0
LINE
  5
5DF
  8
TK1
 10
161.4066866654361
 20
195.86539209529559
 30
0.0
 11
162.4066866654361
 21
195.86539209529559
 31
0.0
  0
LINE
  5
5E0
  8
TK1
 10
162.4066866654361
 20
195.86539209529559
 30
0.0
 11
162.4066866654361
 21
200.36539209529559
 31
0.0
  0
LINE
  5
5E1
  8
TK1
 10
166.4066866654361
 20
200.36539209529559
 30
0.0
 11
166.4066866654361
 21
195.86539209529559
 31
0.0
  0
LINE
  5
5E2
  8
TK1
 10
166.4066866654361
 20
195.86539209529559
 30
0.0
 11
167.4066866654361
 21
195.86539209529559
 31
0.0
  0
LINE
  5
5E3
  8
TK1
 10
167.4066866654361
 20
195.86539209529559
 30
0.0
 11
167.4066866654361
 21
200.36539209529559
 31
0.0
  0
LINE
  5
5E4
  8
TK1
 10
157.4066866654361
 20
200.36539209529559
 30
0.0
 11
161.4066866654361
 21
200.36539209529559
 31
0.0
  0
LINE
  5
5E5
  8
TK1
 10
162.4066866654361
 20
200.36539209529559
 30
0.0
 11
166.4066866654361
 21
200.36539209529559
 31
0.0
  0
LINE
  5
5E6
  8
TK1
 10
167.4066866654361
 20
200.36539209529559
 30
0.0
 11
170.4066866654361
 21
200.36539209529559
 31
0.0
  0
LINE
  5
5E7
  8
TK1
 10
142.4066866654361
 20
192.36539209529559
 30
0.0
 11
146.4066866654361
 21
191.93682066672449
 31
0.0
  0
LINE
  5
5E8
  8
TK1
 10
149.4066866654361
 20
195.86539209529559
 30
0.0
 11
149.4066866654361
 21
189.36539209529559
 31
0.0
  0
LINE
  5
5E9
  8
TK1
 10
150.9066866654361
 20
189.36539209529559
 30
0.0
 11
150.90668666543621
 21
195.8653920952955
 31
0.0
  0
LINE
  5
5EA
  8
TK1
 10
149.4066866654361
 20
189.36539209529559
 30
0.0
 11
150.9066866654361
 21
189.36539209529559
 31
0.0
  0
LINE
  5
5EB
  8
TK1
 10
142.4066866654361
 20
195.86539209529559
 30
0.0
 11
142.4066866654361
 21
192.36539209529559
 31
0.0
  0
LINE
  5
5EC
  8
TK1
 10
152.4066866654361
 20
191.36539209529559
 30
0.0
 11
158.9066866654361
 21
191.36539209529559
 31
0.0
  0
LINE
  5
5EE
  8
TK1
 10
158.9066866654361
 20
191.36539209529559
 30
0.0
 11
158.9066866654361
 21
195.86539209529559
 31
0.0
  0
LINE
  5
5EF
  8
TK1
 10
158.9066866654361
 20
195.86539209529559
 30
0.0
 11
159.9066866654361
 21
195.86539209529559
 31
0.0
  0
LINE
  5
5F0
  8
TK1
 10
159.9066866654361
 20
195.86539209529559
 30
0.0
 11
159.9066866654361
 21
191.3653920952955
 31
0.0
  0
LINE
  5
5F1
  8
TK1
 10
163.9066866654361
 20
191.3653920952955
 30
0.0
 11
163.9066866654361
 21
195.86539209529559
 31
0.0
  0
LINE
  5
5F2
  8
TK1
 10
163.9066866654361
 20
195.86539209529559
 30
0.0
 11
164.9066866654361
 21
195.86539209529559
 31
0.0
  0
LINE
  5
5F3
  8
TK1
 10
164.9066866654361
 20
195.86539209529559
 30
0.0
 11
164.9066866654361
 21
191.3653920952955
 31
0.0
  0
LINE
  5
5F4
  8
TK1
 10
170.4066866654361
 20
195.86539209529559
 30
0.0
 11
170.40668666543601
 21
191.3653920952955
 31
0.0
  0
LINE
  5
5F5
  8
TK1
 10
159.9066866654361
 20
191.3653920952955
 30
0.0
 11
163.9066866654361
 21
191.3653920952955
 31
0.0
  0
LINE
  5
5F6
  8
TK1
 10
164.9066866654361
 20
191.3653920952955
 30
0.0
 11
170.4066866654361
 21
191.3653920952955
 31
0.0
  0
LINE
  5
5F7
  8
TK1
 10
142.70668666543611
 20
195.86539209529559
 30
0.0
 11
142.70668666543611
 21
197.86539209529559
 31
0.0
  0
LINE
  5
5F8
  8
TK1
 10
142.70668666543611
 20
197.86539209529559
 30
0.0
 11
143.10668666543609
 21
197.86539209529559
 31
0.0
  0
LINE
  5
5F9
  8
TK1
 10
143.10668666543609
 20
197.86539209529559
 30
0.0
 11
143.10668666543609
 21
195.86539209529559
 31
0.0
  0
LINE
  5
5FA
  8
TK1
 10
143.70668666543611
 20
195.86539209529559
 30
0.0
 11
143.70668666543611
 21
197.86539209529559
 31
0.0
  0
LINE
  5
5FB
  8
TK1
 10
143.70668666543611
 20
197.86539209529559
 30
0.0
 11
144.3066866654361
 21
197.86539209529559
 31
0.0
  0
LINE
  5
5FC
  8
TK1
 10
144.3066866654361
 20
197.86539209529559
 30
0.0
 11
144.3066866654361
 21
195.86539209529559
 31
0.0
  0
LINE
  5
5FD
  8
TK1
 10
144.9066866654361
 20
195.86539209529559
 30
0.0
 11
144.9066866654361
 21
197.86539209529559
 31
0.0
  0
LINE
  5
5FE
  8
TK1
 10
144.9066866654361
 20
197.86539209529559
 30
0.0
 11
145.9066866654361
 21
197.86539209529559
 31
0.0
  0
LINE
  5
5FF
  8
TK1
 10
145.9066866654361
 20
197.86539209529559
 30
0.0
 11
145.9066866654361
 21
195.86539209529559
 31
0.0
  0
LINE
  5
600
  8
TK1
 10
146.4066866654361
 20
195.86539209529559
 30
0.0
 11
146.4066866654361
 21
197.86539209529559
 31
0.0
  0
LINE
  5
601
  8
TK1
 10
146.4066866654361
 20
197.86539209529559
 30
0.0
 11
147.4066866654361
 21
197.86539209529559
 31
0.0
  0
LINE
  5
602
  8
TK1
 10
147.4066866654361
 20
197.86539209529559
 30
0.0
 11
147.4066866654361
 21
195.86539209529559
 31
0.0
  0
LINE
  5
603
  8
TK1
 10
142.70668666543611
 20
199.39753495243841
 30
0.0
 11
142.9066866654361
 21
199.8653920952969
 31
0.0
  0
LINE
  5
604
  8
TK1
 10
142.9066866654361
 20
199.8653920952969
 30
0.0
 11
143.10668666543609
 21
199.44039209529549
 31
0.0
  0
LINE
  5
605
  8
TK1
 10
143.70668666543611
 20
199.50467780958121
 30
0.0
 11
144.00668666543609
 21
200.11539209529511
 31
0.0
  0
LINE
  5
606
  8
TK1
 10
144.00668666543609
 20
200.11539209529511
 30
0.0
 11
144.3066866654361
 21
199.56896352386701
 31
0.0
  0
LINE
  5
607
  8
TK1
 10
144.9066866654361
 20
199.6332492381527
 30
0.0
 11
145.3928461201121
 21
200.36539209529559
 31
0.0
  0
LINE
  5
608
  8
TK1
 10
145.3928461201121
 20
200.36539209529559
 30
0.0
 11
145.9066866654361
 21
199.74039209529559
 31
0.0
  0
LINE
  5
609
  8
TK1
 10
146.4066866654361
 20
199.79396352386701
 30
0.0
 11
146.9066866654361
 21
200.86539209529511
 31
0.0
  0
LINE
  5
60A
  8
TK1
 10
146.9066866654361
 20
200.86539209529511
 30
0.0
 11
147.4066866654361
 21
199.90110638100981
 31
0.0
  0
LINE
  5
60B
  8
TK1
 10
142.9066866654361
 20
197.86539209529559
 30
0.0
 11
142.9066866654361
 21
195.86539209529559
 31
0.0
  0
LINE
  5
60C
  8
TK1
 10
144.00668666543609
 20
195.86539209529511
 30
0.0
 11
144.00668666543609
 21
197.86539209529511
 31
0.0
  0
LINE
  5
60D
  8
TK1
 10
145.4066866654361
 20
197.86539209529559
 30
0.0
 11
145.4066866654361
 21
195.86539209529559
 31
0.0
  0
LINE
  5
60E
  8
TK1
 10
146.9066866654361
 20
195.86539209529511
 30
0.0
 11
146.9066866654361
 21
197.86539209529559
 31
0.0
  0
LINE
  5
60F
  8
TK1
 10
146.9066866654361
 20
195.86539209529599
 30
0.0
 11
146.9066866654361
 21
193.86539209529559
 31
0.0
  0
LINE
  5
610
  8
TK1
 10
145.4066866654361
 20
193.86539209529559
 30
0.0
 11
145.4066866654361
 21
195.86539209529559
 31
0.0
  0
LINE
  5
611
  8
TK1
 10
144.00668666543609
 20
195.86539209529599
 30
0.0
 11
144.00668666543609
 21
193.86539209529599
 31
0.0
  0
LINE
  5
612
  8
TK1
 10
142.9066866654361
 20
193.86539209529559
 30
0.0
 11
142.9066866654361
 21
195.86539209529559
 31
0.0
  0
LINE
  5
613
  8
TK1
 10
145.3928461201121
 20
191.36539209529559
 30
0.0
 11
145.9066866654361
 21
191.99039209529559
 31
0.0
  0
LINE
  5
614
  8
TK1
 10
144.9066866654361
 20
192.09753495243839
 30
0.0
 11
145.3928461201121
 21
191.36539209529559
 31
0.0
  0
LINE
  5
615
  8
TK1
 10
144.00668666543609
 20
191.61539209529599
 30
0.0
 11
144.3066866654361
 21
192.1618206667242
 31
0.0
  0
LINE
  5
616
  8
TK1
 10
143.70668666543611
 20
192.2261063810098
 30
0.0
 11
144.00668666543609
 21
191.61539209529599
 31
0.0
  0
LINE
  5
617
  8
TK1
 10
142.9066866654361
 20
191.8653920952942
 30
0.0
 11
143.10668666543609
 21
192.2903920952956
 31
0.0
  0
LINE
  5
618
  8
TK1
 10
142.70668666543611
 20
192.33324923815269
 30
0.0
 11
142.9066866654361
 21
191.8653920952942
 31
0.0
  0
LINE
  5
619
  8
TK1
 10
147.4066866654361
 20
193.86539209529559
 30
0.0
 11
147.4066866654361
 21
195.86539209529559
 31
0.0
  0
LINE
  5
61A
  8
TK1
 10
146.4066866654361
 20
193.86539209529559
 30
0.0
 11
147.4066866654361
 21
193.86539209529559
 31
0.0
  0
LINE
  5
61B
  8
TK1
 10
146.4066866654361
 20
195.86539209529559
 30
0.0
 11
146.4066866654361
 21
193.86539209529559
 31
0.0
  0
LINE
  5
61C
  8
TK1
 10
145.9066866654361
 20
193.86539209529559
 30
0.0
 11
145.9066866654361
 21
195.86539209529559
 31
0.0
  0
LINE
  5
61D
  8
TK1
 10
144.9066866654361
 20
193.86539209529559
 30
0.0
 11
145.9066866654361
 21
193.86539209529559
 31
0.0
  0
LINE
  5
61E
  8
TK1
 10
144.9066866654361
 20
195.86539209529559
 30
0.0
 11
144.9066866654361
 21
193.86539209529559
 31
0.0
  0
LINE
  5
61F
  8
TK1
 10
144.3066866654361
 20
193.86539209529559
 30
0.0
 11
144.3066866654361
 21
195.86539209529559
 31
0.0
  0
LINE
  5
620
  8
TK1
 10
143.70668666543611
 20
193.86539209529559
 30
0.0
 11
144.3066866654361
 21
193.86539209529559
 31
0.0
  0
LINE
  5
621
  8
TK1
 10
143.70668666543611
 20
195.86539209529559
 30
0.0
 11
143.70668666543611
 21
193.86539209529559
 31
0.0
  0
LINE
  5
622
  8
TK1
 10
143.10668666543609
 20
193.86539209529559
 30
0.0
 11
143.10668666543609
 21
195.86539209529559
 31
0.0
  0
LINE
  5
623
  8
TK1
 10
142.70668666543611
 20
193.86539209529559
 30
0.0
 11
143.10668666543609
 21
193.86539209529559
 31
0.0
  0
LINE
  5
624
  8
TK1
 10
142.70668666543611
 20
195.86539209529559
 30
0.0
 11
142.70668666543611
 21
193.86539209529559
 31
0.0
  0
LINE
  5
625
  8
TK1
 10
146.4066866654363
 20
191.93682066672409
 30
0.0
 11
149.4066866654361
 21
191.61539209529559
 31
0.0
  0
LINE
  5
626
  8
TK1
 10
146.90668666543641
 20
190.86539209529599
 30
0.0
 11
147.4066866654363
 21
191.82967780958131
 31
0.0
  0
LINE
  5
627
  8
TK1
 10
146.4066866654363
 20
191.93682066672409
 30
0.0
 11
146.90668666543641
 21
190.86539209529599
 31
0.0
  0
CIRCLE
  5
629
  8
TK1
 10
116.6139099919601
 20
195.86539209529539
 30
0.0
 40
6.5
  0
LINE
  5
62A
  8
TK1
 10
115.1139099919601
 20
198.61539209529539
 30
0.0
 11
115.1139099919601
 21
193.1153920952955
 31
0.0
  0
LINE
  5
62B
  8
TK1
 10
115.1139099919601
 20
193.1153920952955
 30
0.0
 11
118.1139099919601
 21
193.1153920952955
 31
0.0
  0
LINE
  5
62C
  8
TK1
 10
118.1139099919601
 20
193.1153920952955
 30
0.0
 11
118.1139099919601
 21
198.61539209529539
 31
0.0
  0
LINE
  5
62D
  8
TK1
 10
118.1139099919601
 20
198.61539209529539
 30
0.0
 11
115.1139099919601
 21
198.61539209529539
 31
0.0
  0
CIRCLE
  5
62E
  8
TK1
 10
116.6139099919601
 20
195.86539209529539
 30
0.0
 40
3.5
  0
ARC
  5
633
  8
TK1
 10
116.6139099919601
 20
195.86539209529539
 30
0.0
 40
4.0000000000013642
 50
150.00000000001111
 51
209.9999999999888
  0
ARC
  5
634
  8
TK1
 10
116.6139099919601
 20
195.86539209529539
 30
0.0
 40
4.2499999999995453
 50
151.92751306414351
 51
208.07248693585649
  0
ARC
  5
635
  8
TK1
 10
116.6139099919601
 20
195.86539209529539
 30
0.0
 40
4.5
 50
153.61220003875709
 51
206.38779996124291
  0
ARC
  5
636
  8
TK1
 10
116.6139099919601
 20
195.86539209529539
 30
0.0
 40
4.9999999999995453
 50
156.42182152179601
 51
203.57817847820399
  0
ARC
  5
637
  8
TK1
 10
116.6139099919601
 20
195.86539209529539
 30
0.0
 40
4.2499999999995453
 50
208.07248693585581
 51
241.9275130641451
  0
LINE
  5
638
  8
TK1
 10
112.0313342970048
 20
193.8653920952955
 30
0.0
 11
113.74162866869111
 21
193.8653920952955
 31
0.0
  0
LINE
  5
639
  8
TK1
 10
112.0313342970048
 20
197.8653920952955
 30
0.0
 11
113.74162866869111
 21
197.8653920952955
 31
0.0
  0
LINE
  5
63A
  8
TK1
 10
118.6139099919602
 20
191.2828164003401
 30
0.0
 11
118.6139099919602
 21
192.9931107720264
 31
0.0
  0
LINE
  5
63B
  8
TK1
 10
114.6139099919603
 20
191.28281640034001
 30
0.0
 11
114.6139099919602
 21
192.99311077202631
 31
0.0
  0
ARC
  5
63C
  8
TK1
 10
116.6139099919601
 20
195.86539209529539
 30
0.0
 40
4.9999999999995453
 50
246.42182152179771
 51
293.5781784782057
  0
ARC
  5
63D
  8
TK1
 10
116.6139099919601
 20
195.86539209529539
 30
0.0
 40
4.5
 50
243.612200038758
 51
296.38779996124367
  0
ARC
  5
63E
  8
TK1
 10
116.6139099919601
 20
195.86539209529539
 30
0.0
 40
4.2499999999995453
 50
241.9275130641451
 51
298.07248693585672
  0
ARC
  5
63F
  8
TK1
 10
116.6139099919601
 20
195.86539209529539
 30
0.0
 40
4.0000000000013642
 50
240.00000000001299
 51
299.99999999999068
  0
ARC
  5
640
  8
TK1
 10
116.6139099919601
 20
195.86539209529539
 30
0.0
 40
4.0000000000013642
 50
60.000000000009358
 51
119.9999999999866
  0
ARC
  5
641
  8
TK1
 10
116.6139099919601
 20
195.86539209529539
 30
0.0
 40
4.2499999999995453
 50
61.927513064141479
 51
118.07248693585299
  0
ARC
  5
642
  8
TK1
 10
116.6139099919601
 20
195.86539209529539
 30
0.0
 40
4.5
 50
63.612200038754409
 51
116.38779996124011
  0
ARC
  5
643
  8
TK1
 10
116.6139099919601
 20
195.86539209529539
 30
0.0
 40
4.9999999999995453
 50
66.421821521792523
 51
113.57817847820201
  0
LINE
  5
644
  8
TK1
 10
114.6139099919604
 20
200.44796779025091
 30
0.0
 11
114.6139099919603
 21
198.73767341856461
 31
0.0
  0
LINE
  5
645
  8
TK1
 10
118.6139099919603
 20
200.44796779025069
 30
0.0
 11
118.6139099919602
 21
198.73767341856441
 31
0.0
  0
LINE
  5
646
  8
TK1
 10
121.19648568691549
 20
197.8653920952955
 30
0.0
 11
119.48619131522911
 21
197.8653920952955
 31
0.0
  0
LINE
  5
647
  8
TK1
 10
121.19648568691549
 20
193.8653920952955
 30
0.0
 11
119.48619131522911
 21
193.8653920952955
 31
0.0
  0
ARC
  5
648
  8
TK1
 10
116.6139099919601
 20
195.86539209529539
 30
0.0
 40
4.9999999999995453
 50
336.42182152179601
 51
23.578178478203998
  0
ARC
  5
649
  8
TK1
 10
116.6139099919601
 20
195.86539209529539
 30
0.0
 40
4.5
 50
333.61220003875712
 51
26.387799961242859
  0
ARC
  5
64A
  8
TK1
 10
116.6139099919601
 20
195.86539209529539
 30
0.0
 40
4.2499999999995453
 50
331.92751306414351
 51
28.07248693585651
  0
ARC
  5
64B
  8
TK1
 10
116.6139099919601
 20
195.86539209529539
 30
0.0
 40
4.0000000000013642
 50
330.0000000000112
 51
29.99999999998883
  0
ARC
  5
64C
  8
TK1
 10
116.6139099919601
 20
195.86539209529539
 30
0.0
 40
4.2499999999995453
 50
298.07248693585672
 51
331.92751306414431
  0
ARC
  5
64D
  8
TK1
 10
116.6139099919601
 20
195.86539209529539
 30
0.0
 40
4.2499999999995453
 50
28.07248693585651
 51
61.927513064145117
  0
ARC
  5
64E
  8
TK1
 10
116.6139099919601
 20
195.86539209529539
 30
0.0
 40
4.2499999999995453
 50
118.0724869358567
 51
151.92751306414351
  0
LINE
  5
64F
  8
TK2
 10
76.969941133168334
 20
192.4012904801576
 30
0.0
 11
76.969941133168334
 21
199.3294937104331
 31
0.0
  0
LINE
  5
650
  8
TK2
 10
76.969941133168334
 20
199.3294937104331
 30
0.0
 11
70.969941133168334
 21
202.79359532557089
 31
0.0
  0
LINE
  5
651
  8
TK2
 10
76.969941133168334
 20
192.4012904801576
 30
0.0
 11
70.969941133168334
 21
188.93718886501981
 31
0.0
  0
LINE
  5
652
  8
TK2
 10
64.969941133168334
 20
192.4012904801576
 30
0.0
 11
70.969941133168334
 21
188.93718886501981
 31
0.0
  0
LINE
  5
653
  8
TK2
 10
64.969941133168334
 20
199.3294937104331
 30
0.0
 11
70.969941133168334
 21
202.79359532557089
 31
0.0
  0
LINE
  5
654
  8
TK2
 10
64.969941133168334
 20
192.4012904801576
 30
0.0
 11
64.969941133168334
 21
199.3294937104331
 31
0.0
  0
CIRCLE
  5
655
  8
TK2
 10
70.969941133168334
 20
195.86539209529539
 30
0.0
 40
3.8999999999999999
  0
CIRCLE
  5
656
  8
TK2
 10
70.969941133168334
 20
195.86539209529539
 30
0.0
 40
5.9999999999999849
  0
ARC
  5
657
  8
TK2
 10
90.527732069916397
 20
201.06154451800211
 30
0.0
 40
1.999998948547884
 50
119.99994782729949
 51
240.00005217270211
  0
ARC
  5
658
  8
TK2
 10
95.027734172822178
 20
195.86539209529539
 30
0.0
 40
6.4999999999999556
 50
147.79577249602761
 51
212.20422750397239
  0
ARC
  5
659
  8
TK2
 10
90.527732069916354
 20
190.6692396725887
 30
0.0
 40
1.9999989485478971
 50
119.99994782729701
 51
240.0000521727008
  0
LINE
  5
65A
  8
TK2
 10
88.52773417282225
 20
201.0594937104259
 30
0.0
 11
88.52773417282225
 21
190.67129048016491
 31
0.0
  0
LINE
  5
65B
  8
TK2
 10
89.52773417282225
 20
202.79359532557089
 30
0.0
 11
92.527734172822264
 21
202.79359532557089
 31
0.0
  0
LINE
  5
65C
  8
TK2
 10
92.527734172822264
 20
202.79359532557089
 30
0.0
 11
92.527734172822264
 21
188.93718886501981
 31
0.0
  0
LINE
  5
65D
  8
TK2
 10
92.527734172822264
 20
188.93718886501981
 30
0.0
 11
89.527734172822193
 21
188.93718886501981
 31
0.0
  0
LINE
  5
65E
  8
TK2
 10
89.52773417282225
 20
192.4012904801576
 30
0.0
 11
92.527734172822264
 21
192.4012904801576
 31
0.0
  0
LINE
  5
65F
  8
TK2
 10
89.52773417282225
 20
199.3294937104331
 30
0.0
 11
92.527734172822264
 21
199.3294937104331
 31
0.0
  0
LINE
  5
67F
  8
AM_7
  6
AM_ISO08W050X2
 10
165.2075555429262
 20
132.04256808295889
 30
0.0
 11
173.2075555429262
 21
132.04256808295889
 31
0.0
1001
GENIUS_GENOREF_13
1005
688
  0
LINE
  5
680
  8
AM_7
  6
AM_ISO08W050X2
 10
165.2075555429262
 20
132.04256808295889
 30
0.0
 11
165.2075555429262
 21
140.04256808295889
 31
0.0
1001
GENIUS_GENOREF_13
1005
688
  0
LINE
  5
681
  8
AM_7
  6
AM_ISO08W050X2
 10
165.2075555429262
 20
132.04256808295889
 30
0.0
 11
157.2075555429262
 21
132.04256808295889
 31
0.0
1001
GENIUS_GENOREF_13
1005
688
  0
LINE
  5
682
  8
AM_7
  6
AM_ISO08W050X2
 10
165.2075555429262
 20
132.04256808295889
 30
0.0
 11
165.2075555429262
 21
124.04256808295889
 31
0.0
1001
GENIUS_GENOREF_13
1005
688
  0
CIRCLE
  5
683
  8
0
 10
165.2075555429262
 20
132.04256808295889
 30
0.0
 40
4.5
  0
INSERT
  5
684
  8
AM_5
  2
*S58
 10
0.0
 20
0.0
 30
0.0
  0
POINT
  5
688
  8
0
 10
-16.75666956572098
 20
-121.68224388152851
 30
0.0
1001
GENIUS_GENOENT_13
1002
{
1000
MYREF
1005
688
1002
}
1002
{
1000
GRP
1005
0
1002
}
1001
GENIUS_GENOLIS_13
1002
{
1000
ENT
1005
682
1005
681
1005
680
1005
67F
1002
}
1001
GENIUS_GENODEF_13
1002
{
1000
HIER
1070
    10
1002
}
1002
{
1000
MANEDIT
1070
     0
1002
}
1002
{
1000
NOSEL
1070
     0
1002
}
1002
{
1000
BEHIND
1070
     0
1002
}
1002
{
1000
OTHER
1070
     0
1002
}
1002
{
1000
REACTOR
1002
}
1001
GENIUS_GENOBJ-N-CRS_13
1002
{
1000
OWNER
1000
GEN
1002
}
  0
INSERT
  5
74E
  8
0
  2
TAKACHI-A4
 10
0.0
 20
0.0
 30
0.0
1001
GENIUS_GENOREF_13
1005
7C1
1001
GENIUS_GENODEF_13
1002
{
1000
HIER
1070
     0
1002
}
1002
{
1000
MANEDIT
1070
     0
1002
}
1002
{
1000
NOSEL
1070
     0
1002
}
1002
{
1000
BEHIND
1070
     0
1002
}
1002
{
1000
OTHER
1070
     0
1002
}
1002
{
1000
REACTOR
1002
}
1001
GENIUS_GENOBJ-N-SDF_13
1002
{
1000
OWNER
1000
GEN
1002
}
1001
GENIUS_GENSCREG_13
1040
1.0
1040
1.0
1011
0.0
1021
9.2233720396894542E+020
1031
-0.0
1021
0.0
1031
0.0
1011
195.00000000000011
1021
9.2233720396894542E+020
1031
-0.0
1021
275.0
1031
0.0
1070
     3
  0
INSERT
  5
750
  8
0
 66
     1
  2
TAKACHI-TITLE
 10
215.0
 20
15.0
 30
0.0
1001
GENIUS_GENOREF_13
1005
7C1
  0
ATTRIB
  5
752
  8
0
 10
31.756147285439312
 20
23.617517191094748
 30
0.0
 40
2.5
  1

 11
31.756147285439312
 21
23.617517191094748
 31
0.0
  2
GEN-TITLE-DES2
 70
     0
 74
     1
  0
ATTRIB
  5
753
  8
0
 10
31.756147285439312
 20
16.617517191094748
 30
0.0
 40
3.0
  1

 11
31.756147285439312
 21
16.617517191094748
 31
0.0
  2
GEN-TITLE-NR
 70
     0
 74
     1
  0
ATTRIB
  5
754
  8
0
 10
31.756147285439312
 20
28.873952861685009
 30
0.0
 40
4.0
  1
CP-Y85□
 11
31.756147285439312
 21
28.873952861685009
 31
0.0
  2
GEN-TITLE-DES1
 70
     0
 74
     1
  0
ATTRIB
  5
755
  8
0
 10
153.53594880200259
 20
54.255005561783491
 30
0.0
 40
3.0
  1
1:1
 72
     2
 11
156.98594880200261
 21
54.255005561783491
 31
0.0
  2
GEN-TITLE-SCA
 70
     0
  0
ATTRIB
  5
756
  8
0
 10
137.99715033350989
 20
45.621807879434748
 30
0.0
 40
3.0
  1

 11
137.99715033350989
 21
45.621807879434748
 31
0.0
  2
GEN-TITLE-MAT1
 70
     0
 74
     1
  0
ATTRIB
  5
757
  8
0
 10
137.99715033350989
 20
35.621807879434748
 30
0.0
 40
3.0
  1

 11
137.99715033350989
 21
35.621807879434748
 31
0.0
  2
GEN-TITLE-MAT2
 70
     0
 74
     1
  0
ATTRIB
  5
758
  8
0
 10
137.99715033350989
 20
26.617517191094748
 30
0.0
 40
3.0
  1
2006/11/27
 11
137.99715033350989
 21
26.617517191094748
 31
0.0
  2
GEN-TITLE-DAT
 70
     0
 74
     1
  0
ATTRIB
  5
759
  8
0
 10
177.236826206085
 20
54.255005561783491
 30
0.0
 40
3.0
  1

 72
     2
 11
177.236826206085
 21
54.255005561783491
 31
0.0
  2
GEN-TITLE-QTY
 70
     0
  0
SEQEND
  5
751
  8
0
  0
POINT
  5
7C1
  8
0
 10
0.0
 20
0.0
 30
0.0
1001
GENIUS_GENOLIS_13
1002
{
1000
ENT
1005
750
1005
74E
1002
}
1001
GENIUS_GENOENT_13
1002
{
1000
MYREF
1005
7C1
1002
}
1002
{
1000
GRP
1005
0
1002
}
1001
GENIUS_GENOBJ-N-TIT_13
1002
{
1000
OWNER
1000
GEN
1002
}
1001
GENIUS_GENODEF_13
1002
{
1000
HIER
1070
     1
1002
}
1002
{
1000
MANEDIT
1070
     0
1002
}
1002
{
1000
NOSEL
1070
     0
1002
}
1002
{
1000
BEHIND
1070
     0
1002
}
1002
{
1000
OTHER
1070
     0
1002
}
1002
{
1000
REACTOR
1002
}
1001
GENIUS_GENTITLE_13
1002
{
1000
BORDER
1000
TAKACHI-A4
1002
}
1002
{
1000
TITLE
1000
TAKACHI-TITLE
1002
}
1002
{
1000
SCALE
1000
1:1
1002
}
1002
{
1000
TITLESTD
1000
ISO
1002
}
1002
{
1000
HRA
1005
74E
1002
}
1002
{
1000
HTIT
1005
750
1002
}
1002
{
1000
UNCHG
1002
{
1000
GEN-TITLE-SIZ
1000
GEN-TITLE-SCA
1002
}
1002
}
1002
{
1000
GENIUSID
1005
7C1
1002
}
  0
INSERT
  5
7DA
  8
AM_12
  2
*S59
 10
0.0
 20
0.0
 30
0.0
  0
INSERT
  5
7DF
  8
AM_5
  2
*S60
 10
0.0
 20
0.0
 30
0.0
  0
INSERT
  5
7E1
  8
AM_12
  2
*S61
 10
0.0
 20
0.0
 30
0.0
  0
INSERT
  5
7E4
  8
AM_5
  2
*S62
 10
0.0
 20
0.0
 30
0.0
  0
INSERT
  5
7E5
  8
0
  2
*S63
 10
0.0
 20
0.0
 30
0.0
  0
DIMENSION
  5
92E
  8
AM_5
  2
*D35
 10
88.52773312136847
 20
176.93718886501981
 30
0.0
 11
90.921124962067324
 21
179.44912171045621
 31
0.0
 70
   128
 13
92.527734172822264
 23
188.93718886501981
 33
0.0
 14
88.52773312136847
 24
190.6692396725887
 34
0.0
 50
0.0000000000002036
1001
ACAD
1000
DSTYLE
1002
{
1070
   287
1070
     5
1070
   279
1070
     2
1002
}
  0
DIMENSION
  5
96E
  8
AM_5
  2
*D36
 10
64.969941133168334
 20
176.93718786501981
 30
0.0
 11
70.969941133168334
 21
180.18753235320881
 31
0.0
 70
     0
 13
76.969941133168334
 23
192.4012904801576
 33
0.0
 14
64.969941133168334
 24
192.4012904801576
 34
0.0
 50
0.0000000000002036
  0
ARC
  5
BFF
  8
TK1
 10
152.4066866654361
 20
201.86539209529559
 30
0.0
 40
1.5
 50
180.0
 51
270.0
  0
ARC
  5
C00
  8
TK1
 10
152.4066866654361
 20
189.86539209529559
 30
0.0
 40
1.5
 50
90.0
 51
180.0
  0
DIMENSION
  5
1030
  8
AM_5
  2
*D56
 10
142.4066866654361
 20
179.3653920952955
 30
0.0
 11
156.4066866654361
 21
182.61573658348451
 31
0.0
 70
     0
 13
170.40668666543601
 23
191.3653920952955
 33
0.0
 14
142.4066866654361
 24
192.36539209529559
 34
0.0
 50
0.0000000000001132
  0
DIMENSION
  5
1068
  8
AM_5
  2
*D57
 10
137.4066866654361
 20
202.36539209529559
 30
0.0
 11
134.15668666543601
 21
195.86539209529559
 31
0.0
 70
     0
  1
%%c<>
 13
149.4066866654361
 23
189.36539209529559
 33
0.0
 14
149.4066866654361
 24
202.36539209529559
 34
0.0
 50
90.0
  0
VIEWPORT
  5
178
 67
     1
  8
0
 10
133.34999084472659
 20
123.6089706563676
 30
0.0
 40
370.22669129365238
 41
272.44014076799652
 68
     1
 69
     1
1001
ACAD
1000
MVIEW
1002
{
1070
    16
1010
0.0
1020
0.0
1030
0.0
1010
0.0
1020
0.0
1030
1.0
1040
0.0
1040
272.44014076799652
1040
133.34999084472659
1040
123.6089706563676
1040
50.0
1040
0.0
1040
0.0
1070
     0
1070
   100
1070
     1
1070
     1
1070
     0
1070
     0
1070
     0
1070
     0
1040
0.0
1040
0.0
1040
0.0
1040
10.0
1040
10.0
1040
10.0
1040
10.0
1070
     0
1002
{
1002
}
1002
}
1001
GENIUS_GENODEF_13
1002
{
1000
HIER
1070
     0
1002
}
1002
{
1000
MANEDIT
1070
     0
1002
}
1002
{
1000
NOSEL
1070
     0
1002
}
1002
{
1000
BEHIND
1070
     0
1002
}
1002
{
1000
OTHER
1070
     0
1002
}
1002
{
1000
REACTOR
1002
}
1001
GENIUS_GENOBJ-N-SDF_13
1002
{
1000
OWNER
1000
GEN
1002
}
1001
GENIUS_GENSCREG_15
1000
PF
1040
1.0
1000
DF
1040
1.0
1000
MIN
1011
-51.763354802099627
1021
9.2233720396894542E+020
1031
-0.0
1021
-12.611099727630631
1031
0.0
1000
MAX
1011
318.46333649155281
1021
9.2233720396894542E+020
1031
-0.0
1021
259.82904104036589
1031
0.0
1000
FLAGS
1070
     2
  0
ENDSEC
  0
EOF
