  0
SECTION
  2
HEADER
  9
$ACADVER
  1
AC1009
  9
$INSBASE
 10
0.0
 20
0.0
 30
0.0
  9
$EXTMIN
 10
19.976810085920189
 20
14.98016415049233
 30
-0.0000000349181948
  9
$EXTMAX
 10
215.0212896170911
 20
290.01526047714287
 30
0.0000000814935746
  9
$LIMMIN
 10
0.0
 20
0.0
  9
$LIMMAX
 10
195.00000000000011
 20
275.0
  9
$ORTHOMODE
 70
     0
  9
$REGENMODE
 70
     1
  9
$FILLMODE
 70
     1
  9
$QTEXTMODE
 70
     0
  9
$MIRRTEXT
 70
     1
  9
$DRAGMODE
 70
     2
  9
$LTSCALE
 40
1.0
  9
$OSMODE
 70
  2999
  9
$ATTMODE
 70
     1
  9
$TEXTSIZE
 40
1.0
  9
$TRACEWID
 40
1.0
  9
$TEXTSTYLE
  7
ACISOTS
  9
$CLAYER
  8
0
  9
$CELTYPE
  6
BYLAYER
  9
$CECOLOR
 62
   256
  9
$DIMSCALE
 40
1.0
  9
$DIMASZ
 40
2.5
  9
$DIMEXO
 40
1.0
  9
$DIMDLI
 40
10.0
  9
$DIMRND
 40
0.0
  9
$DIMDLE
 40
0.0
  9
$DIMEXE
 40
1.0
  9
$DIMTP
 40
0.1
  9
$DIMTM
 40
0.1
  9
$DIMTXT
 40
3.5
  9
$DIMCEN
 40
0.0
  9
$DIMTSZ
 40
0.0
  9
$DIMTOL
 70
     0
  9
$DIMLIM
 70
     0
  9
$DIMTIH
 70
     0
  9
$DIMTOH
 70
     0
  9
$DIMSE1
 70
     0
  9
$DIMSE2
 70
     0
  9
$DIMTAD
 70
     1
  9
$DIMZIN
 70
     8
  9
$DIMBLK
  1

  9
$DIMASO
 70
     1
  9
$DIMSHO
 70
     1
  9
$DIMPOST
  1

  9
$DIMAPOST
  1
"
  9
$DIMALT
 70
     0
  9
$DIMALTD
 70
     2
  9
$DIMALTF
 40
0.0393701
  9
$DIMLFAC
 40
1.0
  9
$DIMTOFL
 70
     1
  9
$DIMTVP
 40
0.0
  9
$DIMTIX
 70
     0
  9
$DIMSOXD
 70
     0
  9
$DIMSAH
 70
     0
  9
$DIMBLK1
  1

  9
$DIMBLK2
  1

  9
$DIMSTYLE
  2
AM_ISO
  9
$DIMCLRD
 70
   256
  9
$DIMCLRE
 70
   256
  9
$DIMCLRT
 70
     2
  9
$DIMTFAC
 40
0.71
  9
$DIMGAP
 40
1.5
  9
$LUNITS
 70
     2
  9
$LUPREC
 70
     2
  9
$SKETCHINC
 40
1.0
  9
$FILLETRAD
 40
2.5
  9
$AUNITS
 70
     0
  9
$AUPREC
 70
     0
  9
$MENU
  1
.
  9
$ELEVATION
 40
0.0
  9
$PELEVATION
 40
0.0
  9
$THICKNESS
 40
0.0
  9
$LIMCHECK
 70
     0
  9
$BLIPMODE
 70
     0
  9
$CHAMFERA
 40
2.5
  9
$CHAMFERB
 40
2.5
  9
$SKPOLY
 70
     0
  9
$TDCREATE
 40
2454139.569377894
  9
$TDUPDATE
 40
2454139.5780052771
  9
$TDINDWG
 40
0.0086297338
  9
$TDUSRTIMER
 40
0.0086297338
  9
$USRTIMER
 70
     1
  9
$ANGBASE
 50
0.0
  9
$ANGDIR
 70
     0
  9
$PDMODE
 70
     0
  9
$PDSIZE
 40
0.0
  9
$PLINEWID
 40
0.0
  9
$COORDS
 70
     2
  9
$SPLFRAME
 70
     0
  9
$SPLINETYPE
 70
     6
  9
$SPLINESEGS
 70
     8
  9
$ATTDIA
 70
     1
  9
$ATTREQ
 70
     1
  9
$HANDLING
 70
     1
  9
$HANDSEED
  5
A55
  9
$SURFTAB1
 70
     6
  9
$SURFTAB2
 70
     6
  9
$SURFTYPE
 70
     6
  9
$SURFU
 70
     6
  9
$SURFV
 70
     6
  9
$UCSNAME
  2

  9
$UCSORG
 10
0.0
 20
0.0
 30
0.0
  9
$UCSXDIR
 10
1.0
 20
0.0
 30
0.0
  9
$UCSYDIR
 10
0.0
 20
1.0
 30
0.0
  9
$PUCSNAME
  2

  9
$PUCSORG
 10
0.0
 20
0.0
 30
0.0
  9
$PUCSXDIR
 10
1.0
 20
0.0
 30
0.0
  9
$PUCSYDIR
 10
0.0
 20
1.0
 30
0.0
  9
$USERI1
 70
     0
  9
$USERI2
 70
     0
  9
$USERI3
 70
     0
  9
$USERI4
 70
     0
  9
$USERI5
 70
     0
  9
$USERR1
 40
0.0
  9
$USERR2
 40
0.0
  9
$USERR3
 40
0.0
  9
$USERR4
 40
0.0
  9
$USERR5
 40
0.0
  9
$WORLDVIEW
 70
     1
  9
$SHADEDGE
 70
     3
  9
$SHADEDIF
 70
    70
  9
$TILEMODE
 70
     1
  9
$MAXACTVP
 70
    64
  9
$PLIMCHECK
 70
     0
  9
$PEXTMIN
 10
1.0000000000000000E+020
 20
1.0000000000000000E+020
 30
1.0000000000000000E+020
  9
$PEXTMAX
 10
-1.0000000000000000E+020
 20
-1.0000000000000000E+020
 30
-1.0000000000000000E+020
  9
$PLIMMIN
 10
-6.350006103515625
 20
-6.3499999046325684
  9
$PLIMMAX
 10
273.04998779296881
 20
209.54999399185181
  9
$UNITMODE
 70
     0
  9
$VISRETAIN
 70
     1
  9
$PLINEGEN
 70
     0
  9
$PSLTSCALE
 70
     1
  0
ENDSEC
  0
SECTION
  2
TABLES
  0
TABLE
  2
VPORT
 70
    78
  0
VPORT
  2
*ACTIVE
 70
     0
 10
0.0
 20
0.0
 11
1.0
 21
1.0
 12
117.4990498515056
 22
152.4977123138176
 13
0.0
 23
0.0
 14
2.5
 24
2.5
 15
10.0
 25
10.0
 16
0.0
 26
0.0
 36
1.0
 17
0.0
 27
0.0
 37
0.0
 40
277.16990949348099
 41
0.7551813471502591
 42
50.0
 43
0.0
 44
0.0
 50
0.0
 51
0.0
 71
    16
 72
   100
 73
     1
 74
     3
 75
     0
 76
     0
 77
     0
 78
     0
  0
ENDTAB
  0
TABLE
  2
LTYPE
 70
    20
  0
LTYPE
  2
CONTINUOUS
 70
     0
  3
Solid line
 72
    65
 73
     0
 40
0.0
  0
LTYPE
  2
AM_ISO02W050
 70
     0
  3
__ __ __ __ __ __ __ __ __ __ __ __ __ __ __
 72
    65
 73
     2
 40
7.5
 49
6.0
 49
-1.5
  0
LTYPE
  2
AM_ISO08W050
 70
     0
  3
____ . ____ . ____ . ____ . ____ . ____ . ____
 72
    65
 73
     4
 40
18.0
 49
12.0
 49
-1.5
 49
3.0
 49
-1.5
  0
LTYPE
  2
AM_ISO09W050
 70
     0
  3
_____ . . _____ . . _____ . . ____ .. ____
 72
    65
 73
     6
 40
22.5
 49
12.0
 49
-1.5
 49
3.0
 49
-1.5
 49
3.0
 49
-1.5
  0
LTYPE
  2
AMCONSTR
 70
     0
  3
_______________________
 72
    65
 73
     2
 40
9999.0
 49
9999.0
 49
0.0
  0
LTYPE
  2
AM_ISO08W050X2
 70
     0
  3
__ . __ . __ . __ . __ . __
 72
    65
 73
     4
 40
9.0
 49
6.0
 49
-0.75
 49
1.5
 49
-0.75
  0
LTYPE
  2
AM_ISO02W050X2
 70
     0
  3
 _ _ _ _ _ _ _ _ _ _ _ _
 72
    65
 73
     2
 40
3.75
 49
3.0
 49
-0.75
  0
LTYPE
  2
AMZIGZAG
 70
     0
  3
/\/-/\/-/\/-/\/-/\/-/\/
 72
    65
 73
     2
 40
11.0001
 49
0.0001
 49
-11.0
  0
LTYPE
  2
ACISOWELD
 70
     0
  3
_ _ _ _ _
 72
    65
 73
     2
 40
2.0
 49
2.0
 49
-1.0
  0
LTYPE
  2
ACISOTGB
 70
     0
  3
__ . . __ . .
 72
    65
 73
     6
 40
9.0
 49
4.0
 49
-1.0
 49
1.0
 49
-1.0
 49
1.0
 49
-1.0
  0
LTYPE
  2
ACISOTGL
 70
     0
  3
_ _ _ _ _
 72
    65
 73
     2
 40
3.0
 49
2.0
 49
-1.0
  0
LTYPE
  2
CENTER
 70
     0
  3
__ . __
 72
    65
 73
     4
 40
7.0
 49
4.0
 49
-1.0
 49
1.0
 49
-1.0
  0
LTYPE
  2
HIDDEN
 70
     0
  3
Hidden __ __ __ __ __ __ __ __ __ __ __ __ __ _
 72
    65
 73
     2
 40
9.5249999999999986
 49
6.3499999999999988
 49
-3.1749999999999989
  0
LTYPE
  2
PHANTOM2
 70
     0
  3
Phantom (.5x) ___ _ _ ___ _ _ ___ _ _ ___ _ _
 72
    65
 73
     6
 40
31.75
 49
15.875
 49
-3.1749999999999989
 49
3.1749999999999989
 49
-3.1749999999999989
 49
3.1749999999999989
 49
-3.1749999999999989
  0
LTYPE
  2
GEN3
 70
     0
  3
-- -- -- -- -- -- -- -- -- -- -- -- -- -- --
 72
    65
 73
     2
 40
6.25
 49
4.75
 49
-1.5
  0
LTYPE
  2
GEN7
 70
     0
  3
____ . ____ . ____ . ____ . ____ . ____ . ____
 72
    65
 73
     4
 40
13.75
 49
9.75
 49
-1.5
 49
1.0
 49
-1.5
  0
LTYPE
  2
GEN3A
 70
     0
  3
 - - - - -
 72
    65
 73
     2
 40
3.125
 49
2.25
 49
-0.875
  0
LTYPE
  2
GEN7A
 70
     0
  3
__ . __ . __
 72
    65
 73
     4
 40
6.875
 49
4.75
 49
-0.875
 49
0.375
 49
-0.875
  0
LTYPE
  2
GEN4A
 70
     0
  3
_____ . . _____ . . _____ . . ____ .. ____
 72
    65
 73
     6
 40
16.25
 49
9.75
 49
-1.5
 49
1.0
 49
-1.5
 49
1.0
 49
-1.5
  0
LTYPE
  2
GENZIGZAG
 70
     0
  3
/\/-/\/-/\/-/\/-/\/-/\/
 72
    65
 73
     2
 40
12.0001
 49
0.0001
 49
-12.0
  0
ENDTAB
  0
TABLE
  2
LAYER
 70
    24
  0
LAYER
  2
0
 70
     0
 62
     7
  6
CONTINUOUS
  0
LAYER
  2
TK1
 70
     0
 62
     7
  6
CONTINUOUS
  0
LAYER
  2
TK10
 70
     0
 62
     7
  6
AM_ISO02W050X2
  0
LAYER
  2
TK2
 70
     0
 62
     2
  6
CONTINUOUS
  0
LAYER
  2
TK3
 70
     0
 62
     5
  6
CONTINUOUS
  0
LAYER
  2
TK4
 70
     0
 62
     3
  6
CONTINUOUS
  0
LAYER
  2
TK5
 70
     0
 62
     4
  6
CONTINUOUS
  0
LAYER
  2
TK6
 70
     0
 62
     6
  6
CONTINUOUS
  0
LAYER
  2
TK7
 70
     0
 62
     1
  6
CONTINUOUS
  0
LAYER
  2
TK8
 70
     0
 62
     8
  6
CONTINUOUS
  0
LAYER
  2
TK20
 70
     0
 62
     2
  6
AM_ISO02W050X2
  0
LAYER
  2
TK30
 70
     0
 62
     5
  6
AM_ISO02W050X2
  0
LAYER
  2
TK40
 70
     0
 62
     3
  6
AM_ISO02W050X2
  0
LAYER
  2
TK50
 70
     0
 62
     4
  6
AM_ISO02W050X2
  0
LAYER
  2
TK60
 70
     0
 62
     6
  6
AM_ISO02W050X2
  0
LAYER
  2
TK70
 70
     0
 62
     1
  6
AM_ISO02W050X2
  0
LAYER
  2
TK80
 70
     0
 62
     8
  6
AM_ISO02W050X2
  0
LAYER
  2
AM_5
 70
     0
 62
     3
  6
CONTINUOUS
  0
LAYER
  2
AM_7
 70
     0
 62
     4
  6
AM_ISO08W050
  0
LAYER
  2
DEFPOINTS
 70
     0
 62
     7
  6
CONTINUOUS
  0
LAYER
  2
7A
 70
     0
 62
     4
  6
GEN7A
  0
LAYER
  2
RAHM2
 70
     0
 62
     1
  6
CONTINUOUS
  0
LAYER
  2
AM_12
 70
     0
 62
     7
  6
CONTINUOUS
  0
LAYER
  2
AM_PAREF
 70
     0
 62
     4
  6
CONTINUOUS
  0
ENDTAB
  0
TABLE
  2
STYLE
 70
     8
  0
STYLE
  2
STANDARD
 70
     0
 40
0.0
 41
1.0
 50
0.0
 71
     0
 42
1.0
  3
ISOCP.SHX
  4
EXTFONT.SHX
  0
STYLE
  2

 70
     1
 40
0.0
 41
1.0
 50
0.0
 71
     0
 42
2.5
  3
ltypeshp.shx
  4

  0
STYLE
  2
ACISOTS
 70
     0
 40
1.0
 41
1.0
 50
0.0
 71
     0
 42
1.0
  3
isocp.shx
  4
bigfont.shx
  0
STYLE
  2
ACISOGDT
 70
     0
 40
0.0
 41
1.0
 50
0.0
 71
     0
 42
2.5
  3
amgdt.shx
  4

  0
STYLE
  2
USER1
 70
     0
 40
0.0
 41
1.0
 50
0.0
 71
     0
 42
2.5
  3
TXT.SHX
  4

  0
STYLE
  2
USER2
 70
     0
 40
0.0
 41
1.0
 50
0.0
 71
     0
 42
2.5
  3
SIMPLEX.SHX
  4

  0
STYLE
  2
USER3
 70
     0
 40
0.0
 41
1.0
 50
0.0
 71
     0
 42
2.5
  3
ITALIC.SHX
  4

  0
STYLE
  2

 70
     1
 40
0.0
 41
1.0
 50
0.0
 71
     0
 42
3.0
  3
genltshp.shx
  4

  0
ENDTAB
  0
TABLE
  2
VIEW
 70
     6
  0
VIEW
  2
AM_VIEW1
 70
     0
 40
137.5
 10
107.06666666666671
 20
206.25
 41
214.13333333333341
 11
0.0
 21
0.0
 31
1.0
 12
0.0
 22
0.0
 32
0.0
 42
50.0
 43
0.0
 44
0.0
 50
0.0
 71
    16
  0
VIEW
  2
AM_VIEW2
 70
     0
 40
137.5
 10
87.933333333333437
 20
206.25
 41
214.13333333333341
 11
0.0
 21
0.0
 31
1.0
 12
0.0
 22
0.0
 32
0.0
 42
50.0
 43
0.0
 44
0.0
 50
0.0
 71
    16
  0
VIEW
  2
AM_VIEW3
 70
     0
 40
137.5
 10
107.06666666666671
 20
68.750000000000014
 41
214.13333333333341
 11
0.0
 21
0.0
 31
1.0
 12
0.0
 22
0.0
 32
0.0
 42
50.0
 43
0.0
 44
0.0
 50
0.0
 71
    16
  0
VIEW
  2
AM_VIEW4
 70
     0
 40
137.5
 10
87.933333333333437
 20
68.750000000000014
 41
214.13333333333341
 11
0.0
 21
0.0
 31
1.0
 12
0.0
 22
0.0
 32
0.0
 42
50.0
 43
0.0
 44
0.0
 50
0.0
 71
    16
  0
VIEW
  2
AM_VIEW5
 70
     0
 40
137.5
 10
97.500000000000071
 20
137.5
 41
214.1333333333333
 11
0.0
 21
0.0
 31
1.0
 12
0.0
 22
0.0
 32
0.0
 42
50.0
 43
0.0
 44
0.0
 50
0.0
 71
    16
  0
VIEW
  2
AM_VIEW6
 70
     0
 40
274.99725000000012
 10
97.500000000000057
 20
137.5
 41
428.262384
 11
0.0
 21
0.0
 31
1.0
 12
0.0
 22
0.0
 32
0.0
 42
50.0
 43
0.0
 44
0.0
 50
0.0
 71
    16
  0
ENDTAB
  0
TABLE
  2
UCS
 70
     0
  0
ENDTAB
  0
TABLE
  2
APPID
 70
    35
  0
APPID
  2
ACAD
 70
     0
  0
APPID
  2
MCAD_NO_VIS
 70
     0
  0
APPID
  2
ACAD_TEMP_GRAPHIC
 70
     0
  0
APPID
  2
ACATTRIBSERVICES
 70
     0
  0
APPID
  2
AD_DRAW
 70
     0
  0
APPID
  2
DESIGNERASSEMBLIES
 70
     0
  0
APPID
  2
ACADM_DIM_EDIT
 70
     0
  0
APPID
  2
AMDT_DM_ADJ
 70
     0
  0
APPID
  2
GENIUS_GENREC_14
 70
     0
  0
APPID
  2
GENIUS_GENODEF_13
 70
     0
  0
APPID
  2
GENIUS_GENOBJ-N-REC_13
 70
     0
  0
APPID
  2
GENIUS_GENCFG_13
 70
     0
  0
APPID
  2
GENIUS_GENCFG0_13
 70
     0
  0
APPID
  2
GENIUS_GENCFG1_13
 70
     0
  0
APPID
  2
GENIUS_GENCFG2_13
 70
     0
  0
APPID
  2
GENIUS_GENCFG3_13
 70
     0
  0
APPID
  2
GENIUS_GENCFG4_13
 70
     0
  0
APPID
  2
GENIUS_GEVCFG0_13
 70
     0
  0
APPID
  2
GENIUS_GENOENT_13
 70
     0
  0
APPID
  2
GENIUS_GENDIMSH_14
 70
     0
  0
APPID
  2
GENIUS_GENOBJ-N-CRS_13
 70
     0
  0
APPID
  2
GENIUS_GENOREF_13
 70
     0
  0
APPID
  2
GENIUS_GENOLIS_13
 70
     0
  0
APPID
  2
GENIUS_GENOBJ-N-TIT_13
 70
     0
  0
APPID
  2
GENIUS_GENTITLE_13
 70
     0
  0
APPID
  2
GENIUS_GENSCREG_15
 70
     0
  0
APPID
  2
GENIUS_GENOBJ-N-SDF_13
 70
     0
  0
APPID
  2
GENIUS_GENOBJ-N-CEN_13
 70
     0
  0
APPID
  2
GENIUS_GENOBJ-N-HTC_13
 70
     0
  0
APPID
  2
GENIUS_GENHATCH_13
 70
     0
  0
APPID
  2
GENIUS_GENOBJ-N-ZOO_13
 70
     0
  0
APPID
  2
GENIUS_GENZOO_17
 70
     0
  0
APPID
  2
GEV_VCCNULL_SWITCH_OFF
 70
     0
  0
APPID
  2
GENIUS_GENDTOL_13
 70
     0
  0
APPID
  2
GENIUS_GENSCREG_13
 70
     0
  0
ENDTAB
  0
TABLE
  2
DIMSTYLE
 70
    15
  0
DIMSTYLE
  2
ISO-25
 70
     0
  3

  4

  5

  6

  7

 40
1.0
 41
2.5
 42
0.625
 43
3.75
 44
1.25
 45
0.0
 46
0.0
 47
0.0
 48
0.0
140
2.5
141
2.5
142
0.0
143
0.03937007874016
144
1.0
145
0.0
146
1.0
147
0.625
 71
     0
 72
     0
 73
     0
 74
     0
 75
     0
 76
     0
 77
     1
 78
     8
170
     0
171
     3
172
     1
173
     0
174
     0
175
     0
176
     0
177
     0
178
     0
  0
DIMSTYLE
  2
AM_ISO
 70
     0
  3

  4
"
  5

  6

  7

 40
1.0
 41
2.5
 42
1.0
 43
10.0
 44
1.0
 45
0.0
 46
0.0
 47
0.1
 48
0.1
140
3.5
141
0.0
142
0.0
143
0.0393701
144
1.0
145
0.0
146
0.71
147
1.5
 71
     0
 72
     0
 73
     0
 74
     0
 75
     0
 76
     0
 77
     1
 78
     8
170
     0
171
     2
172
     1
173
     0
174
     0
175
     0
176
   256
177
   256
178
     2
  0
DIMSTYLE
  2
AM_ISO$3
 70
     0
  3

  4
"
  5

  6

  7

 40
1.0
 41
2.5
 42
1.0
 43
10.0
 44
1.0
 45
0.0
 46
0.0
 47
0.1
 48
0.1
140
3.5
141
0.0
142
0.0
143
0.0393701
144
1.0
145
0.0
146
0.71
147
1.5
 71
     0
 72
     0
 73
     0
 74
     1
 75
     0
 76
     0
 77
     1
 78
     8
170
     0
171
     2
172
     0
173
     0
174
     0
175
     0
176
   256
177
   256
178
     2
  0
DIMSTYLE
  2
AM_ISO$4
 70
     0
  3

  4
"
  5

  6

  7

 40
1.0
 41
2.5
 42
1.0
 43
10.0
 44
1.0
 45
0.0
 46
0.0
 47
0.1
 48
0.1
140
3.5
141
0.0
142
0.0
143
0.0393701
144
1.0
145
0.0
146
0.71
147
1.5
 71
     0
 72
     0
 73
     0
 74
     1
 75
     0
 76
     0
 77
     1
 78
     8
170
     0
171
     2
172
     0
173
     0
174
     0
175
     0
176
   256
177
   256
178
     2
  0
DIMSTYLE
  2
AM_ISO$6
 70
     0
  3

  4
"
  5

  6

  7

 40
1.0
 41
2.5
 42
1.0
 43
10.0
 44
1.0
 45
0.0
 46
0.0
 47
0.1
 48
0.1
140
3.5
141
0.0
142
0.0
143
0.0393701
144
1.0
145
0.0
146
0.71
147
1.5
 71
     0
 72
     0
 73
     0
 74
     0
 75
     0
 76
     0
 77
     0
 78
     8
170
     0
171
     2
172
     1
173
     0
174
     0
175
     0
176
   256
177
   256
178
     2
  0
DIMSTYLE
  2
AM_ISO$7
 70
     0
  3

  4
"
  5

  6

  7

 40
1.0
 41
2.5
 42
1.0
 43
10.0
 44
1.0
 45
0.0
 46
0.0
 47
0.1
 48
0.1
140
5.0
141
0.0
142
0.0
143
0.0393701
144
1.0
145
0.0
146
0.71
147
1.5
 71
     0
 72
     0
 73
     0
 74
     0
 75
     0
 76
     0
 77
     1
 78
     8
170
     0
171
     2
172
     1
173
     0
174
     0
175
     0
176
   256
177
   256
178
     2
  0
DIMSTYLE
  2
AM_ISO$SF
 70
     0
  3

  4
"
  5

  6

  7

 40
1.0
 41
2.5
 42
1.0
 43
10.0
 44
1.0
 45
0.0
 46
0.0
 47
0.1
 48
0.1
140
3.5
141
0.0
142
0.0
143
0.0393701
144
1.0
145
0.0
146
0.71
147
1.5
 71
     0
 72
     0
 73
     0
 74
     0
 75
     1
 76
     1
 77
     1
 78
     8
170
     0
171
     2
172
     1
173
     0
174
     0
175
     0
176
   256
177
   256
178
     2
  0
DIMSTYLE
  2
AM_ISO$SH
 70
     0
  3

  4
"
  5

  6
GENAXEH
  7

 40
1.0
 41
2.5
 42
1.0
 43
10.0
 44
1.0
 45
0.0
 46
0.0
 47
0.1
 48
0.1
140
3.5
141
0.0
142
0.0
143
0.0393701
144
2.0
145
0.0
146
0.71
147
1.5
 71
     0
 72
     0
 73
     0
 74
     0
 75
     1
 76
     1
 77
     1
 78
     8
170
     0
171
     2
172
     1
173
     1
174
     0
175
     0
176
   256
177
   256
178
     2
  0
DIMSTYLE
  2
GEN-ISO
 70
     0
  3

  4
"
  5

  6

  7

 40
1.0
 41
2.5
 42
1.0
 43
10.0
 44
1.0
 45
0.0
 46
0.0
 47
0.1
 48
0.1
140
3.5
141
0.0
142
0.0
143
0.0393701
144
1.0
145
0.0
146
0.71
147
1.5
 71
     0
 72
     0
 73
     0
 74
     0
 75
     0
 76
     0
 77
     1
 78
     8
170
     0
171
     2
172
     1
173
     0
174
     0
175
     0
176
   256
177
   256
178
     2
  0
DIMSTYLE
  2
GEN-ISO$3
 70
     0
  3

  4
"
  5

  6

  7

 40
1.0
 41
2.5
 42
1.0
 43
10.0
 44
1.0
 45
0.0
 46
0.0
 47
0.1
 48
0.1
140
3.5
141
0.0
142
0.0
143
0.0393701
144
1.0
145
0.0
146
0.71
147
1.5
 71
     0
 72
     0
 73
     0
 74
     1
 75
     0
 76
     0
 77
     1
 78
     8
170
     0
171
     2
172
     0
173
     0
174
     0
175
     0
176
   256
177
   256
178
     2
  0
DIMSTYLE
  2
GEN-ISO$4
 70
     0
  3

  4
"
  5

  6

  7

 40
1.0
 41
2.5
 42
1.0
 43
10.0
 44
1.0
 45
0.0
 46
0.0
 47
0.1
 48
0.1
140
3.5
141
0.0
142
0.0
143
0.0393701
144
1.0
145
0.0
146
0.71
147
1.5
 71
     0
 72
     0
 73
     0
 74
     1
 75
     0
 76
     0
 77
     1
 78
     8
170
     0
171
     2
172
     0
173
     0
174
     0
175
     0
176
   256
177
   256
178
     2
  0
DIMSTYLE
  2
GEN-ISO$6
 70
     0
  3

  4
"
  5

  6

  7

 40
1.0
 41
2.5
 42
1.0
 43
10.0
 44
1.0
 45
0.0
 46
0.0
 47
0.1
 48
0.1
140
3.5
141
0.0
142
0.0
143
0.0393701
144
1.0
145
0.0
146
0.71
147
1.5
 71
     0
 72
     0
 73
     0
 74
     0
 75
     0
 76
     0
 77
     0
 78
     8
170
     0
171
     2
172
     0
173
     0
174
     0
175
     0
176
   256
177
   256
178
     2
  0
DIMSTYLE
  2
GEN-ISO-POS
 70
     0
  3

  4
"
  5

  6

  7

 40
1.0
 41
2.5
 42
1.0
 43
10.0
 44
1.0
 45
0.0
 46
0.0
 47
0.1
 48
0.1
140
5.0
141
0.0
142
0.0
143
0.0393701
144
1.0
145
0.0
146
0.71
147
1.5
 71
     0
 72
     0
 73
     0
 74
     0
 75
     0
 76
     0
 77
     0
 78
     8
170
     0
171
     2
172
     0
173
     0
174
     0
175
     0
176
   256
177
   256
178
     2
  0
DIMSTYLE
  2
GEN-ISO-AXE-F
 70
     0
  3

  4
"
  5

  6

  7

 40
1.0
 41
2.5
 42
1.0
 43
10.0
 44
1.0
 45
0.0
 46
0.0
 47
0.1
 48
0.1
140
3.5
141
0.0
142
0.0
143
0.0393701
144
1.0
145
0.0
146
0.71
147
1.5
 71
     0
 72
     0
 73
     0
 74
     0
 75
     1
 76
     1
 77
     1
 78
     8
170
     0
171
     2
172
     1
173
     0
174
     0
175
     0
176
   256
177
   256
178
     2
  0
DIMSTYLE
  2
GEN-ISO-AXE-H
 70
     0
  3

  4
"
  5

  6

  7

 40
1.0
 41
2.5
 42
1.0
 43
10.0
 44
1.0
 45
0.0
 46
0.0
 47
0.1
 48
0.1
140
3.5
141
0.0
142
0.0
143
0.0393701
144
2.0
145
0.0
146
0.71
147
1.5
 71
     0
 72
     0
 73
     0
 74
     0
 75
     1
 76
     1
 77
     1
 78
     8
170
     0
171
     2
172
     1
173
     1
174
     0
175
     0
176
   256
177
   256
178
     2
  0
ENDTAB
  0
ENDSEC
  0
SECTION
  2
BLOCKS
  0
BLOCK
  8
0
  2
$MODEL_SPACE
 70
     0
 10
0.0
 20
0.0
 30
0.0
  3
$MODEL_SPACE
  1

  0
ENDBLK
  5
21
  8
0
  0
BLOCK
 67
     1
  8
0
  2
$PAPER_SPACE
 70
     0
 10
0.0
 20
0.0
 30
0.0
  3
$PAPER_SPACE
  1

  0
ENDBLK
  5
1D
 67
     1
  8
0
  0
BLOCK
  8
0
  2
GENAXEH
 70
     0
 10
0.0
 20
0.0
 30
0.0
  3
GENAXEH
  1

  0
LINE
  5
88
  8
0
 10
-1.0
 20
0.0
 30
0.0
 11
1.0
 21
0.0
 31
0.0
  0
ENDBLK
  5
8A
  8
0
  0
BLOCK
  8
0
  2
_OPEN30
 70
     0
 10
0.0
 20
0.0
 30
0.0
  3
_OPEN30
  1

  0
LINE
  5
2FD
  8
0
  6
BYBLOCK
 62
     0
 10
-1.0
 20
0.26794919
 30
0.0
 11
0.0
 21
0.0
 31
0.0
  0
LINE
  5
2FE
  8
0
  6
BYBLOCK
 62
     0
 10
0.0
 20
0.0
 30
0.0
 11
-1.0
 21
-0.26794919
 31
0.0
  0
LINE
  5
2FF
  8
0
  6
BYBLOCK
 62
     0
 10
0.0
 20
0.0
 30
0.0
 11
-1.0
 21
0.0
 31
0.0
  0
ENDBLK
  5
300
  8
0
  0
BLOCK
  8
0
  2
TAKACHI-A3
 70
     0
 10
0.0
 20
0.0
 30
0.0
  3
TAKACHI-A3
  1

  0
POLYLINE
  5
328
  8
0
 66
     1
 10
0.0
 20
0.0
 30
0.0
 70
     1
1001
GENIUS_GENREC_14
1002
{
1000
PYDIR
1011
10.000000000000011
1021
0.0
1031
0.0
1021
280.0
1031
0.0
1002
}
1002
{
1000
PXDIR
1011
410.0
1021
0.0
1031
0.0
1021
0.0
1031
0.0
1002
}
1002
{
1000
PORI
1011
10.0
1021
0.0
1031
0.0
1021
0.0
1031
0.0
1002
}
1002
{
1000
PINS
1011
210.0
1021
0.0
1031
0.0
1021
139.99999999999989
1031
0.0
1002
}
1002
{
1000
HVAL
1000
280
1002
}
1002
{
1000
H
1070
     2
1002
}
1002
{
1000
WVAL
1000
400
1002
}
1002
{
1000
W
1070
     2
1002
}
1002
{
1000
C
1070
     4
1002
}
1001
GENIUS_GENODEF_13
1002
{
1000
HIER
1070
     0
1002
}
1002
{
1000
MANEDIT
1070
     0
1002
}
1002
{
1000
NOSEL
1070
     0
1002
}
1002
{
1000
BEHIND
1070
     0
1002
}
1002
{
1000
REACTOR
1002
}
1001
GENIUS_GENOBJ-N-REC_13
1002
{
1000
OWNER
1000
GEN
1002
}
  0
VERTEX
  5
959
  8
0
 10
10.0
 20
0.0
 30
0.0
  0
VERTEX
  5
95A
  8
0
 10
410.0
 20
0.0
 30
0.0
  0
VERTEX
  5
95B
  8
0
 10
410.0
 20
280.0
 30
0.0
  0
VERTEX
  5
95C
  8
0
 10
10.00000000000003
 20
280.0
 30
0.0
  0
SEQEND
  5
95D
  8
0
  0
TEXT
  5
329
  8
0
 10
15.00000000000003
 20
50.0
 30
0.0
 40
2.5
  1
!GENTITLE-LL
  0
TEXT
  5
32A
  8
0
 10
410.0
 20
0.0
 30
0.0
 40
2.5
  1
!GENTITLE-INSERT
  0
TEXT
  5
32B
  8
0
 10
405.0
 20
275.0
 30
0.0
 40
2.5
  1
!GENTITLE-RU
  0
TEXT
  5
32C
  8
0
 10
410.0
 20
280.0
 30
0.0
 40
2.5
  1
!GENTITLE-MAX
  0
LINE
  5
32D
  8
0
 10
366.0
 20
275.0
 30
0.0
 11
410.0
 21
275.0
 31
0.0
  0
INSERT
  5
32E
  8
0
  2
*U37
 10
0.0
 20
0.0
 30
0.0
  0
LINE
  5
32F
  8
0
 10
366.0
 20
280.0
 30
0.0
 11
366.0
 21
275.0
 31
0.0
  0
ENDBLK
  5
332
  8
0
  0
BLOCK
  8
0
  2
TAKACHI-TITLE
 70
     2
 10
0.0
 20
0.0
 30
0.0
  3
TAKACHI-TITLE
  1

  0
LINE
  5
341
  8
RAHM2
 10
-195.0
 20
30.000000000000028
 30
0.0
 11
-94.0
 21
30.000000000000028
 31
0.0
  0
LINE
  5
342
  8
RAHM2
 10
-195.0
 20
35.000000000000028
 30
0.0
 11
-94.0
 21
35.000000000000028
 31
0.0
  0
LINE
  5
343
  8
RAHM2
 10
-195.0
 20
40.000000000000021
 30
0.0
 11
-94.0
 21
40.000000000000021
 31
0.0
  0
LINE
  5
344
  8
RAHM2
 10
-195.0
 20
45.000000000000021
 30
0.0
 11
-94.0
 21
45.000000000000021
 31
0.0
  0
LINE
  5
345
  8
0
 10
-195.0
 20
7.0
 30
0.0
 11
-94.0
 21
7.0
 31
0.0
  0
LINE
  5
346
  8
0
 10
-195.0
 20
19.999999999999972
 30
0.0
 11
-94.0
 21
19.999999999999972
 31
0.0
  0
ATTDEF
  5
347
  8
0
 10
-183.24385271456069
 20
8.6175171910947483
 30
0.0
 40
2.5
  1

 11
-183.24385271456069
 21
8.6175171910947483
 31
0.0
  3
サブタイトル
  2
GEN-TITLE-DES2
 70
     0
 74
     1
  0
ATTDEF
  5
348
  8
0
 10
-183.24385271456069
 20
1.6175171910947479
 30
0.0
 40
3.0
  1

 11
-183.24385271456069
 21
1.6175171910947479
 31
0.0
  3
図番
  2
GEN-TITLE-NR
 70
     0
 74
     1
  0
INSERT
  5
349
  8
0
  2
*U38
 10
0.0
 20
0.0
 30
0.0
  0
ATTDEF
  5
34A
  8
0
 10
-183.24385271456069
 20
13.873952861685011
 30
0.0
 40
4.0
  1

 11
-183.24385271456069
 21
13.873952861685011
 31
0.0
  3
品名
  2
GEN-TITLE-DES1
 70
     0
 74
     1
  0
LINE
  5
34B
  8
RAHM2
 10
-187.57512886940361
 20
30.400000000000041
 30
0.0
 11
-190.0
 21
34.60000000000003
 31
0.0
  0
LINE
  5
34C
  8
RAHM2
 10
-190.0
 20
34.60000000000003
 30
0.0
 11
-192.42487113059639
 21
30.400000000000041
 31
0.0
  0
LINE
  5
34D
  8
RAHM2
 10
-185.0
 20
50.000000000000028
 30
0.0
 11
-185.0
 21
19.99999999999994
 31
0.0
  0
LINE
  5
34E
  8
RAHM2
 10
-192.42487113059639
 20
30.400000000000041
 30
0.0
 11
-187.57512886940361
 21
30.400000000000041
 31
0.0
  0
INSERT
  5
34F
  8
0
  2
*U39
 10
0.0
 20
0.0
 30
0.0
  0
INSERT
  5
350
  8
0
  2
*U40
 10
0.0
 20
0.0
 30
0.0
  0
LINE
  5
351
  8
RAHM2
 10
-192.42487113059639
 20
45.400000000000027
 30
0.0
 11
-187.57512886940361
 21
45.400000000000027
 31
0.0
  0
LINE
  5
352
  8
RAHM2
 10
-187.57512886940361
 20
45.400000000000027
 30
0.0
 11
-190.0
 21
49.600000000000023
 31
0.0
  0
LINE
  5
353
  8
RAHM2
 10
-192.42487113059639
 20
40.400000000000027
 30
0.0
 11
-187.57512886940361
 21
40.400000000000027
 31
0.0
  0
LINE
  5
354
  8
RAHM2
 10
-187.57512886940361
 20
40.400000000000027
 30
0.0
 11
-190.0
 21
44.600000000000023
 31
0.0
  0
LINE
  5
355
  8
RAHM2
 10
-192.42487113059639
 20
35.400000000000041
 30
0.0
 11
-187.57512886940361
 21
35.400000000000041
 31
0.0
  0
LINE
  5
356
  8
RAHM2
 10
-187.57512886940361
 20
35.400000000000041
 30
0.0
 11
-190.0
 21
39.600000000000023
 31
0.0
  0
LINE
  5
357
  8
RAHM2
 10
-190.0
 20
39.600000000000023
 30
0.0
 11
-192.42487113059639
 21
35.400000000000041
 31
0.0
  0
LINE
  5
358
  8
RAHM2
 10
-190.0
 20
44.600000000000023
 30
0.0
 11
-192.42487113059639
 21
40.400000000000027
 31
0.0
  0
LINE
  5
359
  8
RAHM2
 10
-190.0
 20
49.600000000000023
 30
0.0
 11
-192.42487113059639
 21
45.400000000000027
 31
0.0
  0
LINE
  5
35A
  8
RAHM2
 10
-129.0
 20
50.000000000000028
 30
0.0
 11
-129.0
 21
19.99999999999994
 31
0.0
  0
INSERT
  5
35B
  8
0
  2
*U41
 10
0.0
 20
0.0
 30
0.0
  0
LINE
  5
35C
  8
0
 10
-34.0
 20
50.0
 30
0.0
 11
-34.0
 21
0.0
 31
0.0
  0
LINE
  5
35D
  8
0
 10
-94.0
 20
50.0
 30
0.0
 11
-94.0
 21
0.0
 31
0.0
  0
INSERT
  5
35E
  8
0
  2
*U42
 10
0.0
 20
0.0
 30
0.0
  0
LINE
  5
35F
  8
0
 10
-94.0
 20
10.0
 30
0.0
 11
-34.0
 21
10.0
 31
0.0
  0
ATTDEF
  5
360
  8
0
 10
-58.014051197997453
 20
39.255005561783491
 30
0.0
 40
3.0
  1

 72
     2
 11
-58.014051197997453
 21
39.255005561783491
 31
0.0
  3
尺度
  2
GEN-TITLE-SCA
 70
     0
  0
ATTDEF
  5
361
  8
0
 10
-77.002849666490064
 20
30.621807879434751
 30
0.0
 40
3.0
  1

 11
-77.002849666490064
 21
30.621807879434751
 31
0.0
  3
材質
  2
GEN-TITLE-MAT1
 70
     0
 74
     1
  0
ATTDEF
  5
362
  8
0
 10
-77.002849666490064
 20
20.621807879434751
 30
0.0
 40
3.0
  1

 11
-77.002849666490064
 21
20.621807879434751
 31
0.0
  3
表面処理
  2
GEN-TITLE-MAT2
 70
     0
 74
     1
  0
ATTDEF
  5
363
  8
0
 10
-77.002849666490064
 20
11.61751719109475
 30
0.0
 40
3.0
  1

 11
-77.002849666490064
 21
11.61751719109475
 31
0.0
  3
日付
  2
GEN-TITLE-DAT
 70
     0
 74
     1
  0
LINE
  5
364
  8
0
 10
-94.0
 20
37.5
 30
0.0
 11
-34.0
 21
37.5
 31
0.0
  0
LINE
  5
365
  8
0
 10
-94.0
 20
27.5
 30
0.0
 11
-34.0
 21
27.5
 31
0.0
  0
LINE
  5
366
  8
0
 10
-94.0
 20
17.5
 30
0.0
 11
-34.0
 21
17.5
 31
0.0
  0
LINE
  5
367
  8
RAHM2
 10
-109.0
 20
50.000000000000028
 30
0.0
 11
-109.0
 21
19.99999999999994
 31
0.0
  0
INSERT
  5
368
  8
0
  2
*U43
 10
0.0
 20
0.0
 30
0.0
  0
INSERT
  5
369
  8
0
  2
*U44
 10
0.0
 20
0.0
 30
0.0
  0
INSERT
  5
36A
  8
0
  2
*U45
 10
0.0
 20
0.0
 30
0.0
  0
INSERT
  5
36B
  8
0
  2
*U46
 10
0.0
 20
0.0
 30
0.0
  0
INSERT
  5
36C
  8
0
  2
*U47
 10
0.0
 20
0.0
 30
0.0
  0
INSERT
  5
36D
  8
0
  2
*U48
 10
0.0
 20
0.0
 30
0.0
  0
INSERT
  5
36E
  8
0
  2
*U49
 10
0.0
 20
0.0
 30
0.0
  0
INSERT
  5
36F
  8
0
  2
*U50
 10
0.0
 20
0.0
 30
0.0
  0
LINE
  5
370
  8
7A
 10
-89.0
 20
43.75
 30
0.0
 11
-75.218691599714703
 21
43.75
 31
0.0
1001
GENIUS_GENOREF_13
1005
383
  0
LINE
  5
371
  8
0
 10
-84.0
 20
45.75
 30
0.0
 11
-76.0
 21
46.749999999999993
 31
0.0
  0
LINE
  5
372
  8
0
 10
-76.0
 20
40.75
 30
0.0
 11
-84.0
 21
41.749999999999993
 31
0.0
  0
LINE
  5
373
  8
7A
 10
-89.0
 20
43.75
 30
0.0
 11
-89.0
 21
47.324786644731482
 31
0.0
1001
GENIUS_GENOREF_13
1005
383
  0
CIRCLE
  5
374
  8
0
 10
-89.0
 20
43.75
 30
0.0
 40
2.0
  0
CIRCLE
  5
375
  8
0
 10
-89.0
 20
43.75
 30
0.0
 40
3.0
  0
LINE
  5
376
  8
0
 10
-84.0
 20
41.749999999999993
 30
0.0
 11
-84.0
 21
45.75
 31
0.0
  0
INSERT
  5
377
  8
0
  2
*U51
 10
0.0
 20
0.0
 30
0.0
  0
LINE
  5
378
  8
7A
 10
-89.0
 20
43.75
 30
0.0
 11
-92.723037371251166
 21
43.75
 31
0.0
1001
GENIUS_GENOREF_13
1005
383
  0
LINE
  5
379
  8
7A
 10
-89.0
 20
43.75
 30
0.0
 11
-89.0
 21
40.039917242284787
 31
0.0
1001
GENIUS_GENOREF_13
1005
383
  0
LINE
  5
37A
  8
0
 10
-76.0
 20
46.749999999999993
 30
0.0
 11
-76.0
 21
40.75
 31
0.0
  0
LINE
  5
37B
  8
0
 10
-74.0
 20
50.0
 30
0.0
 11
-74.0
 21
37.5
 31
0.0
  0
INSERT
  5
37C
  8
0
  2
*U52
 10
0.0
 20
0.0
 30
0.0
  0
ATTDEF
  5
37D
  8
0
 10
-37.76317379391503
 20
39.255005561783491
 30
0.0
 40
3.0
  1

 72
     2
 11
-37.76317379391503
 21
39.255005561783491
 31
0.0
  3
数量
  2
GEN-TITLE-QTY
 70
     0
  0
LINE
  5
37E
  8
0
 10
-34.0
 20
25.0
 30
0.0
 11
0.0
 21
25.0
 31
0.0
  0
LINE
  5
37F
  8
0
 10
-54.0
 20
50.0
 30
0.0
 11
-54.0
 21
37.5
 31
0.0
  0
INSERT
  5
380
  8
0
  2
*U53
 10
0.0
 20
0.0
 30
0.0
  0
INSERT
  5
381
  8
0
  2
*U54
 10
0.0
 20
0.0
 30
0.0
  0
INSERT
  5
382
  8
0
  2
*U55
 10
0.0
 20
0.0
 30
0.0
  0
POINT
  5
383
  8
0
 10
-320.5355579819676
 20
-138.11048412682541
 30
0.0
1001
GENIUS_GENODEF_13
1002
{
1000
HIER
1070
    10
1002
}
1002
{
1000
MANEDIT
1070
     0
1002
}
1002
{
1000
NOSEL
1070
     0
1002
}
1002
{
1000
BEHIND
1070
     0
1002
}
1002
{
1000
REACTOR
1002
}
1001
GENIUS_GENOBJ-N-CRS_13
1002
{
1000
OWNER
1000
GEN
1002
}
1001
GENIUS_GENOENT_13
1002
{
1000
MYREF
1005
383
1002
}
1002
{
1000
GRP
1005
0
1002
}
1001
GENIUS_GENOLIS_13
1002
{
1000
ENT
1005
379
1005
378
1005
373
1005
370
1002
}
  0
LINE
  5
384
  8
RAHM2
 10
-190.0
 20
29.600000000000019
 30
0.0
 11
-192.42487113059639
 21
25.400000000000041
 31
0.0
  0
LINE
  5
385
  8
RAHM2
 10
-187.57512886940361
 20
25.400000000000041
 30
0.0
 11
-190.0
 21
29.600000000000019
 31
0.0
  0
LINE
  5
386
  8
RAHM2
 10
-192.42487113059639
 20
25.400000000000041
 30
0.0
 11
-187.57512886940361
 21
25.400000000000041
 31
0.0
  0
LINE
  5
387
  8
RAHM2
 10
-195.0
 20
25.000000000000028
 30
0.0
 11
-94.0
 21
25.000000000000028
 31
0.0
  0
INSERT
  5
388
  8
0
  2
*U56
 10
0.0
 20
0.0
 30
0.0
  0
TEXT
  5
389
  8
RAHM2
 10
-190.8155863565801
 20
25.650000000000031
 30
0.0
 40
2.5
  1
1
 72
     1
 11
-190.19058635658021
 21
25.650000000000031
 31
0.0
 73
     1
  0
TEXT
  5
38A
  8
RAHM2
 10
-190.9183316929134
 20
30.650000000000031
 30
0.0
 40
2.5
  1
2
 72
     1
 11
-190.0
 21
30.650000000000031
 31
0.0
 73
     1
  0
TEXT
  5
38B
  8
RAHM2
 10
-190.92677669529661
 20
35.650000000000013
 30
0.0
 40
2.5
  1
3
 72
     1
 11
-190.0
 21
35.650000000000013
 31
0.0
 73
     1
  0
TEXT
  5
38C
  8
RAHM2
 10
-191.0
 20
40.650000000000027
 30
0.0
 40
2.5
  1
4
 72
     1
 11
-190.0
 21
40.650000000000027
 31
0.0
 73
     1
  0
TEXT
  5
38D
  8
RAHM2
 10
-190.92677669529661
 20
45.650000000000027
 30
0.0
 40
2.5
  1
5
 72
     1
 11
-190.0
 21
45.650000000000027
 31
0.0
 73
     1
  0
LINE
  5
38E
  8
0
 10
-17.0
 20
50.0
 30
0.0
 11
-17.0
 21
0.0
 31
0.0
  0
LINE
  5
38F
  8
0
 10
-195.0
 20
0.0
 30
0.0
 11
0.0
 21
0.0
 31
0.0
1001
GENIUS_GENREC_14
1002
{
1000
PYDIR
1011
-184.0
1021
0.0
1031
0.0
1021
50.0
1031
0.0
1002
}
1002
{
1000
PXDIR
1011
0.0
1021
0.0
1031
0.0
1021
0.0
1031
0.0
1002
}
1002
{
1000
PORI
1011
-184.0
1021
0.0
1031
0.0
1021
0.0
1031
0.0
1002
}
1002
{
1000
PINS
1011
-100.5
1021
0.0
1031
0.0
1021
25.0
1031
0.0
1002
}
1002
{
1000
HVAL
1000
50
1002
}
1002
{
1000
H
1070
     2
1002
}
1002
{
1000
WVAL
1000
167
1002
}
1002
{
1000
W
1070
     2
1002
}
1002
{
1000
C
1070
     4
1002
}
1001
GENIUS_GENODEF_13
1002
{
1000
HIER
1070
     0
1002
}
1002
{
1000
MANEDIT
1070
     0
1002
}
1002
{
1000
NOSEL
1070
     0
1002
}
1002
{
1000
BEHIND
1070
     0
1002
}
1002
{
1000
REACTOR
1002
}
1001
GENIUS_GENOBJ-N-REC_13
1002
{
1000
OWNER
1000
GEN
1002
}
  0
LINE
  5
390
  8
0
 10
0.0
 20
0.0
 30
0.0
 11
0.0
 21
50.0
 31
0.0
1001
GENIUS_GENREC_14
1002
{
1000
PYDIR
1011
-184.0
1021
0.0
1031
0.0
1021
50.0
1031
0.0
1002
}
1002
{
1000
PXDIR
1011
0.0
1021
0.0
1031
0.0
1021
0.0
1031
0.0
1002
}
1002
{
1000
PORI
1011
-184.0
1021
0.0
1031
0.0
1021
0.0
1031
0.0
1002
}
1002
{
1000
PINS
1011
-100.5
1021
0.0
1031
0.0
1021
25.0
1031
0.0
1002
}
1002
{
1000
HVAL
1000
50
1002
}
1002
{
1000
H
1070
     2
1002
}
1002
{
1000
WVAL
1000
167
1002
}
1002
{
1000
W
1070
     2
1002
}
1002
{
1000
C
1070
     4
1002
}
1001
GENIUS_GENODEF_13
1002
{
1000
HIER
1070
     0
1002
}
1002
{
1000
MANEDIT
1070
     0
1002
}
1002
{
1000
NOSEL
1070
     0
1002
}
1002
{
1000
BEHIND
1070
     0
1002
}
1002
{
1000
REACTOR
1002
}
1001
GENIUS_GENOBJ-N-REC_13
1002
{
1000
OWNER
1000
GEN
1002
}
  0
LINE
  5
391
  8
0
 10
0.0
 20
50.0
 30
0.0
 11
-195.0
 21
50.000000000000028
 31
0.0
1001
GENIUS_GENREC_14
1002
{
1000
PYDIR
1011
-184.0
1021
0.0
1031
0.0
1021
50.0
1031
0.0
1002
}
1002
{
1000
PXDIR
1011
0.0
1021
0.0
1031
0.0
1021
0.0
1031
0.0
1002
}
1002
{
1000
PORI
1011
-184.0
1021
0.0
1031
0.0
1021
0.0
1031
0.0
1002
}
1002
{
1000
PINS
1011
-100.5
1021
0.0
1031
0.0
1021
25.0
1031
0.0
1002
}
1002
{
1000
HVAL
1000
50
1002
}
1002
{
1000
H
1070
     2
1002
}
1002
{
1000
WVAL
1000
167
1002
}
1002
{
1000
W
1070
     2
1002
}
1002
{
1000
C
1070
     4
1002
}
1001
GENIUS_GENODEF_13
1002
{
1000
HIER
1070
     0
1002
}
1002
{
1000
MANEDIT
1070
     0
1002
}
1002
{
1000
NOSEL
1070
     0
1002
}
1002
{
1000
BEHIND
1070
     0
1002
}
1002
{
1000
REACTOR
1002
}
1001
GENIUS_GENOBJ-N-REC_13
1002
{
1000
OWNER
1000
GEN
1002
}
  0
LINE
  5
392
  8
0
 10
-195.0
 20
50.000000000000028
 30
0.0
 11
-195.0
 21
0.0
 31
0.0
1001
GENIUS_GENREC_14
1002
{
1000
PYDIR
1011
-195.0
1021
0.0
1031
0.0
1021
50.0
1031
0.0
1002
}
1002
{
1000
PXDIR
1011
-11.0
1021
0.0
1031
0.0
1021
0.0
1031
0.0
1002
}
1002
{
1000
PORI
1011
-195.0
1021
0.0
1031
0.0
1021
0.0
1031
0.0
1002
}
1002
{
1000
PINS
1011
-111.5
1021
0.0
1031
0.0
1021
25.0
1031
0.0
1002
}
1002
{
1000
HVAL
1000
50
1002
}
1002
{
1000
H
1070
     2
1002
}
1002
{
1000
WVAL
1000
167
1002
}
1002
{
1000
W
1070
     2
1002
}
1002
{
1000
C
1070
     4
1002
}
1001
GENIUS_GENODEF_13
1002
{
1000
HIER
1070
     0
1002
}
1002
{
1000
MANEDIT
1070
     0
1002
}
1002
{
1000
NOSEL
1070
     0
1002
}
1002
{
1000
BEHIND
1070
     0
1002
}
1002
{
1000
REACTOR
1002
}
1001
GENIUS_GENOBJ-N-REC_13
1002
{
1000
OWNER
1000
GEN
1002
}
  0
INSERT
  5
393
  8
0
  2
*U57
 10
0.0
 20
0.0
 30
0.0
  0
INSERT
  5
394
  8
0
  2
*U58
 10
0.0
 20
0.0
 30
0.0
  0
ENDBLK
  5
397
  8
0
  0
BLOCK
  8
0
  2
*D6
 70
     1
 10
0.0
 20
0.0
 30
0.0
  3
*D6
  1

  0
LINE
  5
498
  8
AM_5
 10
96.901783435616153
 20
157.32041757503779
 30
0.0
 11
96.901783435616153
 21
171.57041857503779
 31
0.0
  0
LINE
  5
499
  8
AM_5
 10
72.401783435616153
 20
159.57041757503779
 30
0.0
 11
72.401783435616153
 21
171.57041857503779
 31
0.0
  0
LINE
  5
49A
  8
AM_5
 10
94.401783435616153
 20
170.57041857503779
 30
0.0
 11
74.901783435616153
 21
170.57041857503779
 31
0.0
  0
INSERT
  5
49B
  8
AM_5
  2
_OPEN30
 10
96.901783435616153
 20
170.57041857503779
 30
0.0
 41
2.5
 42
2.5
 43
2.5
  0
INSERT
  5
49C
  8
AM_5
  2
_OPEN30
 10
72.401783435616153
 20
170.57041857503779
 30
0.0
 41
2.5
 42
2.5
 43
2.5
 50
180.0
  0
INSERT
  5
49D
  8
0
  2
*U59
 10
0.0
 20
0.0
 30
0.0
  0
POINT
  5
49E
  8
DEFPOINTS
 62
     0
 10
96.901783435616153
 20
156.32041757503779
 30
0.0
  0
POINT
  5
49F
  8
DEFPOINTS
 62
     0
 10
72.401783435616153
 20
158.57041757503779
 30
0.0
  0
POINT
  5
4A0
  8
DEFPOINTS
 62
     0
 10
72.401783435616153
 20
170.57041857503779
 30
0.0
  0
ENDBLK
  5
4A1
  8
0
  0
BLOCK
  8
0
  2
*D7
 70
     1
 10
0.0
 20
0.0
 30
0.0
  3
*D7
  1

  0
LINE
  5
4A4
  8
AM_5
 10
72.401783435616153
 20
159.57041757503779
 30
0.0
 11
72.401783435616153
 21
171.57041757503779
 31
0.0
  0
LINE
  5
4A5
  8
AM_5
 10
64.901783435616153
 20
156.32041757503779
 30
0.0
 11
64.901783435616153
 21
171.57041757503779
 31
0.0
  0
LINE
  5
4A6
  8
AM_5
 10
74.901783435616153
 20
170.57041757503779
 30
0.0
 11
77.401783435616153
 21
170.57041757503779
 31
0.0
  0
LINE
  5
4A7
  8
AM_5
 10
62.401783435616153
 20
170.57041757503779
 30
0.0
 11
59.901783435616153
 21
170.57041757503779
 31
0.0
  0
INSERT
  5
4A8
  8
0
  2
*U60
 10
0.0
 20
0.0
 30
0.0
  0
LINE
  5
4A9
  8
AM_5
 10
72.401783435616153
 20
170.57041757503779
 30
0.0
 11
64.901783435616153
 21
170.57041757503779
 31
0.0
  0
INSERT
  5
4AA
  8
AM_5
  2
_OPEN30
 10
72.401783435616153
 20
170.57041757503779
 30
0.0
 41
2.5
 42
2.5
 43
2.5
 50
180.0
  0
INSERT
  5
4AB
  8
AM_5
  2
_OPEN30
 10
64.901783435616153
 20
170.57041757503779
 30
0.0
 41
2.5
 42
2.5
 43
2.5
  0
POINT
  5
4AC
  8
DEFPOINTS
 62
     0
 10
72.401783435616153
 20
158.57041757503779
 30
0.0
  0
POINT
  5
4AD
  8
DEFPOINTS
 62
     0
 10
64.901783435616153
 20
155.32041757503779
 30
0.0
  0
POINT
  5
4AE
  8
DEFPOINTS
 62
     0
 10
64.901783435616153
 20
170.57041757503779
 30
0.0
  0
ENDBLK
  5
4AF
  8
0
  0
BLOCK
  8
0
  2
*D8
 70
     1
 10
0.0
 20
0.0
 30
0.0
  3
*D8
  1

  0
LINE
  5
4B2
  8
AM_5
 10
64.901783435616153
 20
156.32041757503779
 30
0.0
 11
64.901783435616153
 21
181.57041857503779
 31
0.0
  0
LINE
  5
4B3
  8
AM_5
 10
96.901783435616153
 20
157.32041757503779
 30
0.0
 11
96.901783435616153
 21
181.57041857503779
 31
0.0
  0
LINE
  5
4B4
  8
AM_5
 10
67.401783435616153
 20
180.57041857503779
 30
0.0
 11
94.401783435616153
 21
180.57041857503779
 31
0.0
  0
INSERT
  5
4B5
  8
AM_5
  2
_OPEN30
 10
64.901783435616153
 20
180.57041857503779
 30
0.0
 41
2.5
 42
2.5
 43
2.5
 50
180.0
  0
INSERT
  5
4B6
  8
AM_5
  2
_OPEN30
 10
96.901783435616153
 20
180.57041857503779
 30
0.0
 41
2.5
 42
2.5
 43
2.5
  0
INSERT
  5
4B7
  8
0
  2
*U61
 10
0.0
 20
0.0
 30
0.0
  0
POINT
  5
4B8
  8
DEFPOINTS
 62
     0
 10
64.901783435616153
 20
155.32041757503779
 30
0.0
  0
POINT
  5
4B9
  8
DEFPOINTS
 62
     0
 10
96.901783435616153
 20
156.32041757503779
 30
0.0
  0
POINT
  5
4BA
  8
DEFPOINTS
 62
     0
 10
96.901783435616153
 20
180.57041857503779
 30
0.0
  0
ENDBLK
  5
4BB
  8
0
  0
BLOCK
  8
0
  2
*D9
 70
     1
 10
0.0
 20
0.0
 30
0.0
  3
*D9
  1

  0
LINE
  5
4BE
  8
AM_5
 10
9.7823679315086665
 20
160.22041948018909
 30
0.0
 11
9.7823679315086665
 21
172.22041948018909
 31
0.0
  0
LINE
  5
4BF
  8
AM_5
 10
4.7823578316852098
 20
158.05535597072799
 30
0.0
 11
4.7823578316852107
 21
172.22041948018909
 31
0.0
  0
LINE
  5
4C0
  8
AM_5
 10
12.282367931508659
 20
171.22041948018909
 30
0.0
 11
14.782367931508659
 21
171.22041948018909
 31
0.0
  0
LINE
  5
4C1
  8
AM_5
 10
2.2823578316852111
 20
171.22041948018909
 30
0.0
 11
-0.2176421683147884
 21
171.22041948018909
 31
0.0
  0
INSERT
  5
4C2
  8
0
  2
*U62
 10
0.0
 20
0.0
 30
0.0
  0
LINE
  5
4C3
  8
AM_5
 10
9.7823679315086665
 20
171.22041948018909
 30
0.0
 11
4.7823578316852107
 21
171.22041948018909
 31
0.0
  0
INSERT
  5
4C4
  8
AM_5
  2
_OPEN30
 10
9.7823679315086665
 20
171.22041948018909
 30
0.0
 41
2.5
 42
2.5
 43
2.5
 50
180.0
  0
INSERT
  5
4C5
  8
AM_5
  2
_OPEN30
 10
4.7823578316852107
 20
171.22041948018909
 30
0.0
 41
2.5
 42
2.5
 43
2.5
  0
POINT
  5
4C6
  8
DEFPOINTS
 62
     0
 10
9.7823679315086665
 20
159.22041948018909
 30
0.0
  0
POINT
  5
4C7
  8
DEFPOINTS
 62
     0
 10
4.7823578316852098
 20
157.05535597072799
 30
0.0
  0
POINT
  5
4C8
  8
DEFPOINTS
 62
     0
 10
4.7823578316852107
 20
171.22041948018909
 30
0.0
  0
ENDBLK
  5
4C9
  8
0
  0
BLOCK
  8
0
  2
*D10
 70
     1
 10
0.0
 20
0.0
 30
0.0
  3
*D10
  1

  0
LINE
  5
4CC
  8
AM_5
 10
-16.929962632297979
 20
159.2238368577535
 30
0.0
 11
-32.73442476479655
 21
159.2238368577535
 31
0.0
  0
LINE
  5
4CD
  8
AM_5
 10
-16.929962632297979
 20
141.9033287820647
 30
0.0
 11
-32.734424764796557
 21
141.9033287820647
 31
0.0
  0
LINE
  5
4CE
  8
AM_5
 10
-31.73442476479655
 20
156.7238368577535
 30
0.0
 11
-31.734424764796561
 21
144.4033287820647
 31
0.0
  0
INSERT
  5
4CF
  8
AM_5
  2
_OPEN30
 10
-31.73442476479655
 20
159.2238368577535
 30
0.0
 41
2.5
 42
2.5
 43
2.5
 50
90.0
  0
INSERT
  5
4D0
  8
AM_5
  2
_OPEN30
 10
-31.734424764796561
 20
141.9033287820647
 30
0.0
 41
2.5
 42
2.5
 43
2.5
 50
270.0
  0
INSERT
  5
4D1
  8
0
  2
*U63
 10
0.0
 20
0.0
 30
0.0
  0
POINT
  5
4D2
  8
DEFPOINTS
 62
     0
 10
-15.929962632297981
 20
159.2238368577535
 30
0.0
  0
POINT
  5
4D3
  8
DEFPOINTS
 62
     0
 10
-15.929962632297981
 20
141.9033287820647
 30
0.0
  0
POINT
  5
4D4
  8
DEFPOINTS
 62
     0
 10
-31.734424764796561
 20
141.9033287820647
 30
0.0
  0
ENDBLK
  5
4D5
  8
0
  0
BLOCK
  8
0
  2
*D11
 70
     1
 10
0.0
 20
0.0
 30
0.0
  3
*D11
  1

  0
LINE
  5
4D8
  8
AM_5
 10
71.401783435616153
 20
142.57041757503779
 30
0.0
 11
57.000358003538018
 21
142.57041757503779
 31
0.0
  0
LINE
  5
4D9
  8
AM_5
 10
71.401783435616153
 20
158.57041757503779
 30
0.0
 11
57.000358003538018
 21
158.57041757503779
 31
0.0
  0
LINE
  5
4DA
  8
AM_5
 10
58.000358003538032
 20
145.07041757503779
 30
0.0
 11
58.000358003538032
 21
156.07041757503779
 31
0.0
  0
INSERT
  5
4DB
  8
AM_5
  2
_OPEN30
 10
58.000358003538018
 20
142.57041757503779
 30
0.0
 41
2.5
 42
2.5
 43
2.5
 50
270.0
  0
INSERT
  5
4DC
  8
AM_5
  2
_OPEN30
 10
58.000358003538032
 20
158.57041757503779
 30
0.0
 41
2.5
 42
2.5
 43
2.5
 50
90.0
  0
INSERT
  5
4DD
  8
0
  2
*U64
 10
0.0
 20
0.0
 30
0.0
  0
POINT
  5
4DE
  8
DEFPOINTS
 62
     0
 10
72.401783435616153
 20
142.57041757503779
 30
0.0
  0
POINT
  5
4DF
  8
DEFPOINTS
 62
     0
 10
72.401783435616153
 20
158.57041757503779
 30
0.0
  0
POINT
  5
4E0
  8
DEFPOINTS
 62
     0
 10
58.000358003538032
 20
158.57041757503779
 30
0.0
  0
ENDBLK
  5
4E1
  8
0
  0
BLOCK
  8
0
  2
*D12
 70
     1
 10
0.0
 20
0.0
 30
0.0
  3
*D12
  1

  0
LINE
  5
4E4
  8
AM_5
 10
97.901783435616153
 20
144.82041757503779
 30
0.0
 11
109.90178443561609
 21
144.82041757503779
 31
0.0
  0
LINE
  5
4E5
  8
AM_5
 10
97.901783435616153
 20
156.32041757503779
 30
0.0
 11
109.90178443561609
 21
156.32041757503779
 31
0.0
  0
LINE
  5
4E6
  8
AM_5
 10
108.90178443561609
 20
147.32041757503779
 30
0.0
 11
108.90178443561609
 21
153.82041757503779
 31
0.0
  0
INSERT
  5
4E7
  8
AM_5
  2
_OPEN30
 10
108.90178443561609
 20
144.82041757503779
 30
0.0
 41
2.5
 42
2.5
 43
2.5
 50
270.0
  0
INSERT
  5
4E8
  8
AM_5
  2
_OPEN30
 10
108.90178443561609
 20
156.32041757503779
 30
0.0
 41
2.5
 42
2.5
 43
2.5
 50
90.0
  0
INSERT
  5
4E9
  8
0
  2
*U65
 10
0.0
 20
0.0
 30
0.0
  0
POINT
  5
4EA
  8
DEFPOINTS
 62
     0
 10
96.901783435616153
 20
144.82041757503779
 30
0.0
  0
POINT
  5
4EB
  8
DEFPOINTS
 62
     0
 10
96.901783435616153
 20
156.32041757503779
 30
0.0
  0
POINT
  5
4EC
  8
DEFPOINTS
 62
     0
 10
108.90178443561609
 20
156.32041757503779
 30
0.0
  0
ENDBLK
  5
4ED
  8
0
  0
BLOCK
  8
0
  2
*D13
 70
     1
 10
0.0
 20
0.0
 30
0.0
  3
*D13
  1

  0
LINE
  5
4F0
  8
AM_5
 10
-23.429962632297979
 20
155.89370983883131
 30
0.0
 11
-23.429962632297979
 21
172.15044354559211
 31
0.0
  0
LINE
  5
4F1
  8
AM_5
 10
-8.429962632297979
 20
155.89370983883131
 30
0.0
 11
-8.4299626322979773
 21
172.15044354559211
 31
0.0
  0
LINE
  5
4F2
  8
AM_5
 10
-20.929962632297979
 20
171.15044354559211
 30
0.0
 11
-10.929962632297981
 21
171.15044354559211
 31
0.0
  0
INSERT
  5
4F3
  8
AM_5
  2
_OPEN30
 10
-23.429962632297979
 20
171.15044354559211
 30
0.0
 41
2.5
 42
2.5
 43
2.5
 50
180.0
  0
INSERT
  5
4F4
  8
AM_5
  2
_OPEN30
 10
-8.4299626322979773
 20
171.15044354559211
 30
0.0
 41
2.5
 42
2.5
 43
2.5
  0
INSERT
  5
4F5
  8
0
  2
*U66
 10
0.0
 20
0.0
 30
0.0
  0
POINT
  5
4F6
  8
DEFPOINTS
 62
     0
 10
-23.429962632297979
 20
154.89370983883131
 30
0.0
  0
POINT
  5
4F7
  8
DEFPOINTS
 62
     0
 10
-8.429962632297979
 20
154.89370983883131
 30
0.0
  0
POINT
  5
4F8
  8
DEFPOINTS
 62
     0
 10
-8.4299626322979773
 20
171.15044354559211
 30
0.0
  0
ENDBLK
  5
4F9
  8
0
  0
BLOCK
  8
0
  2
*D15
 70
     1
 10
0.0
 20
0.0
 30
0.0
  3
*D15
  1

  0
LINE
  5
796
  8
AM_5
 10
61.140726063298978
 20
188.21273776184469
 30
0.0
 11
61.140726063298978
 21
204.4694714686056
 31
0.0
  0
LINE
  5
797
  8
AM_5
 10
76.140726063298985
 20
188.21273776184469
 30
0.0
 11
76.140726063298985
 21
204.4694714686056
 31
0.0
  0
LINE
  5
798
  8
AM_5
 10
63.640726063298978
 20
203.4694714686056
 30
0.0
 11
73.640726063298985
 21
203.4694714686056
 31
0.0
  0
SOLID
  5
799
  8
AM_5
 10
63.640726063298978
 20
203.8861381352722
 30
0.0
 11
63.640726063298978
 21
203.052804801939
 31
0.0
 12
61.140726063298978
 22
203.4694714686056
 32
0.0
 13
61.140726063298978
 23
203.4694714686056
 33
0.0
  0
SOLID
  5
79A
  8
AM_5
 10
73.640726063298985
 20
203.8861381352722
 30
0.0
 11
73.640726063298985
 21
203.052804801939
 31
0.0
 12
76.140726063298985
 22
203.4694714686056
 32
0.0
 13
76.140726063298985
 23
203.4694714686056
 33
0.0
  0
INSERT
  5
79B
  8
0
  2
*U74
 10
0.0
 20
0.0
 30
0.0
  0
POINT
  5
79C
  8
DEFPOINTS
 62
     0
 10
61.140726063298978
 20
187.21273776184469
 30
0.0
  0
POINT
  5
79D
  8
DEFPOINTS
 62
     0
 10
76.140726063298985
 20
187.21273776184469
 30
0.0
  0
POINT
  5
79E
  8
DEFPOINTS
 62
     0
 10
76.140726063298985
 20
203.4694714686056
 30
0.0
  0
ENDBLK
  5
6B7
  8
0
  0
BLOCK
  8
0
  2
*D16
 70
     1
 10
0.0
 20
0.0
 30
0.0
  3
*D16
  1

  0
LINE
  5
78D
  8
AM_5
 10
182.4724721312131
 20
177.1394454980512
 30
0.0
 11
194.47247313121309
 21
177.1394454980512
 31
0.0
  0
LINE
  5
78E
  8
AM_5
 10
182.4724721312131
 20
188.6394454980512
 30
0.0
 11
194.47247313121309
 21
188.6394454980512
 31
0.0
  0
LINE
  5
78F
  8
AM_5
 10
193.47247313121309
 20
179.6394454980512
 30
0.0
 11
193.47247313121309
 21
186.1394454980512
 31
0.0
  0
SOLID
  5
790
  8
AM_5
 10
193.05580646454649
 20
179.6394454980512
 30
0.0
 11
193.88913979787981
 21
179.6394454980512
 31
0.0
 12
193.47247313121309
 22
177.1394454980512
 32
0.0
 13
193.47247313121309
 23
177.1394454980512
 33
0.0
  0
SOLID
  5
791
  8
AM_5
 10
193.05580646454649
 20
186.1394454980512
 30
0.0
 11
193.88913979787981
 21
186.1394454980512
 31
0.0
 12
193.47247313121309
 22
188.6394454980512
 32
0.0
 13
193.47247313121309
 23
188.6394454980512
 33
0.0
  0
INSERT
  5
792
  8
0
  2
*U73
 10
0.0
 20
0.0
 30
0.0
  0
POINT
  5
793
  8
DEFPOINTS
 62
     0
 10
181.4724721312131
 20
177.1394454980512
 30
0.0
  0
POINT
  5
794
  8
DEFPOINTS
 62
     0
 10
181.4724721312131
 20
188.6394454980512
 30
0.0
  0
POINT
  5
795
  8
DEFPOINTS
 62
     0
 10
193.47247313121309
 20
188.6394454980512
 30
0.0
  0
ENDBLK
  5
6C3
  8
0
  0
BLOCK
  8
0
  2
*D17
 70
     1
 10
0.0
 20
0.0
 30
0.0
  3
*D17
  1

  0
LINE
  5
7AA
  8
AM_5
 10
155.9724721312131
 20
174.8894454980512
 30
0.0
 11
141.571046699135
 21
174.8894454980512
 31
0.0
  0
LINE
  5
7AB
  8
AM_5
 10
155.9724721312131
 20
190.8894454980512
 30
0.0
 11
141.571046699135
 21
190.8894454980512
 31
0.0
  0
LINE
  5
7AC
  8
AM_5
 10
142.571046699135
 20
177.3894454980512
 30
0.0
 11
142.571046699135
 21
188.3894454980512
 31
0.0
  0
SOLID
  5
7AD
  8
AM_5
 10
142.15438003246831
 20
177.3894454980512
 30
0.0
 11
142.9877133658016
 21
177.3894454980512
 31
0.0
 12
142.571046699135
 22
174.8894454980512
 32
0.0
 13
142.571046699135
 23
174.8894454980512
 33
0.0
  0
SOLID
  5
7AE
  8
AM_5
 10
142.15438003246831
 20
188.3894454980512
 30
0.0
 11
142.9877133658016
 21
188.3894454980512
 31
0.0
 12
142.571046699135
 22
190.8894454980512
 32
0.0
 13
142.571046699135
 23
190.8894454980512
 33
0.0
  0
INSERT
  5
7AF
  8
0
  2
*U75
 10
0.0
 20
0.0
 30
0.0
  0
POINT
  5
7B0
  8
DEFPOINTS
 62
     0
 10
156.9724721312131
 20
174.8894454980512
 30
0.0
  0
POINT
  5
7B1
  8
DEFPOINTS
 62
     0
 10
156.9724721312131
 20
190.8894454980512
 30
0.0
  0
POINT
  5
7B2
  8
DEFPOINTS
 62
     0
 10
142.571046699135
 20
190.8894454980512
 30
0.0
  0
ENDBLK
  5
6CF
  8
0
  0
BLOCK
  8
0
  2
*D18
 70
     1
 10
0.0
 20
0.0
 30
0.0
  3
*D18
  1

  0
LINE
  5
77B
  8
AM_5
 10
67.640726063298985
 20
191.54286478076691
 30
0.0
 11
51.836263930800413
 21
191.54286478076691
 31
0.0
  0
LINE
  5
77C
  8
AM_5
 10
67.640726063298985
 20
174.2223567050782
 30
0.0
 11
51.836263930800399
 21
174.2223567050782
 31
0.0
  0
LINE
  5
77D
  8
AM_5
 10
52.836263930800413
 20
189.04286478076691
 30
0.0
 11
52.836263930800413
 21
176.7223567050782
 31
0.0
  0
SOLID
  5
77E
  8
AM_5
 10
52.419597264133749
 20
189.04286478076691
 30
0.0
 11
53.252930597467078
 21
189.04286478076691
 31
0.0
 12
52.836263930800413
 22
191.54286478076691
 32
0.0
 13
52.836263930800413
 23
191.54286478076691
 33
0.0
  0
SOLID
  5
77F
  8
AM_5
 10
52.419597264133749
 20
176.7223567050782
 30
0.0
 11
53.252930597467078
 21
176.7223567050782
 31
0.0
 12
52.836263930800413
 22
174.2223567050782
 32
0.0
 13
52.836263930800413
 23
174.2223567050782
 33
0.0
  0
INSERT
  5
780
  8
0
  2
*U72
 10
0.0
 20
0.0
 30
0.0
  0
POINT
  5
781
  8
DEFPOINTS
 62
     0
 10
68.640726063298985
 20
191.54286478076691
 30
0.0
  0
POINT
  5
782
  8
DEFPOINTS
 62
     0
 10
68.640726063298985
 20
174.2223567050782
 30
0.0
  0
POINT
  5
783
  8
DEFPOINTS
 62
     0
 10
52.836263930800413
 20
174.2223567050782
 30
0.0
  0
ENDBLK
  5
6DB
  8
0
  0
BLOCK
  8
0
  2
*D19
 70
     1
 10
0.0
 20
0.0
 30
0.0
  3
*D19
  1

  0
LINE
  5
770
  8
AM_5
 10
94.353056627105644
 20
192.53944740320259
 30
0.0
 11
94.353056627105644
 21
204.53944740320259
 31
0.0
  0
LINE
  5
771
  8
AM_5
 10
89.353046527282174
 20
190.37438389374151
 30
0.0
 11
89.353046527282174
 21
204.53944740320259
 31
0.0
  0
LINE
  5
772
  8
AM_5
 10
96.853056627105644
 20
203.53944740320259
 30
0.0
 11
99.353056627105644
 21
203.53944740320259
 31
0.0
  0
LINE
  5
773
  8
AM_5
 10
86.853046527282174
 20
203.53944740320259
 30
0.0
 11
84.353046527282174
 21
203.53944740320259
 31
0.0
  0
INSERT
  5
774
  8
0
  2
*U71
 10
0.0
 20
0.0
 30
0.0
  0
LINE
  5
775
  8
AM_5
 10
94.353056627105644
 20
203.53944740320259
 30
0.0
 11
89.353046527282174
 21
203.53944740320259
 31
0.0
  0
SOLID
  5
776
  8
AM_5
 10
96.853056627105644
 20
203.9561140698693
 30
0.0
 11
96.853056627105644
 21
203.1227807365359
 31
0.0
 12
94.353056627105644
 22
203.53944740320259
 32
0.0
 13
94.353056627105644
 23
203.53944740320259
 33
0.0
  0
SOLID
  5
777
  8
AM_5
 10
86.853046527282174
 20
203.9561140698693
 30
0.0
 11
86.853046527282174
 21
203.1227807365359
 31
0.0
 12
89.353046527282174
 22
203.53944740320259
 32
0.0
 13
89.353046527282174
 23
203.53944740320259
 33
0.0
  0
POINT
  5
778
  8
DEFPOINTS
 62
     0
 10
94.353056627105644
 20
191.53944740320259
 30
0.0
  0
POINT
  5
779
  8
DEFPOINTS
 62
     0
 10
89.353046527282174
 20
189.37438389374151
 30
0.0
  0
POINT
  5
77A
  8
DEFPOINTS
 62
     0
 10
89.353046527282174
 20
203.53944740320259
 30
0.0
  0
ENDBLK
  5
6E9
  8
0
  0
BLOCK
  8
0
  2
*D20
 70
     1
 10
0.0
 20
0.0
 30
0.0
  3
*D20
  1

  0
LINE
  5
767
  8
AM_5
 10
149.4724721312131
 20
188.6394454980512
 30
0.0
 11
149.4724721312131
 21
213.8894464980512
 31
0.0
  0
LINE
  5
768
  8
AM_5
 10
181.4724721312131
 20
189.6394454980512
 30
0.0
 11
181.4724721312131
 21
213.8894464980512
 31
0.0
  0
LINE
  5
769
  8
AM_5
 10
151.9724721312131
 20
212.8894464980512
 30
0.0
 11
178.9724721312131
 21
212.8894464980512
 31
0.0
  0
SOLID
  5
76A
  8
AM_5
 10
151.9724721312131
 20
213.30611316471791
 30
0.0
 11
151.9724721312131
 21
212.4727798313846
 31
0.0
 12
149.4724721312131
 22
212.8894464980512
 32
0.0
 13
149.4724721312131
 23
212.8894464980512
 33
0.0
  0
SOLID
  5
76B
  8
AM_5
 10
178.9724721312131
 20
213.30611316471791
 30
0.0
 11
178.9724721312131
 21
212.4727798313846
 31
0.0
 12
181.4724721312131
 22
212.8894464980512
 32
0.0
 13
181.4724721312131
 23
212.8894464980512
 33
0.0
  0
INSERT
  5
76C
  8
0
  2
*U70
 10
0.0
 20
0.0
 30
0.0
  0
POINT
  5
76D
  8
DEFPOINTS
 62
     0
 10
149.4724721312131
 20
187.6394454980512
 30
0.0
  0
POINT
  5
76E
  8
DEFPOINTS
 62
     0
 10
181.4724721312131
 20
188.6394454980512
 30
0.0
  0
POINT
  5
76F
  8
DEFPOINTS
 62
     0
 10
181.4724721312131
 20
212.8894464980512
 30
0.0
  0
ENDBLK
  5
6F5
  8
0
  0
BLOCK
  8
0
  2
*D21
 70
     1
 10
0.0
 20
0.0
 30
0.0
  3
*D21
  1

  0
LINE
  5
75C
  8
AM_5
 10
156.9724721312131
 20
191.8894454980512
 30
0.0
 11
156.9724721312131
 21
203.88944549805129
 31
0.0
  0
LINE
  5
75D
  8
AM_5
 10
149.4724721312131
 20
188.6394454980512
 30
0.0
 11
149.4724721312131
 21
203.88944549805129
 31
0.0
  0
LINE
  5
75E
  8
AM_5
 10
159.4724721312131
 20
202.88944549805129
 30
0.0
 11
161.9724721312131
 21
202.88944549805129
 31
0.0
  0
LINE
  5
75F
  8
AM_5
 10
146.9724721312131
 20
202.88944549805129
 30
0.0
 11
144.4724721312131
 21
202.88944549805129
 31
0.0
  0
INSERT
  5
760
  8
0
  2
*U69
 10
0.0
 20
0.0
 30
0.0
  0
LINE
  5
761
  8
AM_5
 10
156.9724721312131
 20
202.88944549805129
 30
0.0
 11
149.4724721312131
 21
202.88944549805129
 31
0.0
  0
SOLID
  5
762
  8
AM_5
 10
159.4724721312131
 20
203.30611216471789
 30
0.0
 11
159.4724721312131
 21
202.4727788313846
 31
0.0
 12
156.9724721312131
 22
202.88944549805129
 32
0.0
 13
156.9724721312131
 23
202.88944549805129
 33
0.0
  0
SOLID
  5
763
  8
AM_5
 10
146.9724721312131
 20
203.30611216471789
 30
0.0
 11
146.9724721312131
 21
202.4727788313846
 31
0.0
 12
149.4724721312131
 22
202.88944549805129
 32
0.0
 13
149.4724721312131
 23
202.88944549805129
 33
0.0
  0
POINT
  5
764
  8
DEFPOINTS
 62
     0
 10
156.9724721312131
 20
190.8894454980512
 30
0.0
  0
POINT
  5
765
  8
DEFPOINTS
 62
     0
 10
149.4724721312131
 20
187.6394454980512
 30
0.0
  0
POINT
  5
766
  8
DEFPOINTS
 62
     0
 10
149.4724721312131
 20
202.88944549805129
 30
0.0
  0
ENDBLK
  5
703
  8
0
  0
BLOCK
  8
0
  2
*D22
 70
     1
 10
0.0
 20
0.0
 30
0.0
  3
*D22
  1

  0
LINE
  5
753
  8
AM_5
 10
181.4724721312131
 20
189.6394454980512
 30
0.0
 11
181.4724721312131
 21
203.88944649805131
 31
0.0
  0
LINE
  5
754
  8
AM_5
 10
156.9724721312131
 20
191.8894454980512
 30
0.0
 11
156.9724721312131
 21
203.88944649805131
 31
0.0
  0
LINE
  5
755
  8
AM_5
 10
178.9724721312131
 20
202.8894464980512
 30
0.0
 11
159.4724721312131
 21
202.8894464980512
 31
0.0
  0
SOLID
  5
756
  8
AM_5
 10
178.9724721312131
 20
203.30611316471791
 30
0.0
 11
178.9724721312131
 21
202.4727798313846
 31
0.0
 12
181.4724721312131
 22
202.8894464980512
 32
0.0
 13
181.4724721312131
 23
202.8894464980512
 33
0.0
  0
SOLID
  5
757
  8
AM_5
 10
159.4724721312131
 20
203.30611316471791
 30
0.0
 11
159.4724721312131
 21
202.4727798313846
 31
0.0
 12
156.9724721312131
 22
202.8894464980512
 32
0.0
 13
156.9724721312131
 23
202.8894464980512
 33
0.0
  0
INSERT
  5
758
  8
0
  2
*U68
 10
0.0
 20
0.0
 30
0.0
  0
POINT
  5
759
  8
DEFPOINTS
 62
     0
 10
181.4724721312131
 20
188.6394454980512
 30
0.0
  0
POINT
  5
75A
  8
DEFPOINTS
 62
     0
 10
156.9724721312131
 20
190.8894454980512
 30
0.0
  0
POINT
  5
75B
  8
DEFPOINTS
 62
     0
 10
156.9724721312131
 20
202.8894464980512
 30
0.0
  0
ENDBLK
  5
70F
  8
0
  0
BLOCK
  8
0
  2
GEVCON
 70
     0
 10
0.0
 20
0.0
 30
0.0
  3
GEVCON
  1
GEVCON
  0
ENDBLK
  5
716
  8
0
  0
BLOCK
  8
0
  2
GEVEP
 70
     0
 10
0.0
 20
0.0
 30
0.0
  3
GEVEP
  1

  0
LINE
  5
719
  8
0
 10
2.0
 20
-2.0
 30
0.0
 11
-2.0
 21
-2.0
 31
0.0
  0
LINE
  5
71A
  8
0
 10
-2.0
 20
2.0
 30
0.0
 11
2.0
 21
2.0
 31
0.0
  0
LINE
  5
71B
  8
0
 10
2.0
 20
-2.0
 30
0.0
 11
-2.0
 21
2.0
 31
0.0
  0
LINE
  5
71C
  8
0
 10
-2.0
 20
-2.0
 30
0.0
 11
2.0
 21
2.0
 31
0.0
  0
LINE
  5
71D
  8
0
 10
-2.0
 20
-2.0
 30
0.0
 11
-2.0
 21
2.0
 31
0.0
  0
LINE
  5
71E
  8
0
 10
2.0
 20
2.0
 30
0.0
 11
2.0
 21
-2.0
 31
0.0
  0
ENDBLK
  5
71F
  8
0
  0
BLOCK
  8
0
  2
GEVFRAME
 70
     0
 10
0.0
 20
0.0
 30
0.0
  3
GEVFRAME
  1
GEVFRAME
  0
LINE
  5
722
  8
0
 10
0.0
 20
0.0
 30
0.0
 11
1.0
 21
0.0
 31
0.0
  0
LINE
  5
723
  8
0
 10
1.0
 20
0.0
 30
0.0
 11
1.0
 21
1.0
 31
0.0
  0
LINE
  5
724
  8
0
 10
1.0
 20
1.0
 30
0.0
 11
0.0
 21
1.0
 31
0.0
  0
LINE
  5
725
  8
0
 10
0.0
 20
1.0
 30
0.0
 11
0.0
 21
0.0
 31
0.0
  0
ENDBLK
  5
726
  8
0
  0
BLOCK
  8
0
  2
*U26
 70
     1
 10
0.0
 20
0.0
 30
0.0
  3
*U26
  1

  0
ENDBLK
  5
729
  8
0
  0
BLOCK
  8
0
  2
TAKACHI-A4
 70
     0
 10
0.0
 20
0.0
 30
0.0
  3
TAKACHI-A4
  1

  0
TEXT
  5
72D
  8
0
 10
10.0
 20
54.999999999999943
 30
0.0
 40
2.5
  1
!GENTITLE-LL
  0
TEXT
  5
72E
  8
0
 10
215.0
 20
15.0
 30
0.0
 40
2.5
  1
!GENTITLE-INSERT
  0
TEXT
  5
72F
  8
0
 10
215.0
 20
285.00000000000011
 30
0.0
 40
2.5
  1
!GENTITLE-RU
  0
TEXT
  5
730
  8
0
 10
215.00000000000011
 20
290.0
 30
0.0
 40
2.5
  1
!GENTITLE-MAX
  0
LINE
  5
731
  8
0
 10
215.0
 20
290.00000000000011
 30
0.0
 11
20.000000000000028
 21
290.0
 31
0.0
1001
GENIUS_GENREC_14
1002
{
1000
PYDIR
1011
15.00000000000003
1021
0.0
1031
0.0
1021
295.0
1031
0.0
1002
}
1002
{
1000
PXDIR
1011
215.0
1021
0.0
1031
0.0
1021
15.0
1031
0.0
1002
}
1002
{
1000
PORI
1011
15.0
1021
0.0
1031
0.0
1021
15.0
1031
0.0
1002
}
1002
{
1000
PINS
1011
115.0
1021
0.0
1031
0.0
1021
155.0
1031
0.0
1002
}
1002
{
1000
HVAL
1000
280
1002
}
1002
{
1000
H
1070
     2
1002
}
1002
{
1000
WVAL
1000
200
1002
}
1002
{
1000
W
1070
     2
1002
}
1002
{
1000
C
1070
     4
1002
}
  0
LINE
  5
732
  8
0
 10
20.000000000000028
 20
290.0
 30
0.0
 11
19.999999999999972
 21
15.0
 31
0.0
1001
GENIUS_GENREC_14
1002
{
1000
PYDIR
1011
15.00000000000003
1021
0.0
1031
0.0
1021
295.0
1031
0.0
1002
}
1002
{
1000
PXDIR
1011
215.0
1021
0.0
1031
0.0
1021
15.0
1031
0.0
1002
}
1002
{
1000
PORI
1011
15.0
1021
0.0
1031
0.0
1021
15.0
1031
0.0
1002
}
1002
{
1000
PINS
1011
115.0
1021
0.0
1031
0.0
1021
155.0
1031
0.0
1002
}
1002
{
1000
HVAL
1000
280
1002
}
1002
{
1000
H
1070
     2
1002
}
1002
{
1000
WVAL
1000
200
1002
}
1002
{
1000
W
1070
     2
1002
}
1002
{
1000
C
1070
     4
1002
}
  0
LINE
  5
733
  8
0
 10
19.999999999999972
 20
15.0
 30
0.0
 11
215.0
 21
15.0
 31
0.0
1001
GENIUS_GENREC_14
1002
{
1000
PYDIR
1011
15.00000000000003
1021
0.0
1031
0.0
1021
295.0
1031
0.0
1002
}
1002
{
1000
PXDIR
1011
215.0
1021
0.0
1031
0.0
1021
15.0
1031
0.0
1002
}
1002
{
1000
PORI
1011
15.0
1021
0.0
1031
0.0
1021
15.0
1031
0.0
1002
}
1002
{
1000
PINS
1011
115.0
1021
0.0
1031
0.0
1021
155.0
1031
0.0
1002
}
1002
{
1000
HVAL
1000
280
1002
}
1002
{
1000
H
1070
     2
1002
}
1002
{
1000
WVAL
1000
200
1002
}
1002
{
1000
W
1070
     2
1002
}
1002
{
1000
C
1070
     4
1002
}
  0
LINE
  5
734
  8
0
 10
215.0
 20
15.0
 30
0.0
 11
215.00000000000011
 21
290.00000000000011
 31
0.0
1001
GENIUS_GENREC_14
1002
{
1000
PYDIR
1011
15.00000000000003
1021
0.0
1031
0.0
1021
295.0
1031
0.0
1002
}
1002
{
1000
PXDIR
1011
215.0
1021
0.0
1031
0.0
1021
15.0
1031
0.0
1002
}
1002
{
1000
PORI
1011
15.0
1021
0.0
1031
0.0
1021
15.0
1031
0.0
1002
}
1002
{
1000
PINS
1011
115.0
1021
0.0
1031
0.0
1021
155.0
1031
0.0
1002
}
1002
{
1000
HVAL
1000
280
1002
}
1002
{
1000
H
1070
     2
1002
}
1002
{
1000
WVAL
1000
200
1002
}
1002
{
1000
W
1070
     2
1002
}
1002
{
1000
C
1070
     4
1002
}
  0
LINE
  5
735
  8
0
 10
171.00000000000011
 20
285.00000000000011
 30
0.0
 11
215.00000000000011
 21
285.00000000000011
 31
0.0
  0
LINE
  5
736
  8
0
 10
171.00000000000011
 20
290.00000000000011
 30
0.0
 11
171.00000000000011
 21
285.00000000000011
 31
0.0
  0
INSERT
  5
737
  8
0
  2
*U67
 10
0.0
 20
0.0
 30
0.0
  0
ENDBLK
  5
73A
  8
0
  0
BLOCK
  8
0
  2
*D28
 70
     1
 10
0.0
 20
0.0
 30
0.0
  3
*D28
  1

  0
LINE
  5
7E3
  8
AM_5
 10
149.4724721312131
 20
177.1394454980512
 30
0.0
 11
149.4724721312131
 21
164.1394454980512
 31
0.0
  0
LINE
  5
7E4
  8
AM_5
 10
181.4724721312131
 20
176.1394454980512
 30
0.0
 11
181.4724721312131
 21
164.1394454980512
 31
0.0
  0
LINE
  5
7E5
  8
AM_5
 10
151.9724721312131
 20
165.1394454980512
 30
0.0
 11
178.9724721312131
 21
165.1394454980512
 31
0.0
  0
SOLID
  5
7E6
  8
AM_5
 10
151.9724721312131
 20
165.55611216471789
 30
0.0
 11
151.9724721312131
 21
164.7227788313846
 31
0.0
 12
149.4724721312131
 22
165.1394454980512
 32
0.0
 13
149.4724721312131
 23
165.1394454980512
 33
0.0
  0
SOLID
  5
7E7
  8
AM_5
 10
178.9724721312131
 20
165.55611216471789
 30
0.0
 11
178.9724721312131
 21
164.7227788313846
 31
0.0
 12
181.4724721312131
 22
165.1394454980512
 32
0.0
 13
181.4724721312131
 23
165.1394454980512
 33
0.0
  0
INSERT
  5
7E8
  8
0
  2
*U76
 10
0.0
 20
0.0
 30
0.0
  0
POINT
  5
7E9
  8
DEFPOINTS
 62
     0
 10
149.4724721312131
 20
178.1394454980512
 30
0.0
  0
POINT
  5
7EA
  8
DEFPOINTS
 62
     0
 10
181.4724721312131
 20
177.1394454980512
 30
0.0
  0
POINT
  5
7EB
  8
DEFPOINTS
 62
     0
 10
181.4724721312131
 20
165.1394454980512
 30
0.0
  0
ENDBLK
  5
7CE
  8
0
  0
BLOCK
  8
0
  2
*D29
 70
     1
 10
0.0
 20
0.0
 30
0.0
  3
*D29
  1

  0
LINE
  5
82B
  8
AM_5
 10
94.353056627105644
 20
173.21893932751379
 30
0.0
 11
94.353056627105644
 21
161.21893932751379
 31
0.0
  0
LINE
  5
82C
  8
AM_5
 10
89.353056627105616
 20
175.3840026609106
 30
0.0
 11
89.353056627105616
 21
161.21893932751379
 31
0.0
  0
LINE
  5
82D
  8
AM_5
 10
96.853056627105644
 20
162.21893932751379
 30
0.0
 11
99.353056627105644
 21
162.21893932751379
 31
0.0
  0
LINE
  5
82E
  8
AM_5
 10
86.853056627105616
 20
162.21893932751379
 30
0.0
 11
84.353056627105616
 21
162.21893932751379
 31
0.0
  0
LINE
  5
82F
  8
AM_5
 10
94.353056627105644
 20
162.21893932751379
 30
0.0
 11
89.353056627105616
 21
162.21893932751379
 31
0.0
  0
SOLID
  5
830
  8
AM_5
 10
96.853056627105644
 20
162.63560599418051
 30
0.0
 11
96.853056627105644
 21
161.80227266084719
 31
0.0
 12
94.353056627105644
 22
162.21893932751379
 32
0.0
 13
94.353056627105644
 23
162.21893932751379
 33
0.0
  0
SOLID
  5
831
  8
AM_5
 10
86.853056627105616
 20
162.63560599418051
 30
0.0
 11
86.853056627105616
 21
161.80227266084719
 31
0.0
 12
89.353056627105616
 22
162.21893932751379
 32
0.0
 13
89.353056627105616
 23
162.21893932751379
 33
0.0
  0
INSERT
  5
832
  8
0
  2
*U77
 10
0.0
 20
0.0
 30
0.0
  0
POINT
  5
833
  8
DEFPOINTS
 62
     0
 10
94.353056627105644
 20
174.21893932751379
 30
0.0
  0
POINT
  5
834
  8
DEFPOINTS
 62
     0
 10
89.353056627105616
 20
176.3840026609106
 30
0.0
  0
POINT
  5
835
  8
DEFPOINTS
 62
     0
 10
89.353056627105616
 20
162.21893932751379
 30
0.0
  0
ENDBLK
  5
812
  8
0
  0
BLOCK
  8
0
  2
*D30
 70
     1
 10
0.0
 20
0.0
 30
0.0
  3
*D30
  1

  0
LINE
  5
871
  8
AM_5
 10
54.140726897475453
 20
177.54906634643601
 30
0.0
 11
54.140726897475453
 21
161.2189383275138
 31
0.0
  0
LINE
  5
872
  8
AM_5
 10
69.140726897475446
 20
177.54906634643601
 30
0.0
 11
69.140726897475446
 21
161.2189383275138
 31
0.0
  0
LINE
  5
873
  8
AM_5
 10
56.640726897475453
 20
162.2189383275138
 30
0.0
 11
66.640726897475446
 21
162.2189383275138
 31
0.0
  0
SOLID
  5
874
  8
AM_5
 10
56.640726897475453
 20
162.63560499418051
 30
0.0
 11
56.640726897475453
 21
161.8022716608472
 31
0.0
 12
54.140726897475453
 22
162.2189383275138
 32
0.0
 13
54.140726897475453
 23
162.2189383275138
 33
0.0
  0
SOLID
  5
875
  8
AM_5
 10
66.640726897475446
 20
162.63560499418051
 30
0.0
 11
66.640726897475446
 21
161.8022716608472
 31
0.0
 12
69.140726897475446
 22
162.2189383275138
 32
0.0
 13
69.140726897475446
 23
162.2189383275138
 33
0.0
  0
INSERT
  5
876
  8
0
  2
*U78
 10
0.0
 20
0.0
 30
0.0
  0
POINT
  5
877
  8
DEFPOINTS
 62
     0
 10
54.140726897475453
 20
178.54906634643601
 30
0.0
  0
POINT
  5
878
  8
DEFPOINTS
 62
     0
 10
69.140726897475446
 20
178.54906634643601
 30
0.0
  0
POINT
  5
879
  8
DEFPOINTS
 62
     0
 10
69.140726897475446
 20
162.2189383275138
 30
0.0
  0
ENDBLK
  5
850
  8
0
  0
BLOCK
  8
0
  2
*S31
 70
     1
 10
0.0
 20
0.0
 30
0.0
  3
*S31
  1

  0
LINE
  5
8F9
  8
AM_5
 10
192.8943514857605
 20
136.5742283433741
 30
0.0
 11
179.2997117958399
 21
136.5742283433741
 31
0.0
  0
LINE
  5
8FA
  8
AM_5
 10
179.2997117958399
 20
136.5742283433741
 30
0.0
 11
177.55536489932899
 21
133.92385591966931
 31
0.0
  0
TRACE
  5
8FB
  8
AM_5
 10
177.170463696979
 20
134.1771792684099
 30
0.0
 11
177.94026610167899
 21
133.67053257092871
 31
0.0
 12
175.63118302269839
 22
131.0002410158821
 32
0.0
 13
175.63118302269839
 23
131.0002410158821
 33
0.0
  0
INSERT
  5
8FC
  8
0
  2
*U79
 10
0.0
 20
0.0
 30
0.0
  0
ENDBLK
  5
8FE
  8
0
  0
BLOCK
  8
0
  2
*S32
 70
     1
 10
0.0
 20
0.0
 30
0.0
  3
*S32
  1

  0
CIRCLE
  5
901
  8
AM_12
 62
     4
 10
161.30597550437179
 20
186.30727558653859
 30
0.0
 40
1.75
  0
LINE
  5
902
  8
AM_12
 62
     4
 10
159.5559755043719
 20
184.55727558653859
 30
0.0
 11
163.05597550437179
 21
188.05727558653859
 31
0.0
  0
LINE
  5
903
  8
AM_12
 62
     4
 10
159.5559755043719
 20
188.05727558653859
 30
0.0
 11
163.05597550437179
 21
184.55727558653859
 31
0.0
  0
ENDBLK
  5
905
  8
0
  0
BLOCK
  8
0
  2
*S33
 70
     1
 10
0.0
 20
0.0
 30
0.0
  3
*S33
  1

  0
LINE
  5
908
  8
AM_5
 10
172.85647850745499
 20
207.5464508611613
 30
0.0
 11
162.97810722292769
 21
189.38200736602761
 31
0.0
  0
TRACE
  5
909
  8
AM_5
 10
162.57331110655269
 20
189.6021476820884
 30
0.0
 11
163.3829033393026
 21
189.16186704996679
 31
0.0
 12
161.30597550437179
 22
186.30727558653859
 32
0.0
 13
161.30597550437179
 23
186.30727558653859
 33
0.0
  0
INSERT
  5
90A
  8
0
  2
*U80
 10
0.0
 20
0.0
 30
0.0
  0
CIRCLE
  5
90B
  8
AM_5
 62
     3
 10
177.6339977033287
 20
216.3313988025584
 30
0.0
 40
10.0
  0
ENDBLK
  5
90D
  8
0
  0
BLOCK
  8
0
  2
*S34
 70
     1
 10
0.0
 20
0.0
 30
0.0
  3
*S34
  1

  0
CIRCLE
  5
910
  8
AM_12
 62
     4
 10
92.058753335007609
 20
189.26383442129361
 30
0.0
 40
1.75
  0
LINE
  5
911
  8
AM_12
 62
     4
 10
90.308753335007623
 20
187.51383442129361
 30
0.0
 11
93.808753335007623
 21
191.01383442129361
 31
0.0
  0
LINE
  5
912
  8
AM_12
 62
     4
 10
90.308753335007623
 20
191.01383442129361
 30
0.0
 11
93.808753335007623
 21
187.51383442129361
 31
0.0
  0
ENDBLK
  5
914
  8
0
  0
BLOCK
  8
0
  2
*S35
 70
     1
 10
0.0
 20
0.0
 30
0.0
  3
*S35
  1

  0
LINE
  5
917
  8
AM_5
 10
82.60442391625574
 20
209.69253279110441
 30
0.0
 11
90.588756365560911
 21
192.44017018909551
 31
0.0
  0
TRACE
  5
918
  8
AM_5
 10
90.170583830419375
 20
192.24664141748539
 30
0.0
 11
91.006928900702434
 21
192.63369896070549
 31
0.0
 12
92.058753335007609
 22
189.26383442129361
 32
0.0
 13
92.058753335007609
 23
189.26383442129361
 33
0.0
  0
INSERT
  5
919
  8
0
  2
*U81
 10
0.0
 20
0.0
 30
0.0
  0
CIRCLE
  5
91A
  8
AM_5
 62
     3
 10
78.40443257497941
 20
218.7677778419669
 30
0.0
 40
10.0
  0
ENDBLK
  5
91C
  8
0
  0
BLOCK
  8
0
  2
*S36
 70
     1
 10
0.0
 20
0.0
 30
0.0
  3
*S36
  1

  0
LINE
  5
91F
  8
0
 62
     1
 10
19.999999999999972
 20
83.525000000000034
 30
0.0
 11
215.0
 21
83.525000000000034
 31
0.0
  0
INSERT
  5
920
  8
0
  2
*U82
 10
0.0
 20
0.0
 30
0.0
  0
LINE
  5
921
  8
0
 62
     1
 10
34.999999999999972
 20
83.525000000000034
 30
0.0
 11
34.999999999999972
 21
77.350000000000023
 31
0.0
  0
INSERT
  5
922
  8
0
  2
*U83
 10
0.0
 20
0.0
 30
0.0
  0
LINE
  5
923
  8
0
 62
     1
 10
84.999999999999986
 20
83.525000000000034
 30
0.0
 11
84.999999999999986
 21
77.350000000000023
 31
0.0
  0
INSERT
  5
924
  8
0
  2
*U84
 10
0.0
 20
0.0
 30
0.0
  0
LINE
  5
925
  8
0
 62
     1
 10
99.999999999999986
 20
83.525000000000034
 30
0.0
 11
99.999999999999986
 21
77.350000000000023
 31
0.0
  0
INSERT
  5
926
  8
0
  2
*U85
 10
0.0
 20
0.0
 30
0.0
  0
LINE
  5
927
  8
0
 62
     1
 10
155.0
 20
83.525000000000034
 30
0.0
 11
155.0
 21
77.350000000000023
 31
0.0
  0
INSERT
  5
928
  8
0
  2
*U86
 10
0.0
 20
0.0
 30
0.0
  0
INSERT
  5
929
  8
0
  2
*U87
 10
0.0
 20
0.0
 30
0.0
  0
LINE
  5
92A
  8
0
 62
     1
 10
34.999999999999972
 20
89.700000000000045
 30
0.0
 11
34.999999999999972
 21
83.525000000000034
 31
0.0
  0
INSERT
  5
92B
  8
0
  2
*U88
 10
0.0
 20
0.0
 30
0.0
  0
LINE
  5
92C
  8
0
 62
     1
 10
84.999999999999986
 20
89.700000000000045
 30
0.0
 11
84.999999999999986
 21
83.525000000000034
 31
0.0
  0
INSERT
  5
92D
  8
0
  2
*U89
 10
0.0
 20
0.0
 30
0.0
  0
LINE
  5
92E
  8
0
 62
     1
 10
99.999999999999986
 20
89.700000000000045
 30
0.0
 11
99.999999999999986
 21
83.525000000000034
 31
0.0
  0
INSERT
  5
92F
  8
0
  2
*U90
 10
0.0
 20
0.0
 30
0.0
  0
LINE
  5
930
  8
0
 62
     1
 10
155.0
 20
89.700000000000045
 30
0.0
 11
155.0
 21
83.525000000000034
 31
0.0
  0
INSERT
  5
931
  8
0
  2
*U91
 10
0.0
 20
0.0
 30
0.0
  0
LINE
  5
932
  8
0
 62
     1
 10
19.999999999999972
 20
77.350000000000023
 30
0.0
 11
215.0
 21
77.350000000000023
 31
0.0
  0
INSERT
  5
933
  8
0
  2
*U92
 10
0.0
 20
0.0
 30
0.0
  0
LINE
  5
934
  8
0
 62
     1
 10
34.999999999999972
 20
77.350000000000023
 30
0.0
 11
34.999999999999972
 21
71.175000000000026
 31
0.0
  0
INSERT
  5
935
  8
0
  2
*U93
 10
0.0
 20
0.0
 30
0.0
  0
LINE
  5
936
  8
0
 62
     1
 10
84.999999999999986
 20
77.350000000000023
 30
0.0
 11
84.999999999999986
 21
71.175000000000026
 31
0.0
  0
INSERT
  5
937
  8
0
  2
*U94
 10
0.0
 20
0.0
 30
0.0
  0
LINE
  5
938
  8
0
 62
     1
 10
99.999999999999986
 20
77.350000000000023
 30
0.0
 11
99.999999999999986
 21
71.175000000000026
 31
0.0
  0
INSERT
  5
939
  8
0
  2
*U95
 10
0.0
 20
0.0
 30
0.0
  0
LINE
  5
93A
  8
0
 62
     1
 10
155.0
 20
77.350000000000023
 30
0.0
 11
155.0
 21
71.175000000000026
 31
0.0
  0
INSERT
  5
93B
  8
0
  2
*U96
 10
0.0
 20
0.0
 30
0.0
  0
INSERT
  5
93C
  8
0
  2
*U97
 10
0.0
 20
0.0
 30
0.0
  0
LINE
  5
93D
  8
0
 62
     1
 10
19.999999999999972
 20
71.175000000000026
 30
0.0
 11
215.0
 21
71.175000000000026
 31
0.0
  0
LINE
  5
93E
  8
0
 62
     7
 10
19.999999999999972
 20
89.700000000000045
 30
0.0
 11
215.0
 21
89.700000000000045
 31
0.0
  0
LINE
  5
93F
  8
0
 62
     7
 10
215.0
 20
89.700000000000045
 30
0.0
 11
215.0
 21
65.000000000000028
 31
0.0
  0
LINE
  5
940
  8
0
 62
     7
 10
215.0
 20
65.000000000000028
 30
0.0
 11
19.999999999999972
 21
65.000000000000028
 31
0.0
  0
LINE
  5
941
  8
0
 62
     7
 10
19.999999999999972
 20
65.000000000000028
 30
0.0
 11
19.999999999999972
 21
89.700000000000045
 31
0.0
  0
ENDBLK
  5
943
  8
0
  0
BLOCK
  8
0
  2
*U37
 70
     1
 10
0.0
 20
0.0
 30
0.0
  3
*U37
  1

  0
TEXT
  5
95F
  8
0
 10
367.55531168523049
 20
276.233542987227
 30
0.0
 40
2.5
  1
(文書番号：TY-34)2004.10.29
  0
ENDBLK
  5
961
  8
0
  0
BLOCK
  8
0
  2
*U38
 70
     1
 10
0.0
 20
0.0
 30
0.0
  3
*U38
  1

  0
TEXT
  5
963
  8
RAHM2
 10
-193.80025513713139
 20
3.3010354072796408
 30
0.0
 40
2.5
  1
図番
  0
ENDBLK
  5
965
  8
0
  0
BLOCK
  8
0
  2
*U39
 70
     1
 10
0.0
 20
0.0
 30
0.0
  3
*U39
  1

  0
TEXT
  5
967
  8
RAHM2
 10
-193.0
 20
21.249999999999972
 30
0.0
 40
2.5
  1
符号
  0
ENDBLK
  5
969
  8
0
  0
BLOCK
  8
0
  2
*U40
 70
     1
 10
0.0
 20
0.0
 30
0.0
  3
*U40
  1

  0
TEXT
  5
96B
  8
RAHM2
 10
-193.80025513713139
 20
16.30103540727961
 30
0.0
 40
2.5
  1
品名
  0
ENDBLK
  5
96D
  8
0
  0
BLOCK
  8
0
  2
*U41
 70
     1
 10
0.0
 20
0.0
 30
0.0
  3
*U41
  1

  0
TEXT
  5
96F
  8
RAHM2
 10
-163.1448171868856
 20
21.249999999999972
 30
0.0
 40
2.5
  1
変更記事
  0
ENDBLK
  5
971
  8
0
  0
BLOCK
  8
0
  2
*U42
 70
     1
 10
0.0
 20
0.0
 30
0.0
  3
*U42
  1

  0
TEXT
  5
973
  8
0
 10
-88.85532994923858
 20
3.4187817258883251
 30
0.0
 40
3.5
  1
株式会社タカチ電機工業
  0
ENDBLK
  5
975
  8
0
  0
BLOCK
  8
0
  2
*U43
 70
     1
 10
0.0
 20
0.0
 30
0.0
  3
*U43
  1

  0
TEXT
  5
977
  8
RAHM2
 10
-123.3362656628704
 20
31.250000000000028
 30
0.0
 40
2.5
  1
・  ・   
  0
ENDBLK
  5
979
  8
0
  0
BLOCK
  8
0
  2
*U44
 70
     1
 10
0.0
 20
0.0
 30
0.0
  3
*U44
  1

  0
TEXT
  5
97B
  8
RAHM2
 10
-126.238119805002
 20
21.249999999999972
 30
0.0
 40
2.5
  1
年・月・日
  0
ENDBLK
  5
97D
  8
0
  0
BLOCK
  8
0
  2
*U45
 70
     1
 10
0.0
 20
0.0
 30
0.0
  3
*U45
  1

  0
TEXT
  5
97F
  8
RAHM2
 10
-104.4702380952381
 20
21.249999999999972
 30
0.0
 40
2.5
  1
担当
  0
ENDBLK
  5
981
  8
0
  0
BLOCK
  8
0
  2
*U46
 70
     1
 10
0.0
 20
0.0
 30
0.0
  3
*U46
  1

  0
TEXT
  5
983
  8
RAHM2
 10
-123.3362656628704
 20
41.250000000000021
 30
0.0
 40
2.5
  1
・  ・   
  0
ENDBLK
  5
985
  8
0
  0
BLOCK
  8
0
  2
*U47
 70
     1
 10
0.0
 20
0.0
 30
0.0
  3
*U47
  1

  0
TEXT
  5
987
  8
RAHM2
 10
-123.3362656628704
 20
36.250000000000028
 30
0.0
 40
2.5
  1
・  ・   
  0
ENDBLK
  5
989
  8
0
  0
BLOCK
  8
0
  2
*U48
 70
     1
 10
0.0
 20
0.0
 30
0.0
  3
*U48
  1

  0
TEXT
  5
98B
  8
RAHM2
 10
-123.3362656628704
 20
46.250000000000021
 30
0.0
 40
2.5
  1
・  ・   
  0
ENDBLK
  5
98D
  8
0
  0
BLOCK
  8
0
  2
*U49
 70
     1
 10
0.0
 20
0.0
 30
0.0
  3
*U49
  1

  0
TEXT
  5
98F
  8
RAHM2
 10
-92.800255137131444
 20
13.80103540727964
 30
0.0
 40
2.5
  1
日付
  0
ENDBLK
  5
991
  8
0
  0
BLOCK
  8
0
  2
*U50
 70
     1
 10
0.0
 20
0.0
 30
0.0
  3
*U50
  1

  0
TEXT
  5
993
  8
RAHM2
 10
-92.800255137131444
 20
23.801035407279642
 30
0.0
 40
2.5
  1
表面処理
  0
ENDBLK
  5
995
  8
0
  0
BLOCK
  8
0
  2
*U51
 70
     1
 10
0.0
 20
0.0
 30
0.0
  3
*U51
  1

  0
TEXT
  5
997
  8
RAHM2
 10
-92.800255137131444
 20
33.801035407279642
 30
0.0
 40
2.5
  1
材質
  0
ENDBLK
  5
999
  8
0
  0
BLOCK
  8
0
  2
*U52
 70
     1
 10
0.0
 20
0.0
 30
0.0
  3
*U52
  1

  0
TEXT
  5
99B
  8
RAHM2
 10
-72.800255137131444
 20
46.301035407279642
 30
0.0
 40
2.5
  1
尺度
  0
ENDBLK
  5
99D
  8
0
  0
BLOCK
  8
0
  2
*U53
 70
     1
 10
0.0
 20
0.0
 30
0.0
  3
*U53
  1

  0
TEXT
  5
99F
  8
RAHM2
 10
-52.800255137131451
 20
46.301035407279642
 30
0.0
 40
2.5
  1
数量
  0
ENDBLK
  5
9A1
  8
0
  0
BLOCK
  8
0
  2
*U54
 70
     1
 10
0.0
 20
0.0
 30
0.0
  3
*U54
  1

  0
TEXT
  5
9A3
  8
RAHM2
 10
-28.3125
 20
21.301035407279642
 30
0.0
 40
2.5
  1
承認
  0
ENDBLK
  5
9A5
  8
0
  0
BLOCK
  8
0
  2
*U55
 70
     1
 10
0.0
 20
0.0
 30
0.0
  3
*U55
  1

  0
TEXT
  5
9A7
  8
RAHM2
 10
-28.3125
 20
46.301035407279642
 30
0.0
 40
2.5
  1
承認
  0
ENDBLK
  5
9A9
  8
0
  0
BLOCK
  8
0
  2
*U56
 70
     1
 10
0.0
 20
0.0
 30
0.0
  3
*U56
  1

  0
TEXT
  5
9AB
  8
RAHM2
 10
-123.3362656628704
 20
26.250000000000028
 30
0.0
 40
2.5
  1
・  ・   
  0
ENDBLK
  5
9AD
  8
0
  0
BLOCK
  8
0
  2
*U57
 70
     1
 10
0.0
 20
0.0
 30
0.0
  3
*U57
  1

  0
TEXT
  5
9AF
  8
RAHM2
 10
-11.3125
 20
46.301035407279642
 30
0.0
 40
2.5
  1
検図
  0
ENDBLK
  5
9B1
  8
0
  0
BLOCK
  8
0
  2
*U58
 70
     1
 10
0.0
 20
0.0
 30
0.0
  3
*U58
  1

  0
TEXT
  5
9B3
  8
RAHM2
 10
-11.3125
 20
21.301035407279642
 30
0.0
 40
2.5
  1
製図
  0
ENDBLK
  5
9B5
  8
0
  0
BLOCK
  8
0
  2
*U59
 70
     1
 10
0.0
 20
0.0
 30
0.0
  3
*U59
  1

  0
TEXT
  5
9B7
  8
AM_5
 62
     2
 10
83.508331730708349
 20
172.07041857503779
 30
0.0
 40
3.5
  1
C
  0
ENDBLK
  5
9B9
  8
0
  0
BLOCK
  8
0
  2
*U60
 70
     1
 10
0.0
 20
0.0
 30
0.0
  3
*U60
  1

  0
TEXT
  5
9BB
  8
AM_5
 62
     2
 10
67.600268027954897
 20
171.78017146530411
 30
0.0
 40
3.5
  1
D
  0
ENDBLK
  5
9BD
  8
0
  0
BLOCK
  8
0
  2
*U61
 70
     1
 10
0.0
 20
0.0
 30
0.0
  3
*U61
  1

  0
TEXT
  5
9BF
  8
AM_5
 62
     2
 10
79.501783435616133
 20
182.07041857503779
 30
0.0
 40
3.5
  1
B
  0
ENDBLK
  5
9C1
  8
0
  0
BLOCK
  8
0
  2
*U62
 70
     1
 10
0.0
 20
0.0
 30
0.0
  3
*U62
  1

  0
TEXT
  5
9C3
  8
AM_5
 62
     2
 10
5.811621564918207
 20
172.4243989490237
 30
0.0
 40
3.5
  1
m
  0
ENDBLK
  5
9C5
  8
0
  0
BLOCK
  8
0
  2
*U63
 70
     1
 10
0.0
 20
0.0
 30
0.0
  3
*U63
  1

  0
TEXT
  5
9C7
  8
AM_5
 62
     2
 10
-33.234424764796579
 20
149.27174322369379
 30
0.0
 40
3.5
  1
A
 50
90.0
  0
ENDBLK
  5
9C9
  8
0
  0
BLOCK
  8
0
  2
*U64
 70
     1
 10
0.0
 20
0.0
 30
0.0
  3
*U64
  1

  0
TEXT
  5
9CB
  8
AM_5
 62
     2
 10
56.500358003537997
 20
149.19694995180359
 30
0.0
 40
3.5
  1
E
 50
90.0
  0
ENDBLK
  5
9CD
  8
0
  0
BLOCK
  8
0
  2
*U65
 70
     1
 10
0.0
 20
0.0
 30
0.0
  3
*U65
  1

  0
TEXT
  5
9CF
  8
AM_5
 62
     2
 10
107.40178443561609
 20
149.3454175750378
 30
0.0
 40
3.5
  1
F
 50
90.0
  0
ENDBLK
  5
9D1
  8
0
  0
BLOCK
  8
0
  2
*U66
 70
     1
 10
0.0
 20
0.0
 30
0.0
  3
*U66
  1

  0
TEXT
  5
9D3
  8
AM_5
 62
     2
 10
-18.999391406009359
 20
172.6504435455922
 30
0.0
 40
3.5
  1
SW
  0
ENDBLK
  5
9D5
  8
0
  0
BLOCK
  8
0
  2
*U67
 70
     1
 10
0.0
 20
0.0
 30
0.0
  3
*U67
  1

  0
TEXT
  5
9D7
  8
0
 10
172.55531168523049
 20
286.233542987227
 30
0.0
 40
2.5
  1
(文書番号：TY-34)2004.10.29
  0
ENDBLK
  5
9D9
  8
0
  0
BLOCK
  8
0
  2
*U68
 70
     1
 10
0.0
 20
0.0
 30
0.0
  3
*U68
  1

  0
TEXT
  5
9DB
  8
AM_5
 62
     2
 10
168.07902042630531
 20
204.38944649805131
 30
0.0
 40
3.5
  1
C
  0
ENDBLK
  5
9DD
  8
0
  0
BLOCK
  8
0
  2
*U69
 70
     1
 10
0.0
 20
0.0
 30
0.0
  3
*U69
  1

  0
TEXT
  5
9DF
  8
AM_5
 62
     2
 10
152.1709567235518
 20
204.0991993883176
 30
0.0
 40
3.5
  1
D
  0
ENDBLK
  5
9E1
  8
0
  0
BLOCK
  8
0
  2
*U70
 70
     1
 10
0.0
 20
0.0
 30
0.0
  3
*U70
  1

  0
TEXT
  5
9E3
  8
AM_5
 62
     2
 10
164.07247213121309
 20
214.3894464980512
 30
0.0
 40
3.5
  1
B
  0
ENDBLK
  5
9E5
  8
0
  0
BLOCK
  8
0
  2
*U71
 70
     1
 10
0.0
 20
0.0
 30
0.0
  3
*U71
  1

  0
TEXT
  5
9E7
  8
AM_5
 62
     2
 10
90.382310260515169
 20
204.74342687203711
 30
0.0
 40
3.5
  1
m
  0
ENDBLK
  5
9E9
  8
0
  0
BLOCK
  8
0
  2
*U72
 70
     1
 10
0.0
 20
0.0
 30
0.0
  3
*U72
  1

  0
TEXT
  5
9EB
  8
AM_5
 62
     2
 10
51.336263930800392
 20
181.59077114670731
 30
0.0
 40
3.5
  1
A
 50
90.0
  0
ENDBLK
  5
9ED
  8
0
  0
BLOCK
  8
0
  2
*U73
 70
     1
 10
0.0
 20
0.0
 30
0.0
  3
*U73
  1

  0
TEXT
  5
9EF
  8
AM_5
 62
     2
 10
191.97247313121309
 20
181.66444549805129
 30
0.0
 40
3.5
  1
F
 50
90.0
  0
ENDBLK
  5
9F1
  8
0
  0
BLOCK
  8
0
  2
*U74
 70
     1
 10
0.0
 20
0.0
 30
0.0
  3
*U74
  1

  0
TEXT
  5
9F3
  8
AM_5
 62
     2
 10
65.571297289587605
 20
204.9694714686056
 30
0.0
 40
3.5
  1
SW
  0
ENDBLK
  5
9F5
  8
0
  0
BLOCK
  8
0
  2
*U75
 70
     1
 10
0.0
 20
0.0
 30
0.0
  3
*U75
  1

  0
TEXT
  5
9F7
  8
AM_5
 62
     2
 10
141.07104669913491
 20
178.979166851195
 30
0.0
 40
3.5
  1
\U+2205
 50
90.0
  0
TEXT
  5
9F8
  8
AM_5
 62
     2
 10
141.07104669913491
 20
182.12916685119501
 30
0.0
 40
3.5
  1
16
 50
90.0
  0
ENDBLK
  5
9FA
  8
0
  0
BLOCK
  8
0
  2
*U76
 70
     1
 10
0.0
 20
0.0
 30
0.0
  3
*U76
  1

  0
TEXT
  5
9FC
  8
AM_5
 62
     2
 10
162.91736878475641
 20
166.6394454980512
 30
0.0
 40
3.5
  1
32
  0
ENDBLK
  5
9FE
  8
0
  0
BLOCK
  8
0
  2
*U77
 70
     1
 10
0.0
 20
0.0
 30
0.0
  3
*U77
  1

  0
TEXT
  5
A00
  8
AM_5
 62
     2
 10
90.555569253690336
 20
163.71893932751379
 30
0.0
 40
3.5
  1
5
  0
ENDBLK
  5
A02
  8
0
  0
BLOCK
  8
0
  2
*U78
 70
     1
 10
0.0
 20
0.0
 30
0.0
  3
*U78
  1

  0
TEXT
  5
A04
  8
AM_5
 62
     2
 10
59.468239524060152
 20
163.7189383275138
 30
0.0
 40
3.5
  1
15
  0
ENDBLK
  5
A06
  8
0
  0
BLOCK
  8
0
  2
*U79
 70
     1
 10
0.0
 20
0.0
 30
0.0
  3
*U79
  1

  0
TEXT
  5
A08
  8
AM_5
 62
     2
 10
179.7693514857605
 20
138.14687906360589
 30
0.0
 40
3.5
  1
\U+2205
  7
ACISOTS
  0
TEXT
  5
A09
  8
AM_5
 62
     2
 10
182.9193514857605
 20
138.14687906360589
 30
0.0
 40
3.5
  1
12.5
  7
ACISOTS
  0
TEXT
  5
A0A
  8
AM_5
 62
     2
 10
180.2943514857605
 20
132.31354573027261
 30
0.0
 40
3.5
  1
取付穴
  7
ACISOTS
  0
ENDBLK
  5
A0C
  8
0
  0
BLOCK
  8
0
  2
*U80
 70
     1
 10
0.0
 20
0.0
 30
0.0
  3
*U80
  1

  0
TEXT
  5
A0E
  8
AM_5
 62
     7
 10
176.3839977033287
 20
213.8313988025584
 30
0.0
 40
5.0
  1
1
  7
ACISOTS
  0
ENDBLK
  5
A10
  8
0
  0
BLOCK
  8
0
  2
*U81
 70
     1
 10
0.0
 20
0.0
 30
0.0
  3
*U81
  1

  0
TEXT
  5
A12
  8
AM_5
 62
     7
 10
76.567769189152642
 20
216.26728571598269
 30
0.0
 40
5.0
  1
2
  7
ACISOTS
  0
ENDBLK
  5
A14
  8
0
  0
BLOCK
  8
0
  2
*U82
 70
     1
 10
0.0
 20
0.0
 30
0.0
  3
*U82
  1

  0
TEXT
  5
A16
  8
0
 62
     2
 10
26.624999999999972
 20
78.675000000000026
 30
0.0
 40
3.5
  1
1
  7
ACISOTS
  0
ENDBLK
  5
A18
  8
0
  0
BLOCK
  8
0
  2
*U83
 70
     1
 10
0.0
 20
0.0
 30
0.0
  3
*U83
  1

  0
TEXT
  5
A1A
  8
0
 62
     2
 10
35.89999999999997
 20
78.675000000000026
 30
0.0
 40
3.5
  1
コネクター本体
  7
ACISOTS
  0
ENDBLK
  5
A1C
  8
0
  0
BLOCK
  8
0
  2
*U84
 70
     1
 10
0.0
 20
0.0
 30
0.0
  3
*U84
  1

  0
TEXT
  5
A1E
  8
0
 62
     2
 10
85.374999999999972
 20
78.675000000000026
 30
0.0
 40
3.5
  1
1
  7
ACISOTS
  0
ENDBLK
  5
A20
  8
0
  0
BLOCK
  8
0
  2
*U85
 70
     1
 10
0.0
 20
0.0
 30
0.0
  3
*U85
  1

  0
TEXT
  5
A22
  8
0
 62
     2
 10
100.90000000000001
 20
78.675000000000026
 30
0.0
 40
3.5
  1
塩化ビニール
  7
ACISOTS
  0
ENDBLK
  5
A24
  8
0
  0
BLOCK
  8
0
  2
*U86
 70
     1
 10
0.0
 20
0.0
 30
0.0
  3
*U86
  1

  0
TEXT
  5
A26
  8
0
 62
     2
 10
155.89999999999989
 20
78.675000000000026
 30
0.0
 40
3.5
  1
ブラック/ダークグレー
  7
ACISOTS
  0
ENDBLK
  5
A28
  8
0
  0
BLOCK
  8
0
  2
*U87
 70
     1
 10
0.0
 20
0.0
 30
0.0
  3
*U87
  1

  0
TEXT
  5
A2A
  8
0
 62
     2
 10
26.214335629921241
 20
84.849311023622064
 30
0.0
 40
3.5
  1
2
  7
ACISOTS
  0
ENDBLK
  5
A2C
  8
0
  0
BLOCK
  8
0
  2
*U88
 70
     1
 10
0.0
 20
0.0
 30
0.0
  3
*U88
  1

  0
TEXT
  5
A2E
  8
0
 62
     2
 10
35.89999999999997
 20
84.850000000000023
 30
0.0
 40
3.5
  1
ナット
  7
ACISOTS
  0
ENDBLK
  5
A30
  8
0
  0
BLOCK
  8
0
  2
*U89
 70
     1
 10
0.0
 20
0.0
 30
0.0
  3
*U89
  1

  0
TEXT
  5
A32
  8
0
 62
     2
 10
85.374999999999972
 20
84.850000000000023
 30
0.0
 40
3.5
  1
1
  7
ACISOTS
  0
ENDBLK
  5
A34
  8
0
  0
BLOCK
  8
0
  2
*U90
 70
     1
 10
0.0
 20
0.0
 30
0.0
  3
*U90
  1

  0
TEXT
  5
A36
  8
0
 62
     2
 10
100.90000000000001
 20
84.850000000000023
 30
0.0
 40
3.5
  1
ポリアミド
  7
ACISOTS
  0
ENDBLK
  5
A38
  8
0
  0
BLOCK
  8
0
  2
*U91
 70
     1
 10
0.0
 20
0.0
 30
0.0
  3
*U91
  1

  0
TEXT
  5
A3A
  8
0
 62
     2
 10
155.89999999999989
 20
84.850000000000023
 30
0.0
 40
3.5
  1
ブラック/ダークグレー
  7
ACISOTS
  0
ENDBLK
  5
A3C
  8
0
  0
BLOCK
  8
0
  2
*U92
 70
     1
 10
0.0
 20
0.0
 30
0.0
  3
*U92
  1

  0
TEXT
  5
A3E
  8
0
 62
     2
 10
23.64999999999997
 20
72.500000000000028
 30
0.0
 40
3.5
  1
照番
  7
ACISOTS
  0
ENDBLK
  5
A40
  8
0
  0
BLOCK
  8
0
  2
*U93
 70
     1
 10
0.0
 20
0.0
 30
0.0
  3
*U93
  1

  0
TEXT
  5
A42
  8
0
 62
     2
 10
56.14999999999997
 20
72.500000000000028
 30
0.0
 40
3.5
  1
名称
  7
ACISOTS
  0
ENDBLK
  5
A44
  8
0
  0
BLOCK
  8
0
  2
*U94
 70
     1
 10
0.0
 20
0.0
 30
0.0
  3
*U94
  1

  0
TEXT
  5
A46
  8
0
 62
     2
 10
88.299999999999955
 20
72.500000000000028
 30
0.0
 40
3.5
  1
個数
  7
ACISOTS
  0
ENDBLK
  5
A48
  8
0
  0
BLOCK
  8
0
  2
*U95
 70
     1
 10
0.0
 20
0.0
 30
0.0
  3
*U95
  1

  0
TEXT
  5
A4A
  8
0
 62
     2
 10
123.64999999999991
 20
72.500000000000028
 30
0.0
 40
3.5
  1
材質
  7
ACISOTS
  0
ENDBLK
  5
A4C
  8
0
  0
BLOCK
  8
0
  2
*U96
 70
     1
 10
0.0
 20
0.0
 30
0.0
  3
*U96
  1

  0
TEXT
  5
A4E
  8
0
 62
     2
 10
172.40000000000001
 20
72.500000000000028
 30
0.0
 40
3.5
  1
色・表面処理
  7
ACISOTS
  0
ENDBLK
  5
A50
  8
0
  0
BLOCK
  8
0
  2
*U97
 70
     1
 10
0.0
 20
0.0
 30
0.0
  3
*U97
  1

  0
TEXT
  5
A52
  8
0
 62
     2
 10
109.3624999999999
 20
66.337500000000034
 30
0.0
 40
3.5
  1
構成内容
  7
ACISOTS
  0
ENDBLK
  5
A54
  8
0
  0
ENDSEC
  0
SECTION
  2
ENTITIES
  0
CIRCLE
  5
5D6
  8
TK1
 10
121.7501826414433
 20
182.88261074292251
 30
0.0
 40
3.5
  0
INSERT
  5
5D8
  8
AM_5
  2
*S31
 10
0.0
 20
0.0
 30
0.0
  0
CIRCLE
  5
5DA
  8
TK1
 10
172.19514395728669
 20
125.7795001162621
 30
0.0
 40
6.25
  0
LINE
  5
5DB
  8
AM_7
  6
AM_ISO08W050X2
 10
172.19514395728669
 20
125.7795001162621
 30
0.0
 11
172.19514395728669
 21
117.7795001162621
 31
0.0
1001
GENIUS_GENOREF_13
1005
6A9
  0
LINE
  5
5DC
  8
AM_7
  6
AM_ISO08W050X2
 10
172.19514395728669
 20
125.7795001162621
 30
0.0
 11
164.19514395728669
 21
125.7795001162621
 31
0.0
1001
GENIUS_GENOREF_13
1005
6A9
  0
LINE
  5
5DD
  8
AM_7
  6
AM_ISO08W050X2
 10
172.19514395728669
 20
125.7795001162621
 30
0.0
 11
172.19514395728669
 21
133.77950011626211
 31
0.0
1001
GENIUS_GENOREF_13
1005
6A9
  0
LINE
  5
5DE
  8
AM_7
  6
AM_ISO08W050X2
 10
172.19514395728669
 20
125.7795001162621
 30
0.0
 11
180.19514395728669
 21
125.7795001162621
 31
0.0
1001
GENIUS_GENOREF_13
1005
6A9
  0
DIMENSION
  5
5E5
  8
AM_5
  2
*D17
 10
142.571046699135
 20
190.8894454980512
 30
0.0
 11
142.57104669913491
 21
182.7409778748171
 31
0.0
 70
   128
  1
%%c16
 13
156.9724721312131
 23
174.8894454980512
 33
0.0
 14
156.9724721312131
 24
190.8894454980512
 34
0.0
 50
90.0
  0
LINE
  5
5F7
  8
AM_7
  6
AM_ISO08W050X2
 10
72.140726897475446
 20
182.87919336535819
 30
0.0
 11
51.140726897475439
 21
182.87919336535819
 31
0.0
1001
GENIUS_GENOBJ-N-CEN_13
1002
{
1000
OWNER
1000
GEN
1002
}
1001
GENIUS_GENODEF_13
1002
{
1000
HIER
1070
     0
1002
}
1002
{
1000
MANEDIT
1070
     0
1002
}
1002
{
1000
NOSEL
1070
     0
1002
}
1002
{
1000
BEHIND
1070
     0
1002
}
1002
{
1000
OTHER
1070
     0
1002
}
1002
{
1000
REACTOR
1002
}
  0
LINE
  5
5F8
  8
AM_7
  6
AM_ISO08W050X2
 10
61.640726897475453
 20
194.53944740320259
 30
0.0
 11
61.640726897475453
 21
171.21893932751379
 31
0.0
1001
GENIUS_GENOBJ-N-CEN_13
1002
{
1000
OWNER
1000
GEN
1002
}
1001
GENIUS_GENODEF_13
1002
{
1000
HIER
1070
     0
1002
}
1002
{
1000
MANEDIT
1070
     0
1002
}
1002
{
1000
NOSEL
1070
     0
1002
}
1002
{
1000
BEHIND
1070
     0
1002
}
1002
{
1000
OTHER
1070
     0
1002
}
1002
{
1000
REACTOR
1002
}
  0
ARC
  5
5F9
  8
TK2
 10
91.665541056615325
 20
189.37438389374151
 30
0.0
 40
2.3124945293331431
 50
110.5696309042755
 51
249.4303690957245
  0
ARC
  5
5FA
  8
TK2
 10
96.353056627105616
 20
182.87919336535819
 30
0.0
 40
6.9999999999999787
 50
141.78678929826211
 51
218.21321070173869
  0
ARC
  5
5FB
  8
TK2
 10
91.665556372978699
 20
176.3840026609106
 30
0.0
 40
2.3124997458730769
 50
110.569982066542
 51
249.4300122701639
  0
LINE
  5
5FC
  8
TK2
 10
90.853056627105644
 20
191.53944740320259
 30
0.0
 11
94.353056627105644
 21
191.53944740320259
 31
0.0
  0
LINE
  5
5FD
  8
TK2
 10
94.353056627105644
 20
191.53944740320259
 30
0.0
 11
94.353056627105616
 21
174.21893932751379
 31
0.0
  0
LINE
  5
5FE
  8
TK2
 10
94.353056627105616
 20
174.21893932751379
 30
0.0
 11
90.853056627105644
 21
174.21893932751379
 31
0.0
  0
LINE
  5
5FF
  8
TK2
 10
89.353056627105616
 20
176.3840026609106
 30
0.0
 11
89.353056627105644
 21
189.36754931467709
 31
0.0
  0
LINE
  5
600
  8
TK2
 10
90.853056627105644
 20
187.2093203842804
 30
0.0
 11
94.353056627105644
 21
187.2093203842804
 31
0.0
  0
LINE
  5
601
  8
TK2
 10
90.853056627105616
 20
178.54906634643601
 30
0.0
 11
94.353056627105616
 21
178.54906634643601
 31
0.0
  0
LINE
  5
602
  8
AM_7
  6
AM_ISO08W050X2
 10
86.353056627105644
 20
182.87577598779379
 30
0.0
 11
97.353056627105644
 21
182.87577598779379
 31
0.0
1001
GENIUS_GENOBJ-N-CEN_13
1002
{
1000
OWNER
1000
GEN
1002
}
1001
GENIUS_GENODEF_13
1002
{
1000
HIER
1070
     0
1002
}
1002
{
1000
MANEDIT
1070
     0
1002
}
1002
{
1000
NOSEL
1070
     0
1002
}
1002
{
1000
BEHIND
1070
     0
1002
}
1002
{
1000
OTHER
1070
     0
1002
}
1002
{
1000
REACTOR
1002
}
  0
ARC
  5
603
  8
TK2
 10
91.665541056615325
 20
189.37438389374151
 30
0.0
 40
2.3124945293331431
 50
110.5696309042755
 51
249.4303690957245
  0
ARC
  5
604
  8
TK2
 10
96.353056627105616
 20
182.87919336535819
 30
0.0
 40
6.9999999999999787
 50
141.7867892982627
 51
218.21321070173869
  0
ARC
  5
605
  8
TK2
 10
91.665556372978699
 20
176.3840026609106
 30
0.0
 40
2.3124997458730769
 50
110.569982066542
 51
249.4300122701639
  0
LINE
  5
606
  8
TK2
 10
90.853056627105644
 20
191.53944740320259
 30
0.0
 11
94.353056627105644
 21
191.53944740320259
 31
0.0
  0
LINE
  5
607
  8
TK2
 10
94.353056627105644
 20
191.53944740320259
 30
0.0
 11
94.353056627105644
 21
174.21893932751379
 31
0.0
  0
LINE
  5
608
  8
TK2
 10
94.353056627105644
 20
174.21893932751379
 30
0.0
 11
90.853056627105644
 21
174.21893932751379
 31
0.0
  0
LINE
  5
609
  8
TK2
 10
89.353056627105644
 20
176.3840026609106
 30
0.0
 11
89.353056627105644
 21
189.36754931467709
 31
0.0
  0
LINE
  5
60A
  8
TK2
 10
90.853056627105644
 20
187.2093203842804
 30
0.0
 11
94.353056627105644
 21
187.2093203842804
 31
0.0
  0
LINE
  5
60B
  8
TK2
 10
90.853056627105644
 20
178.54906634643601
 30
0.0
 11
94.353056627105644
 21
178.54906634643601
 31
0.0
  0
LINE
  5
60C
  8
AM_7
  6
AM_ISO08W050X2
 10
86.353056627105644
 20
182.87577598779379
 30
0.0
 11
97.353056627105644
 21
182.87577598779379
 31
0.0
1001
GENIUS_GENOBJ-N-CEN_13
1002
{
1000
OWNER
1000
GEN
1002
}
1001
GENIUS_GENODEF_13
1002
{
1000
HIER
1070
     0
1002
}
1002
{
1000
MANEDIT
1070
     0
1002
}
1002
{
1000
NOSEL
1070
     0
1002
}
1002
{
1000
BEHIND
1070
     0
1002
}
1002
{
1000
OTHER
1070
     0
1002
}
1002
{
1000
REACTOR
1002
}
  0
LINE
  5
60D
  8
AM_7
  6
AM_ISO08W050X2
 10
121.7501826414433
 20
182.88261074292251
 30
0.0
 11
121.7501826414433
 21
174.88261074292251
 31
0.0
1001
GENIUS_GENOREF_13
1005
6AA
  0
LINE
  5
60E
  8
AM_7
  6
AM_ISO08W050X2
 10
121.7501826414433
 20
182.88261074292251
 30
0.0
 11
113.7501826414433
 21
182.88261074292251
 31
0.0
1001
GENIUS_GENOREF_13
1005
6AA
  0
LINE
  5
60F
  8
AM_7
  6
AM_ISO08W050X2
 10
121.7501826414433
 20
182.88261074292251
 30
0.0
 11
121.7501826414433
 21
190.88261074292251
 31
0.0
1001
GENIUS_GENOREF_13
1005
6AA
  0
LINE
  5
610
  8
AM_7
  6
AM_ISO08W050X2
 10
121.7501826414433
 20
182.88261074292251
 30
0.0
 11
129.7501826414433
 21
182.88261074292251
 31
0.0
1001
GENIUS_GENOREF_13
1005
6AA
  0
CIRCLE
  5
611
  8
TK1
 10
121.7501826414433
 20
182.88261074292251
 30
0.0
 40
6.0
  0
LINE
  5
612
  8
TK1
 10
119.7501826414433
 20
187.1910327278261
 30
0.0
 11
119.7501826414433
 21
189.32950922203659
 31
0.0
  0
LINE
  5
613
  8
TK1
 10
123.7501826414433
 20
187.1910327278261
 30
0.0
 11
123.7501826414433
 21
189.32950922203659
 31
0.0
  0
ARC
  5
614
  8
TK1
 10
121.7501826414433
 20
182.88261074292251
 30
0.0
 40
5.2000000000000099
 50
67.3801350519594
 51
112.6198649480406
  0
ARC
  5
615
  8
TK1
 10
121.7501826414433
 20
182.88261074292251
 30
0.0
 40
6.7500000000001981
 50
72.764714742911593
 51
107.23528525708841
  0
ARC
  5
616
  8
TK1
 10
121.7501826414433
 20
182.88261074292251
 30
0.0
 40
6.4666666666668666
 50
71.984254066574238
 51
108.01574593342571
  0
ARC
  5
617
  8
TK1
 10
121.7501826414433
 20
182.88261074292251
 30
0.0
 40
6.2166666666668666
 50
71.233277952846407
 51
108.76672204715361
  0
ARC
  5
618
  8
TK1
 10
121.7501826414433
 20
182.88261074292251
 30
0.0
 40
6.0000000000001981
 50
70.528779365510388
 51
109.4712206344896
  0
ARC
  5
619
  8
TK1
 10
121.7501826414433
 20
182.88261074292251
 30
0.0
 40
6.0000000000001981
 50
340.52877936550919
 51
19.471220634490759
  0
ARC
  5
61A
  8
TK1
 10
121.7501826414433
 20
182.88261074292251
 30
0.0
 40
6.2166666666668666
 50
341.23327795284632
 51
18.766722047153721
  0
ARC
  5
61B
  8
TK1
 10
121.7501826414433
 20
182.88261074292251
 30
0.0
 40
6.4666666666668666
 50
341.98425406657412
 51
18.01574593342589
  0
ARC
  5
61C
  8
TK1
 10
121.7501826414433
 20
182.88261074292251
 30
0.0
 40
6.7500000000001981
 50
342.7647147429123
 51
17.235285257087629
  0
LINE
  5
61D
  8
TK1
 10
126.05860462634681
 20
180.88261074292259
 30
0.0
 11
128.21684930811011
 21
180.88261074292259
 31
0.0
  0
LINE
  5
61E
  8
TK1
 10
126.05860462634681
 20
184.88261074292251
 30
0.0
 11
128.1970811205573
 21
184.88261074292251
 31
0.0
  0
ARC
  5
61F
  8
TK1
 10
121.7501826414433
 20
182.88261074292251
 30
0.0
 40
5.2000000000000099
 50
337.38013505195983
 51
22.619864948040231
  0
ARC
  5
620
  8
TK1
 10
121.7501826414433
 20
182.88261074292251
 30
0.0
 40
5.2000000000000099
 50
157.38013505195971
 51
202.6198649480402
  0
ARC
  5
621
  8
TK1
 10
121.7501826414433
 20
182.88261074292251
 30
0.0
 40
6.0000000000001981
 50
250.52877936551039
 51
289.47122063448961
  0
ARC
  5
622
  8
TK1
 10
121.7501826414433
 20
182.88261074292251
 30
0.0
 40
6.2166666666668666
 50
251.23327795284641
 51
288.76672204715362
  0
ARC
  5
623
  8
TK1
 10
121.7501826414433
 20
182.88261074292251
 30
0.0
 40
6.4666666666668666
 50
251.98425406657421
 51
288.01574593342582
  0
ARC
  5
624
  8
TK1
 10
121.7501826414433
 20
182.88261074292251
 30
0.0
 40
6.7500000000001981
 50
252.76471474291159
 51
287.23528525708838
  0
ARC
  5
625
  8
TK1
 10
121.7501826414433
 20
182.88261074292251
 30
0.0
 40
5.2000000000000099
 50
247.3801350519594
 51
292.61986494804057
  0
LINE
  5
626
  8
TK1
 10
123.7501826414433
 20
178.57418875801901
 30
0.0
 11
123.7501826414433
 21
176.43571226380851
 31
0.0
  0
LINE
  5
627
  8
TK1
 10
119.7501826414433
 20
178.57418875801901
 30
0.0
 11
119.7501826414433
 21
176.43571226380851
 31
0.0
  0
LINE
  5
628
  8
TK1
 10
117.4417606565397
 20
184.88261074292251
 30
0.0
 11
115.30328416232931
 21
184.88261074292251
 31
0.0
  0
LINE
  5
629
  8
TK1
 10
117.4417606565397
 20
180.88261074292259
 30
0.0
 11
115.28351597477641
 21
180.88261074292259
 31
0.0
  0
ARC
  5
62A
  8
TK1
 10
121.7501826414433
 20
182.88261074292251
 30
0.0
 40
6.7500000000001981
 50
162.76471474291239
 51
197.23528525708761
  0
ARC
  5
62B
  8
TK1
 10
121.7501826414433
 20
182.88261074292251
 30
0.0
 40
6.4666666666668666
 50
161.9842540665741
 51
198.0157459334259
  0
ARC
  5
62C
  8
TK1
 10
121.7501826414433
 20
182.88261074292251
 30
0.0
 40
6.2166666666668666
 50
161.23327795284621
 51
198.76672204715371
  0
ARC
  5
62D
  8
TK1
 10
121.7501826414433
 20
182.88261074292251
 30
0.0
 40
6.0000000000001981
 50
160.52877936550919
 51
199.47122063448961
  0
CIRCLE
  5
62E
  8
TK1
 10
121.7501826414433
 20
182.88261074292251
 30
0.0
 40
4.75
  0
CIRCLE
  5
62F
  8
TK1
 10
121.7501826414433
 20
182.88261074292251
 30
0.0
 40
8.0
  0
CIRCLE
  5
630
  8
TK2
 10
61.640726897475453
 20
182.87919336535819
 30
0.0
 40
6.0
  0
CIRCLE
  5
631
  8
TK2
 10
61.640726897475453
 20
182.87919336535819
 30
0.0
 40
7.499999999999992
  0
LINE
  5
632
  8
TK2
 10
69.140726897475446
 20
182.87919336535819
 30
0.0
 11
69.140726897475446
 21
178.54906634643601
 31
0.0
  0
LINE
  5
633
  8
TK2
 10
69.140726897475446
 20
178.54906634643601
 30
0.0
 11
61.640726897475453
 21
174.21893932751379
 31
0.0
  0
LINE
  5
634
  8
TK2
 10
61.640726897475453
 20
174.21893932751379
 30
0.0
 11
54.140726897475453
 21
178.54906634643601
 31
0.0
  0
LINE
  5
635
  8
TK2
 10
54.140726897475453
 20
178.54906634643601
 30
0.0
 11
54.140726897475453
 21
182.87919336535819
 31
0.0
  0
LINE
  5
636
  8
TK2
 10
54.140726897475453
 20
187.2093203842804
 30
0.0
 11
54.140726897475453
 21
182.87919336535819
 31
0.0
  0
LINE
  5
637
  8
TK2
 10
61.640726897475453
 20
191.53944740320259
 30
0.0
 11
54.140726897475453
 21
187.2093203842804
 31
0.0
  0
LINE
  5
638
  8
TK2
 10
69.140726897475446
 20
187.2093203842804
 30
0.0
 11
61.640726897475453
 21
191.53944740320259
 31
0.0
  0
LINE
  5
639
  8
TK2
 10
69.140726897475446
 20
182.87919336535819
 30
0.0
 11
69.140726897475446
 21
187.2093203842804
 31
0.0
  0
LINE
  5
63A
  8
TK1
 10
153.77247213121311
 20
177.42277883138459
 30
0.0
 11
154.3724721312131
 21
176.239445498051
 31
0.0
  0
LINE
  5
63B
  8
TK1
 10
152.27247213121311
 20
177.67277883138459
 30
0.0
 11
152.77247213121311
 21
176.5061121647179
 31
0.0
  0
LINE
  5
63C
  8
TK1
 10
151.3724721312131
 20
176.7394454980533
 30
0.0
 11
150.9724721312131
 21
177.8894454980512
 31
0.0
  0
LINE
  5
63D
  8
TK1
 10
150.1224721312131
 20
176.9477788313836
 30
0.0
 11
149.77247213121311
 21
178.08944549805119
 31
0.0
  0
LINE
  5
63E
  8
TK1
 10
154.9724721312131
 20
177.2227788313846
 30
0.0
 11
154.9724721312131
 21
176.139445498051
 31
0.0
  0
LINE
  5
63F
  8
TK1
 10
154.9724721312131
 20
176.139445498051
 30
0.0
 11
154.3724721312131
 21
176.239445498051
 31
0.0
  0
LINE
  5
640
  8
TK1
 10
153.27247213121311
 20
177.5061121647179
 30
0.0
 11
153.27247213121311
 21
176.42277883138439
 31
0.0
  0
LINE
  5
641
  8
TK1
 10
153.27247213121311
 20
176.42277883138439
 30
0.0
 11
152.77247213121311
 21
176.5061121647179
 31
0.0
  0
LINE
  5
642
  8
TK1
 10
151.77247213121311
 20
177.7561121647179
 30
0.0
 11
151.77247213121311
 21
176.67277883138439
 31
0.0
  0
LINE
  5
643
  8
TK1
 10
151.77247213121311
 20
176.67277883138439
 30
0.0
 11
151.3724721312131
 21
176.7394454980533
 31
0.0
  0
LINE
  5
644
  8
TK1
 10
150.4724721312131
 20
177.9727788313846
 30
0.0
 11
150.4724721312131
 21
176.889445498051
 31
0.0
  0
LINE
  5
645
  8
TK1
 10
150.4724721312131
 20
176.889445498051
 30
0.0
 11
150.12247213121279
 21
176.9477788313844
 31
0.0
  0
LINE
  5
646
  8
TK1
 10
154.4724721312131
 20
184.8894454980512
 30
0.0
 11
154.4724721312131
 21
180.8894454980512
 31
0.0
  0
LINE
  5
647
  8
TK1
 10
152.8724721312131
 20
184.8894454980512
 30
0.0
 11
152.8724721312131
 21
180.8894454980512
 31
0.0
  0
LINE
  5
648
  8
TK1
 10
151.4724721312131
 20
184.8894454980512
 30
0.0
 11
151.4724721312131
 21
180.8894454980512
 31
0.0
  0
LINE
  5
649
  8
TK1
 10
150.27247213121311
 20
184.8894454980512
 30
0.0
 11
150.27247213121311
 21
180.8894454980512
 31
0.0
  0
LINE
  5
64A
  8
TK1
 10
150.4724721312131
 20
188.8894454980514
 30
0.0
 11
150.12247213121279
 21
188.83111216471801
 31
0.0
  0
LINE
  5
64B
  8
TK1
 10
150.4724721312131
 20
187.80611216471789
 30
0.0
 11
150.4724721312131
 21
188.8894454980514
 31
0.0
  0
LINE
  5
64C
  8
TK1
 10
151.77247213121311
 20
189.1061121647181
 30
0.0
 11
151.3724721312131
 21
189.03944549804919
 31
0.0
  0
LINE
  5
64D
  8
TK1
 10
151.77247213121311
 20
188.02277883138461
 30
0.0
 11
151.77247213121311
 21
189.1061121647181
 31
0.0
  0
LINE
  5
64E
  8
TK1
 10
153.27247213121311
 20
189.3561121647181
 30
0.0
 11
152.77247213121311
 21
189.27277883138461
 31
0.0
  0
LINE
  5
64F
  8
TK1
 10
153.27247213121311
 20
188.27277883138461
 30
0.0
 11
153.27247213121311
 21
189.3561121647181
 31
0.0
  0
LINE
  5
650
  8
TK1
 10
154.9724721312131
 20
189.6394454980514
 30
0.0
 11
154.3724721312131
 21
189.53944549805141
 31
0.0
  0
LINE
  5
651
  8
TK1
 10
154.9724721312131
 20
188.55611216471789
 30
0.0
 11
154.9724721312131
 21
189.6394454980514
 31
0.0
  0
LINE
  5
652
  8
TK1
 10
149.77247213121311
 20
180.8894454980512
 30
0.0
 11
150.4724721312131
 21
180.8894454980512
 31
0.0
  0
LINE
  5
653
  8
TK1
 10
150.9724721312131
 20
180.8894454980512
 30
0.0
 11
151.77247213121311
 21
180.8894454980512
 31
0.0
  0
LINE
  5
654
  8
TK1
 10
152.27247213121311
 20
180.8894454980512
 30
0.0
 11
153.27247213121311
 21
180.8894454980512
 31
0.0
  0
LINE
  5
655
  8
TK1
 10
153.77247213121311
 20
180.8894454980512
 30
0.0
 11
154.9724721312131
 21
180.8894454980512
 31
0.0
  0
LINE
  5
656
  8
TK1
 10
149.77247213121311
 20
182.8894454980512
 30
0.0
 11
149.77247213121311
 21
180.8894454980512
 31
0.0
  0
LINE
  5
657
  8
TK1
 10
150.4724721312131
 20
182.8894454980512
 30
0.0
 11
150.4724721312131
 21
180.8894454980512
 31
0.0
  0
LINE
  5
658
  8
TK1
 10
150.9724721312131
 20
182.8894454980512
 30
0.0
 11
150.9724721312131
 21
180.8894454980512
 31
0.0
  0
LINE
  5
659
  8
TK1
 10
151.77247213121311
 20
182.8894454980512
 30
0.0
 11
151.77247213121311
 21
180.8894454980512
 31
0.0
  0
LINE
  5
65A
  8
TK1
 10
152.27247213121311
 20
182.8894454980512
 30
0.0
 11
152.27247213121311
 21
180.8894454980512
 31
0.0
  0
LINE
  5
65B
  8
TK1
 10
153.27247213121311
 20
182.8894454980512
 30
0.0
 11
153.27247213121311
 21
180.8894454980512
 31
0.0
  0
LINE
  5
65C
  8
TK1
 10
154.9724721312131
 20
182.8894454980512
 30
0.0
 11
154.9724721312131
 21
180.8894454980512
 31
0.0
  0
LINE
  5
65D
  8
TK1
 10
153.77247213121311
 20
180.8894454980512
 30
0.0
 11
153.77247213121311
 21
182.8894454980512
 31
0.0
  0
LINE
  5
65E
  8
TK1
 10
153.77247213121311
 20
184.8894454980512
 30
0.0
 11
153.77247213121311
 21
182.8894454980512
 31
0.0
  0
LINE
  5
65F
  8
TK1
 10
154.9724721312131
 20
182.8894454980512
 30
0.0
 11
154.9724721312131
 21
184.8894454980512
 31
0.0
  0
LINE
  5
660
  8
TK1
 10
153.27247213121311
 20
182.8894454980512
 30
0.0
 11
153.27247213121311
 21
184.8894454980512
 31
0.0
  0
LINE
  5
661
  8
TK1
 10
152.27247213121311
 20
182.8894454980512
 30
0.0
 11
152.27247213121311
 21
184.8894454980512
 31
0.0
  0
LINE
  5
662
  8
TK1
 10
151.77247213121311
 20
182.8894454980512
 30
0.0
 11
151.77247213121311
 21
184.8894454980512
 31
0.0
  0
LINE
  5
663
  8
TK1
 10
150.9724721312131
 20
182.8894454980512
 30
0.0
 11
150.9724721312131
 21
184.8894454980512
 31
0.0
  0
LINE
  5
664
  8
TK1
 10
150.4724721312131
 20
182.8894454980512
 30
0.0
 11
150.4724721312131
 21
184.8894454980512
 31
0.0
  0
LINE
  5
665
  8
TK1
 10
149.77247213121311
 20
182.8894454980512
 30
0.0
 11
149.77247213121311
 21
184.8894454980512
 31
0.0
  0
LINE
  5
666
  8
TK1
 10
153.77247213121311
 20
184.8894454980512
 30
0.0
 11
154.9724721312131
 21
184.8894454980512
 31
0.0
  0
LINE
  5
667
  8
TK1
 10
152.27247213121311
 20
184.8894454980512
 30
0.0
 11
153.27247213121311
 21
184.8894454980512
 31
0.0
  0
LINE
  5
668
  8
TK1
 10
150.9724721312131
 20
184.8894454980512
 30
0.0
 11
151.77247213121311
 21
184.8894454980512
 31
0.0
  0
LINE
  5
669
  8
TK1
 10
149.77247213121311
 20
184.8894454980512
 30
0.0
 11
150.4724721312131
 21
184.8894454980512
 31
0.0
  0
LINE
  5
66A
  8
TK1
 10
150.1224721312131
 20
188.83111216471889
 30
0.0
 11
149.77247213121311
 21
187.68944549805121
 31
0.0
  0
LINE
  5
66B
  8
TK1
 10
151.3724721312131
 20
189.03944549804919
 30
0.0
 11
150.9724721312131
 21
187.8894454980512
 31
0.0
  0
LINE
  5
66C
  8
TK1
 10
152.27247213121311
 20
188.1061121647179
 30
0.0
 11
152.77247213121311
 21
189.27277883138461
 31
0.0
  0
LINE
  5
66D
  8
TK1
 10
153.77247213121311
 20
188.3561121647179
 30
0.0
 11
154.3724721312131
 21
189.53944549805141
 31
0.0
  0
LINE
  5
66E
  8
AM_7
 10
146.4724721312131
 20
182.8894454980512
 30
0.0
 11
184.4724721312131
 21
182.8894454980512
 31
0.0
1001
GENIUS_GENODEF_13
1002
{
1000
HIER
1070
     0
1002
}
1002
{
1000
MANEDIT
1070
     0
1002
}
1002
{
1000
NOSEL
1070
     0
1002
}
1002
{
1000
BEHIND
1070
     0
1002
}
1002
{
1000
OTHER
1070
     0
1002
}
1002
{
1000
REACTOR
1002
}
1001
GENIUS_GENOBJ-N-CEN_13
1002
{
1000
OWNER
1000
GEN
1002
}
  0
LINE
  5
66F
  8
TK1
 10
174.2224721312131
 20
188.6394454980512
 30
0.0
 11
169.7224721312131
 21
188.6394454980512
 31
0.0
  0
LINE
  5
670
  8
TK1
 10
168.7224721312131
 20
188.6394454980512
 30
0.0
 11
164.2224721312131
 21
188.6394454980512
 31
0.0
  0
LINE
  5
671
  8
TK1
 10
174.2224721312131
 20
177.1394454980512
 30
0.0
 11
169.7224721312131
 21
177.1394454980512
 31
0.0
  0
LINE
  5
672
  8
TK1
 10
168.7224721312131
 20
177.1394454980512
 30
0.0
 11
164.2224721312131
 21
177.1394454980512
 31
0.0
  0
LINE
  5
673
  8
TK1
 10
163.2224721312131
 20
177.1394454980512
 30
0.0
 11
159.4724721312131
 21
177.1394454980512
 31
0.0
  0
LINE
  5
674
  8
TK1
 10
163.2224721312131
 20
188.6394454980512
 30
0.0
 11
159.4724721312131
 21
188.6394454980512
 31
0.0
  0
LINE
  5
675
  8
TK1
 10
174.2224721312131
 20
178.8894454980512
 30
0.0
 11
174.2224721312131
 21
177.1394454980512
 31
0.0
  0
LINE
  5
676
  8
TK1
 10
175.2224721312131
 20
178.8894454980512
 30
0.0
 11
174.2224721312131
 21
178.8894454980512
 31
0.0
  0
LINE
  5
677
  8
TK1
 10
175.2224721312131
 20
177.1394454980512
 30
0.0
 11
175.2224721312131
 21
178.8894454980512
 31
0.0
  0
LINE
  5
678
  8
TK1
 10
169.7224721312131
 20
177.1394454980512
 30
0.0
 11
169.7224721312131
 21
178.8894454980512
 31
0.0
  0
LINE
  5
679
  8
TK1
 10
169.7224721312131
 20
178.8894454980512
 30
0.0
 11
168.7224721312131
 21
178.8894454980512
 31
0.0
  0
LINE
  5
67A
  8
TK1
 10
168.7224721312131
 20
178.8894454980512
 30
0.0
 11
168.7224721312131
 21
177.1394454980512
 31
0.0
  0
LINE
  5
67B
  8
TK1
 10
163.2224721312131
 20
178.8894454980512
 30
0.0
 11
163.2224721312131
 21
177.1394454980512
 31
0.0
  0
LINE
  5
67C
  8
TK1
 10
164.2224721312131
 20
178.8894454980512
 30
0.0
 11
163.2224721312131
 21
178.8894454980512
 31
0.0
  0
LINE
  5
67D
  8
TK1
 10
164.2224721312131
 20
177.1394454980512
 30
0.0
 11
164.2224721312131
 21
178.8894454980512
 31
0.0
  0
LINE
  5
67E
  8
TK1
 10
164.2224721312131
 20
188.6394454980512
 30
0.0
 11
164.2224721312131
 21
186.8894454980512
 31
0.0
  0
LINE
  5
67F
  8
TK1
 10
164.2224721312131
 20
186.8894454980512
 30
0.0
 11
163.2224721312131
 21
186.8894454980512
 31
0.0
  0
LINE
  5
680
  8
TK1
 10
163.2224721312131
 20
186.8894454980512
 30
0.0
 11
163.2224721312131
 21
188.6394454980512
 31
0.0
  0
LINE
  5
681
  8
TK1
 10
175.2224721312131
 20
188.6394454980512
 30
0.0
 11
175.2224721312131
 21
186.8894454980512
 31
0.0
  0
LINE
  5
682
  8
TK1
 10
175.2224721312131
 20
186.8894454980512
 30
0.0
 11
174.2224721312131
 21
186.8894454980512
 31
0.0
  0
LINE
  5
683
  8
TK1
 10
174.2224721312131
 20
186.8894454980512
 30
0.0
 11
174.2224721312131
 21
188.6394454980512
 31
0.0
  0
LINE
  5
684
  8
TK1
 10
168.7224721312131
 20
186.8894454980512
 30
0.0
 11
168.7224721312131
 21
188.6394454980512
 31
0.0
  0
LINE
  5
685
  8
TK1
 10
169.7224721312131
 20
186.8894454980512
 30
0.0
 11
168.7224721312131
 21
186.8894454980512
 31
0.0
  0
LINE
  5
686
  8
TK1
 10
169.7224721312131
 20
188.6394454980512
 30
0.0
 11
169.7224721312131
 21
186.8894454980512
 31
0.0
  0
LINE
  5
687
  8
TK1
 10
177.9724721312131
 20
182.8894454980512
 30
0.0
 11
177.9724721312131
 21
178.3894454980512
 31
0.0
  0
LINE
  5
688
  8
TK1
 10
177.9724721312131
 20
178.3894454980512
 30
0.0
 11
176.9724721312131
 21
178.3894454980512
 31
0.0
  0
LINE
  5
689
  8
TK1
 10
176.9724721312131
 20
178.3894454980512
 30
0.0
 11
176.9724721312131
 21
182.8894454980512
 31
0.0
  0
LINE
  5
68A
  8
TK1
 10
171.4724721312131
 20
178.3894454980512
 30
0.0
 11
171.4724721312131
 21
182.8894454980512
 31
0.0
  0
LINE
  5
68B
  8
TK1
 10
172.4724721312131
 20
182.8894454980512
 30
0.0
 11
172.4724721312131
 21
178.3894454980512
 31
0.0
  0
LINE
  5
68C
  8
TK1
 10
172.4724721312131
 20
178.3894454980512
 30
0.0
 11
171.4724721312131
 21
178.3894454980512
 31
0.0
  0
LINE
  5
68D
  8
TK1
 10
166.9724721312131
 20
178.3894454980512
 30
0.0
 11
165.9724721312131
 21
178.3894454980512
 31
0.0
  0
LINE
  5
68E
  8
TK1
 10
166.9724721312131
 20
182.8894454980512
 30
0.0
 11
166.9724721312131
 21
178.3894454980512
 31
0.0
  0
LINE
  5
68F
  8
TK1
 10
165.9724721312131
 20
178.3894454980512
 30
0.0
 11
165.9724721312131
 21
182.8894454980512
 31
0.0
  0
LINE
  5
690
  8
TK1
 10
165.9724721312131
 20
187.3894454980512
 30
0.0
 11
165.9724721312131
 21
182.8894454980512
 31
0.0
  0
LINE
  5
691
  8
TK1
 10
166.9724721312131
 20
182.8894454980512
 30
0.0
 11
166.9724721312131
 21
187.3894454980512
 31
0.0
  0
LINE
  5
692
  8
TK1
 10
166.9724721312131
 20
187.3894454980512
 30
0.0
 11
165.9724721312131
 21
187.3894454980512
 31
0.0
  0
LINE
  5
693
  8
TK1
 10
172.4724721312131
 20
187.3894454980512
 30
0.0
 11
171.4724721312131
 21
187.3894454980512
 31
0.0
  0
LINE
  5
694
  8
TK1
 10
172.4724721312131
 20
182.8894454980512
 30
0.0
 11
172.4724721312131
 21
187.3894454980512
 31
0.0
  0
LINE
  5
695
  8
TK1
 10
171.4724721312131
 20
187.3894454980512
 30
0.0
 11
171.4724721312131
 21
182.8894454980512
 31
0.0
  0
LINE
  5
696
  8
TK1
 10
176.9724721312131
 20
187.3894454980512
 30
0.0
 11
176.9724721312131
 21
182.8894454980512
 31
0.0
  0
LINE
  5
697
  8
TK1
 10
177.9724721312131
 20
187.3894454980512
 30
0.0
 11
176.9724721312131
 21
187.3894454980512
 31
0.0
  0
LINE
  5
698
  8
TK1
 10
177.9724721312131
 20
182.8894454980512
 30
0.0
 11
177.9724721312131
 21
187.3894454980512
 31
0.0
  0
LINE
  5
699
  8
TK1
 10
181.4724721312131
 20
182.8894454980512
 30
0.0
 11
181.4724721312131
 21
177.1394454980512
 31
0.0
  0
LINE
  5
69A
  8
TK1
 10
181.4724721312131
 20
177.1394454980512
 30
0.0
 11
175.2224721312131
 21
177.1394454980512
 31
0.0
  0
LINE
  5
69B
  8
TK1
 10
158.9724721312131
 20
182.8894454980512
 30
0.0
 11
158.9724721312131
 21
174.8894454980512
 31
0.0
  0
LINE
  5
69C
  8
TK1
 10
158.9724721312131
 20
174.8894454980512
 30
0.0
 11
156.9724721312131
 21
174.8894454980512
 31
0.0
  0
LINE
  5
69D
  8
TK1
 10
156.9724721312131
 20
174.8894454980512
 30
0.0
 11
156.9724721312131
 21
182.8894454980512
 31
0.0
  0
LINE
  5
69E
  8
TK1
 10
149.4724721312131
 20
182.8894454980512
 30
0.0
 11
149.4724721312131
 21
178.1394454980512
 31
0.0
  0
LINE
  5
69F
  8
TK1
 10
149.4724721312131
 20
178.1394454980512
 30
0.0
 11
156.9724721312131
 21
176.8894454980512
 31
0.0
  0
ARC
  5
6A0
  8
TK1
 10
159.4724721312131
 20
176.6394454980512
 30
0.0
 40
0.5
 50
90.0
 51
189.73351147289929
  0
ARC
  5
6A1
  8
TK1
 10
159.4724721312131
 20
189.1394454980512
 30
0.0
 40
0.5
 50
170.26648852710071
 51
270.0
  0
LINE
  5
6A2
  8
TK1
 10
149.4724721312131
 20
187.6394454980512
 30
0.0
 11
156.9724721312131
 21
188.8894454980512
 31
0.0
  0
LINE
  5
6A3
  8
TK1
 10
149.4724721312131
 20
182.8894454980512
 30
0.0
 11
149.4724721312131
 21
187.6394454980512
 31
0.0
  0
LINE
  5
6A4
  8
TK1
 10
156.9724721312131
 20
190.8894454980512
 30
0.0
 11
156.9724721312131
 21
182.8894454980512
 31
0.0
  0
LINE
  5
6A5
  8
TK1
 10
158.9724721312131
 20
190.8894454980512
 30
0.0
 11
156.9724721312131
 21
190.8894454980512
 31
0.0
  0
LINE
  5
6A6
  8
TK1
 10
158.9724721312131
 20
182.8894454980512
 30
0.0
 11
158.9724721312131
 21
190.8894454980512
 31
0.0
  0
LINE
  5
6A7
  8
TK1
 10
181.4724721312131
 20
188.6394454980512
 30
0.0
 11
175.2224721312131
 21
188.6394454980512
 31
0.0
  0
LINE
  5
6A8
  8
TK1
 10
181.4724721312131
 20
182.8894454980512
 30
0.0
 11
181.4724721312131
 21
188.6394454980512
 31
0.0
  0
POINT
  5
6A9
  8
0
 10
175.84899619960919
 20
-12.303735993930781
 30
0.0
1001
GENIUS_GENOLIS_13
1002
{
1000
ENT
1005
5DB
1005
5DC
1005
5DD
1005
5DE
1002
}
1001
GENIUS_GENODEF_13
1002
{
1000
HIER
1070
    10
1002
}
1002
{
1000
MANEDIT
1070
     0
1002
}
1002
{
1000
NOSEL
1070
     0
1002
}
1002
{
1000
BEHIND
1070
     0
1002
}
1002
{
1000
OTHER
1070
     0
1002
}
1002
{
1000
REACTOR
1002
}
1001
GENIUS_GENOENT_13
1002
{
1000
MYREF
1005
6A9
1002
}
1002
{
1000
GRP
1005
0
1002
}
1001
GENIUS_GENOBJ-N-CRS_13
1002
{
1000
OWNER
1000
GEN
1002
}
  0
POINT
  5
6AA
  8
0
 10
175.84899619960919
 20
-12.303735993930781
 30
0.0
1001
GENIUS_GENOENT_13
1002
{
1000
MYREF
1005
6AA
1002
}
1002
{
1000
GRP
1005
0
1002
}
1001
GENIUS_GENOBJ-N-CRS_13
1002
{
1000
OWNER
1000
GEN
1002
}
1001
GENIUS_GENOLIS_13
1002
{
1000
ENT
1005
60D
1005
60E
1005
60F
1005
610
1002
}
1001
GENIUS_GENODEF_13
1002
{
1000
HIER
1070
    10
1002
}
1002
{
1000
MANEDIT
1070
     0
1002
}
1002
{
1000
NOSEL
1070
     0
1002
}
1002
{
1000
BEHIND
1070
     0
1002
}
1002
{
1000
OTHER
1070
     0
1002
}
1002
{
1000
REACTOR
1002
}
  0
INSERT
  5
742
  8
0
  2
TAKACHI-A4
 10
0.0
 20
0.0
 30
0.0
1001
GENIUS_GENOREF_13
1005
79F
1001
GENIUS_GENODEF_13
1002
{
1000
HIER
1070
     0
1002
}
1002
{
1000
MANEDIT
1070
     0
1002
}
1002
{
1000
NOSEL
1070
     0
1002
}
1002
{
1000
BEHIND
1070
     0
1002
}
1002
{
1000
OTHER
1070
     0
1002
}
1002
{
1000
REACTOR
1002
}
1001
GENIUS_GENOBJ-N-SDF_13
1002
{
1000
OWNER
1000
GEN
1002
}
1001
GENIUS_GENSCREG_13
1040
1.0
1040
1.0
1011
0.0
1021
0.0
1031
0.0
1021
0.0
1031
0.0
1011
195.00000000000011
1021
0.0
1031
0.0
1021
275.0
1031
0.0
1070
     3
  0
INSERT
  5
744
  8
0
 66
     1
  2
TAKACHI-TITLE
 10
215.0
 20
15.0
 30
0.0
1001
GENIUS_GENOREF_13
1005
79F
  0
ATTRIB
  5
746
  8
0
 10
31.756147285439312
 20
23.617517191094748
 30
0.0
 40
2.5
  1

 11
31.756147285439312
 21
23.617517191094748
 31
0.0
  2
GEN-TITLE-DES2
 70
     0
 74
     1
  0
ATTRIB
  5
747
  8
0
 10
31.756147285439312
 20
16.617517191094748
 30
0.0
 40
3.0
  1

 11
31.756147285439312
 21
16.617517191094748
 31
0.0
  2
GEN-TITLE-NR
 70
     0
 74
     1
  0
ATTRIB
  5
748
  8
0
 10
31.756147285439312
 20
28.873952861685009
 30
0.0
 40
4.0
  1
ＣＰ-127
 11
31.756147285439312
 21
28.873952861685009
 31
0.0
  2
GEN-TITLE-DES1
 70
     0
 74
     1
  0
ATTRIB
  5
749
  8
0
 10
153.53594880200259
 20
54.255005561783491
 30
0.0
 40
3.0
  1
1:1
 72
     2
 11
156.98594880200261
 21
54.255005561783491
 31
0.0
  2
GEN-TITLE-SCA
 70
     0
  0
ATTRIB
  5
74A
  8
0
 10
137.99715033350989
 20
45.621807879434748
 30
0.0
 40
3.0
  1

 11
137.99715033350989
 21
45.621807879434748
 31
0.0
  2
GEN-TITLE-MAT1
 70
     0
 74
     1
  0
ATTRIB
  5
74B
  8
0
 10
137.99715033350989
 20
35.621807879434748
 30
0.0
 40
3.0
  1

 11
137.99715033350989
 21
35.621807879434748
 31
0.0
  2
GEN-TITLE-MAT2
 70
     0
 74
     1
  0
ATTRIB
  5
74C
  8
0
 10
137.99715033350989
 20
26.617517191094748
 30
0.0
 40
3.0
  1
2007/02/07
 11
137.99715033350989
 21
26.617517191094748
 31
0.0
  2
GEN-TITLE-DAT
 70
     0
 74
     1
  0
ATTRIB
  5
74D
  8
0
 10
177.236826206085
 20
54.255005561783491
 30
0.0
 40
3.0
  1

 72
     2
 11
177.236826206085
 21
54.255005561783491
 31
0.0
  2
GEN-TITLE-QTY
 70
     0
  0
SEQEND
  5
745
  8
0
  0
POINT
  5
79F
  8
0
 10
0.0
 20
0.0
 30
0.0
1001
GENIUS_GENODEF_13
1002
{
1000
HIER
1070
     1
1002
}
1002
{
1000
MANEDIT
1070
     0
1002
}
1002
{
1000
NOSEL
1070
     0
1002
}
1002
{
1000
BEHIND
1070
     0
1002
}
1002
{
1000
OTHER
1070
     0
1002
}
1002
{
1000
REACTOR
1002
}
1001
GENIUS_GENOLIS_13
1002
{
1000
ENT
1005
744
1005
742
1002
}
1001
GENIUS_GENOENT_13
1002
{
1000
MYREF
1005
79F
1002
}
1002
{
1000
GRP
1005
0
1002
}
1001
GENIUS_GENOBJ-N-TIT_13
1002
{
1000
OWNER
1000
GEN
1002
}
1001
GENIUS_GENTITLE_13
1002
{
1000
BORDER
1000
TAKACHI-A4
1002
}
1002
{
1000
TITLE
1000
TAKACHI-TITLE
1002
}
1002
{
1000
SCALE
1000
1:1
1002
}
1002
{
1000
TITLESTD
1000
ISO
1002
}
1002
{
1000
HRA
1005
742
1002
}
1002
{
1000
HTIT
1005
744
1002
}
1002
{
1000
UNCHG
1002
{
1000
GEN-TITLE-SIZ
1000
GEN-TITLE-SCA
1002
}
1002
}
1002
{
1000
GENIUSID
1005
79F
1002
}
  0
DIMENSION
  5
7C2
  8
AM_5
  2
*D28
 10
181.4724721312131
 20
165.1394454980512
 30
0.0
 11
165.4724721312131
 21
168.3897899862402
 31
0.0
 70
     0
 13
149.4724721312131
 23
178.1394454980512
 33
0.0
 14
181.4724721312131
 24
177.1394454980512
 34
0.0
 50
0.0000000000001132
  0
DIMENSION
  5
804
  8
AM_5
  2
*D29
 10
89.353056627105616
 20
162.21893932751379
 30
0.0
 11
91.85305662710563
 21
165.46893932751379
 31
0.0
 70
     0
 13
94.353056627105644
 23
174.21893932751379
 33
0.0
 14
89.353056627105616
 24
176.3840026609106
 34
0.0
 50
0.0000000000001132
  0
DIMENSION
  5
844
  8
AM_5
  2
*D30
 10
69.140726897475446
 20
162.2189383275138
 30
0.0
 11
61.640726897475453
 21
165.4689383275138
 31
0.0
 70
     0
 13
54.140726897475453
 23
178.54906634643601
 33
0.0
 14
69.140726897475446
 24
178.54906634643601
 34
0.0
 50
0.0000000000001132
  0
INSERT
  5
885
  8
AM_12
  2
*S32
 10
0.0
 20
0.0
 30
0.0
  0
INSERT
  5
88A
  8
AM_5
  2
*S33
 10
0.0
 20
0.0
 30
0.0
  0
INSERT
  5
88C
  8
AM_12
  2
*S34
 10
0.0
 20
0.0
 30
0.0
  0
INSERT
  5
88F
  8
AM_5
  2
*S35
 10
0.0
 20
0.0
 30
0.0
  0
INSERT
  5
890
  8
0
  2
*S36
 10
0.0
 20
0.0
 30
0.0
  0
VIEWPORT
  5
178
 67
     1
  8
0
 10
133.34999084472659
 20
123.6089706563676
 30
0.0
 40
370.22669129365238
 41
272.44014076799652
 68
     1
 69
     1
1001
ACAD
1000
MVIEW
1002
{
1070
    16
1010
0.0
1020
0.0
1030
0.0
1010
0.0
1020
0.0
1030
1.0
1040
0.0
1040
272.44014076799652
1040
133.34999084472659
1040
123.6089706563676
1040
50.0
1040
0.0
1040
0.0
1070
     0
1070
   100
1070
     1
1070
     1
1070
     0
1070
     0
1070
     0
1070
     0
1040
0.0
1040
0.0
1040
0.0
1040
10.0
1040
10.0
1040
10.0
1040
10.0
1070
     0
1002
{
1002
}
1002
}
1001
GENIUS_GENOBJ-N-SDF_13
1002
{
1000
OWNER
1000
GEN
1002
}
1001
GENIUS_GENODEF_13
1002
{
1000
HIER
1070
     0
1002
}
1002
{
1000
MANEDIT
1070
     0
1002
}
1002
{
1000
NOSEL
1070
     0
1002
}
1002
{
1000
BEHIND
1070
     0
1002
}
1002
{
1000
OTHER
1070
     0
1002
}
1002
{
1000
REACTOR
1002
}
1001
GENIUS_GENSCREG_15
1000
PF
1040
1.0
1000
DF
1040
1.0
1000
MIN
1011
-51.763354802099627
1021
0.0
1031
0.0
1021
-12.611099727630631
1031
0.0
1000
MAX
1011
318.46333649155281
1021
0.0
1031
0.0
1021
259.82904104036589
1031
0.0
1000
FLAGS
1070
     4
  0
ENDSEC
  0
EOF
