  0
SECTION
  2
HEADER
  9
$ACADVER
  1
AC1009
  9
$INSBASE
 10
0.0
 20
0.0
 30
0.0
  9
$EXTMIN
 10
-0.0212323099563037
 20
-0.0066138792808488
 30
-0.0000000000000153
  9
$EXTMAX
 10
1612.0955736472661
 20
1120.0745351045659
 30
0.0
  9
$LIMMIN
 10
0.0
 20
0.0
  9
$LIMMAX
 10
1612.0
 20
1120.0
  9
$ORTHOMODE
 70
     1
  9
$REGENMODE
 70
     1
  9
$FILLMODE
 70
     1
  9
$QTEXTMODE
 70
     0
  9
$MIRRTEXT
 70
     1
  9
$DRAGMODE
 70
     2
  9
$LTSCALE
 40
4.0
  9
$OSMODE
 70
   431
  9
$ATTMODE
 70
     1
  9
$TEXTSIZE
 40
2.5
  9
$TRACEWID
 40
1.0
  9
$TEXTSTYLE
  7
STANDARD
  9
$CLAYER
  8
0
  9
$CELTYPE
  6
BYLAYER
  9
$CECOLOR
 62
   256
  9
$DIMSCALE
 40
5.0
  9
$DIMASZ
 40
2.5
  9
$DIMEXO
 40
1.0
  9
$DIMDLI
 40
10.0
  9
$DIMRND
 40
0.0
  9
$DIMDLE
 40
0.0
  9
$DIMEXE
 40
1.0
  9
$DIMTP
 40
0.1
  9
$DIMTM
 40
0.1
  9
$DIMTXT
 40
3.5
  9
$DIMCEN
 40
0.0
  9
$DIMTSZ
 40
0.0
  9
$DIMTOL
 70
     0
  9
$DIMLIM
 70
     0
  9
$DIMTIH
 70
     0
  9
$DIMTOH
 70
     0
  9
$DIMSE1
 70
     0
  9
$DIMSE2
 70
     0
  9
$DIMTAD
 70
     3
  9
$DIMZIN
 70
     8
  9
$DIMBLK
  1
OPEN30
  9
$DIMASO
 70
     1
  9
$DIMSHO
 70
     1
  9
$DIMPOST
  1

  9
$DIMAPOST
  1
"
  9
$DIMALT
 70
     0
  9
$DIMALTD
 70
     2
  9
$DIMALTF
 40
0.0393701
  9
$DIMLFAC
 40
1.0
  9
$DIMTOFL
 70
     1
  9
$DIMTVP
 40
0.0
  9
$DIMTIX
 70
     0
  9
$DIMSOXD
 70
     0
  9
$DIMSAH
 70
     0
  9
$DIMBLK1
  1
OPEN30
  9
$DIMBLK2
  1
OPEN30
  9
$DIMSTYLE
  2
AM_JIS
  9
$DIMCLRD
 70
   256
  9
$DIMCLRE
 70
   256
  9
$DIMCLRT
 70
     2
  9
$DIMTFAC
 40
0.71
  9
$DIMGAP
 40
1.5
  9
$LUNITS
 70
     2
  9
$LUPREC
 70
     2
  9
$SKETCHINC
 40
1.0
  9
$FILLETRAD
 40
30.0
  9
$AUNITS
 70
     0
  9
$AUPREC
 70
     0
  9
$MENU
  1
.
  9
$ELEVATION
 40
0.0
  9
$PELEVATION
 40
0.0
  9
$THICKNESS
 40
0.0
  9
$LIMCHECK
 70
     0
  9
$BLIPMODE
 70
     0
  9
$CHAMFERA
 40
30.0
  9
$CHAMFERB
 40
30.0
  9
$SKPOLY
 70
     0
  9
$TDCREATE
 40
2452629.7636367008
  9
$TDUPDATE
 40
2455510.5861086692
  9
$TDINDWG
 40
0.7463668866
  9
$TDUSRTIMER
 40
0.7463668866
  9
$USRTIMER
 70
     1
  9
$ANGBASE
 50
0.0
  9
$ANGDIR
 70
     0
  9
$PDMODE
 70
     0
  9
$PDSIZE
 40
0.0
  9
$PLINEWID
 40
0.0
  9
$COORDS
 70
     0
  9
$SPLFRAME
 70
     0
  9
$SPLINETYPE
 70
     6
  9
$SPLINESEGS
 70
     8
  9
$ATTDIA
 70
     1
  9
$ATTREQ
 70
     1
  9
$HANDLING
 70
     1
  9
$HANDSEED
  5
475A
  9
$SURFTAB1
 70
     6
  9
$SURFTAB2
 70
     6
  9
$SURFTYPE
 70
     6
  9
$SURFU
 70
     6
  9
$SURFV
 70
     6
  9
$UCSNAME
  2

  9
$UCSORG
 10
0.0
 20
0.0
 30
0.0
  9
$UCSXDIR
 10
1.0
 20
0.0
 30
0.0
  9
$UCSYDIR
 10
0.0
 20
1.0
 30
0.0
  9
$PUCSNAME
  2

  9
$PUCSORG
 10
0.0
 20
0.0
 30
0.0
  9
$PUCSXDIR
 10
1.0
 20
0.0
 30
0.0
  9
$PUCSYDIR
 10
0.0
 20
1.0
 30
0.0
  9
$USERI1
 70
     0
  9
$USERI2
 70
     0
  9
$USERI3
 70
     0
  9
$USERI4
 70
     0
  9
$USERI5
 70
     0
  9
$USERR1
 40
0.0
  9
$USERR2
 40
0.0
  9
$USERR3
 40
0.0
  9
$USERR4
 40
0.0
  9
$USERR5
 40
0.0
  9
$WORLDVIEW
 70
     1
  9
$SHADEDGE
 70
     3
  9
$SHADEDIF
 70
    70
  9
$TILEMODE
 70
     1
  9
$MAXACTVP
 70
    64
  9
$PLIMCHECK
 70
     0
  9
$PEXTMIN
 10
1.0000000000000000E+020
 20
1.0000000000000000E+020
 30
1.0000000000000000E+020
  9
$PEXTMAX
 10
-1.0000000000000000E+020
 20
-1.0000000000000000E+020
 30
-1.0000000000000000E+020
  9
$PLIMMIN
 10
0.0
 20
0.0
  9
$PLIMMAX
 10
420.0
 20
297.0
  9
$UNITMODE
 70
     0
  9
$VISRETAIN
 70
     1
  9
$PLINEGEN
 70
     0
  9
$PSLTSCALE
 70
     1
  0
ENDSEC
  0
SECTION
  2
TABLES
  0
TABLE
  2
VPORT
 70
     3
  0
VPORT
  2
*ACTIVE
 70
     0
 10
0.0
 20
0.0
 11
1.0
 21
1.0
 12
806.03717066865465
 22
560.03396061264277
 13
-85.0
 23
0.0
 14
10.0
 24
10.0
 15
40.0
 25
40.0
 16
0.0
 26
0.0
 36
1.0
 17
0.0
 27
0.0
 37
0.0
 40
1128.7415702388771
 41
1.4890322580645159
 42
50.0
 43
0.0
 44
0.0
 50
0.0
 51
0.0
 71
     0
 72
   100
 73
     1
 74
     3
 75
     0
 76
     0
 77
     0
 78
     0
  0
ENDTAB
  0
TABLE
  2
LTYPE
 70
    22
  0
LTYPE
  2
CONTINUOUS
 70
     0
  3
Solid line
 72
    65
 73
     0
 40
0.0
  0
LTYPE
  2
AM_ISO02W050
 70
     0
  3
__ __ __ __ __ __ __ __ __ __ __ __ __ __ __
 72
    65
 73
     2
 40
7.5
 49
6.0
 49
-1.5
  0
LTYPE
  2
AM_ISO08W050
 70
     0
  3
____ . ____ . ____ . ____ . ____ . ____ . ____
 72
    65
 73
     4
 40
18.0
 49
12.0
 49
-1.5
 49
3.0
 49
-1.5
  0
LTYPE
  2
AM_ISO09W050
 70
     0
  3
_____ . . _____ . . _____ . . ____ .. ____
 72
    65
 73
     6
 40
22.5
 49
12.0
 49
-1.5
 49
3.0
 49
-1.5
 49
3.0
 49
-1.5
  0
LTYPE
  2
AMCONSTR
 70
     0
  3
_______________________
 72
    65
 73
     2
 40
9999.0
 49
9999.0
 49
0.0
  0
LTYPE
  2
AM_ISO02W050X2
 70
     0
  3
 _ _ _ _ _ _ _ _ _ _ _ _
 72
    65
 73
     2
 40
3.75
 49
3.0
 49
-0.75
  0
LTYPE
  2
AM_ISO08W050X2
 70
     0
  3
__ . __ . __ . __ . __ . __
 72
    65
 73
     4
 40
9.0
 49
6.0
 49
-0.75
 49
1.5
 49
-0.75
  0
LTYPE
  2
AMZIGZAG
 70
     0
  3
/\/-/\/-/\/-/\/-/\/-/\/
 72
    65
 73
     2
 40
11.0001
 49
0.0001
 49
-11.0
  0
LTYPE
  2
HIDDEN
 70
     0
  3
Hidden __ __ __ __ __ __ __ __ __ __ __ __ __ _
 72
    65
 73
     2
 40
9.5249999999999986
 49
6.3499999999999988
 49
-3.1749999999999989
  0
LTYPE
  2
PHANTOM2
 70
     0
  3
Phantom (.5x) ___ _ _ ___ _ _ ___ _ _ ___ _ _
 72
    65
 73
     6
 40
31.75
 49
15.875
 49
-3.1749999999999989
 49
3.1749999999999989
 49
-3.1749999999999989
 49
3.1749999999999989
 49
-3.1749999999999989
  0
LTYPE
  2
CENTER
 70
     0
  3
__ . __
 72
    65
 73
     4
 40
7.0
 49
4.0
 49
-1.0
 49
1.0
 49
-1.0
  0
LTYPE
  2
ACJISTGB
 70
     0
  3
__ . . __ . .
 72
    65
 73
     6
 40
9.0
 49
4.0
 49
-1.0
 49
1.0
 49
-1.0
 49
1.0
 49
-1.0
  0
LTYPE
  2
ACJISTGL
 70
     0
  3
_ _ _ _ _
 72
    65
 73
     2
 40
3.0
 49
2.0
 49
-1.0
  0
LTYPE
  2
ACISOWELD
 70
     0
  3
_ _ _ _ _
 72
    65
 73
     2
 40
2.0
 49
2.0
 49
-1.0
  0
LTYPE
  2
ACISOTGB
 70
     0
  3
__ . . __ . .
 72
    65
 73
     6
 40
9.0
 49
4.0
 49
-1.0
 49
1.0
 49
-1.0
 49
1.0
 49
-1.0
  0
LTYPE
  2
ACISOTGL
 70
     0
  3
_ _ _ _ _
 72
    65
 73
     2
 40
3.0
 49
2.0
 49
-1.0
  0
LTYPE
  2
GEN3
 70
     0
  3
-- -- -- -- -- -- -- -- -- -- -- -- -- -- --
 72
    65
 73
     2
 40
6.25
 49
4.75
 49
-1.5
  0
LTYPE
  2
GEN7
 70
     0
  3
____ . ____ . ____ . ____ . ____ . ____ . ____
 72
    65
 73
     4
 40
13.75
 49
9.75
 49
-1.5
 49
1.0
 49
-1.5
  0
LTYPE
  2
GEN3A
 70
     0
  3
 - - - - -
 72
    65
 73
     2
 40
3.125
 49
2.25
 49
-0.875
  0
LTYPE
  2
GEN7A
 70
     0
  3
__ . __ . __
 72
    65
 73
     4
 40
6.875
 49
4.75
 49
-0.875
 49
0.375
 49
-0.875
  0
LTYPE
  2
GEN4A
 70
     0
  3
_____ . . _____ . . _____ . . ____ .. ____
 72
    65
 73
     6
 40
16.25
 49
9.75
 49
-1.5
 49
1.0
 49
-1.5
 49
1.0
 49
-1.5
  0
LTYPE
  2
GENZIGZAG
 70
     0
  3
/\/-/\/-/\/-/\/-/\/-/\/
 72
    65
 73
     2
 40
12.0001
 49
0.0001
 49
-12.0
  0
ENDTAB
  0
TABLE
  2
LAYER
 70
    14
  0
LAYER
  2
0
 70
     0
 62
     7
  6
CONTINUOUS
  0
LAYER
  2
╝¼_╝
 70
     0
 62
     7
  6
CONTINUOUS
  0
LAYER
  2
╝¼_╝Äµòtæõ
 70
     0
 62
     2
  6
CONTINUOUS
  0
LAYER
  2
AM_5
 70
     0
 62
     3
  6
CONTINUOUS
  0
LAYER
  2
DEFPOINTS
 70
     0
 62
     7
  6
CONTINUOUS
  0
LAYER
  2
╝¼_╝Äµòtæõ0
 70
     0
 62
     2
  6
AM_ISO02W050X2
  0
LAYER
  2
╝¼_╝0
 70
     0
 62
     7
  6
AM_ISO02W050X2
  0
LAYER
  2
RAHM2
 70
     0
 62
     1
  6
CONTINUOUS
  0
LAYER
  2
7A
 70
     0
 62
     4
  6
GEN7A
  0
LAYER
  2
AM_12
 70
     0
 62
     7
  6
CONTINUOUS
  0
LAYER
  2
AM_PAREF
 70
     0
 62
     4
  6
CONTINUOUS
  0
LAYER
  2
╦_¢
 70
     0
 62
     8
  6
CONTINUOUS
  0
LAYER
  2
╦_¢0
 70
     0
 62
     8
  6
AM_ISO02W050X2
  0
LAYER
  2
AM_CL
 70
     0
 62
     1
  6
AMCONSTR
  0
ENDTAB
  0
TABLE
  2
STYLE
 70
    11
  0
STYLE
  2
STANDARD
 70
     0
 40
0.0
 41
1.0
 50
0.0
 71
     0
 42
2.5
  3
ISOCP.SHX
  4
EXTFONT.SHX
  0
STYLE
  2
USER1
 70
     0
 40
0.0
 41
1.0
 50
0.0
 71
     0
 42
2.5
  3
TXT.SHX
  4

  0
STYLE
  2
USER2
 70
     0
 40
0.0
 41
1.0
 50
0.0
 71
     0
 42
2.5
  3
SIMPLEX.SHX
  4

  0
STYLE
  2
USER3
 70
     0
 40
0.0
 41
1.0
 50
0.0
 71
     0
 42
2.5
  3
ITALIC.SHX
  4

  0
STYLE
  2

 70
     1
 40
0.0
 41
1.0
 50
0.0
 71
     0
 42
2.5
  3
ltypeshp.shx
  4

  0
STYLE
  2
ACJISTS
 70
     0
 40
1.0
 41
1.0
 50
0.0
 71
     0
 42
2.5
  3
isocp.shx
  4
bigfont.shx
  0
STYLE
  2
ACJISGDT
 70
     0
 40
0.0
 41
1.0
 50
0.0
 71
     0
 42
2.5
  3
amgdt.shx
  4

  0
STYLE
  2
ACISOTS
 70
     0
 40
1.0
 41
1.0
 50
0.0
 71
     0
 42
2.5
  3
isocp.shx
  4
extfont.shx
  0
STYLE
  2
ACISOGDT
 70
     0
 40
0.0
 41
1.0
 50
0.0
 71
     0
 42
2.5
  3
amgdt.shx
  4

  0
STYLE
  2

 70
     1
 40
0.0
 41
1.0
 50
0.0
 71
     0
 42
2.5
  3
genltshp.shx
  4

  0
STYLE
  2
TAKACHI1
 70
     0
 40
2.5
 41
1.0
 50
0.0
 71
     0
 42
2.5
  3
txt
  4

  0
ENDTAB
  0
TABLE
  2
VIEW
 70
     6
  0
VIEW
  2
AM_VIEW1
 70
     0
 40
691.87610619469024
 10
403.0
 20
774.06194690265511
 41
806.0
 11
0.0
 21
0.0
 31
1.0
 12
0.0
 22
0.0
 32
0.0
 42
50.0
 43
0.0
 44
0.0
 50
0.0
 71
     0
  0
VIEW
  2
AM_VIEW2
 70
     0
 40
691.87610619469024
 10
1209.0
 20
774.06194690265511
 41
806.0
 11
0.0
 21
0.0
 31
1.0
 12
0.0
 22
0.0
 32
0.0
 42
50.0
 43
0.0
 44
0.0
 50
0.0
 71
     0
  0
VIEW
  2
AM_VIEW3
 70
     0
 40
691.87610619469024
 10
403.0
 20
345.93805309734512
 41
806.0
 11
0.0
 21
0.0
 31
1.0
 12
0.0
 22
0.0
 32
0.0
 42
50.0
 43
0.0
 44
0.0
 50
0.0
 71
     0
  0
VIEW
  2
AM_VIEW4
 70
     0
 40
691.87610619469024
 10
1209.0
 20
345.93805309734512
 41
806.0
 11
0.0
 21
0.0
 31
1.0
 12
0.0
 22
0.0
 32
0.0
 42
50.0
 43
0.0
 44
0.0
 50
0.0
 71
     0
  0
VIEW
  2
AM_VIEW5
 70
     0
 40
691.87610619469024
 10
806.0
 20
560.00000000000011
 41
806.0
 11
0.0
 21
0.0
 31
1.0
 12
0.0
 22
0.0
 32
0.0
 42
50.0
 43
0.0
 44
0.0
 50
0.0
 71
     0
  0
VIEW
  2
AM_VIEW6
 70
     0
 40
1383.738374867256
 10
806.0
 20
560.00000000000011
 41
1611.9838799999991
 11
0.0
 21
0.0
 31
1.0
 12
0.0
 22
0.0
 32
0.0
 42
50.0
 43
0.0
 44
0.0
 50
0.0
 71
     0
  0
ENDTAB
  0
TABLE
  2
UCS
 70
     0
  0
ENDTAB
  0
TABLE
  2
APPID
 70
    37
  0
APPID
  2
ACAD
 70
     0
  0
APPID
  2
MCAD_NO_VIS
 70
     0
  0
APPID
  2
ACAD_TEMP_GRAPHIC
 70
     0
  0
APPID
  2
RAK
 70
     0
  0
APPID
  2
GENIUS_GENODEF_13
 70
     0
  0
APPID
  2
GENIUS_GENOBJ-N-FIL_13
 70
     0
  0
APPID
  2
GENIUS_GENREC_14
 70
     0
  0
APPID
  2
GENIUS_GENOBJ-N-REC_13
 70
     0
  0
APPID
  2
GENIUS_GENOBJ-N-HTC_13
 70
     0
  0
APPID
  2
GENIUS_GENHATCH_13
 70
     0
  0
APPID
  2
GENIUS_GENDTOL_13
 70
     0
  0
APPID
  2
GENIUS_GENDIMSH_14
 70
     0
  0
APPID
  2
AD_DRAW
 70
     0
  0
APPID
  2
ACATTRIBSERVICES
 70
     0
  0
APPID
  2
DESIGNERASSEMBLIES
 70
     0
  0
APPID
  2
ACADM_DIM_EDIT
 70
     0
  0
APPID
  2
AMDT_DM_ADJ
 70
     0
  0
APPID
  2
GENIUS_GENCFG_13
 70
     0
  0
APPID
  2
GENIUS_GENCFG0_13
 70
     0
  0
APPID
  2
GENIUS_GENCFG1_13
 70
     0
  0
APPID
  2
GENIUS_GENCFG2_13
 70
     0
  0
APPID
  2
GENIUS_GENCFG3_13
 70
     0
  0
APPID
  2
GENIUS_GENCFG4_13
 70
     0
  0
APPID
  2
GENIUS_GEVCFG0_13
 70
     0
  0
APPID
  2
GENIUS_GENOENT_13
 70
     0
  0
APPID
  2
GENIUS_GENOBJ-N-CRS_13
 70
     0
  0
APPID
  2
GENIUS_GENOREF_13
 70
     0
  0
APPID
  2
GENIUS_GENOLIS_13
 70
     0
  0
APPID
  2
GENIUS_GENOBJ-N-TIT_13
 70
     0
  0
APPID
  2
GENIUS_GENTITLE_13
 70
     0
  0
APPID
  2
GENIUS_GENSCREG_15
 70
     0
  0
APPID
  2
GENIUS_GENOBJ-N-SDF_13
 70
     0
  0
APPID
  2
GENIUS_GENOBJ-N-CEN_13
 70
     0
  0
APPID
  2
GENIUS_GENOBJ-N-ZOO_13
 70
     0
  0
APPID
  2
GENIUS_GENZOO_17
 70
     0
  0
APPID
  2
GEV_VCCNULL_SWITCH_OFF
 70
     0
  0
APPID
  2
GENIUS_GENSCREG_13
 70
     0
  0
ENDTAB
  0
TABLE
  2
DIMSTYLE
 70
    24
  0
DIMSTYLE
  2
ISO-25
 70
     0
  3

  4

  5

  6

  7

 40
1.0
 41
2.5
 42
0.625
 43
3.75
 44
1.25
 45
0.0
 46
0.0
 47
0.0
 48
0.0
140
2.5
141
2.5
142
0.0
143
0.03937007874016
144
1.0
145
0.0
146
1.0
147
0.625
 71
     0
 72
     0
 73
     0
 74
     0
 75
     0
 76
     0
 77
     1
 78
     8
170
     0
171
     3
172
     1
173
     0
174
     0
175
     0
176
     0
177
     0
178
     0
  0
DIMSTYLE
  2
AM_JIS
 70
     0
  3

  4
"
  5
OPEN30
  6

  7

 40
1.0
 41
2.5
 42
1.0
 43
10.0
 44
1.0
 45
0.0
 46
0.0
 47
0.1
 48
0.1
140
3.5
141
0.0
142
0.0
143
0.0393701
144
1.0
145
0.0
146
0.71
147
1.5
 71
     0
 72
     0
 73
     0
 74
     0
 75
     0
 76
     0
 77
     3
 78
     8
170
     0
171
     2
172
     1
173
     0
174
     0
175
     0
176
   256
177
   256
178
     2
  0
DIMSTYLE
  2
AM_JIS$3
 70
     0
  3

  4
"
  5
OPEN30
  6
OPEN30
  7
OPEN30
 40
1.0
 41
2.5
 42
1.0
 43
10.0
 44
1.0
 45
0.0
 46
0.0
 47
0.1
 48
0.1
140
3.5
141
0.0
142
0.0
143
0.0393701
144
1.0
145
0.0
146
0.71
147
1.5
 71
     0
 72
     0
 73
     0
 74
     1
 75
     0
 76
     0
 77
     3
 78
     8
170
     0
171
     2
172
     0
173
     0
174
     0
175
     0
176
   256
177
   256
178
     2
  0
DIMSTYLE
  2
AM_JIS$4
 70
     0
  3

  4
"
  5
OPEN30
  6
OPEN30
  7
OPEN30
 40
1.0
 41
2.5
 42
1.0
 43
10.0
 44
1.0
 45
0.0
 46
0.0
 47
0.1
 48
0.1
140
3.5
141
0.0
142
0.0
143
0.0393701
144
1.0
145
0.0
146
0.71
147
1.5
 71
     0
 72
     0
 73
     0
 74
     1
 75
     0
 76
     0
 77
     3
 78
     8
170
     0
171
     2
172
     0
173
     0
174
     0
175
     0
176
   256
177
   256
178
     2
  0
DIMSTYLE
  2
AM_JIS$6
 70
     0
  3

  4
"
  5
OPEN30
  6
OPEN30
  7
OPEN30
 40
1.0
 41
2.5
 42
1.0
 43
10.0
 44
1.0
 45
0.0
 46
0.0
 47
0.1
 48
0.1
140
3.5
141
0.0
142
0.0
143
0.0393701
144
1.0
145
0.0
146
0.71
147
1.5
 71
     0
 72
     0
 73
     0
 74
     0
 75
     0
 76
     0
 77
     0
 78
     8
170
     0
171
     2
172
     1
173
     0
174
     0
175
     0
176
   256
177
   256
178
     2
  0
DIMSTYLE
  2
AM_JIS$7
 70
     0
  3

  4
"
  5
OPEN30
  6
OPEN30
  7
OPEN30
 40
1.0
 41
2.5
 42
1.0
 43
10.0
 44
1.0
 45
0.0
 46
0.0
 47
0.1
 48
0.1
140
5.0
141
0.0
142
0.0
143
0.0393701
144
1.0
145
0.0
146
0.71
147
1.5
 71
     0
 72
     0
 73
     0
 74
     0
 75
     0
 76
     0
 77
     3
 78
     8
170
     0
171
     2
172
     1
173
     0
174
     0
175
     0
176
   256
177
   256
178
     2
  0
DIMSTYLE
  2
AM_JIS$SF
 70
     0
  3

  4
"
  5
OPEN30
  6
OPEN30
  7
OPEN30
 40
1.0
 41
2.5
 42
1.0
 43
10.0
 44
1.0
 45
0.0
 46
0.0
 47
0.1
 48
0.1
140
3.5
141
0.0
142
0.0
143
0.0393701
144
1.0
145
0.0
146
0.71
147
1.5
 71
     0
 72
     0
 73
     0
 74
     0
 75
     1
 76
     1
 77
     3
 78
     8
170
     0
171
     2
172
     1
173
     0
174
     0
175
     0
176
   256
177
   256
178
     2
  0
DIMSTYLE
  2
AM_JIS$SH
 70
     0
  3

  4
"
  5
OPEN30
  6
GENAXEH
  7
OPEN30
 40
1.0
 41
2.5
 42
1.0
 43
10.0
 44
1.0
 45
0.0
 46
0.0
 47
0.1
 48
0.1
140
3.5
141
0.0
142
0.0
143
0.0393701
144
2.0
145
0.0
146
0.71
147
1.5
 71
     0
 72
     0
 73
     0
 74
     0
 75
     1
 76
     1
 77
     3
 78
     8
170
     0
171
     2
172
     1
173
     1
174
     0
175
     0
176
   256
177
   256
178
     2
  0
DIMSTYLE
  2
AM_ISO
 70
     0
  3

  4
"
  5
OPEN30
  6

  7

 40
1.0
 41
2.5
 42
1.0
 43
10.0
 44
1.0
 45
0.0
 46
0.0
 47
0.1
 48
0.1
140
3.5
141
0.0
142
0.0
143
0.0393701
144
1.0
145
0.0
146
0.71
147
1.5
 71
     0
 72
     0
 73
     0
 74
     0
 75
     0
 76
     0
 77
     1
 78
     8
170
     0
171
     2
172
     1
173
     0
174
     0
175
     0
176
   256
177
   256
178
     2
  0
DIMSTYLE
  2
AM_ISO$3
 70
     0
  3

  4
"
  5
OPEN30
  6

  7

 40
1.0
 41
2.5
 42
1.0
 43
10.0
 44
1.0
 45
0.0
 46
0.0
 47
0.1
 48
0.1
140
3.5
141
0.0
142
0.0
143
0.0393701
144
1.0
145
0.0
146
0.71
147
1.5
 71
     0
 72
     0
 73
     0
 74
     1
 75
     0
 76
     0
 77
     1
 78
     8
170
     0
171
     2
172
     0
173
     0
174
     0
175
     0
176
   256
177
   256
178
     2
  0
DIMSTYLE
  2
AM_ISO$4
 70
     0
  3

  4
"
  5
OPEN30
  6

  7

 40
1.0
 41
2.5
 42
1.0
 43
10.0
 44
1.0
 45
0.0
 46
0.0
 47
0.1
 48
0.1
140
3.5
141
0.0
142
0.0
143
0.0393701
144
1.0
145
0.0
146
0.71
147
1.5
 71
     0
 72
     0
 73
     0
 74
     1
 75
     0
 76
     0
 77
     1
 78
     8
170
     0
171
     2
172
     0
173
     0
174
     0
175
     0
176
   256
177
   256
178
     2
  0
DIMSTYLE
  2
AM_ISO$6
 70
     0
  3

  4
"
  5
OPEN30
  6

  7

 40
1.0
 41
2.5
 42
1.0
 43
10.0
 44
1.0
 45
0.0
 46
0.0
 47
0.1
 48
0.1
140
3.5
141
0.0
142
0.0
143
0.0393701
144
1.0
145
0.0
146
0.71
147
1.5
 71
     0
 72
     0
 73
     0
 74
     0
 75
     0
 76
     0
 77
     0
 78
     8
170
     0
171
     2
172
     1
173
     0
174
     0
175
     0
176
   256
177
   256
178
     2
  0
DIMSTYLE
  2
AM_ISO$7
 70
     0
  3

  4
"
  5
OPEN30
  6

  7

 40
1.0
 41
2.5
 42
1.0
 43
10.0
 44
1.0
 45
0.0
 46
0.0
 47
0.1
 48
0.1
140
5.0
141
0.0
142
0.0
143
0.0393701
144
1.0
145
0.0
146
0.71
147
1.5
 71
     0
 72
     0
 73
     0
 74
     0
 75
     0
 76
     0
 77
     1
 78
     8
170
     0
171
     2
172
     1
173
     0
174
     0
175
     0
176
   256
177
   256
178
     2
  0
DIMSTYLE
  2
AM_ISO$SF
 70
     0
  3

  4
"
  5
OPEN30
  6

  7

 40
1.0
 41
2.5
 42
1.0
 43
10.0
 44
1.0
 45
0.0
 46
0.0
 47
0.1
 48
0.1
140
3.5
141
0.0
142
0.0
143
0.0393701
144
1.0
145
0.0
146
0.71
147
1.5
 71
     0
 72
     0
 73
     0
 74
     0
 75
     1
 76
     1
 77
     1
 78
     8
170
     0
171
     2
172
     1
173
     0
174
     0
175
     0
176
   256
177
   256
178
     2
  0
DIMSTYLE
  2
AM_ISO$SH
 70
     0
  3

  4
"
  5

  6
GENAXEH
  7
OPEN30
 40
1.0
 41
2.5
 42
1.0
 43
10.0
 44
1.0
 45
0.0
 46
0.0
 47
0.1
 48
0.1
140
3.5
141
0.0
142
0.0
143
0.0393701
144
2.0
145
0.0
146
0.71
147
1.5
 71
     0
 72
     0
 73
     0
 74
     0
 75
     1
 76
     1
 77
     1
 78
     8
170
     0
171
     2
172
     1
173
     1
174
     0
175
     0
176
   256
177
   256
178
     2
  0
DIMSTYLE
  2
GEN-ISO
 70
     0
  3

  4
"
  5
OPEN30
  6

  7

 40
1.0
 41
2.5
 42
1.0
 43
10.0
 44
1.0
 45
0.0
 46
0.0
 47
0.1
 48
0.1
140
3.5
141
0.0
142
0.0
143
0.0393701
144
1.0
145
0.0
146
0.71
147
1.5
 71
     0
 72
     0
 73
     0
 74
     0
 75
     0
 76
     0
 77
     1
 78
     8
170
     0
171
     2
172
     1
173
     0
174
     0
175
     0
176
   256
177
   256
178
     2
  0
DIMSTYLE
  2
GEN-ISO-POS
 70
     0
  3

  4
"
  5
OPEN30
  6

  7

 40
1.0
 41
2.5
 42
1.0
 43
10.0
 44
1.0
 45
0.0
 46
0.0
 47
0.1
 48
0.1
140
5.0
141
0.0
142
0.0
143
0.0393701
144
1.0
145
0.0
146
0.71
147
1.5
 71
     0
 72
     0
 73
     0
 74
     0
 75
     0
 76
     0
 77
     0
 78
     8
170
     0
171
     2
172
     0
173
     0
174
     0
175
     0
176
   256
177
   256
178
     2
  0
DIMSTYLE
  2
GEN-ISO-AXE-F
 70
     0
  3

  4
"
  5
OPEN30
  6

  7

 40
1.0
 41
2.5
 42
1.0
 43
10.0
 44
1.0
 45
0.0
 46
0.0
 47
0.1
 48
0.1
140
3.5
141
0.0
142
0.0
143
0.0393701
144
1.0
145
0.0
146
0.71
147
1.5
 71
     0
 72
     0
 73
     0
 74
     0
 75
     1
 76
     1
 77
     1
 78
     8
170
     0
171
     2
172
     1
173
     0
174
     0
175
     0
176
   256
177
   256
178
     2
  0
DIMSTYLE
  2
GEN-ISO-AXE-H
 70
     0
  3

  4
"
  5
OPEN30
  6

  7

 40
1.0
 41
2.5
 42
1.0
 43
10.0
 44
1.0
 45
0.0
 46
0.0
 47
0.1
 48
0.1
140
3.5
141
0.0
142
0.0
143
0.0393701
144
2.0
145
0.0
146
0.71
147
1.5
 71
     0
 72
     0
 73
     0
 74
     0
 75
     1
 76
     1
 77
     1
 78
     8
170
     0
171
     2
172
     1
173
     0
174
     0
175
     0
176
   256
177
   256
178
     2
  0
DIMSTYLE
  2
GEN-ISO$3
 70
     0
  3

  4
"
  5

  6

  7

 40
1.0
 41
2.5
 42
1.0
 43
10.0
 44
1.0
 45
0.0
 46
0.0
 47
0.1
 48
0.1
140
3.5
141
0.0
142
0.0
143
0.0393701
144
1.0
145
0.0
146
0.71
147
1.5
 71
     0
 72
     0
 73
     0
 74
     1
 75
     0
 76
     0
 77
     1
 78
     8
170
     0
171
     2
172
     0
173
     0
174
     0
175
     0
176
   256
177
   256
178
     2
  0
DIMSTYLE
  2
GEN-ISO$4
 70
     0
  3

  4
"
  5

  6

  7

 40
1.0
 41
2.5
 42
1.0
 43
10.0
 44
1.0
 45
0.0
 46
0.0
 47
0.1
 48
0.1
140
3.5
141
0.0
142
0.0
143
0.0393701
144
1.0
145
0.0
146
0.71
147
1.5
 71
     0
 72
     0
 73
     0
 74
     1
 75
     0
 76
     0
 77
     1
 78
     8
170
     0
171
     2
172
     0
173
     0
174
     0
175
     0
176
   256
177
   256
178
     2
  0
DIMSTYLE
  2
GEN-ISO$6
 70
     0
  3

  4
"
  5

  6

  7

 40
1.0
 41
2.5
 42
1.0
 43
10.0
 44
1.0
 45
0.0
 46
0.0
 47
0.1
 48
0.1
140
3.5
141
0.0
142
0.0
143
0.0393701
144
1.0
145
0.0
146
0.71
147
1.5
 71
     0
 72
     0
 73
     0
 74
     0
 75
     0
 76
     0
 77
     0
 78
     8
170
     0
171
     2
172
     0
173
     0
174
     0
175
     0
176
   256
177
   256
178
     2
  0
DIMSTYLE
  2
AM_ANSI
 70
     0
  3

  4
mm
  5

  6

  7

 40
1.0
 41
0.1
 42
0.05
 43
0.5
 44
0.1
 45
0.0
 46
0.0
 47
0.1
 48
0.1
140
0.12
141
0.0
142
0.0
143
25.399999999999999
144
1.0
145
0.0
146
0.71
147
0.06
 71
     0
 72
     0
 73
     1
 74
     1
 75
     0
 76
     0
 77
     0
 78
     7
170
     0
171
     2
172
     0
173
     0
174
     0
175
     0
176
   256
177
   256
178
     2
  0
DIMSTYLE
  2
AM_JIS$0
 70
     0
  3

  4
"
  5
OPEN30
  6

  7

 40
1.0
 41
2.5
 42
1.0
 43
10.0
 44
1.0
 45
0.0
 46
0.0
 47
0.1
 48
0.1
140
3.5
141
0.0
142
0.0
143
0.0393701
144
1.0
145
0.0
146
0.71
147
1.5
 71
     0
 72
     0
 73
     0
 74
     0
 75
     0
 76
     0
 77
     3
 78
     8
170
     0
171
     2
172
     1
173
     0
174
     0
175
     0
176
   256
177
   256
178
     2
  0
ENDTAB
  0
ENDSEC
  0
SECTION
  2
BLOCKS
  0
BLOCK
  8
0
  2
$MODEL_SPACE
 70
     0
 10
0.0
 20
0.0
 30
0.0
  3
$MODEL_SPACE
  1

  0
ENDBLK
  5
21
  8
0
  0
BLOCK
 67
     1
  8
0
  2
$PAPER_SPACE
 70
     0
 10
0.0
 20
0.0
 30
0.0
  3
$PAPER_SPACE
  1

  0
ENDBLK
  5
1D
 67
     1
  8
0
  0
BLOCK
  8
0
  2
_OPEN30
 70
     0
 10
0.0
 20
0.0
 30
0.0
  3
_OPEN30
  1

  0
LINE
  5
39DE
  8
0
  6
BYBLOCK
 62
     0
 10
-1.0
 20
0.26794919
 30
0.0
 11
0.0
 21
0.0
 31
0.0
  0
LINE
  5
39DF
  8
0
  6
BYBLOCK
 62
     0
 10
0.0
 20
0.0
 30
0.0
 11
-1.0
 21
-0.26794919
 31
0.0
  0
LINE
  5
39E0
  8
0
  6
BYBLOCK
 62
     0
 10
0.0
 20
0.0
 30
0.0
 11
-1.0
 21
0.0
 31
0.0
  0
ENDBLK
  5
39E1
  8
0
  0
BLOCK
  8
0
  2
GENAXEH
 70
     0
 10
0.0
 20
0.0
 30
0.0
  3
GENAXEH
  1

  0
LINE
  5
39EA
  8
0
 10
-1.0
 20
0.0
 30
0.0
 11
1.0
 21
0.0
 31
0.0
  0
ENDBLK
  5
39EB
  8
0
  0
BLOCK
  8
0
  2
TAKACHI-A3
 70
     0
 10
0.0
 20
0.0
 30
0.0
  3
TAKACHI-A3
  1

  0
POLYLINE
  5
249B
  8
0
 66
     1
 10
0.0
 20
0.0
 30
0.0
 70
     1
1001
GENIUS_GENREC_14
1002
{
1000
PYDIR
1011
10.000000000000011
1021
-0.0
1031
-0.0
1021
280.0
1031
0.0
1002
}
1002
{
1000
PXDIR
1011
410.0
1021
-0.0
1031
-0.0
1021
0.0
1031
0.0
1002
}
1002
{
1000
PORI
1011
10.0
1021
-0.0
1031
-0.0
1021
0.0
1031
0.0
1002
}
1002
{
1000
PINS
1011
210.0
1021
-0.0
1031
-0.0
1021
139.99999999999989
1031
0.0
1002
}
1002
{
1000
HVAL
1000
280
1002
}
1002
{
1000
H
1070
     2
1002
}
1002
{
1000
WVAL
1000
400
1002
}
1002
{
1000
W
1070
     2
1002
}
1002
{
1000
C
1070
     4
1002
}
1001
GENIUS_GENODEF_13
1002
{
1000
HIER
1070
     0
1002
}
1002
{
1000
MANEDIT
1070
     0
1002
}
1002
{
1000
NOSEL
1070
     0
1002
}
1002
{
1000
BEHIND
1070
     0
1002
}
1002
{
1000
REACTOR
1002
}
1001
GENIUS_GENOBJ-N-REC_13
1002
{
1000
OWNER
1000
GEN
1002
}
  0
VERTEX
  5
45B1
  8
0
 10
10.0
 20
0.0
 30
0.0
  0
VERTEX
  5
45B2
  8
0
 10
410.0
 20
0.0
 30
0.0
  0
VERTEX
  5
45B3
  8
0
 10
410.0
 20
280.0
 30
0.0
  0
VERTEX
  5
45B4
  8
0
 10
10.00000000000003
 20
280.0
 30
0.0
  0
SEQEND
  5
45B5
  8
0
  0
TEXT
  5
249C
  8
0
 10
15.00000000000003
 20
50.0
 30
0.0
 40
2.5
  1
!GENTITLE-LL
  0
TEXT
  5
249D
  8
0
 10
410.0
 20
0.0
 30
0.0
 40
2.5
  1
!GENTITLE-INSERT
  0
TEXT
  5
249E
  8
0
 10
405.0
 20
275.0
 30
0.0
 40
2.5
  1
!GENTITLE-RU
  0
TEXT
  5
249F
  8
0
 10
410.0
 20
280.0
 30
0.0
 40
2.5
  1
!GENTITLE-MAX
  0
LINE
  5
24A0
  8
0
 10
375.0
 20
280.0
 30
0.0
 11
375.0
 21
275.0
 31
0.0
  0
LINE
  5
24A1
  8
0
 10
375.0
 20
275.0
 30
0.0
 11
410.0
 21
275.0
 31
0.0
  0
INSERT
  5
24A2
  8
0
  2
*U32
 10
0.0
 20
0.0
 30
0.0
  0
ENDBLK
  5
24A5
  8
0
  0
BLOCK
  8
0
  2
TAKACHI-TITLE
 70
     2
 10
0.0
 20
0.0
 30
0.0
  3
TAKACHI-TITLE
  1

  0
LINE
  5
24B0
  8
RAHM2
 10
-195.0
 20
30.000000000000028
 30
0.0
 11
-94.0
 21
30.000000000000028
 31
0.0
  0
LINE
  5
24B1
  8
RAHM2
 10
-195.0
 20
35.000000000000028
 30
0.0
 11
-94.0
 21
35.000000000000028
 31
0.0
  0
LINE
  5
24B2
  8
RAHM2
 10
-195.0
 20
40.000000000000021
 30
0.0
 11
-94.0
 21
40.000000000000021
 31
0.0
  0
LINE
  5
24B3
  8
RAHM2
 10
-195.0
 20
45.000000000000021
 30
0.0
 11
-94.0
 21
45.000000000000021
 31
0.0
  0
LINE
  5
24B4
  8
0
 10
-195.0
 20
7.0
 30
0.0
 11
-94.0
 21
7.0
 31
0.0
  0
LINE
  5
24B5
  8
0
 10
-195.0
 20
19.999999999999972
 30
0.0
 11
-94.0
 21
19.999999999999972
 31
0.0
  0
ATTDEF
  5
24B6
  8
0
 10
-183.24385271456069
 20
8.6175171910947483
 30
0.0
 40
2.5
  1

 11
-183.24385271456069
 21
8.6175171910947483
 31
0.0
  3
âTâuâ^âCâgâï
  2
GEN-TITLE-DES2
 70
     0
 74
     1
  0
ATTDEF
  5
24B7
  8
0
 10
-183.24385271456069
 20
1.6175171910947479
 30
0.0
 40
3.0
  1

 11
-183.24385271456069
 21
1.6175171910947479
 31
0.0
  3
É}öÈ
  2
GEN-TITLE-NR
 70
     0
 74
     1
  0
INSERT
  5
24B8
  8
0
  2
*U33
 10
0.0
 20
0.0
 30
0.0
  0
ATTDEF
  5
24B9
  8
0
 10
-183.24385271456069
 20
13.873952861685011
 30
0.0
 40
4.0
  1

 11
-183.24385271456069
 21
13.873952861685011
 31
0.0
  3
òiû╝
  2
GEN-TITLE-DES1
 70
     0
 74
     1
  0
LINE
  5
24BA
  8
RAHM2
 10
-187.57512886940361
 20
30.400000000000041
 30
0.0
 11
-190.0
 21
34.60000000000003
 31
0.0
  0
LINE
  5
24BB
  8
RAHM2
 10
-190.0
 20
34.60000000000003
 30
0.0
 11
-192.42487113059639
 21
30.400000000000041
 31
0.0
  0
LINE
  5
24BC
  8
RAHM2
 10
-185.0
 20
50.000000000000028
 30
0.0
 11
-185.0
 21
19.99999999999994
 31
0.0
  0
LINE
  5
24BD
  8
RAHM2
 10
-192.42487113059639
 20
30.400000000000041
 30
0.0
 11
-187.57512886940361
 21
30.400000000000041
 31
0.0
  0
INSERT
  5
24BE
  8
0
  2
*U34
 10
0.0
 20
0.0
 30
0.0
  0
INSERT
  5
24BF
  8
0
  2
*U35
 10
0.0
 20
0.0
 30
0.0
  0
LINE
  5
24C0
  8
RAHM2
 10
-192.42487113059639
 20
45.400000000000027
 30
0.0
 11
-187.57512886940361
 21
45.400000000000027
 31
0.0
  0
LINE
  5
24C1
  8
RAHM2
 10
-187.57512886940361
 20
45.400000000000027
 30
0.0
 11
-190.0
 21
49.600000000000023
 31
0.0
  0
LINE
  5
24C2
  8
RAHM2
 10
-192.42487113059639
 20
40.400000000000027
 30
0.0
 11
-187.57512886940361
 21
40.400000000000027
 31
0.0
  0
LINE
  5
24C3
  8
RAHM2
 10
-187.57512886940361
 20
40.400000000000027
 30
0.0
 11
-190.0
 21
44.600000000000023
 31
0.0
  0
LINE
  5
24C4
  8
RAHM2
 10
-192.42487113059639
 20
35.400000000000041
 30
0.0
 11
-187.57512886940361
 21
35.400000000000041
 31
0.0
  0
LINE
  5
24C5
  8
RAHM2
 10
-187.57512886940361
 20
35.400000000000041
 30
0.0
 11
-190.0
 21
39.600000000000023
 31
0.0
  0
LINE
  5
24C6
  8
RAHM2
 10
-190.0
 20
39.600000000000023
 30
0.0
 11
-192.42487113059639
 21
35.400000000000041
 31
0.0
  0
LINE
  5
24C7
  8
RAHM2
 10
-190.0
 20
44.600000000000023
 30
0.0
 11
-192.42487113059639
 21
40.400000000000027
 31
0.0
  0
LINE
  5
24C8
  8
RAHM2
 10
-190.0
 20
49.600000000000023
 30
0.0
 11
-192.42487113059639
 21
45.400000000000027
 31
0.0
  0
LINE
  5
24C9
  8
RAHM2
 10
-129.0
 20
50.000000000000028
 30
0.0
 11
-129.0
 21
19.99999999999994
 31
0.0
  0
INSERT
  5
24CA
  8
0
  2
*U36
 10
0.0
 20
0.0
 30
0.0
  0
LINE
  5
24CB
  8
0
 10
-34.0
 20
50.0
 30
0.0
 11
-34.0
 21
0.0
 31
0.0
  0
LINE
  5
24CC
  8
0
 10
-94.0
 20
50.0
 30
0.0
 11
-94.0
 21
0.0
 31
0.0
  0
INSERT
  5
24CD
  8
0
  2
*U37
 10
0.0
 20
0.0
 30
0.0
  0
LINE
  5
24CE
  8
0
 10
-94.0
 20
10.0
 30
0.0
 11
-34.0
 21
10.0
 31
0.0
  0
ATTDEF
  5
24CF
  8
0
 10
-58.014051197997453
 20
39.255005561783491
 30
0.0
 40
3.0
  1

 72
     2
 11
-58.014051197997453
 21
39.255005561783491
 31
0.0
  3
Ä┌ôx
  2
GEN-TITLE-SCA
 70
     0
  0
ATTDEF
  5
24D0
  8
0
 10
-77.002849666490064
 20
30.621807879434751
 30
0.0
 40
3.0
  1

 11
-77.002849666490064
 21
30.621807879434751
 31
0.0
  3
ìÌÄ┐
  2
GEN-TITLE-MAT1
 70
     0
 74
     1
  0
ATTDEF
  5
24D1
  8
0
 10
-77.002849666490064
 20
20.621807879434751
 30
0.0
 40
3.0
  1

 11
-77.002849666490064
 21
20.621807879434751
 31
0.0
  3
ò\û╩ÅêùØ
  2
GEN-TITLE-MAT2
 70
     0
 74
     1
  0
ATTDEF
  5
24D2
  8
0
 10
-77.002849666490064
 20
11.61751719109475
 30
0.0
 40
3.0
  1

 11
-77.002849666490064
 21
11.61751719109475
 31
0.0
  3
ô·òt
  2
GEN-TITLE-DAT
 70
     0
 74
     1
  0
LINE
  5
24D3
  8
0
 10
-94.0
 20
37.5
 30
0.0
 11
-34.0
 21
37.5
 31
0.0
  0
LINE
  5
24D4
  8
0
 10
-94.0
 20
27.5
 30
0.0
 11
-34.0
 21
27.5
 31
0.0
  0
LINE
  5
24D5
  8
0
 10
-94.0
 20
17.5
 30
0.0
 11
-34.0
 21
17.5
 31
0.0
  0
LINE
  5
24D6
  8
RAHM2
 10
-109.0
 20
50.000000000000028
 30
0.0
 11
-109.0
 21
19.99999999999994
 31
0.0
  0
INSERT
  5
24D7
  8
0
  2
*U38
 10
0.0
 20
0.0
 30
0.0
  0
INSERT
  5
24D8
  8
0
  2
*U39
 10
0.0
 20
0.0
 30
0.0
  0
INSERT
  5
24D9
  8
0
  2
*U40
 10
0.0
 20
0.0
 30
0.0
  0
INSERT
  5
24DA
  8
0
  2
*U41
 10
0.0
 20
0.0
 30
0.0
  0
INSERT
  5
24DB
  8
0
  2
*U42
 10
0.0
 20
0.0
 30
0.0
  0
INSERT
  5
24DC
  8
0
  2
*U43
 10
0.0
 20
0.0
 30
0.0
  0
INSERT
  5
24DD
  8
0
  2
*U44
 10
0.0
 20
0.0
 30
0.0
  0
INSERT
  5
24DE
  8
0
  2
*U45
 10
0.0
 20
0.0
 30
0.0
  0
LINE
  5
24DF
  8
7A
 10
-89.0
 20
43.75
 30
0.0
 11
-75.218691599714703
 21
43.75
 31
0.0
1001
GENIUS_GENOREF_13
1005
24F2
  0
LINE
  5
24E0
  8
0
 10
-84.0
 20
45.75
 30
0.0
 11
-76.0
 21
46.749999999999993
 31
0.0
  0
LINE
  5
24E1
  8
0
 10
-76.0
 20
40.75
 30
0.0
 11
-84.0
 21
41.749999999999993
 31
0.0
  0
LINE
  5
24E2
  8
7A
 10
-89.0
 20
43.75
 30
0.0
 11
-89.0
 21
47.324786644731482
 31
0.0
1001
GENIUS_GENOREF_13
1005
24F2
  0
CIRCLE
  5
24E3
  8
0
 10
-89.0
 20
43.75
 30
0.0
 40
2.0
  0
CIRCLE
  5
24E4
  8
0
 10
-89.0
 20
43.75
 30
0.0
 40
3.0
  0
LINE
  5
24E5
  8
0
 10
-84.0
 20
41.749999999999993
 30
0.0
 11
-84.0
 21
45.75
 31
0.0
  0
INSERT
  5
24E6
  8
0
  2
*U46
 10
0.0
 20
0.0
 30
0.0
  0
LINE
  5
24E7
  8
7A
 10
-89.0
 20
43.75
 30
0.0
 11
-92.723037371251166
 21
43.75
 31
0.0
1001
GENIUS_GENOREF_13
1005
24F2
  0
LINE
  5
24E8
  8
7A
 10
-89.0
 20
43.75
 30
0.0
 11
-89.0
 21
40.039917242284787
 31
0.0
1001
GENIUS_GENOREF_13
1005
24F2
  0
LINE
  5
24E9
  8
0
 10
-76.0
 20
46.749999999999993
 30
0.0
 11
-76.0
 21
40.75
 31
0.0
  0
LINE
  5
24EA
  8
0
 10
-74.0
 20
50.0
 30
0.0
 11
-74.0
 21
37.5
 31
0.0
  0
INSERT
  5
24EB
  8
0
  2
*U47
 10
0.0
 20
0.0
 30
0.0
  0
ATTDEF
  5
24EC
  8
0
 10
-37.76317379391503
 20
39.255005561783491
 30
0.0
 40
3.0
  1

 72
     2
 11
-37.76317379391503
 21
39.255005561783491
 31
0.0
  3
Éöù╩
  2
GEN-TITLE-QTY
 70
     0
  0
LINE
  5
24ED
  8
0
 10
-34.0
 20
25.0
 30
0.0
 11
0.0
 21
25.0
 31
0.0
  0
LINE
  5
24EE
  8
0
 10
-54.0
 20
50.0
 30
0.0
 11
-54.0
 21
37.5
 31
0.0
  0
INSERT
  5
24EF
  8
0
  2
*U48
 10
0.0
 20
0.0
 30
0.0
  0
INSERT
  5
24F0
  8
0
  2
*U49
 10
0.0
 20
0.0
 30
0.0
  0
INSERT
  5
24F1
  8
0
  2
*U50
 10
0.0
 20
0.0
 30
0.0
  0
POINT
  5
24F2
  8
0
 10
-320.5355579819676
 20
-138.11048412682541
 30
0.0
1001
GENIUS_GENODEF_13
1002
{
1000
HIER
1070
    10
1002
}
1002
{
1000
MANEDIT
1070
     0
1002
}
1002
{
1000
NOSEL
1070
     0
1002
}
1002
{
1000
BEHIND
1070
     0
1002
}
1002
{
1000
REACTOR
1002
}
1001
GENIUS_GENOBJ-N-CRS_13
1002
{
1000
OWNER
1000
GEN
1002
}
1001
GENIUS_GENOENT_13
1002
{
1000
MYREF
1005
24F2
1002
}
1002
{
1000
GRP
1005
0
1002
}
1001
GENIUS_GENOLIS_13
1002
{
1000
ENT
1005
24E8
1005
24E7
1005
24E2
1005
24DF
1002
}
  0
LINE
  5
24F3
  8
RAHM2
 10
-190.0
 20
29.600000000000019
 30
0.0
 11
-192.42487113059639
 21
25.400000000000041
 31
0.0
  0
LINE
  5
24F4
  8
RAHM2
 10
-187.57512886940361
 20
25.400000000000041
 30
0.0
 11
-190.0
 21
29.600000000000019
 31
0.0
  0
LINE
  5
24F5
  8
RAHM2
 10
-192.42487113059639
 20
25.400000000000041
 30
0.0
 11
-187.57512886940361
 21
25.400000000000041
 31
0.0
  0
LINE
  5
24F6
  8
RAHM2
 10
-195.0
 20
25.000000000000028
 30
0.0
 11
-94.0
 21
25.000000000000028
 31
0.0
  0
INSERT
  5
24F7
  8
0
  2
*U51
 10
0.0
 20
0.0
 30
0.0
  0
TEXT
  5
24F8
  8
RAHM2
 10
-190.8155863565801
 20
25.650000000000031
 30
0.0
 40
2.5
  1
1
 72
     1
 11
-190.19058635658021
 21
25.650000000000031
 31
0.0
 73
     1
  0
TEXT
  5
24F9
  8
RAHM2
 10
-190.9183316929134
 20
30.650000000000031
 30
0.0
 40
2.5
  1
2
 72
     1
 11
-190.0
 21
30.650000000000031
 31
0.0
 73
     1
  0
TEXT
  5
24FA
  8
RAHM2
 10
-190.92677669529661
 20
35.650000000000013
 30
0.0
 40
2.5
  1
3
 72
     1
 11
-190.0
 21
35.650000000000013
 31
0.0
 73
     1
  0
TEXT
  5
24FB
  8
RAHM2
 10
-191.0
 20
40.650000000000027
 30
0.0
 40
2.5
  1
4
 72
     1
 11
-190.0
 21
40.650000000000027
 31
0.0
 73
     1
  0
TEXT
  5
24FC
  8
RAHM2
 10
-190.92677669529661
 20
45.650000000000027
 30
0.0
 40
2.5
  1
5
 72
     1
 11
-190.0
 21
45.650000000000027
 31
0.0
 73
     1
  0
LINE
  5
24FD
  8
0
 10
-17.0
 20
50.0
 30
0.0
 11
-17.0
 21
0.0
 31
0.0
  0
LINE
  5
24FE
  8
0
 10
-195.0
 20
0.0
 30
0.0
 11
0.0
 21
0.0
 31
0.0
1001
GENIUS_GENREC_14
1002
{
1000
PYDIR
1011
-184.0
1021
-0.0
1031
-0.0
1021
50.0
1031
0.0
1002
}
1002
{
1000
PXDIR
1011
0.0
1021
-0.0
1031
-0.0
1021
0.0
1031
0.0
1002
}
1002
{
1000
PORI
1011
-184.0
1021
-0.0
1031
-0.0
1021
0.0
1031
0.0
1002
}
1002
{
1000
PINS
1011
-100.5
1021
-0.0
1031
-0.0
1021
25.0
1031
0.0
1002
}
1002
{
1000
HVAL
1000
50
1002
}
1002
{
1000
H
1070
     2
1002
}
1002
{
1000
WVAL
1000
167
1002
}
1002
{
1000
W
1070
     2
1002
}
1002
{
1000
C
1070
     4
1002
}
1001
GENIUS_GENODEF_13
1002
{
1000
HIER
1070
     0
1002
}
1002
{
1000
MANEDIT
1070
     0
1002
}
1002
{
1000
NOSEL
1070
     0
1002
}
1002
{
1000
BEHIND
1070
     0
1002
}
1002
{
1000
REACTOR
1002
}
1001
GENIUS_GENOBJ-N-REC_13
1002
{
1000
OWNER
1000
GEN
1002
}
  0
LINE
  5
24FF
  8
0
 10
0.0
 20
0.0
 30
0.0
 11
0.0
 21
50.0
 31
0.0
1001
GENIUS_GENREC_14
1002
{
1000
PYDIR
1011
-184.0
1021
-0.0
1031
-0.0
1021
50.0
1031
0.0
1002
}
1002
{
1000
PXDIR
1011
0.0
1021
-0.0
1031
-0.0
1021
0.0
1031
0.0
1002
}
1002
{
1000
PORI
1011
-184.0
1021
-0.0
1031
-0.0
1021
0.0
1031
0.0
1002
}
1002
{
1000
PINS
1011
-100.5
1021
-0.0
1031
-0.0
1021
25.0
1031
0.0
1002
}
1002
{
1000
HVAL
1000
50
1002
}
1002
{
1000
H
1070
     2
1002
}
1002
{
1000
WVAL
1000
167
1002
}
1002
{
1000
W
1070
     2
1002
}
1002
{
1000
C
1070
     4
1002
}
1001
GENIUS_GENODEF_13
1002
{
1000
HIER
1070
     0
1002
}
1002
{
1000
MANEDIT
1070
     0
1002
}
1002
{
1000
NOSEL
1070
     0
1002
}
1002
{
1000
BEHIND
1070
     0
1002
}
1002
{
1000
REACTOR
1002
}
1001
GENIUS_GENOBJ-N-REC_13
1002
{
1000
OWNER
1000
GEN
1002
}
  0
LINE
  5
2500
  8
0
 10
0.0
 20
50.0
 30
0.0
 11
-195.0
 21
50.000000000000028
 31
0.0
1001
GENIUS_GENREC_14
1002
{
1000
PYDIR
1011
-184.0
1021
-0.0
1031
-0.0
1021
50.0
1031
0.0
1002
}
1002
{
1000
PXDIR
1011
0.0
1021
-0.0
1031
-0.0
1021
0.0
1031
0.0
1002
}
1002
{
1000
PORI
1011
-184.0
1021
-0.0
1031
-0.0
1021
0.0
1031
0.0
1002
}
1002
{
1000
PINS
1011
-100.5
1021
-0.0
1031
-0.0
1021
25.0
1031
0.0
1002
}
1002
{
1000
HVAL
1000
50
1002
}
1002
{
1000
H
1070
     2
1002
}
1002
{
1000
WVAL
1000
167
1002
}
1002
{
1000
W
1070
     2
1002
}
1002
{
1000
C
1070
     4
1002
}
1001
GENIUS_GENODEF_13
1002
{
1000
HIER
1070
     0
1002
}
1002
{
1000
MANEDIT
1070
     0
1002
}
1002
{
1000
NOSEL
1070
     0
1002
}
1002
{
1000
BEHIND
1070
     0
1002
}
1002
{
1000
REACTOR
1002
}
1001
GENIUS_GENOBJ-N-REC_13
1002
{
1000
OWNER
1000
GEN
1002
}
  0
LINE
  5
2501
  8
0
 10
-195.0
 20
50.000000000000028
 30
0.0
 11
-195.0
 21
0.0
 31
0.0
1001
GENIUS_GENREC_14
1002
{
1000
PYDIR
1011
-195.0
1021
-0.0
1031
-0.0
1021
50.0
1031
0.0
1002
}
1002
{
1000
PXDIR
1011
-11.0
1021
-0.0
1031
-0.0
1021
0.0
1031
0.0
1002
}
1002
{
1000
PORI
1011
-195.0
1021
-0.0
1031
-0.0
1021
0.0
1031
0.0
1002
}
1002
{
1000
PINS
1011
-111.5
1021
-0.0
1031
-0.0
1021
25.0
1031
0.0
1002
}
1002
{
1000
HVAL
1000
50
1002
}
1002
{
1000
H
1070
     2
1002
}
1002
{
1000
WVAL
1000
167
1002
}
1002
{
1000
W
1070
     2
1002
}
1002
{
1000
C
1070
     4
1002
}
1001
GENIUS_GENODEF_13
1002
{
1000
HIER
1070
     0
1002
}
1002
{
1000
MANEDIT
1070
     0
1002
}
1002
{
1000
NOSEL
1070
     0
1002
}
1002
{
1000
BEHIND
1070
     0
1002
}
1002
{
1000
REACTOR
1002
}
1001
GENIUS_GENOBJ-N-REC_13
1002
{
1000
OWNER
1000
GEN
1002
}
  0
INSERT
  5
2502
  8
0
  2
*U52
 10
0.0
 20
0.0
 30
0.0
  0
INSERT
  5
2503
  8
0
  2
*U53
 10
0.0
 20
0.0
 30
0.0
  0
ENDBLK
  5
2506
  8
0
  0
BLOCK
  8
0
  2
TAKACHI-A4
 70
     0
 10
0.0
 20
0.0
 30
0.0
  3
TAKACHI-A4
  1

  0
TEXT
  5
3072
  8
0
 10
10.0
 20
54.999999999999943
 30
0.0
 40
2.5
  1
!GENTITLE-LL
  0
TEXT
  5
3073
  8
0
 10
215.0
 20
15.0
 30
0.0
 40
2.5
  1
!GENTITLE-INSERT
  0
TEXT
  5
3074
  8
0
 10
215.0
 20
285.00000000000011
 30
0.0
 40
2.5
  1
!GENTITLE-RU
  0
TEXT
  5
3075
  8
0
 10
215.00000000000011
 20
290.0
 30
0.0
 40
2.5
  1
!GENTITLE-MAX
  0
LINE
  5
3076
  8
0
 10
215.0
 20
290.00000000000011
 30
0.0
 11
20.000000000000028
 21
290.0
 31
0.0
1001
GENIUS_GENREC_14
1002
{
1000
PYDIR
1011
15.00000000000003
1021
-0.0
1031
-0.0
1021
295.0
1031
0.0
1002
}
1002
{
1000
PXDIR
1011
215.0
1021
-0.0
1031
-0.0
1021
15.0
1031
0.0
1002
}
1002
{
1000
PORI
1011
15.0
1021
-0.0
1031
-0.0
1021
15.0
1031
0.0
1002
}
1002
{
1000
PINS
1011
115.0
1021
-0.0
1031
-0.0
1021
155.0
1031
0.0
1002
}
1002
{
1000
HVAL
1000
280
1002
}
1002
{
1000
H
1070
     2
1002
}
1002
{
1000
WVAL
1000
200
1002
}
1002
{
1000
W
1070
     2
1002
}
1002
{
1000
C
1070
     4
1002
}
  0
LINE
  5
3077
  8
0
 10
20.000000000000028
 20
290.0
 30
0.0
 11
19.999999999999972
 21
15.0
 31
0.0
1001
GENIUS_GENREC_14
1002
{
1000
PYDIR
1011
15.00000000000003
1021
-0.0
1031
-0.0
1021
295.0
1031
0.0
1002
}
1002
{
1000
PXDIR
1011
215.0
1021
-0.0
1031
-0.0
1021
15.0
1031
0.0
1002
}
1002
{
1000
PORI
1011
15.0
1021
-0.0
1031
-0.0
1021
15.0
1031
0.0
1002
}
1002
{
1000
PINS
1011
115.0
1021
-0.0
1031
-0.0
1021
155.0
1031
0.0
1002
}
1002
{
1000
HVAL
1000
280
1002
}
1002
{
1000
H
1070
     2
1002
}
1002
{
1000
WVAL
1000
200
1002
}
1002
{
1000
W
1070
     2
1002
}
1002
{
1000
C
1070
     4
1002
}
  0
LINE
  5
3078
  8
0
 10
19.999999999999972
 20
15.0
 30
0.0
 11
215.0
 21
15.0
 31
0.0
1001
GENIUS_GENREC_14
1002
{
1000
PYDIR
1011
15.00000000000003
1021
-0.0
1031
-0.0
1021
295.0
1031
0.0
1002
}
1002
{
1000
PXDIR
1011
215.0
1021
-0.0
1031
-0.0
1021
15.0
1031
0.0
1002
}
1002
{
1000
PORI
1011
15.0
1021
-0.0
1031
-0.0
1021
15.0
1031
0.0
1002
}
1002
{
1000
PINS
1011
115.0
1021
-0.0
1031
-0.0
1021
155.0
1031
0.0
1002
}
1002
{
1000
HVAL
1000
280
1002
}
1002
{
1000
H
1070
     2
1002
}
1002
{
1000
WVAL
1000
200
1002
}
1002
{
1000
W
1070
     2
1002
}
1002
{
1000
C
1070
     4
1002
}
  0
LINE
  5
3079
  8
0
 10
215.0
 20
15.0
 30
0.0
 11
215.00000000000011
 21
290.00000000000011
 31
0.0
1001
GENIUS_GENREC_14
1002
{
1000
PYDIR
1011
15.00000000000003
1021
-0.0
1031
-0.0
1021
295.0
1031
0.0
1002
}
1002
{
1000
PXDIR
1011
215.0
1021
-0.0
1031
-0.0
1021
15.0
1031
0.0
1002
}
1002
{
1000
PORI
1011
15.0
1021
-0.0
1031
-0.0
1021
15.0
1031
0.0
1002
}
1002
{
1000
PINS
1011
115.0
1021
-0.0
1031
-0.0
1021
155.0
1031
0.0
1002
}
1002
{
1000
HVAL
1000
280
1002
}
1002
{
1000
H
1070
     2
1002
}
1002
{
1000
WVAL
1000
200
1002
}
1002
{
1000
W
1070
     2
1002
}
1002
{
1000
C
1070
     4
1002
}
  0
LINE
  5
307A
  8
0
 10
180.00000000000011
 20
290.00000000000011
 30
0.0
 11
180.00000000000011
 21
285.00000000000011
 31
0.0
  0
LINE
  5
307B
  8
0
 10
180.00000000000011
 20
285.00000000000011
 30
0.0
 11
215.00000000000011
 21
285.00000000000011
 31
0.0
  0
INSERT
  5
307C
  8
0
  2
*U54
 10
0.0
 20
0.0
 30
0.0
  0
ENDBLK
  5
307F
  8
0
  0
BLOCK
  8
0
  2
TK-A3
 70
     0
 10
0.0
 20
0.0
 30
0.0
  3
TK-A3
  1

  0
LINE
  5
3CF8
  8
0
 10
359.0
 20
280.0
 30
0.0
 11
359.0
 21
275.0
 31
0.0
  0
TEXT
  8
0
  40
2.5
  5
4756
  72
0
  71
0
 10
402.359
 20
272.859
 30
0.000000
  1
(òÂÅæöÈìåüFTY-34)2008.02.08
  0
LINE
  5
3CFA
  8
0
 10
359.0
 20
275.0
 30
0.0
 11
403.0
 21
275.0
 31
0.0
  0
TEXT
  5
3CFB
  8
0
 10
403.0
 20
0.0
 30
0.0
 40
2.5
  1
!GENTITLE-INSERT
  0
TEXT
  5
3CFC
  8
0
 10
0.0
 20
0.0
 30
0.0
 40
2.5
  1
!GENTITLE-LL
  0
TEXT
  5
3CFD
  8
0
 10
403.0
 20
280.0
 30
0.0
 40
2.5
  1
!GENTITLE-MAX
  0
ENDBLK
  5
3D01
  8
0
  0
BLOCK
  8
0
  2
TK-TITLE
 70
     2
 10
0.0
 20
0.0
 30
0.0
  3
TK-TITLE
  1

  0
LINE
  5
3D06
  8
0
 10
-167.0
 20
12.499999999999959
 30
0.0
 11
-193.00000000000011
 21
12.499999999999959
 31
0.0
  0
LINE
  5
3D07
  8
0
 10
-167.0
 20
37.499999999999979
 30
0.0
 11
-193.00000000000011
 21
37.499999999999979
 31
0.0
  0
ATTDEF
  5
3D08
  8
0
 10
-180.2171951662138
 20
3.5883425376106639
 30
0.0
 40
3.0
  1

 72
     1
 11
-180.2171951662138
 21
3.5883425376106639
 31
0.0
  3
ô·òt
  2
GEN-TITLE-DAT
 70
     0
 74
     1
  0
INSERT
  5
3D09
  8
0
  2
*U55
 10
0.0
 20
0.0
 30
0.0
  0
ATTDEF
  5
3D0A
  8
0
 10
-177.824739614424
 20
28.299999999999979
 30
0.0
 40
3.0
  1

 72
     2
 11
-177.824739614424
 21
28.299999999999979
 31
0.0
  3
Ä┌ôx
  2
GEN-TITLE-SCA
 70
     0
 74
     1
  0
INSERT
  5
3D0B
  8
0
  2
*U56
 10
0.0
 20
0.0
 30
0.0
  0
INSERT
  5
3D0C
  8
0
  2
*U57
 10
0.0
 20
0.0
 30
0.0
  0
ATTDEF
  5
3D0D
  8
0
 10
-175.6127409126095
 20
15.79999999999994
 30
0.0
 40
3.0
  1

 72
     2
 11
-175.6127409126095
 21
15.79999999999994
 31
0.0
  3
Éöù╩
  2
GEN-TITLE-QTY
 70
     0
 74
     1
  0
LINE
  5
3D0E
  8
0
 10
-193.00000000000011
 20
49.999999999999993
 30
0.0
 11
-193.00000000000011
 21
-0.0000000000000142
 31
0.0
  0
LINE
  5
3D0F
  8
7A
 10
-184.71674187457961
 20
43.74999999999995
 30
0.0
 11
-170.93543347429431
 21
43.74999999999995
 31
0.0
1001
GENIUS_GENOREF_13
1005
3D5D
  0
LINE
  5
3D10
  8
0
 10
-179.71674187457961
 20
45.749999999999943
 30
0.0
 11
-171.71674187457961
 21
46.74999999999995
 31
0.0
  0
LINE
  5
3D11
  8
0
 10
-171.71674187457961
 20
40.749999999999943
 30
0.0
 11
-179.71674187457961
 21
41.74999999999995
 31
0.0
  0
LINE
  5
3D12
  8
7A
 10
-184.71674187457961
 20
43.74999999999995
 30
0.0
 11
-184.71674187457961
 21
47.324786644731439
 31
0.0
1001
GENIUS_GENOREF_13
1005
3D5D
  0
CIRCLE
  5
3D13
  8
0
 10
-184.71674187457961
 20
43.74999999999995
 30
0.0
 40
2.0
  0
CIRCLE
  5
3D14
  8
0
 10
-184.71674187457961
 20
43.74999999999995
 30
0.0
 40
3.0
  0
LINE
  5
3D15
  8
0
 10
-179.71674187457961
 20
41.74999999999995
 30
0.0
 11
-179.71674187457961
 21
45.749999999999943
 31
0.0
  0
LINE
  5
3D16
  8
7A
 10
-184.71674187457961
 20
43.74999999999995
 30
0.0
 11
-188.43977924583069
 21
43.74999999999995
 31
0.0
1001
GENIUS_GENOREF_13
1005
3D5D
  0
LINE
  5
3D17
  8
7A
 10
-184.71674187457961
 20
43.74999999999995
 30
0.0
 11
-184.71674187457961
 21
40.03991724228473
 31
0.0
1001
GENIUS_GENOREF_13
1005
3D5D
  0
LINE
  5
3D18
  8
0
 10
-171.71674187457961
 20
46.74999999999995
 30
0.0
 11
-171.71674187457961
 21
40.749999999999943
 31
0.0
  0
LINE
  5
3D19
  8
0
 10
-167.0
 20
24.999999999999972
 30
0.0
 11
-193.00000000000011
 21
24.999999999999972
 31
0.0
  0
LINE
  5
3D1A
  8
0
 10
-167.0
 20
39.999999999999908
 30
0.0
 11
-96.0
 21
39.999999999999922
 31
0.0
  0
INSERT
  5
3D1B
  8
0
  2
*U58
 10
0.0
 20
0.0
 30
0.0
  0
INSERT
  5
3D1C
  8
0
  2
*U59
 10
0.0
 20
0.0
 30
0.0
  0
ATTDEF
  5
3D1D
  8
0
 10
-148.96186758352911
 20
33.299999999999912
 30
0.0
 40
3.0
  1

  3
ò\û╩ÅêùØ
  2
GEN-TITLE-MAT2
 70
     0
  0
ATTDEF
  5
3D1E
  8
0
 10
-148.96186758352911
 20
43.299999999999912
 30
0.0
 40
3.0
  1

  3
ìÌÄ┐
  2
GEN-TITLE-MAT1
 70
     0
  0
INSERT
  5
3D1F
  8
0
  2
*U60
 10
0.0
 20
0.0
 30
0.0
  0
LINE
  5
3D20
  8
0
 10
-167.0
 20
29.999999999999918
 30
0.0
 11
-96.0
 21
29.999999999999918
 31
0.0
  0
INSERT
  5
3D21
  8
0
  2
*U61
 10
0.0
 20
0.0
 30
0.0
  0
INSERT
  5
3D22
  8
0
  2
*U62
 10
0.0
 20
0.0
 30
0.0
  0
LINE
  5
3D23
  8
0
 10
-149.25000000000011
 20
19.999999999999929
 30
0.0
 11
-149.25000000000011
 21
-0.0000000000000462
 31
0.0
  0
LINE
  5
3D24
  8
0
 10
-167.0
 20
49.99999999999995
 30
0.0
 11
-167.0
 21
-0.0000000000000497
 31
0.0
  0
INSERT
  5
3D25
  8
0
  2
*U63
 10
0.0
 20
0.0
 30
0.0
  0
LINE
  5
3D26
  8
0
 10
-131.50000000000011
 20
19.999999999999929
 30
0.0
 11
-131.50000000000011
 21
-0.0000000000000533
 31
0.0
  0
LINE
  5
3D27
  8
0
 10
-113.75
 20
19.999999999999929
 30
0.0
 11
-113.75
 21
-0.0000000000000533
 31
0.0
  0
LINE
  5
3D28
  8
0
 10
-167.0
 20
19.999999999999929
 30
0.0
 11
-96.0
 21
19.999999999999929
 31
0.0
  0
INSERT
  5
3D29
  8
0
  2
*U64
 10
0.0
 20
0.0
 30
0.0
  0
INSERT
  5
3D2A
  8
0
  2
*U65
 10
0.0
 20
0.0
 30
0.0
  0
LINE
  5
3D2B
  8
0
 10
-21.175419266257109
 20
0.0
 30
0.0
 11
-21.17541926625734
 21
7.0
 31
0.0
  0
LINE
  5
3D2C
  8
RAHM2
 10
-96.0
 20
29.999999999999918
 30
0.0
 11
0.0000000000001137
 21
30.000000000000028
 31
0.0
  0
LINE
  5
3D2D
  8
RAHM2
 10
-96.0
 20
35.000000000000028
 30
0.0
 11
0.0000000000001137
 21
35.000000000000028
 31
0.0
  0
LINE
  5
3D2E
  8
RAHM2
 10
-96.0
 20
39.999999999999929
 30
0.0
 11
0.0000000000001137
 21
40.000000000000021
 31
0.0
  0
LINE
  5
3D2F
  8
RAHM2
 10
-96.0
 20
45.000000000000021
 30
0.0
 11
0.0000000000001137
 21
45.000000000000021
 31
0.0
  0
LINE
  5
3D30
  8
0
 10
-96.0
 20
7.0
 30
0.0
 11
0.0000000000001137
 21
7.0
 31
0.0
  0
LINE
  5
3D31
  8
0
 10
-96.0
 20
19.999999999999972
 30
0.0
 11
0.0000000000001137
 21
19.999999999999972
 31
0.0
  0
INSERT
  5
3D32
  8
0
  2
*U66
 10
0.0
 20
0.0
 30
0.0
  0
LINE
  5
3D33
  8
RAHM2
 10
-88.575128869403557
 20
30.40000000000002
 30
0.0
 11
-91.0
 21
34.600000000000009
 31
0.0
  0
LINE
  5
3D34
  8
RAHM2
 10
-91.0
 20
34.600000000000009
 30
0.0
 11
-93.424871130596443
 21
30.40000000000002
 31
0.0
  0
LINE
  5
3D35
  8
RAHM2
 10
-86.0
 20
50.000000000000007
 30
0.0
 11
-86.0
 21
19.999999999999929
 31
0.0
  0
LINE
  5
3D36
  8
RAHM2
 10
-93.424871130596443
 20
30.40000000000002
 30
0.0
 11
-88.575128869403557
 21
30.40000000000002
 31
0.0
  0
INSERT
  5
3D37
  8
0
  2
*U67
 10
0.0
 20
0.0
 30
0.0
  0
INSERT
  5
3D38
  8
0
  2
*U68
 10
0.0
 20
0.0
 30
0.0
  0
LINE
  5
3D39
  8
RAHM2
 10
-93.424871130596443
 20
45.400000000000013
 30
0.0
 11
-88.575128869403557
 21
45.400000000000013
 31
0.0
  0
LINE
  5
3D3A
  8
RAHM2
 10
-88.575128869403557
 20
45.400000000000013
 30
0.0
 11
-91.0
 21
49.600000000000001
 31
0.0
  0
LINE
  5
3D3B
  8
RAHM2
 10
-93.424871130596443
 20
40.400000000000013
 30
0.0
 11
-88.575128869403557
 21
40.400000000000013
 31
0.0
  0
LINE
  5
3D3C
  8
RAHM2
 10
-88.575128869403557
 20
40.400000000000013
 30
0.0
 11
-91.0
 21
44.600000000000001
 31
0.0
  0
LINE
  5
3D3D
  8
RAHM2
 10
-93.424871130596443
 20
35.40000000000002
 30
0.0
 11
-88.575128869403557
 21
35.40000000000002
 31
0.0
  0
LINE
  5
3D3E
  8
RAHM2
 10
-88.575128869403557
 20
35.40000000000002
 30
0.0
 11
-91.0
 21
39.600000000000009
 31
0.0
  0
LINE
  5
3D3F
  8
RAHM2
 10
-91.0
 20
39.600000000000009
 30
0.0
 11
-93.424871130596443
 21
35.40000000000002
 31
0.0
  0
LINE
  5
3D40
  8
RAHM2
 10
-91.0
 20
44.600000000000001
 30
0.0
 11
-93.424871130596443
 21
40.400000000000013
 31
0.0
  0
LINE
  5
3D41
  8
RAHM2
 10
-91.0
 20
49.600000000000001
 30
0.0
 11
-93.424871130596443
 21
45.400000000000013
 31
0.0
  0
LINE
  5
3D42
  8
RAHM2
 10
-31.820819410689069
 20
50.000000000000028
 30
0.0
 11
-31.820819410689179
 21
19.99999999999994
 31
0.0
  0
INSERT
  5
3D43
  8
0
  2
*U69
 10
0.0
 20
0.0
 30
0.0
  0
LINE
  5
3D44
  8
RAHM2
 10
-11.82081941068907
 20
50.000000000000028
 30
0.0
 11
-11.82081941068907
 21
19.99999999999994
 31
0.0
  0
INSERT
  5
3D45
  8
0
  2
*U70
 10
0.0
 20
0.0
 30
0.0
  0
INSERT
  5
3D46
  8
0
  2
*U71
 10
0.0
 20
0.0
 30
0.0
  0
INSERT
  5
3D47
  8
0
  2
*U72
 10
0.0
 20
0.0
 30
0.0
  0
INSERT
  5
3D48
  8
0
  2
*U73
 10
0.0
 20
0.0
 30
0.0
  0
INSERT
  5
3D49
  8
0
  2
*U74
 10
0.0
 20
0.0
 30
0.0
  0
INSERT
  5
3D4A
  8
0
  2
*U75
 10
0.0
 20
0.0
 30
0.0
  0
LINE
  5
3D4B
  8
RAHM2
 10
-91.0
 20
29.600000000000009
 30
0.0
 11
-93.424871130596443
 21
25.40000000000002
 31
0.0
  0
LINE
  5
3D4C
  8
RAHM2
 10
-88.575128869403557
 20
25.40000000000002
 30
0.0
 11
-91.0
 21
29.600000000000009
 31
0.0
  0
LINE
  5
3D4D
  8
RAHM2
 10
-93.424871130596443
 20
25.40000000000002
 30
0.0
 11
-88.575128869403557
 21
25.40000000000002
 31
0.0
  0
LINE
  5
3D4E
  8
RAHM2
 10
-96.0
 20
25.0
 30
0.0
 11
0.0000000000001137
 21
25.000000000000028
 31
0.0
  0
INSERT
  5
3D4F
  8
0
  2
*U76
 10
0.0
 20
0.0
 30
0.0
  0
TEXT
  5
3D50
  8
RAHM2
 10
-91.815586356580184
 20
25.65000000000002
 30
0.0
 40
2.5
  1
1
 72
     1
 11
-91.190586356580184
 21
25.65000000000002
 31
0.0
 73
     1
  0
TEXT
  5
3D51
  8
RAHM2
 10
-91.918331692913384
 20
30.65000000000002
 30
0.0
 40
2.5
  1
2
 72
     1
 11
-91.0
 21
30.65000000000002
 31
0.0
 73
     1
  0
TEXT
  5
3D52
  8
RAHM2
 10
-91.926776695296624
 20
35.649999999999991
 30
0.0
 40
2.5
  1
3
 72
     1
 11
-91.0
 21
35.649999999999991
 31
0.0
 73
     1
  0
TEXT
  5
3D53
  8
RAHM2
 10
-92.0
 20
40.65000000000002
 30
0.0
 40
2.5
  1
4
 72
     1
 11
-91.0
 21
40.65000000000002
 31
0.0
 73
     1
  0
TEXT
  5
3D54
  8
RAHM2
 10
-91.926776695296624
 20
45.65000000000002
 30
0.0
 40
2.5
  1
5
 72
     1
 11
-91.0
 21
45.65000000000002
 31
0.0
 73
     1
  0
LINE
  5
3D55
  8
0
 10
-193.00000000000011
 20
0.0
 30
0.0
 11
0.0
 21
0.0
 31
0.0
1001
GENIUS_GENREC_14
1002
{
1000
PYDIR
1011
-184.0
1021
-0.0
1031
-0.0
1021
50.0
1031
0.0
1002
}
1002
{
1000
PXDIR
1011
0.0
1021
-0.0
1031
-0.0
1021
0.0
1031
0.0
1002
}
1002
{
1000
PORI
1011
-184.0
1021
-0.0
1031
-0.0
1021
0.0
1031
0.0
1002
}
1002
{
1000
PINS
1011
-100.5
1021
-0.0
1031
-0.0
1021
25.0
1031
0.0
1002
}
1002
{
1000
HVAL
1000
50
1002
}
1002
{
1000
H
1070
     2
1002
}
1002
{
1000
WVAL
1000
167
1002
}
1002
{
1000
W
1070
     2
1002
}
1002
{
1000
C
1070
     4
1002
}
1001
GENIUS_GENODEF_13
1002
{
1000
HIER
1070
     0
1002
}
1002
{
1000
MANEDIT
1070
     0
1002
}
1002
{
1000
NOSEL
1070
     0
1002
}
1002
{
1000
BEHIND
1070
     0
1002
}
1002
{
1000
REACTOR
1002
}
1001
GENIUS_GENOBJ-N-REC_13
1002
{
1000
OWNER
1000
GEN
1002
}
  0
LINE
  5
3D56
  8
0
 10
0.0
 20
50.0
 30
0.0
 11
-193.00000000000011
 21
50.000000000000021
 31
0.0
1001
GENIUS_GENREC_14
1002
{
1000
PYDIR
1011
-184.0
1021
-0.0
1031
-0.0
1021
50.0
1031
0.0
1002
}
1002
{
1000
PXDIR
1011
0.0
1021
-0.0
1031
-0.0
1021
0.0
1031
0.0
1002
}
1002
{
1000
PORI
1011
-184.0
1021
-0.0
1031
-0.0
1021
0.0
1031
0.0
1002
}
1002
{
1000
PINS
1011
-100.5
1021
-0.0
1031
-0.0
1021
25.0
1031
0.0
1002
}
1002
{
1000
HVAL
1000
50
1002
}
1002
{
1000
H
1070
     2
1002
}
1002
{
1000
WVAL
1000
167
1002
}
1002
{
1000
W
1070
     2
1002
}
1002
{
1000
C
1070
     4
1002
}
1001
GENIUS_GENODEF_13
1002
{
1000
HIER
1070
     0
1002
}
1002
{
1000
MANEDIT
1070
     0
1002
}
1002
{
1000
NOSEL
1070
     0
1002
}
1002
{
1000
BEHIND
1070
     0
1002
}
1002
{
1000
REACTOR
1002
}
1001
GENIUS_GENOBJ-N-REC_13
1002
{
1000
OWNER
1000
GEN
1002
}
  0
LINE
  5
3D57
  8
0
 10
-96.0
 20
50.000000000000007
 30
0.0
 11
-96.0
 21
-0.0000000000000142
 31
0.0
1001
GENIUS_GENREC_14
1002
{
1000
PYDIR
1011
-96.0
1021
-0.0
1031
-0.0
1021
49.999999999999993
1031
0.0
1002
}
1002
{
1000
PXDIR
1011
88.0
1021
-0.0
1031
-0.0
1021
-0.0000000000000142
1031
0.0
1002
}
1002
{
1000
PORI
1011
-96.0
1021
-0.0
1031
-0.0
1021
-0.0000000000000142
1031
0.0
1002
}
1002
{
1000
PINS
1011
-12.5
1021
-0.0
1031
-0.0
1021
24.999999999999989
1031
0.0
1002
}
1002
{
1000
HVAL
1000
50
1002
}
1002
{
1000
H
1070
     2
1002
}
1002
{
1000
WVAL
1000
167
1002
}
1002
{
1000
W
1070
     2
1002
}
1002
{
1000
C
1070
     4
1002
}
1001
GENIUS_GENODEF_13
1002
{
1000
HIER
1070
     0
1002
}
1002
{
1000
MANEDIT
1070
     0
1002
}
1002
{
1000
NOSEL
1070
     0
1002
}
1002
{
1000
BEHIND
1070
     0
1002
}
1002
{
1000
REACTOR
1002
}
1001
GENIUS_GENOBJ-N-REC_13
1002
{
1000
OWNER
1000
GEN
1002
}
  0
ATTDEF
  5
3D58
  8
0
 10
-84.0
 20
1.9999999999999569
 30
0.0
 40
3.0
  1

  3
É}öÈ
  2
GEN-TITLE-NR1
 70
     0
  0
ATTDEF
  5
3D59
  8
0
 10
-84.0
 20
9.1499999999999488
 30
0.0
 40
2.5
  1

  3
âTâuâ^âCâgâï
  2
GEN-TITLE-DES2
 70
     0
  0
LINE
  5
3D5A
  8
0
 10
0.0
 20
0.0
 30
0.0
 11
0.0
 21
50.0
 31
0.0
1001
GENIUS_GENREC_14
1002
{
1000
PYDIR
1011
-414.0
1021
-0.0
1031
-0.0
1021
291.0
1031
0.0
1002
}
1002
{
1000
PXDIR
1011
6.0
1021
-0.0
1031
-0.0
1021
-6.0
1031
0.0
1002
}
1002
{
1000
PORI
1011
-414.0
1021
-0.0
1031
-0.0
1021
-6.0
1031
0.0
1002
}
1002
{
1000
PINS
1011
-414.0
1021
-0.0
1031
-0.0
1021
-6.0
1031
0.0
1002
}
1002
{
1000
HVAL
1000
297
1002
}
1002
{
1000
H
1070
     2
1002
}
1002
{
1000
WVAL
1000
420
1002
}
1002
{
1000
W
1070
     2
1002
}
1002
{
1000
C
1070
     1
1002
}
1001
GENIUS_GENODEF_13
1002
{
1000
HIER
1070
     0
1002
}
1002
{
1000
MANEDIT
1070
     0
1002
}
1002
{
1000
NOSEL
1070
     0
1002
}
1002
{
1000
BEHIND
1070
     0
1002
}
1002
{
1000
OTHER
1070
     0
1002
}
1002
{
1000
REACTOR
1002
}
1001
GENIUS_GENOBJ-N-REC_13
1002
{
1000
OWNER
1000
GEN
1002
}
  0
ATTDEF
  5
3D5B
  8
0
 10
-84.142519015853296
 20
12.82790432564377
 30
0.0
 40
3.5
  1

  3
òiû╝
  2
GEN-TITLE-DES1
 70
     0
  0
ATTDEF
  5
3D5C
  8
0
 10
-8.0023091895458265
 20
1.705189434395036
 30
0.0
 40
2.5
  1

  3
Rev.
  2
GEN-TITLE-NR2
 70
     0
  0
POINT
  5
3D5D
  8
0
 10
-418.53555798196749
 20
-138.11048412682541
 30
0.0
1001
GENIUS_GENODEF_13
1002
{
1000
HIER
1070
    10
1002
}
1002
{
1000
MANEDIT
1070
     0
1002
}
1002
{
1000
NOSEL
1070
     0
1002
}
1002
{
1000
BEHIND
1070
     0
1002
}
1002
{
1000
REACTOR
1002
}
1001
GENIUS_GENOBJ-N-CRS_13
1002
{
1000
OWNER
1000
GEN
1002
}
1001
GENIUS_GENOENT_13
1002
{
1000
MYREF
1005
3D5D
1002
}
1002
{
1000
GRP
1005
0
1002
}
1001
GENIUS_GENOLIS_13
1002
{
1000
ENT
1005
3D17
1005
3D16
1005
3D12
1005
3D0F
1002
}
  0
ENDBLK
  5
3D60
  8
0
  0
BLOCK
  8
0
  2
A$C2B84214F
 70
     0
 10
0.0
 20
0.0
 30
0.0
  3
A$C2B84214F
  1

  0
LINE
  5
3F17
  8
╦_¢
 10
0.0
 20
-3.1499999999999768
 30
0.0
 11
0.0
 21
3.1500000000000341
 31
0.0
  0
ARC
  5
3F18
  8
╦_¢
 10
0.0999999999999091
 20
1.326839681057435
 30
0.0
 40
0.1
 50
179.9999999999967
 51
283.49573328080749
1001
GENIUS_GENODEF_13
1002
{
1000
HIER
1070
     0
1002
}
1002
{
1000
MANEDIT
1070
     0
1002
}
1002
{
1000
NOSEL
1070
     0
1002
}
1002
{
1000
BEHIND
1070
     0
1002
}
1002
{
1000
OTHER
1070
     0
1002
}
1002
{
1000
REACTOR
1002
}
1001
GENIUS_GENOBJ-N-FIL_13
1002
{
1000
OWNER
1000
GEN
1002
}
  0
ARC
  5
3F19
  8
╦_¢
 10
0.0999999999999091
 20
-1.3268396810574921
 30
0.0
 40
0.1
 50
76.504266719192529
 51
179.9999999999967
1001
GENIUS_GENODEF_13
1002
{
1000
HIER
1070
     0
1002
}
1002
{
1000
MANEDIT
1070
     0
1002
}
1002
{
1000
NOSEL
1070
     0
1002
}
1002
{
1000
BEHIND
1070
     0
1002
}
1002
{
1000
OTHER
1070
     0
1002
}
1002
{
1000
REACTOR
1002
}
1001
GENIUS_GENOBJ-N-FIL_13
1002
{
1000
OWNER
1000
GEN
1002
}
  0
LINE
  5
3F1A
  8
╦_¢
 10
0.1233372952474383
 20
1.2296009508593211
 30
0.0
 11
1.249999999999772
 21
1.5
 31
0.0
  0
LINE
  5
3F1B
  8
╦_¢
 10
0.1233372952474383
 20
-1.229600950859435
 30
0.0
 11
1.249999999999545
 21
-1.5
 31
0.0
  0
LINE
  5
3F1C
  8
╦_¢
 10
1.249999999999545
 20
-1.5
 30
0.0
 11
1.249999999999772
 21
1.5
 31
0.0
  0
LINE
  5
3F1D
  8
╦_¢
 10
1.249999999999545
 20
-1.5
 30
0.0
 11
6.0
 21
-1.5
 31
0.0
  0
LINE
  5
3F1E
  8
╦_¢
 10
6.0
 20
1.5
 30
0.0
 11
1.249999999999772
 21
1.5
 31
0.0
  0
LINE
  5
3F1F
  8
╦_¢0
 10
0.0
 20
-1.199999999999988
 30
0.0
 11
6.0
 21
-1.199999999999988
 31
0.0
  0
LINE
  5
3F20
  8
╦_¢0
 10
0.0
 20
1.199999999999988
 30
0.0
 11
6.0
 21
1.199999999999988
 31
0.0
  0
LINE
  5
3F21
  8
╦_¢
 10
0.0
 20
3.1500000000000341
 30
0.0
 11
-1.2999999999999541
 21
3.0362647374163312
 31
0.0
  0
LINE
  5
3F22
  8
╦_¢
 10
0.0
 20
-3.1499999999999768
 30
0.0
 11
-1.2999999999999541
 21
-3.0362647374162739
 31
0.0
  0
LINE
  5
3F23
  8
╦_¢
 10
-1.2999999999999541
 20
3.0362647374163312
 30
0.0
 11
-1.2999999999999541
 21
-3.0362647374162739
 31
0.0
  0
ARC
  5
3F24
  8
╦_¢
 10
6.0824196297312483
 20
0.0000000000000568
 30
0.0
 40
7.9824196297310488
 50
157.64346058573031
 51
202.35653941426961
  0
LINE
  5
3F25
  8
╦_¢
 10
6.0
 20
1.5
 30
0.0
 11
6.0
 21
-1.5
 31
0.0
  0
ENDBLK
  5
3F28
  8
0
  0
BLOCK
  8
0
  2
A$C68F65B5E
 70
     0
 10
0.0
 20
0.0
 30
0.0
  3
A$C68F65B5E
  1

  0
CIRCLE
  5
3F2E
  8
╦_¢
 10
0.0
 20
0.0
 30
0.0
 40
3.1499999999994519
  0
LINE
  5
3F2F
  8
╦_¢
 10
0.4204545454545042
 20
-1.8500000000000221
 30
0.0
 11
-0.4204545454545042
 21
-1.8500000000000221
 31
0.0
  0
LINE
  5
3F30
  8
╦_¢
 10
-0.4204545454545042
 20
1.8500000000000221
 30
0.0
 11
0.4204545454545042
 21
1.8500000000000221
 31
0.0
  0
LINE
  5
3F31
  8
╦_¢
 10
-1.850000000000136
 20
0.420454545454561
 30
0.0
 11
-1.5977272727272971
 21
0.420454545454561
 31
0.0
  0
LINE
  5
3F32
  8
╦_¢
 10
-0.4204545454545042
 20
1.5977272727272971
 30
0.0
 11
-0.4204545454545042
 21
1.8500000000000221
 31
0.0
  0
ARC
  5
3F33
  8
╦_¢
 10
-1.5977272727272971
 20
1.5977272727272971
 30
0.0
 40
1.177272727272711
 50
270.0
 51
0.0
  0
ARC
  5
3F34
  8
╦_¢
 10
-1.5977272727270699
 20
-1.597727272727183
 30
0.0
 40
1.177272727272711
 50
0.0
 51
90.0
  0
LINE
  5
3F35
  8
╦_¢
 10
-1.850000000000136
 20
-0.4204545454545042
 30
0.0
 11
-1.850000000000136
 21
0.4204545454546178
 31
0.0
  0
LINE
  5
3F36
  8
╦_¢
 10
-1.5977272727272971
 20
-0.4204545454545042
 30
0.0
 11
-1.850000000000136
 21
-0.4204545454545042
 31
0.0
  0
LINE
  5
3F37
  8
╦_¢
 10
-0.4204545454545042
 20
-1.8499999999999091
 30
0.0
 11
-0.4204545454545042
 21
-1.597727272727183
 31
0.0
  0
ARC
  5
3F38
  8
╦_¢
 10
1.5977272727272971
 20
-1.597727272727183
 30
0.0
 40
1.177272727272711
 50
90.0
 51
180.0
  0
LINE
  5
3F39
  8
╦_¢
 10
0.4204545454545042
 20
-1.597727272727183
 30
0.0
 11
0.4204545454545042
 21
-1.8500000000000221
 31
0.0
  0
LINE
  5
3F3A
  8
╦_¢
 10
1.8499999999999091
 20
-0.4204545454545042
 30
0.0
 11
1.5977272727272971
 21
-0.4204545454545042
 31
0.0
  0
LINE
  5
3F3B
  8
╦_¢
 10
1.8499999999999091
 20
0.4204545454545042
 30
0.0
 11
1.8499999999999091
 21
-0.4204545454545042
 31
0.0
  0
ARC
  5
3F3C
  8
╦_¢
 10
1.5977272727270699
 20
1.5977272727272971
 30
0.0
 40
1.177272727272711
 50
180.0
 51
270.0
  0
LINE
  5
3F3D
  8
╦_¢
 10
1.5977272727270699
 20
0.420454545454561
 30
0.0
 11
1.850000000000136
 21
0.420454545454561
 31
0.0
  0
LINE
  5
3F3E
  8
╦_¢
 10
0.4204545454545042
 20
1.8500000000000221
 30
0.0
 11
0.4204545454545042
 21
1.597727272727411
 31
0.0
  0
ENDBLK
  5
3F41
  8
0
  0
BLOCK
  8
0
  2
A$C1ABF00C0
 70
     0
 10
0.0
 20
0.0
 30
0.0
  3
A$C1ABF00C0
  1

  0
CIRCLE
  5
3F47
  8
╦_¢
 10
0.0
 20
0.0
 30
0.0
 40
2.9999999999975859
  0
ARC
  5
3F48
  8
╦_¢
 10
-1.554545454545404
 20
1.5545454545454609
 30
0.0
 40
1.1454545454545391
 50
270.0
 51
0.0
  0
ARC
  5
3F49
  8
╦_¢
 10
-1.554545454545404
 20
-1.554545454545404
 30
0.0
 40
1.1454545454545391
 50
0.0
 51
90.0
  0
LINE
  5
3F4A
  8
╦_¢
 10
-1.7999999999999541
 20
0.4090909090908781
 30
0.0
 11
-1.554545454545404
 21
0.4090909090908781
 31
0.0
  0
LINE
  5
3F4B
  8
╦_¢
 10
-1.7999999999999541
 20
-0.4090909090908781
 30
0.0
 11
-1.7999999999999541
 21
0.4090909090908781
 31
0.0
  0
LINE
  5
3F4C
  8
╦_¢
 10
-1.554545454545404
 20
-0.4090909090908781
 30
0.0
 11
-1.7999999999999541
 21
-0.4090909090908781
 31
0.0
  0
LINE
  5
3F4D
  8
╦_¢
 10
-0.4090909090907644
 20
1.5545454545454609
 30
0.0
 11
-0.4090909090907644
 21
1.800000000000068
 31
0.0
  0
LINE
  5
3F4E
  8
╦_¢
 10
-0.4090909090907644
 20
-1.7999999999999541
 30
0.0
 11
-0.4090909090907644
 21
-1.554545454545404
 31
0.0
  0
ARC
  5
3F4F
  8
╦_¢
 10
1.5545454545456321
 20
-1.554545454545404
 30
0.0
 40
1.1454545454545391
 50
90.0
 51
180.0
  0
LINE
  5
3F50
  8
╦_¢
 10
0.4090909090909918
 20
-1.800000000000068
 30
0.0
 11
-0.4090909090907644
 21
-1.800000000000068
 31
0.0
  0
LINE
  5
3F51
  8
╦_¢
 10
0.4090909090909918
 20
-1.554545454545404
 30
0.0
 11
0.4090909090909918
 21
-1.800000000000068
 31
0.0
  0
LINE
  5
3F52
  8
╦_¢
 10
1.7999999999999541
 20
-0.4090909090908781
 30
0.0
 11
1.5545454545456321
 21
-0.4090909090908781
 31
0.0
  0
LINE
  5
3F53
  8
╦_¢
 10
1.7999999999999541
 20
0.409090909090935
 30
0.0
 11
1.7999999999999541
 21
-0.4090909090908781
 31
0.0
  0
ARC
  5
3F54
  8
╦_¢
 10
1.554545454545404
 20
1.5545454545454609
 30
0.0
 40
1.1454545454545391
 50
180.0
 51
270.0
  0
LINE
  5
3F55
  8
╦_¢
 10
1.554545454545404
 20
0.4090909090908781
 30
0.0
 11
1.7999999999999541
 21
0.4090909090908781
 31
0.0
  0
LINE
  5
3F56
  8
╦_¢
 10
0.4090909090909918
 20
1.800000000000068
 30
0.0
 11
0.4090909090909918
 21
1.554545454545518
 31
0.0
  0
LINE
  5
3F57
  8
╦_¢
 10
-0.4090909090907644
 20
1.800000000000068
 30
0.0
 11
0.4090909090909918
 21
1.800000000000068
 31
0.0
  0
ENDBLK
  5
3F5A
  8
0
  0
BLOCK
  8
0
  2
A$C6A810163
 70
     0
 10
0.0
 20
0.0
 30
0.0
  3
A$C6A810163
  1

  0
LINE
  5
3F60
  8
╦_¢
 10
2.7500000000002269
 20
-1.4999999999998861
 30
0.0
 11
10.0
 21
-1.500000000000056
 31
0.0
  0
LINE
  5
3F61
  8
╦_¢
 10
10.0
 20
1.5
 30
0.0
 11
2.75
 21
1.500000000000056
 31
0.0
  0
LINE
  5
3F62
  8
╦_¢0
 10
2.1242640687119092
 20
1.25
 30
0.0
 11
10.0
 21
1.25
 31
0.0
  0
LINE
  5
3F63
  8
╦_¢0
 10
10.0
 20
-1.2499999999999429
 30
0.0
 11
2.1242640687121361
 21
-1.2499999999998861
 31
0.0
  0
LINE
  5
3F64
  8
╦_¢
 10
1.912132034356091
 20
1.337867965644022
 30
0.0
 11
0.25
 21
3.0
 31
0.0
  0
LINE
  5
3F65
  8
╦_¢
 10
0.25
 20
-3.0
 30
0.0
 11
0.25
 21
3.0
 31
0.0
  0
LINE
  5
3F66
  8
╦_¢
 10
0.0
 20
3.0
 30
0.0
 11
0.0
 21
-3.0
 31
0.0
  0
LINE
  5
3F67
  8
╦_¢
 10
0.25
 20
-3.0
 30
0.0
 11
1.912132034356091
 21
-1.3378679656439649
 31
0.0
  0
LINE
  5
3F68
  8
╦_¢
 10
0.0
 20
-3.0
 30
0.0
 11
0.25
 21
-3.0
 31
0.0
  0
LINE
  5
3F69
  8
╦_¢0
 10
1.75
 20
-1.5
 30
0.0
 11
1.75
 21
1.5
 31
0.0
  0
LINE
  5
3F6A
  8
╦_¢
 10
2.0380053120384209
 20
-1.2626684373460639
 30
0.0
 11
2.75
 21
-1.5
 31
0.0
  0
LINE
  5
3F6B
  8
╦_¢
 10
2.75
 20
-1.5
 30
0.0
 11
2.75
 21
1.5
 31
0.0
  0
LINE
  5
3F6C
  8
╦_¢
 10
2.75
 20
1.5
 30
0.0
 11
2.0380053120384209
 21
1.2626684373461781
 31
0.0
  0
LINE
  5
3F6D
  8
╦_¢
 10
0.0
 20
3.0
 30
0.0
 11
0.2500000000002274
 21
3.0
 31
0.0
  0
ARC
  5
3F6E
  8
╦_¢
 10
2.1242640687121361
 20
-1.5499999999999541
 30
0.0
 40
0.3
 50
90.0
 51
134.99999999999301
1001
GENIUS_GENOBJ-N-FIL_13
1002
{
1000
OWNER
1000
GEN
1002
}
1001
GENIUS_GENODEF_13
1002
{
1000
HIER
1070
     0
1002
}
1002
{
1000
MANEDIT
1070
     0
1002
}
1002
{
1000
NOSEL
1070
     0
1002
}
1002
{
1000
BEHIND
1070
     0
1002
}
1002
{
1000
OTHER
1070
     0
1002
}
1002
{
1000
REACTOR
1002
}
  0
ARC
  5
3F6F
  8
╦_¢
 10
2.1242640687119092
 20
1.5500000000000109
 30
0.0
 40
0.3
 50
225.00000000000691
 51
270.0
1001
GENIUS_GENODEF_13
1002
{
1000
HIER
1070
     0
1002
}
1002
{
1000
MANEDIT
1070
     0
1002
}
1002
{
1000
NOSEL
1070
     0
1002
}
1002
{
1000
BEHIND
1070
     0
1002
}
1002
{
1000
OTHER
1070
     0
1002
}
1002
{
1000
REACTOR
1002
}
1001
GENIUS_GENOBJ-N-FIL_13
1002
{
1000
OWNER
1000
GEN
1002
}
  0
LINE
  5
3F70
  8
╦_¢
 10
10.0
 20
-1.500000000000056
 30
0.0
 11
10.0
 21
1.5
 31
0.0
  0
ENDBLK
  5
3F73
  8
0
  0
BLOCK
  8
0
  2
A$C09FA6B72
 70
     0
 10
0.0
 20
0.0
 30
0.0
  3
A$C09FA6B72
  1

  0
CIRCLE
  5
3F79
  8
╦_¢
 10
0.0
 20
0.0
 30
0.0
 40
2.2999999999999989
  0
CIRCLE
  5
3F7A
  8
╦_¢
 10
0.0
 20
0.0
 30
0.0
 40
1.229367061317385
  0
LINE
  5
3F7B
  8
╦_¢
 10
-2.75
 20
-1.5877132402714551
 30
0.0
 11
0.0
 21
-3.175426480543023
 31
0.0
  0
LINE
  5
3F7C
  8
╦_¢
 10
0.0
 20
-3.175426480543023
 30
0.0
 11
2.75
 21
-1.587713240271398
 31
0.0
  0
LINE
  5
3F7D
  8
╦_¢
 10
2.75
 20
-1.587713240271398
 30
0.0
 11
2.75
 21
1.5877132402714551
 31
0.0
  0
LINE
  5
3F7E
  8
╦_¢
 10
2.75
 20
1.5877132402714551
 30
0.0
 11
0.0
 21
3.1754264805429102
 31
0.0
  0
LINE
  5
3F7F
  8
╦_¢
 10
0.0
 20
3.1754264805429102
 30
0.0
 11
-2.75
 21
1.5877132402712839
 31
0.0
  0
LINE
  5
3F80
  8
╦_¢
 10
-2.75
 20
1.5877132402712839
 30
0.0
 11
-2.75
 21
-1.5877132402714551
 31
0.0
  0
CIRCLE
  5
3F81
  8
╦_¢0
 10
0.0
 20
0.0
 30
0.0
 40
1.5
  0
ENDBLK
  5
3F84
  8
0
  0
BLOCK
  8
0
  2
A$C6C857347
 70
     0
 10
0.0
 20
0.0
 30
0.0
  3
A$C6C857347
  1

  0
ARC
  5
3F8A
  8
╦_¢
 10
1.374999999999772
 20
-1.8240971075905461
 30
0.0
 40
3.9642894864552431
 50
69.705445160769088
 51
110.2945548392309
  0
ARC
  5
3F8B
  8
╦_¢
 10
1.374999999999772
 20
4.2240971075906373
 30
0.0
 40
3.9642894864552569
 50
249.70544516076919
 51
290.2945548392309
  0
LINE
  5
3F8C
  8
╦_¢
 10
-2.2999999999999541
 20
2.4000000000000901
 30
0.0
 11
2.2999999999999541
 21
2.4000000000000901
 31
0.0
  0
LINE
  5
3F8D
  8
╦_¢
 10
2.2999999999999541
 20
0.0
 30
0.0
 11
-2.2999999999999541
 21
0.0
 31
0.0
  0
LINE
  5
3F8E
  8
╦_¢
 10
2.75
 20
0.259807621135451
 30
0.0
 11
2.75
 21
2.1401923788646391
 31
0.0
  0
LINE
  5
3F8F
  8
╦_¢
 10
2.2999999999999541
 20
0.0
 30
0.0
 11
2.75
 21
0.259807621135451
 31
0.0
  0
LINE
  5
3F90
  8
╦_¢
 10
2.75
 20
2.1401923788646391
 30
0.0
 11
2.2999999999999541
 21
2.4000000000000901
 31
0.0
  0
LINE
  5
3F91
  8
╦_¢
 10
0.0
 20
0.5059031733774191
 30
0.0
 11
0.0
 21
1.894096826622671
 31
0.0
  0
LINE
  5
3F92
  8
╦_¢
 10
-2.75
 20
0.259807621135451
 30
0.0
 11
-2.75
 21
2.1401923788646391
 31
0.0
  0
ARC
  5
3F93
  8
╦_¢
 10
-1.3750000000002269
 20
4.2240971075906373
 30
0.0
 40
3.9642894864552569
 50
249.70544516076919
 51
290.2945548392309
  0
LINE
  5
3F94
  8
╦_¢
 10
-2.2999999999999541
 20
0.0
 30
0.0
 11
-2.75
 21
0.259807621135451
 31
0.0
  0
ARC
  5
3F95
  8
╦_¢
 10
-1.3750000000002269
 20
-1.8240971075905461
 30
0.0
 40
3.9642894864552431
 50
69.705445160769088
 51
110.2945548392309
  0
LINE
  5
3F96
  8
╦_¢
 10
-2.75
 20
2.1401923788646391
 30
0.0
 11
-2.2999999999999541
 21
2.4000000000000901
 31
0.0
  0
ENDBLK
  5
3F99
  8
0
  0
BLOCK
  8
0
  2
A$C11BD6C1B
 70
     0
 10
0.0
 20
0.0
 30
0.0
  3
A$C11BD6C1B
  1

  0
ARC
  5
3F9F
  8
╦_¢
 10
-1.6639335154136461
 20
2.3821874999999859
 30
0.0
 40
1.404125894278188
 50
325.56153059526628
 51
25.56153059527265
  0
ARC
  5
3FA0
  8
╦_¢
 10
-0.7360664845864449
 20
2.3821874999999859
 30
0.0
 40
1.404125894278188
 50
154.43846940473881
 51
214.4384694047337
  0
LINE
  5
3FA1
  8
╦_¢
 10
0.0
 20
2.3000000000000109
 30
0.0
 11
0.0
 21
-2.3000000000000109
 31
0.0
  0
LINE
  5
3FA2
  8
╦_¢
 10
-2.4000000000000901
 20
2.3000000000000109
 30
0.0
 11
-2.4000000000000901
 21
-2.3000000000000109
 31
0.0
  0
ARC
  5
3FA3
  8
╦_¢
 10
-1.6639335154136461
 20
-2.3821874999999859
 30
0.0
 40
1.4041258942781909
 50
334.43846940472741
 51
34.438469404733659
  0
ARC
  5
3FA4
  8
╦_¢
 10
-5.507167869885051
 20
0.0
 30
0.0
 40
5.2473602487496311
 50
342.38303115961389
 51
17.616968840386079
  0
ARC
  5
3FA5
  8
╦_¢
 10
3.1071678698849601
 20
0.0
 30
0.0
 40
5.2473602487496169
 50
162.38303115961389
 51
197.61696884038611
  0
ARC
  5
3FA6
  8
╦_¢
 10
-0.7360664845864449
 20
-2.3821874999999859
 30
0.0
 40
1.404125894278188
 50
145.5615305952663
 51
205.5615305952727
  0
LINE
  5
3FA7
  8
╦_¢
 10
-0.5059031733774191
 20
-3.1762499999999809
 30
0.0
 11
0.0
 21
-2.3000000000000109
 31
0.0
  0
LINE
  5
3FA8
  8
╦_¢
 10
-1.894096826622671
 20
1.58812499999999
 30
0.0
 11
-0.5059031733774191
 21
1.58812499999999
 31
0.0
  0
LINE
  5
3FA9
  8
╦_¢
 10
-1.894096826622671
 20
-3.1762499999999809
 30
0.0
 11
-2.4000000000000901
 21
-2.3000000000000109
 31
0.0
  0
LINE
  5
3FAA
  8
╦_¢
 10
-1.894096826622671
 20
-3.1762499999999809
 30
0.0
 11
-0.5059031733774191
 21
-3.1762499999999809
 31
0.0
  0
LINE
  5
3FAB
  8
╦_¢
 10
-1.894096826622671
 20
-1.58812499999999
 30
0.0
 11
-0.5059031733774191
 21
-1.58812499999999
 31
0.0
  0
LINE
  5
3FAC
  8
╦_¢
 10
-0.5059031733774191
 20
3.1762499999999809
 30
0.0
 11
0.0
 21
2.3000000000000109
 31
0.0
  0
LINE
  5
3FAD
  8
╦_¢
 10
-1.894096826622671
 20
3.1762499999999809
 30
0.0
 11
-2.4000000000000901
 21
2.3000000000000109
 31
0.0
  0
LINE
  5
3FAE
  8
╦_¢
 10
-1.894096826622671
 20
3.1762499999999809
 30
0.0
 11
-0.5059031733774191
 21
3.1762499999999809
 31
0.0
  0
ENDBLK
  5
3FB1
  8
0
  0
BLOCK
  8
0
  2
*D16
 70
     1
 10
0.0
 20
0.0
 30
0.0
  3
*D16
  1

  0
LINE
  5
466E
  8
AM_5
 10
285.14755062076358
 20
795.14283077003529
 30
0.0
 11
285.14755062076358
 21
867.14283177003597
 31
0.0
  0
LINE
  5
466F
  8
AM_5
 10
768.1475506207637
 20
795.14283077003574
 30
0.0
 11
768.1475506207637
 21
867.14283177003597
 31
0.0
  0
LINE
  5
4670
  8
AM_5
 10
295.14755062076358
 20
863.14283177003608
 30
0.0
 11
758.14755062076358
 21
863.14283177003608
 31
0.0
  0
INSERT
  5
4671
  8
AM_5
  2
_OPEN30
 10
285.14755062076358
 20
863.14283177003608
 30
0.0
 41
10.0
 42
10.0
 43
10.0
 50
180.0
  0
INSERT
  5
4672
  8
AM_5
  2
_OPEN30
 10
768.1475506207637
 20
863.14283177003608
 30
0.0
 41
10.0
 42
10.0
 43
10.0
  0
TEXT
  8
AM_5
  40
14
  5
4757
  62
2
  72
0
  71
0
 10
526.648
 20
857.943
 30
0.000000
  1
483
  0
POINT
  5
4674
  8
DEFPOINTS
 62
     0
 10
285.14755062076358
 20
791.14283077003529
 30
0.0
  0
POINT
  5
4675
  8
DEFPOINTS
 62
     0
 10
768.1475506207637
 20
791.14283077003574
 30
0.0
  0
POINT
  5
4676
  8
DEFPOINTS
 62
     0
 10
768.1475506207637
 20
863.14283177003608
 30
0.0
  0
ENDBLK
  5
417C
  8
0
  0
BLOCK
  8
0
  2
*D17
 70
     1
 10
0.0
 20
0.0
 30
0.0
  3
*D17
  1

  0
LINE
  5
4677
  8
AM_5
 10
281.14755062076358
 20
791.14283077003574
 30
0.0
 11
221.1475506207629
 21
791.14283077003574
 31
0.0
  0
LINE
  5
4678
  8
AM_5
 10
281.14755062076318
 20
424.14283077003557
 30
0.0
 11
221.14755062076279
 21
424.14283077003557
 31
0.0
  0
LINE
  5
4679
  8
AM_5
 10
225.1475506207629
 20
781.14283077003574
 30
0.0
 11
225.14755062076279
 21
434.14283077003557
 31
0.0
  0
INSERT
  5
467A
  8
AM_5
  2
_OPEN30
 10
225.1475506207629
 20
791.14283077003574
 30
0.0
 41
10.0
 42
10.0
 43
10.0
 50
90.0
  0
INSERT
  5
467B
  8
AM_5
  2
_OPEN30
 10
225.14755062076279
 20
424.14283077003557
 30
0.0
 41
10.0
 42
10.0
 43
10.0
 50
270.0
  0
TEXT
  8
AM_5
  40
14
  5
4758
  62
2
  72
0
  71
0
 10
212.148
 20
589.443
 30
0.000000
  1
367
  0
POINT
  5
467D
  8
DEFPOINTS
 62
     0
 10
285.14755062076358
 20
791.14283077003574
 30
0.0
  0
POINT
  5
467E
  8
DEFPOINTS
 62
     0
 10
285.14755062076318
 20
424.14283077003557
 30
0.0
  0
POINT
  5
467F
  8
DEFPOINTS
 62
     0
 10
225.14755062076279
 20
424.14283077003557
 30
0.0
  0
ENDBLK
  5
417E
  8
0
  0
BLOCK
  8
0
  2
*D18
 70
     1
 10
0.0
 20
0.0
 30
0.0
  3
*D18
  1

  0
LINE
  5
4680
  8
AM_5
 10
1007.533950999239
 20
795.14283077003529
 30
0.0
 11
1007.533950999239
 21
855.14283077003529
 31
0.0
  0
LINE
  5
4681
  8
AM_5
 10
1024.5339509992391
 20
807.64283077003574
 30
0.0
 11
1024.5339509992391
 21
855.14283077003529
 31
0.0
  0
LINE
  5
4682
  8
AM_5
 10
997.5339509992391
 20
851.14283077003518
 30
0.0
 11
987.5339509992391
 21
851.14283077003518
 31
0.0
  0
LINE
  5
4683
  8
AM_5
 10
1034.5339509992391
 20
851.14283077003518
 30
0.0
 11
1044.5339509992391
 21
851.14283077003518
 31
0.0
  0
LINE
  5
4684
  8
AM_5
 10
1007.533950999239
 20
851.14283077003518
 30
0.0
 11
1024.5339509992391
 21
851.14283077003518
 31
0.0
  0
INSERT
  5
4685
  8
AM_5
  2
_OPEN30
 10
1007.533950999239
 20
851.14283077003518
 30
0.0
 41
10.0
 42
10.0
 43
10.0
  0
INSERT
  5
4686
  8
AM_5
  2
_OPEN30
 10
1024.5339509992391
 20
851.14283077003518
 30
0.0
 41
10.0
 42
10.0
 43
10.0
 50
180.0
  0
TEXT
  8
AM_5
  40
14
  5
4759
  62
2
  72
0
  71
0
 10
1016.03
 20
845.943
 30
0.000000
  1
17
  0
POINT
  5
4688
  8
DEFPOINTS
 62
     0
 10
1007.533950999239
 20
791.14283077003529
 30
0.0
  0
POINT
  5
4689
  8
DEFPOINTS
 62
     0
 10
1024.5339509992391
 20
803.64283077003574
 30
0.0
  0
POINT
  5
468A
  8
DEFPOINTS
 62
     0
 10
1024.5339509992391
 20
851.14283077003518
 30
0.0
  0
ENDBLK
  5
4180
  8
0
  0
BLOCK
  8
0
  2
*S19
 70
     1
 10
0.0
 20
0.0
 30
0.0
  3
*S19
  1

  0
CIRCLE
  5
44F8
  8
AM_12
 62
     4
 10
725.32495836631881
 20
699.53489908646759
 30
0.0
 40
7.0
  0
LINE
  5
44F9
  8
AM_12
 62
     4
 10
718.3249583663187
 20
692.53489908646759
 30
0.0
 11
732.32495836631881
 21
706.53489908646748
 31
0.0
  0
LINE
  5
44FA
  8
AM_12
 62
     4
 10
718.3249583663187
 20
706.53489908646748
 30
0.0
 11
732.32495836631881
 21
692.53489908646759
 31
0.0
  0
ENDBLK
  5
44FC
  8
0
  0
BLOCK
  8
0
  2
*S20
 70
     1
 10
0.0
 20
0.0
 30
0.0
  3
*S20
  1

  0
CIRCLE
  5
44FF
  8
AM_12
 62
     4
 10
1024.6882565661399
 20
795.25251094462624
 30
0.0
 40
7.0
  0
LINE
  5
4500
  8
AM_12
 62
     4
 10
1017.68825656614
 20
788.25251094462624
 30
0.0
 11
1031.6882565661399
 21
802.25251094462612
 31
0.0
  0
LINE
  5
4501
  8
AM_12
 62
     4
 10
1017.68825656614
 20
802.25251094462612
 30
0.0
 11
1031.6882565661399
 21
788.25251094462624
 31
0.0
  0
ENDBLK
  5
4503
  8
0
  0
BLOCK
  8
0
  2
*S21
 70
     1
 10
0.0
 20
0.0
 30
0.0
  3
*S21
  1

  0
LINE
  5
4506
  8
AM_5
 10
808.81568216705637
 20
749.18689724440173
 30
0.0
 11
737.35789949968216
 21
706.69089850520777
 31
0.0
  0
TRACE
  5
4507
  8
AM_5
 10
736.41579430767445
 20
708.27506525166928
 30
0.0
 11
738.30000469168976
 21
705.10673175874661
 31
0.0
 12
725.32495836631881
 22
699.53489908646759
 32
0.0
 13
725.32495836631881
 23
699.53489908646759
 33
0.0
  0
INSERT
  5
4508
  8
0
  2
*U80
 10
0.0
 20
0.0
 30
0.0
  0
CIRCLE
  5
4509
  8
AM_5
 62
     3
 10
829.87332915044215
 20
761.70989622719731
 30
0.0
 40
24.5
  0
ENDBLK
  5
450B
  8
0
  0
BLOCK
  8
0
  2
*S22
 70
     1
 10
0.0
 20
0.0
 30
0.0
  3
*S22
  1

  0
LINE
  5
450E
  8
AM_5
 10
1110.6642035188161
 20
827.42615120437165
 30
0.0
 11
1037.8002383443541
 21
800.15923427570851
 31
0.0
  0
TRACE
  5
450F
  8
AM_5
 10
1037.154255965728
 20
801.88545941742893
 30
0.0
 11
1038.446220722979
 21
798.43300913398821
 31
0.0
 12
1024.6882565661399
 22
795.25251094462624
 32
0.0
 13
1024.6882565661399
 23
795.25251094462624
 33
0.0
  0
INSERT
  5
4510
  8
0
  2
*U81
 10
0.0
 20
0.0
 30
0.0
  0
CIRCLE
  5
4511
  8
AM_5
 62
     3
 10
1133.61017163069
 20
836.01291703376569
 30
0.0
 40
24.5
  0
ENDBLK
  5
4513
  8
0
  0
BLOCK
  8
0
  2
*S23
 70
     1
 10
0.0
 20
0.0
 30
0.0
  3
*S23
  1

  0
LINE
  5
4516
  8
0
 62
     1
 10
840.0
 20
1045.9000000000001
 30
0.0
 11
1612.0
 21
1045.9000000000001
 31
0.0
  0
LINE
  5
4517
  8
0
 62
     1
 10
840.0
 20
1021.2
 30
0.0
 11
1612.0
 21
1021.2
 31
0.0
  0
LINE
  5
4518
  8
0
 62
     1
 10
840.0
 20
996.49999999999989
 30
0.0
 11
1612.0
 21
996.49999999999989
 31
0.0
  0
LINE
  5
4519
  8
0
 62
     1
 10
840.0
 20
971.79999999999995
 30
0.0
 11
1612.0
 21
971.79999999999995
 31
0.0
  0
LINE
  5
451A
  8
0
 62
     1
 10
840.0
 20
947.10000000000002
 30
0.0
 11
1612.0
 21
947.10000000000002
 31
0.0
  0
INSERT
  5
451B
  8
0
  2
*U82
 10
0.0
 20
0.0
 30
0.0
  0
LINE
  5
451C
  8
0
 62
     1
 10
900.0
 20
1070.5999999999999
 30
0.0
 11
900.0
 21
1045.9000000000001
 31
0.0
  0
INSERT
  5
451D
  8
0
  2
*U83
 10
0.0
 20
0.0
 30
0.0
  0
LINE
  5
451E
  8
0
 62
     1
 10
1140.0
 20
1070.5999999999999
 30
0.0
 11
1140.0
 21
1045.9000000000001
 31
0.0
  0
INSERT
  5
451F
  8
0
  2
*U84
 10
0.0
 20
0.0
 30
0.0
  0
LINE
  5
4520
  8
0
 62
     1
 10
1200.0
 20
1070.5999999999999
 30
0.0
 11
1200.0
 21
1045.9000000000001
 31
0.0
  0
INSERT
  5
4521
  8
0
  2
*U85
 10
0.0
 20
0.0
 30
0.0
  0
LINE
  5
4522
  8
0
 62
     1
 10
1360.0
 20
1070.5999999999999
 30
0.0
 11
1360.0
 21
1045.9000000000001
 31
0.0
  0
INSERT
  5
4523
  8
0
  2
*U86
 10
0.0
 20
0.0
 30
0.0
  0
INSERT
  5
4524
  8
0
  2
*U87
 10
0.0
 20
0.0
 30
0.0
  0
LINE
  5
4525
  8
0
 62
     1
 10
900.0
 20
1045.9000000000001
 30
0.0
 11
900.0
 21
1021.2
 31
0.0
  0
INSERT
  5
4526
  8
0
  2
*U88
 10
0.0
 20
0.0
 30
0.0
  0
LINE
  5
4527
  8
0
 62
     1
 10
1140.0
 20
1045.9000000000001
 30
0.0
 11
1140.0
 21
1021.2
 31
0.0
  0
INSERT
  5
4528
  8
0
  2
*U89
 10
0.0
 20
0.0
 30
0.0
  0
LINE
  5
4529
  8
0
 62
     1
 10
1200.0
 20
1045.9000000000001
 30
0.0
 11
1200.0
 21
1021.2
 31
0.0
  0
INSERT
  5
452A
  8
0
  2
*U90
 10
0.0
 20
0.0
 30
0.0
  0
LINE
  5
452B
  8
0
 62
     1
 10
1360.0
 20
1045.9000000000001
 30
0.0
 11
1360.0
 21
1021.2
 31
0.0
  0
INSERT
  5
452C
  8
0
  2
*U91
 10
0.0
 20
0.0
 30
0.0
  0
INSERT
  5
452D
  8
0
  2
*U92
 10
0.0
 20
0.0
 30
0.0
  0
LINE
  5
452E
  8
0
 62
     1
 10
900.0
 20
1021.2
 30
0.0
 11
900.0
 21
996.49999999999989
 31
0.0
  0
INSERT
  5
452F
  8
0
  2
*U93
 10
0.0
 20
0.0
 30
0.0
  0
LINE
  5
4530
  8
0
 62
     1
 10
1140.0
 20
1021.2
 30
0.0
 11
1140.0
 21
996.49999999999989
 31
0.0
  0
INSERT
  5
4531
  8
0
  2
*U94
 10
0.0
 20
0.0
 30
0.0
  0
LINE
  5
4532
  8
0
 62
     1
 10
1200.0
 20
1021.2
 30
0.0
 11
1200.0
 21
996.49999999999989
 31
0.0
  0
INSERT
  5
4533
  8
0
  2
*U95
 10
0.0
 20
0.0
 30
0.0
  0
LINE
  5
4534
  8
0
 62
     1
 10
1360.0
 20
1021.2
 30
0.0
 11
1360.0
 21
996.49999999999989
 31
0.0
  0
INSERT
  5
4535
  8
0
  2
*U96
 10
0.0
 20
0.0
 30
0.0
  0
INSERT
  5
4536
  8
0
  2
*U97
 10
0.0
 20
0.0
 30
0.0
  0
LINE
  5
4537
  8
0
 62
     1
 10
900.0
 20
996.49999999999989
 30
0.0
 11
900.0
 21
971.79999999999995
 31
0.0
  0
INSERT
  5
4538
  8
0
  2
*U98
 10
0.0
 20
0.0
 30
0.0
  0
LINE
  5
4539
  8
0
 62
     1
 10
1140.0
 20
996.49999999999989
 30
0.0
 11
1140.0
 21
971.79999999999995
 31
0.0
  0
INSERT
  5
453A
  8
0
  2
*U99
 10
0.0
 20
0.0
 30
0.0
  0
LINE
  5
453B
  8
0
 62
     1
 10
1200.0
 20
996.49999999999989
 30
0.0
 11
1200.0
 21
971.79999999999995
 31
0.0
  0
INSERT
  5
453C
  8
0
  2
*U100
 10
0.0
 20
0.0
 30
0.0
  0
LINE
  5
453D
  8
0
 62
     1
 10
1360.0
 20
996.49999999999989
 30
0.0
 11
1360.0
 21
971.79999999999995
 31
0.0
  0
INSERT
  5
453E
  8
0
  2
*U101
 10
0.0
 20
0.0
 30
0.0
  0
INSERT
  5
453F
  8
0
  2
*U102
 10
0.0
 20
0.0
 30
0.0
  0
LINE
  5
4540
  8
0
 62
     1
 10
900.0
 20
971.79999999999995
 30
0.0
 11
900.0
 21
947.10000000000002
 31
0.0
  0
INSERT
  5
4541
  8
0
  2
*U103
 10
0.0
 20
0.0
 30
0.0
  0
LINE
  5
4542
  8
0
 62
     1
 10
1140.0
 20
971.79999999999995
 30
0.0
 11
1140.0
 21
947.10000000000002
 31
0.0
  0
INSERT
  5
4543
  8
0
  2
*U104
 10
0.0
 20
0.0
 30
0.0
  0
LINE
  5
4544
  8
0
 62
     1
 10
1200.0
 20
971.79999999999995
 30
0.0
 11
1200.0
 21
947.10000000000002
 31
0.0
  0
INSERT
  5
4545
  8
0
  2
*U105
 10
0.0
 20
0.0
 30
0.0
  0
LINE
  5
4546
  8
0
 62
     1
 10
1360.0
 20
971.79999999999995
 30
0.0
 11
1360.0
 21
947.10000000000002
 31
0.0
  0
INSERT
  5
4547
  8
0
  2
*U106
 10
0.0
 20
0.0
 30
0.0
  0
INSERT
  5
4548
  8
0
  2
*U107
 10
0.0
 20
0.0
 30
0.0
  0
LINE
  5
4549
  8
0
 62
     1
 10
900.0
 20
947.10000000000002
 30
0.0
 11
900.0
 21
922.39999999999998
 31
0.0
  0
INSERT
  5
454A
  8
0
  2
*U108
 10
0.0
 20
0.0
 30
0.0
  0
LINE
  5
454B
  8
0
 62
     1
 10
1140.0
 20
947.10000000000002
 30
0.0
 11
1140.0
 21
922.39999999999998
 31
0.0
  0
INSERT
  5
454C
  8
0
  2
*U109
 10
0.0
 20
0.0
 30
0.0
  0
LINE
  5
454D
  8
0
 62
     1
 10
1200.0
 20
947.10000000000002
 30
0.0
 11
1200.0
 21
922.39999999999998
 31
0.0
  0
INSERT
  5
454E
  8
0
  2
*U110
 10
0.0
 20
0.0
 30
0.0
  0
LINE
  5
454F
  8
0
 62
     1
 10
1360.0
 20
947.10000000000002
 30
0.0
 11
1360.0
 21
922.39999999999998
 31
0.0
  0
INSERT
  5
4550
  8
0
  2
*U111
 10
0.0
 20
0.0
 30
0.0
  0
LINE
  5
4551
  8
0
 62
     1
 10
840.0
 20
1070.5999999999999
 30
0.0
 11
1612.0
 21
1070.5999999999999
 31
0.0
  0
INSERT
  5
4552
  8
0
  2
*U112
 10
0.0
 20
0.0
 30
0.0
  0
LINE
  5
4553
  8
0
 62
     1
 10
900.0
 20
1095.3
 30
0.0
 11
900.0
 21
1070.5999999999999
 31
0.0
  0
INSERT
  5
4554
  8
0
  2
*U113
 10
0.0
 20
0.0
 30
0.0
  0
LINE
  5
4555
  8
0
 62
     1
 10
1140.0
 20
1095.3
 30
0.0
 11
1140.0
 21
1070.5999999999999
 31
0.0
  0
INSERT
  5
4556
  8
0
  2
*U114
 10
0.0
 20
0.0
 30
0.0
  0
LINE
  5
4557
  8
0
 62
     1
 10
1200.0
 20
1095.3
 30
0.0
 11
1200.0
 21
1070.5999999999999
 31
0.0
  0
INSERT
  5
4558
  8
0
  2
*U115
 10
0.0
 20
0.0
 30
0.0
  0
LINE
  5
4559
  8
0
 62
     1
 10
1360.0
 20
1095.3
 30
0.0
 11
1360.0
 21
1070.5999999999999
 31
0.0
  0
INSERT
  5
455A
  8
0
  2
*U116
 10
0.0
 20
0.0
 30
0.0
  0
INSERT
  5
455B
  8
0
  2
*U117
 10
0.0
 20
0.0
 30
0.0
  0
LINE
  5
455C
  8
0
 62
     1
 10
840.0
 20
1095.3
 30
0.0
 11
1612.0
 21
1095.3
 31
0.0
  0
LINE
  5
455D
  8
0
 62
     7
 10
840.0
 20
1120.0
 30
0.0
 11
1612.0
 21
1120.0
 31
0.0
  0
LINE
  5
455E
  8
0
 62
     7
 10
1612.0
 20
1120.0
 30
0.0
 11
1612.0
 21
922.39999999999998
 31
0.0
  0
LINE
  5
455F
  8
0
 62
     7
 10
1612.0
 20
922.39999999999998
 30
0.0
 11
840.0
 21
922.39999999999998
 31
0.0
  0
LINE
  5
4560
  8
0
 62
     7
 10
840.0
 20
922.39999999999998
 30
0.0
 11
840.0
 21
1120.0
 31
0.0
  0
ENDBLK
  5
4562
  8
0
  0
BLOCK
  8
0
  2
*S24
 70
     1
 10
0.0
 20
0.0
 30
0.0
  3
*S24
  1

  0
CIRCLE
  5
4565
  8
AM_12
 62
     4
 10
1546.3607208251319
 20
257.59416452384357
 30
0.0
 40
7.0
  0
LINE
  5
4566
  8
AM_12
 62
     4
 10
1539.3607208251319
 20
250.5941645238436
 30
0.0
 11
1553.3607208251319
 21
264.59416452384357
 31
0.0
  0
LINE
  5
4567
  8
AM_12
 62
     4
 10
1539.3607208251319
 20
264.59416452384357
 30
0.0
 11
1553.3607208251319
 21
250.5941645238436
 31
0.0
  0
ENDBLK
  5
4569
  8
0
  0
BLOCK
  8
0
  2
*S25
 70
     1
 10
0.0
 20
0.0
 30
0.0
  3
*S25
  1

  0
LINE
  5
456C
  8
AM_5
 10
1496.8483779505009
 20
298.81483594248812
 30
0.0
 11
1535.601390457444
 21
266.55166473533882
 31
0.0
  0
TRACE
  5
456D
  8
AM_5
 10
1534.4221131877221
 20
265.13517202638462
 30
0.0
 11
1536.7806677271651
 21
267.96815744429279
 31
0.0
 12
1546.3607208251319
 22
257.59416452384357
 32
0.0
 13
1546.3607208251319
 23
257.59416452384357
 33
0.0
  0
INSERT
  5
456E
  8
0
  2
*U118
 10
0.0
 20
0.0
 30
0.0
  0
CIRCLE
  5
456F
  8
AM_5
 62
     3
 10
1478.0195498070459
 20
314.49046131260462
 30
0.0
 40
24.5
  0
ENDBLK
  5
4571
  8
0
  0
BLOCK
  8
0
  2
*S26
 70
     1
 10
0.0
 20
0.0
 30
0.0
  3
*S26
  1

  0
CIRCLE
  5
4574
  8
AM_12
 62
     4
 10
1546.5208510826919
 20
629.17897362394569
 30
0.0
 40
7.0
  0
LINE
  5
4575
  8
AM_12
 62
     4
 10
1539.5208510826919
 20
622.17897362394569
 30
0.0
 11
1553.5208510826919
 21
636.17897362394558
 31
0.0
  0
LINE
  5
4576
  8
AM_12
 62
     4
 10
1539.5208510826919
 20
636.17897362394558
 30
0.0
 11
1553.5208510826919
 21
622.17897362394569
 31
0.0
  0
ENDBLK
  5
4578
  8
0
  0
BLOCK
  8
0
  2
*S27
 70
     1
 10
0.0
 20
0.0
 30
0.0
  3
*S27
  1

  0
LINE
  5
457B
  8
AM_5
 10
1493.519727436023
 20
694.05680591008297
 30
0.0
 11
1537.6636067232771
 21
640.02098553860435
 31
0.0
  0
TRACE
  5
457C
  8
AM_5
 10
1536.2362287822079
 20
638.8549072021483
 30
0.0
 11
1539.0909846643449
 21
641.18706387506074
 31
0.0
 12
1546.5208510826919
 22
629.17897362394569
 32
0.0
 13
1546.5208510826919
 23
629.17897362394569
 33
0.0
  0
INSERT
  5
457D
  8
0
  2
*U119
 10
0.0
 20
0.0
 30
0.0
  0
CIRCLE
  5
457E
  8
AM_5
 62
     3
 10
1478.0195498070459
 20
713.03032676073587
 30
0.0
 40
24.5
  0
ENDBLK
  5
4580
  8
0
  0
BLOCK
  8
0
  2
*S28
 70
     1
 10
0.0
 20
0.0
 30
0.0
  3
*S28
  1

  0
CIRCLE
  5
4583
  8
AM_12
 62
     4
 10
1546.4851616512599
 20
503.16439710832532
 30
0.0
 40
7.0
  0
LINE
  5
4584
  8
AM_12
 62
     4
 10
1539.4851616512599
 20
496.16439710832537
 30
0.0
 11
1553.4851616512599
 21
510.16439710832532
 31
0.0
  0
LINE
  5
4585
  8
AM_12
 62
     4
 10
1539.4851616512599
 20
510.16439710832532
 30
0.0
 11
1553.4851616512599
 21
496.16439710832537
 31
0.0
  0
ENDBLK
  5
4587
  8
0
  0
BLOCK
  8
0
  2
*S29
 70
     1
 10
0.0
 20
0.0
 30
0.0
  3
*S29
  1

  0
LINE
  5
458A
  8
AM_5
 10
1495.699182448416
 20
551.88648309289067
 30
0.0
 11
1536.3825144276209
 21
512.85648249149654
 31
0.0
  0
TRACE
  5
458B
  8
AM_5
 10
1535.106527185789
 20
511.52644375819409
 30
0.0
 11
1537.6585016694521
 21
514.18652122479875
 31
0.0
 12
1546.4851616512599
 22
503.16439710832532
 32
0.0
 13
1546.4851616512599
 23
503.16439710832532
 33
0.0
  0
INSERT
  5
458C
  8
0
  2
*U120
 10
0.0
 20
0.0
 30
0.0
  0
CIRCLE
  5
458D
  8
AM_5
 62
     3
 10
1478.0195498070459
 20
568.84763251344009
 30
0.0
 40
24.5
  0
ENDBLK
  5
458F
  8
0
  0
BLOCK
  8
0
  2
*S30
 70
     1
 10
0.0
 20
0.0
 30
0.0
  3
*S30
  1

  0
CIRCLE
  5
4592
  8
AM_12
 62
     4
 10
1546.1339335435221
 20
377.96524568581663
 30
0.0
 40
7.0
  0
LINE
  5
4593
  8
AM_12
 62
     4
 10
1539.1339335435221
 20
370.96524568581663
 30
0.0
 11
1553.1339335435221
 21
384.96524568581663
 31
0.0
  0
LINE
  5
4594
  8
AM_12
 62
     4
 10
1539.1339335435221
 20
384.96524568581663
 30
0.0
 11
1553.1339335435221
 21
370.96524568581663
 31
0.0
  0
ENDBLK
  5
4596
  8
0
  0
BLOCK
  8
0
  2
*S31
 70
     1
 10
0.0
 20
0.0
 30
0.0
  3
*S31
  1

  0
LINE
  5
4599
  8
AM_5
 10
1495.2528629958761
 20
429.38110674776408
 30
0.0
 11
1536.286326007048
 21
387.9163574733293
 31
0.0
  0
TRACE
  5
459A
  8
AM_5
 10
1534.976237292296
 20
386.61989535167652
 30
0.0
 11
1537.5964147218001
 21
389.21281959498219
 31
0.0
 12
1546.1339335435221
 22
377.96524568581663
 32
0.0
 13
1546.1339335435221
 23
377.96524568581663
 33
0.0
  0
INSERT
  5
459B
  8
0
  2
*U121
 10
0.0
 20
0.0
 30
0.0
  0
CIRCLE
  5
459C
  8
AM_5
 62
     3
 10
1478.0195498070459
 20
446.79555237591148
 30
0.0
 40
24.5
  0
ENDBLK
  5
459E
  8
0
  0
BLOCK
  8
0
  2
*U32
 70
     1
 10
0.0
 20
0.0
 30
0.0
  3
*U32
  1

  0
TEXT
  5
45B7
  8
0
 10
375.30531168523061
 20
276.233542987227
 30
0.0
 40
2.5
  1
(òÂÅæöÈìåüFTY-5)2000.9
  0
ENDBLK
  5
45B9
  8
0
  0
BLOCK
  8
0
  2
*U33
 70
     1
 10
0.0
 20
0.0
 30
0.0
  3
*U33
  1

  0
TEXT
  5
45BB
  8
RAHM2
 10
-193.80025513713139
 20
3.3010354072796408
 30
0.0
 40
2.5
  1
É}öÈ
  0
ENDBLK
  5
45BD
  8
0
  0
BLOCK
  8
0
  2
*U34
 70
     1
 10
0.0
 20
0.0
 30
0.0
  3
*U34
  1

  0
TEXT
  5
45BF
  8
RAHM2
 10
-193.0
 20
21.249999999999972
 30
0.0
 40
2.5
  1
òäìå
  0
ENDBLK
  5
45C1
  8
0
  0
BLOCK
  8
0
  2
*U35
 70
     1
 10
0.0
 20
0.0
 30
0.0
  3
*U35
  1

  0
TEXT
  5
45C3
  8
RAHM2
 10
-193.80025513713139
 20
16.30103540727961
 30
0.0
 40
2.5
  1
òiû╝
  0
ENDBLK
  5
45C5
  8
0
  0
BLOCK
  8
0
  2
*U36
 70
     1
 10
0.0
 20
0.0
 30
0.0
  3
*U36
  1

  0
TEXT
  5
45C7
  8
RAHM2
 10
-163.1448171868856
 20
21.249999999999972
 30
0.0
 40
2.5
  1
ò¤ìXïLÄû
  0
ENDBLK
  5
45C9
  8
0
  0
BLOCK
  8
0
  2
*U37
 70
     1
 10
0.0
 20
0.0
 30
0.0
  3
*U37
  1

  0
TEXT
  5
45CB
  8
0
 10
-88.85532994923858
 20
3.4187817258883251
 30
0.0
 40
3.5
  1
èöÄ«ë´Äðâ^âJâ`ôdï@ìHïã
  0
ENDBLK
  5
45CD
  8
0
  0
BLOCK
  8
0
  2
*U38
 70
     1
 10
0.0
 20
0.0
 30
0.0
  3
*U38
  1

  0
TEXT
  5
45CF
  8
RAHM2
 10
-123.3362656628704
 20
31.250000000000028
 30
0.0
 40
2.5
  1
üE  üE   
  0
ENDBLK
  5
45D1
  8
0
  0
BLOCK
  8
0
  2
*U39
 70
     1
 10
0.0
 20
0.0
 30
0.0
  3
*U39
  1

  0
TEXT
  5
45D3
  8
RAHM2
 10
-126.238119805002
 20
21.249999999999972
 30
0.0
 40
2.5
  1
öNüEîÄüEô·
  0
ENDBLK
  5
45D5
  8
0
  0
BLOCK
  8
0
  2
*U40
 70
     1
 10
0.0
 20
0.0
 30
0.0
  3
*U40
  1

  0
TEXT
  5
45D7
  8
RAHM2
 10
-104.4702380952381
 20
21.249999999999972
 30
0.0
 40
2.5
  1
ÆSôû
  0
ENDBLK
  5
45D9
  8
0
  0
BLOCK
  8
0
  2
*U41
 70
     1
 10
0.0
 20
0.0
 30
0.0
  3
*U41
  1

  0
TEXT
  5
45DB
  8
RAHM2
 10
-123.3362656628704
 20
41.250000000000021
 30
0.0
 40
2.5
  1
üE  üE   
  0
ENDBLK
  5
45DD
  8
0
  0
BLOCK
  8
0
  2
*U42
 70
     1
 10
0.0
 20
0.0
 30
0.0
  3
*U42
  1

  0
TEXT
  5
45DF
  8
RAHM2
 10
-123.3362656628704
 20
36.250000000000028
 30
0.0
 40
2.5
  1
üE  üE   
  0
ENDBLK
  5
45E1
  8
0
  0
BLOCK
  8
0
  2
*U43
 70
     1
 10
0.0
 20
0.0
 30
0.0
  3
*U43
  1

  0
TEXT
  5
45E3
  8
RAHM2
 10
-123.3362656628704
 20
46.250000000000021
 30
0.0
 40
2.5
  1
üE  üE   
  0
ENDBLK
  5
45E5
  8
0
  0
BLOCK
  8
0
  2
*U44
 70
     1
 10
0.0
 20
0.0
 30
0.0
  3
*U44
  1

  0
TEXT
  5
45E7
  8
RAHM2
 10
-92.800255137131444
 20
13.80103540727964
 30
0.0
 40
2.5
  1
ô·òt
  0
ENDBLK
  5
45E9
  8
0
  0
BLOCK
  8
0
  2
*U45
 70
     1
 10
0.0
 20
0.0
 30
0.0
  3
*U45
  1

  0
TEXT
  5
45EB
  8
RAHM2
 10
-92.800255137131444
 20
23.801035407279642
 30
0.0
 40
2.5
  1
ò\û╩ÅêùØ
  0
ENDBLK
  5
45ED
  8
0
  0
BLOCK
  8
0
  2
*U46
 70
     1
 10
0.0
 20
0.0
 30
0.0
  3
*U46
  1

  0
TEXT
  5
45EF
  8
RAHM2
 10
-92.800255137131444
 20
33.801035407279642
 30
0.0
 40
2.5
  1
ìÌÄ┐
  0
ENDBLK
  5
45F1
  8
0
  0
BLOCK
  8
0
  2
*U47
 70
     1
 10
0.0
 20
0.0
 30
0.0
  3
*U47
  1

  0
TEXT
  5
45F3
  8
RAHM2
 10
-72.800255137131444
 20
46.301035407279642
 30
0.0
 40
2.5
  1
Ä┌ôx
  0
ENDBLK
  5
45F5
  8
0
  0
BLOCK
  8
0
  2
*U48
 70
     1
 10
0.0
 20
0.0
 30
0.0
  3
*U48
  1

  0
TEXT
  5
45F7
  8
RAHM2
 10
-52.800255137131451
 20
46.301035407279642
 30
0.0
 40
2.5
  1
Éöù╩
  0
ENDBLK
  5
45F9
  8
0
  0
BLOCK
  8
0
  2
*U49
 70
     1
 10
0.0
 20
0.0
 30
0.0
  3
*U49
  1

  0
TEXT
  5
45FB
  8
RAHM2
 10
-28.3125
 20
21.301035407279642
 30
0.0
 40
2.5
  1
Å│öF
  0
ENDBLK
  5
45FD
  8
0
  0
BLOCK
  8
0
  2
*U50
 70
     1
 10
0.0
 20
0.0
 30
0.0
  3
*U50
  1

  0
TEXT
  5
45FF
  8
RAHM2
 10
-28.3125
 20
46.301035407279642
 30
0.0
 40
2.5
  1
Å│öF
  0
ENDBLK
  5
4601
  8
0
  0
BLOCK
  8
0
  2
*U51
 70
     1
 10
0.0
 20
0.0
 30
0.0
  3
*U51
  1

  0
TEXT
  5
4603
  8
RAHM2
 10
-123.3362656628704
 20
26.250000000000028
 30
0.0
 40
2.5
  1
üE  üE   
  0
ENDBLK
  5
4605
  8
0
  0
BLOCK
  8
0
  2
*U52
 70
     1
 10
0.0
 20
0.0
 30
0.0
  3
*U52
  1

  0
TEXT
  5
4607
  8
RAHM2
 10
-11.3125
 20
46.301035407279642
 30
0.0
 40
2.5
  1
îƒÉ}
  0
ENDBLK
  5
4609
  8
0
  0
BLOCK
  8
0
  2
*U53
 70
     1
 10
0.0
 20
0.0
 30
0.0
  3
*U53
  1

  0
TEXT
  5
460B
  8
RAHM2
 10
-11.3125
 20
21.301035407279642
 30
0.0
 40
2.5
  1
É╗É}
  0
ENDBLK
  5
460D
  8
0
  0
BLOCK
  8
0
  2
*U54
 70
     1
 10
0.0
 20
0.0
 30
0.0
  3
*U54
  1

  0
TEXT
  5
460F
  8
0
 10
180.30531168523061
 20
286.233542987227
 30
0.0
 40
2.5
  1
(òÂÅæöÈìåüFTY-5)2000.9
  0
ENDBLK
  5
4611
  8
0
  0
BLOCK
  8
0
  2
*U55
 70
     1
 10
0.0
 20
0.0
 30
0.0
  3
*U55
  1

  0
TEXT
  5
4617
  8
RAHM2
 10
-191.8002551371315
 20
8.8010354072796062
 30
0.0
 40
2.5
  1
ô·òt
  0
ENDBLK
  5
4619
  8
0
  0
BLOCK
  8
0
  2
*U56
 70
     1
 10
0.0
 20
0.0
 30
0.0
  3
*U56
  1

  0
TEXT
  5
461B
  8
RAHM2
 10
-191.8002551371315
 20
33.801035407279663
 30
0.0
 40
2.5
  1
Ä┌ôx
  0
ENDBLK
  5
461D
  8
0
  0
BLOCK
  8
0
  2
*U57
 70
     1
 10
0.0
 20
0.0
 30
0.0
  3
*U57
  1

  0
TEXT
  5
461F
  8
RAHM2
 10
-191.8002551371315
 20
21.301035407279631
 30
0.0
 40
2.5
  1
Éöù╩
  0
ENDBLK
  5
4621
  8
0
  0
BLOCK
  8
0
  2
*U58
 70
     1
 10
0.0
 20
0.0
 30
0.0
  3
*U58
  1

  0
TEXT
  5
4623
  8
RAHM2
 10
-165.80025513713139
 20
36.301035407279556
 30
0.0
 40
2.5
  1
ò\û╩ÅêùØ
  0
ENDBLK
  5
4625
  8
0
  0
BLOCK
  8
0
  2
*U59
 70
     1
 10
0.0
 20
0.0
 30
0.0
  3
*U59
  1

  0
TEXT
  5
4627
  8
RAHM2
 10
-165.80025513713139
 20
46.301035407279549
 30
0.0
 40
2.5
  1
ìÌÄ┐
  0
ENDBLK
  5
4629
  8
0
  0
BLOCK
  8
0
  2
*U60
 70
     1
 10
0.0
 20
0.0
 30
0.0
  3
*U60
  1

  0
TEXT
  5
462B
  8
0
 10
-156.35532994923869
 20
23.418781725888241
 30
0.0
 40
3.5
  1
èöÄ«ë´Äðâ^âJâ`ôdï@ìHïã
  0
ENDBLK
  5
462D
  8
0
  0
BLOCK
  8
0
  2
*U61
 70
     1
 10
0.0
 20
0.0
 30
0.0
  3
*U61
  1

  0
TEXT
  5
462F
  8
RAHM2
 10
-160.93750000000011
 20
16.30103540727956
 30
0.0
 40
2.5
  1
Å│öF
  0
ENDBLK
  5
4631
  8
0
  0
BLOCK
  8
0
  2
*U62
 70
     1
 10
0.0
 20
0.0
 30
0.0
  3
*U62
  1

  0
TEXT
  5
4633
  8
RAHM2
 10
-143.18750000000011
 20
16.301035407279581
 30
0.0
 40
2.5
  1
Å│öF
  0
ENDBLK
  5
4635
  8
0
  0
BLOCK
  8
0
  2
*U63
 70
     1
 10
0.0
 20
0.0
 30
0.0
  3
*U63
  1

  0
TEXT
  5
4637
  8
RAHM2
 10
-125.4375000000001
 20
16.301035407279581
 30
0.0
 40
2.5
  1
îƒÉ}
  0
ENDBLK
  5
4639
  8
0
  0
BLOCK
  8
0
  2
*U64
 70
     1
 10
0.0
 20
0.0
 30
0.0
  3
*U64
  1

  0
TEXT
  5
463B
  8
RAHM2
 10
-107.6875
 20
16.301035407279571
 30
0.0
 40
2.5
  1
É╗É}
  0
ENDBLK
  5
463D
  8
0
  0
BLOCK
  8
0
  2
*U65
 70
     1
 10
0.0
 20
0.0
 30
0.0
  3
*U65
  1

  0
TEXT
  5
463F
  8
RAHM2
 10
-19.982425929334909
 20
2.1847624665659851
 30
0.0
 40
2.5
  1
Rev.
  0
ENDBLK
  5
4641
  8
0
  0
BLOCK
  8
0
  2
*U66
 70
     1
 10
0.0
 20
0.0
 30
0.0
  3
*U66
  1

  0
TEXT
  5
4643
  8
RAHM2
 10
-94.800255137131444
 20
3.3010354072796271
 30
0.0
 40
2.5
  1
É}öÈ
  0
ENDBLK
  5
4645
  8
0
  0
BLOCK
  8
0
  2
*U67
 70
     1
 10
0.0
 20
0.0
 30
0.0
  3
*U67
  1

  0
TEXT
  5
4647
  8
RAHM2
 10
-94.0
 20
21.249999999999961
 30
0.0
 40
2.5
  1
òäìå
  0
ENDBLK
  5
4649
  8
0
  0
BLOCK
  8
0
  2
*U68
 70
     1
 10
0.0
 20
0.0
 30
0.0
  3
*U68
  1

  0
TEXT
  5
464B
  8
RAHM2
 10
-94.800255137131444
 20
16.301035407279599
 30
0.0
 40
2.5
  1
òiû╝
  0
ENDBLK
  5
464D
  8
0
  0
BLOCK
  8
0
  2
*U69
 70
     1
 10
0.0
 20
0.0
 30
0.0
  3
*U69
  1

  0
TEXT
  5
464F
  8
RAHM2
 10
-65.0
 20
21.249999999999961
 30
0.0
 40
2.5
  1
ò¤ìXïLÄû
  0
ENDBLK
  5
4651
  8
0
  0
BLOCK
  8
0
  2
*U70
 70
     1
 10
0.0
 20
0.0
 30
0.0
  3
*U70
  1

  0
TEXT
  5
4653
  8
RAHM2
 10
-26.157085073559461
 20
31.250000000000028
 30
0.0
 40
2.5
  1
üE  üE   
  0
ENDBLK
  5
4655
  8
0
  0
BLOCK
  8
0
  2
*U71
 70
     1
 10
0.0
 20
0.0
 30
0.0
  3
*U71
  1

  0
TEXT
  5
4657
  8
RAHM2
 10
-29.058939215691112
 20
21.249999999999972
 30
0.0
 40
2.5
  1
öNüEîÄüEô·
  0
ENDBLK
  5
4659
  8
0
  0
BLOCK
  8
0
  2
*U72
 70
     1
 10
0.0
 20
0.0
 30
0.0
  3
*U72
  1

  0
TEXT
  5
465B
  8
RAHM2
 10
-8.8806478005825724
 20
21.249999999999972
 30
0.0
 40
2.5
  1
ÆSôû
  0
ENDBLK
  5
465D
  8
0
  0
BLOCK
  8
0
  2
*U73
 70
     1
 10
0.0
 20
0.0
 30
0.0
  3
*U73
  1

  0
TEXT
  5
465F
  8
RAHM2
 10
-26.157085073559461
 20
41.250000000000021
 30
0.0
 40
2.5
  1
üE  üE   
  0
ENDBLK
  5
4661
  8
0
  0
BLOCK
  8
0
  2
*U74
 70
     1
 10
0.0
 20
0.0
 30
0.0
  3
*U74
  1

  0
TEXT
  5
4663
  8
RAHM2
 10
-26.157085073559461
 20
36.250000000000028
 30
0.0
 40
2.5
  1
üE  üE   
  0
ENDBLK
  5
4665
  8
0
  0
BLOCK
  8
0
  2
*U75
 70
     1
 10
0.0
 20
0.0
 30
0.0
  3
*U75
  1

  0
TEXT
  5
4667
  8
RAHM2
 10
-26.157085073559461
 20
46.250000000000021
 30
0.0
 40
2.5
  1
üE  üE   
  0
ENDBLK
  5
4669
  8
0
  0
BLOCK
  8
0
  2
*U76
 70
     1
 10
0.0
 20
0.0
 30
0.0
  3
*U76
  1

  0
TEXT
  5
466B
  8
RAHM2
 10
-26.157085073559461
 20
26.250000000000028
 30
0.0
 40
2.5
  1
üE  üE   
  0
ENDBLK
  5
466D
  8
0
  0
BLOCK
  8
0
  2
*U77
 70
     1
 10
0.0
 20
0.0
 30
0.0
  3
*U77
  1

  0
TEXT
  5
46A2
  8
0
 10
1176.125
 20
25.10207081455869
 30
0.0
 40
15.0
  1
ë¬û{
  0
ENDBLK
  5
46A4
  8
0
  0
BLOCK
  8
0
  2
*U78
 70
     1
 10
0.0
 20
0.0
 30
0.0
  3
*U78
  1

  0
TEXT
  5
46A6
  8
0
 10
1105.5
 20
25.10207081455869
 30
0.0
 40
15.0
  1
ûýæ║
  0
ENDBLK
  5
46A8
  8
0
  0
BLOCK
  8
0
  2
*U79
 70
     1
 10
0.0
 20
0.0
 30
0.0
  3
*U79
  1

  0
TEXT
  5
46AA
  8
0
 10
1033.3531723496919
 20
26.78388899637671
 30
0.0
 40
15.0
  1
ìéÆn
  0
TEXT
  5
46AB
  8
0
 10
1039.65716991411
 20
9.2838889963767102
 30
0.0
 40
7.5
  1
üiêÛüj
  0
ENDBLK
  5
46AD
  8
0
  0
BLOCK
  8
0
  2
*U80
 70
     1
 10
0.0
 20
0.0
 30
0.0
  3
*U80
  1

  0
TEXT
  5
46AF
  8
AM_5
 62
     7
 10
826.37332915044215
 20
754.70989622719731
 30
0.0
 40
14.0
  1
1
  7
ACISOTS
  0
ENDBLK
  5
46B1
  8
0
  0
BLOCK
  8
0
  2
*U81
 70
     1
 10
0.0
 20
0.0
 30
0.0
  3
*U81
  1

  0
TEXT
  5
46B3
  8
AM_5
 62
     7
 10
1128.4675141503751
 20
829.01153908100969
 30
0.0
 40
14.0
  1
2
  7
ACISOTS
  0
ENDBLK
  5
46B5
  8
0
  0
BLOCK
  8
0
  2
*U82
 70
     1
 10
0.0
 20
0.0
 30
0.0
  3
*U82
  1

  0
TEXT
  5
46B7
  8
0
 62
     2
 10
866.5
 20
1051.2
 30
0.0
 40
14.0
  1
1
  7
ACISOTS
  0
ENDBLK
  5
46B9
  8
0
  0
BLOCK
  8
0
  2
*U83
 70
     1
 10
0.0
 20
0.0
 30
0.0
  3
*U83
  1

  0
TEXT
  5
46BB
  8
0
 62
     2
 10
903.59999999999991
 20
1051.2
 30
0.0
 40
14.0
  1
âVââü[âV
  7
ACISOTS
  0
ENDBLK
  5
46BD
  8
0
  0
BLOCK
  8
0
  2
*U84
 70
     1
 10
0.0
 20
0.0
 30
0.0
  3
*U84
  1

  0
TEXT
  5
46BF
  8
0
 62
     2
 10
1166.5
 20
1051.2
 30
0.0
 40
14.0
  1
1
  7
ACISOTS
  0
ENDBLK
  5
46C1
  8
0
  0
BLOCK
  8
0
  2
*U85
 70
     1
 10
0.0
 20
0.0
 30
0.0
  3
*U85
  1

  0
TEXT
  5
46C3
  8
0
 62
     2
 10
1201.5
 20
1051.197244094488
 30
0.0
 40
14.0
  1
A1050P-H24 t2.0
  7
ACISOTS
  0
ENDBLK
  5
46C5
  8
0
  0
BLOCK
  8
0
  2
*U86
 70
     1
 10
0.0
 20
0.0
 30
0.0
  3
*U86
  1

  0
TEXT
  5
46C7
  8
0
 62
     2
 10
1363.5999999999999
 20
1051.2
 30
0.0
 40
14.0
  1
û│ÅêùØ
  7
ACISOTS
  0
ENDBLK
  5
46C9
  8
0
  0
BLOCK
  8
0
  2
*U87
 70
     1
 10
0.0
 20
0.0
 30
0.0
  3
*U87
  1

  0
TEXT
  5
46CB
  8
0
 62
     2
 10
864.85734251968495
 20
1026.497244094488
 30
0.0
 40
14.0
  1
2
  7
ACISOTS
  0
ENDBLK
  5
46CD
  8
0
  0
BLOCK
  8
0
  2
*U88
 70
     1
 10
0.0
 20
0.0
 30
0.0
  3
*U88
  1

  0
TEXT
  5
46CF
  8
0
 62
     2
 10
903.59999999999991
 20
1026.5
 30
0.0
 40
14.0
  1
âVââü[âVÄµòtæõ
  7
ACISOTS
  0
ENDBLK
  5
46D1
  8
0
  0
BLOCK
  8
0
  2
*U89
 70
     1
 10
0.0
 20
0.0
 30
0.0
  3
*U89
  1

  0
TEXT
  5
46D3
  8
0
 62
     2
 10
1164.8573425196851
 20
1026.497244094488
 30
0.0
 40
14.0
  1
2
  7
ACISOTS
  0
ENDBLK
  5
46D5
  8
0
  0
BLOCK
  8
0
  2
*U90
 70
     1
 10
0.0
 20
0.0
 30
0.0
  3
*U90
  1

  0
TEXT
  5
46D7
  8
0
 62
     2
 10
1201.5
 20
1026.497244094488
 30
0.0
 40
14.0
  1
A1050P-H24 t2.0
  7
ACISOTS
  0
ENDBLK
  5
46D9
  8
0
  0
BLOCK
  8
0
  2
*U91
 70
     1
 10
0.0
 20
0.0
 30
0.0
  3
*U91
  1

  0
TEXT
  5
46DB
  8
0
 62
     2
 10
1363.5999999999999
 20
1026.5
 30
0.0
 40
14.0
  1
û│ÅêùØ
  7
ACISOTS
  0
ENDBLK
  5
46DD
  8
0
  0
BLOCK
  8
0
  2
*U92
 70
     1
 10
0.0
 20
0.0
 30
0.0
  3
*U92
  1

  0
TEXT
  5
46DF
  8
0
 62
     2
 10
864.81005050633871
 20
1001.8
 30
0.0
 40
14.0
  1
3
  7
ACISOTS
  0
ENDBLK
  5
46E1
  8
0
  0
BLOCK
  8
0
  2
*U93
 70
     1
 10
0.0
 20
0.0
 30
0.0
  3
*U93
  1

  0
TEXT
  5
46E3
  8
0
 62
     2
 10
903.59999999999991
 20
1001.1
 30
0.0
 40
14.0
  1
ÄµòtârâX(╗ÎM3ü~10)
  7
ACISOTS
  0
ENDBLK
  5
46E5
  8
0
  0
BLOCK
  8
0
  2
*U94
 70
     1
 10
0.0
 20
0.0
 30
0.0
  3
*U94
  1

  0
TEXT
  5
46E7
  8
0
 62
     2
 10
1164.4000000000001
 20
1001.8
 30
0.0
 40
14.0
  1
4
  7
ACISOTS
  0
ENDBLK
  5
46E9
  8
0
  0
BLOCK
  8
0
  2
*U95
 70
     1
 10
0.0
 20
0.0
 30
0.0
  3
*U95
  1

  0
TEXT
  5
46EB
  8
0
 62
     2
 10
1203.5999999999999
 20
1001.8
 30
0.0
 40
14.0
  1
ôS
  7
ACISOTS
  0
ENDBLK
  5
46ED
  8
0
  0
BLOCK
  8
0
  2
*U96
 70
     1
 10
0.0
 20
0.0
 30
0.0
  3
*U96
  1

  0
TEXT
  5
46EF
  8
0
 62
     2
 10
1363.5999999999999
 20
1001.8
 30
0.0
 40
14.0
  1
ÄOë┐©█░Ê▓─
  7
ACISOTS
  0
ENDBLK
  5
46F1
  8
0
  0
BLOCK
  8
0
  2
*U97
 70
     1
 10
0.0
 20
0.0
 30
0.0
  3
*U97
  1

  0
TEXT
  5
46F3
  8
0
 62
     2
 10
864.39999999999998
 20
977.10000000000002
 30
0.0
 40
14.0
  1
4
  7
ACISOTS
  0
ENDBLK
  5
46F5
  8
0
  0
BLOCK
  8
0
  2
*U98
 70
     1
 10
0.0
 20
0.0
 30
0.0
  3
*U98
  1

  0
TEXT
  5
46F7
  8
0
 62
     2
 10
903.59999999999991
 20
976.39999999999986
 30
0.0
 40
14.0
  1
ÄµòtârâX(╩Ì▓¦─ÌM3ü~6)
  7
ACISOTS
  0
ENDBLK
  5
46F9
  8
0
  0
BLOCK
  8
0
  2
*U99
 70
     1
 10
0.0
 20
0.0
 30
0.0
  3
*U99
  1

  0
TEXT
  5
46FB
  8
0
 62
     2
 10
1164.4000000000001
 20
977.10000000000002
 30
0.0
 40
14.0
  1
4
  7
ACISOTS
  0
ENDBLK
  5
46FD
  8
0
  0
BLOCK
  8
0
  2
*U100
 70
     1
 10
0.0
 20
0.0
 30
0.0
  3
*U100
  1

  0
TEXT
  5
46FF
  8
0
 62
     2
 10
1203.5999999999999
 20
977.10000000000002
 30
0.0
 40
14.0
  1
ôS
  7
ACISOTS
  0
ENDBLK
  5
4701
  8
0
  0
BLOCK
  8
0
  2
*U101
 70
     1
 10
0.0
 20
0.0
 30
0.0
  3
*U101
  1

  0
TEXT
  5
4703
  8
0
 62
     2
 10
1363.5999999999999
 20
977.10000000000002
 30
0.0
 40
14.0
  1
ã»╣┘Ê»À
  7
ACISOTS
  0
ENDBLK
  5
4705
  8
0
  0
BLOCK
  8
0
  2
*U102
 70
     1
 10
0.0
 20
0.0
 30
0.0
  3
*U102
  1

  0
TEXT
  5
4707
  8
0
 62
     2
 10
864.81005050633871
 20
952.39999999999986
 30
0.0
 40
14.0
  1
5
  7
ACISOTS
  0
ENDBLK
  5
4709
  8
0
  0
BLOCK
  8
0
  2
*U103
 70
     1
 10
0.0
 20
0.0
 30
0.0
  3
*U103
  1

  0
TEXT
  5
470B
  8
0
 62
     2
 10
903.59999999999991
 20
951.69999999999993
 30
0.0
 40
14.0
  1
ÄµòtâÅâbâVââü[(M3ùp)
  7
ACISOTS
  0
ENDBLK
  5
470D
  8
0
  0
BLOCK
  8
0
  2
*U104
 70
     1
 10
0.0
 20
0.0
 30
0.0
  3
*U104
  1

  0
TEXT
  5
470F
  8
0
 62
     2
 10
1164.4000000000001
 20
952.39999999999986
 30
0.0
 40
14.0
  1
4
  7
ACISOTS
  0
ENDBLK
  5
4711
  8
0
  0
BLOCK
  8
0
  2
*U105
 70
     1
 10
0.0
 20
0.0
 30
0.0
  3
*U105
  1

  0
TEXT
  5
4713
  8
0
 62
     2
 10
1203.5999999999999
 20
952.39999999999986
 30
0.0
 40
14.0
  1
ôS
  7
ACISOTS
  0
ENDBLK
  5
4715
  8
0
  0
BLOCK
  8
0
  2
*U106
 70
     1
 10
0.0
 20
0.0
 30
0.0
  3
*U106
  1

  0
TEXT
  5
4717
  8
0
 62
     2
 10
1363.5999999999999
 20
952.39999999999986
 30
0.0
 40
14.0
  1
ã»╣┘Ê»À
  7
ACISOTS
  0
ENDBLK
  5
4719
  8
0
  0
BLOCK
  8
0
  2
*U107
 70
     1
 10
0.0
 20
0.0
 30
0.0
  3
*U107
  1

  0
TEXT
  5
471B
  8
0
 62
     2
 10
865.171653543307
 20
927.70000000000005
 30
0.0
 40
14.0
  1
6
  7
ACISOTS
  0
ENDBLK
  5
471D
  8
0
  0
BLOCK
  8
0
  2
*U108
 70
     1
 10
0.0
 20
0.0
 30
0.0
  3
*U108
  1

  0
TEXT
  5
471F
  8
0
 62
     2
 10
903.59999999999991
 20
927.0
 30
0.0
 40
14.0
  1
Äµòtâiâbâg(M3ùp)
  7
ACISOTS
  0
ENDBLK
  5
4721
  8
0
  0
BLOCK
  8
0
  2
*U109
 70
     1
 10
0.0
 20
0.0
 30
0.0
  3
*U109
  1

  0
TEXT
  5
4723
  8
0
 62
     2
 10
1164.4000000000001
 20
927.70000000000005
 30
0.0
 40
14.0
  1
4
  7
ACISOTS
  0
ENDBLK
  5
4725
  8
0
  0
BLOCK
  8
0
  2
*U110
 70
     1
 10
0.0
 20
0.0
 30
0.0
  3
*U110
  1

  0
TEXT
  5
4727
  8
0
 62
     2
 10
1203.5999999999999
 20
927.70000000000005
 30
0.0
 40
14.0
  1
ôS
  7
ACISOTS
  0
ENDBLK
  5
4729
  8
0
  0
BLOCK
  8
0
  2
*U111
 70
     1
 10
0.0
 20
0.0
 30
0.0
  3
*U111
  1

  0
TEXT
  5
472B
  8
0
 62
     2
 10
1363.5999999999999
 20
927.70000000000005
 30
0.0
 40
14.0
  1
ÄOë┐©█░Ê▓─
  7
ACISOTS
  0
ENDBLK
  5
472D
  8
0
  0
BLOCK
  8
0
  2
*U112
 70
     1
 10
0.0
 20
0.0
 30
0.0
  3
*U112
  1

  0
TEXT
  5
472F
  8
0
 62
     2
 10
854.60000000000014
 20
1075.9000000000001
 30
0.0
 40
14.0
  1
ÅãöÈ
  7
ACISOTS
  0
ENDBLK
  5
4731
  8
0
  0
BLOCK
  8
0
  2
*U113
 70
     1
 10
0.0
 20
0.0
 30
0.0
  3
*U113
  1

  0
TEXT
  5
4733
  8
0
 62
     2
 10
1004.6
 20
1075.9000000000001
 30
0.0
 40
14.0
  1
û╝Å╠
  7
ACISOTS
  0
ENDBLK
  5
4735
  8
0
  0
BLOCK
  8
0
  2
*U114
 70
     1
 10
0.0
 20
0.0
 30
0.0
  3
*U114
  1

  0
TEXT
  5
4737
  8
0
 62
     2
 10
1154.5999999999999
 20
1075.9000000000001
 30
0.0
 40
14.0
  1
Éöù╩
  7
ACISOTS
  0
ENDBLK
  5
4739
  8
0
  0
BLOCK
  8
0
  2
*U115
 70
     1
 10
0.0
 20
0.0
 30
0.0
  3
*U115
  1

  0
TEXT
  5
473B
  8
0
 62
     2
 10
1264.5999999999999
 20
1075.9000000000001
 30
0.0
 40
14.0
  1
ìÌÄ┐
  7
ACISOTS
  0
ENDBLK
  5
473D
  8
0
  0
BLOCK
  8
0
  2
*U116
 70
     1
 10
0.0
 20
0.0
 30
0.0
  3
*U116
  1

  0
TEXT
  5
473F
  8
0
 62
     2
 10
1435.5999999999999
 20
1075.9000000000001
 30
0.0
 40
14.0
  1
ÉFüEò\û╩ÅêùØ
  7
ACISOTS
  0
ENDBLK
  5
4741
  8
0
  0
BLOCK
  8
0
  2
*U117
 70
     1
 10
0.0
 20
0.0
 30
0.0
  3
*U117
  1

  0
TEXT
  5
4743
  8
0
 62
     2
 10
1193.45
 20
1100.6500000000001
 30
0.0
 40
14.0
  1
ì\É¼ôÓùe
  7
ACISOTS
  0
ENDBLK
  5
4745
  8
0
  0
BLOCK
  8
0
  2
*U118
 70
     1
 10
0.0
 20
0.0
 30
0.0
  3
*U118
  1

  0
TEXT
  5
4747
  8
AM_5
 62
     7
 10
1473.1912033503529
 20
307.49046131260462
 30
0.0
 40
14.0
  1
6
  7
ACISOTS
  0
ENDBLK
  5
4749
  8
0
  0
BLOCK
  8
0
  2
*U119
 70
     1
 10
0.0
 20
0.0
 30
0.0
  3
*U119
  1

  0
TEXT
  5
474B
  8
AM_5
 62
     7
 10
1472.8296003133851
 20
706.03032676073587
 30
0.0
 40
14.0
  1
3
  7
ACISOTS
  0
ENDBLK
  5
474D
  8
0
  0
BLOCK
  8
0
  2
*U120
 70
     1
 10
0.0
 20
0.0
 30
0.0
  3
*U120
  1

  0
TEXT
  5
474F
  8
AM_5
 62
     7
 10
1472.419549807046
 20
561.8476325134402
 30
0.0
 40
14.0
  1
4
  7
ACISOTS
  0
ENDBLK
  5
4751
  8
0
  0
BLOCK
  8
0
  2
*U121
 70
     1
 10
0.0
 20
0.0
 30
0.0
  3
*U121
  1

  0
TEXT
  5
4753
  8
AM_5
 62
     7
 10
1472.8296003133851
 20
439.79555237591143
 30
0.0
 40
14.0
  1
5
  7
ACISOTS
  0
ENDBLK
  5
4755
  8
0
  0
ENDSEC
  0
SECTION
  2
ENTITIES
  0
INSERT
  5
24AC
  8
0
  2
TK-A3
 10
0.0
 20
0.0
 30
0.0
 41
4.0
 42
4.0
 43
4.0
1001
GENIUS_GENOREF_13
1005
2512
1001
GENIUS_GENOBJ-N-SDF_13
1002
{
1000
OWNER
1000
GEN
1002
}
1001
GENIUS_GENODEF_13
1002
{
1000
HIER
1070
     0
1002
}
1002
{
1000
MANEDIT
1070
     0
1002
}
1002
{
1000
NOSEL
1070
     0
1002
}
1002
{
1000
BEHIND
1070
     0
1002
}
1002
{
1000
OTHER
1070
     0
1002
}
1002
{
1000
REACTOR
1002
}
1001
GENIUS_GENSCREG_13
1040
4.0
1040
1.0
1011
0.0
1021
-0.0
1031
-0.0
1021
0.0
1031
0.0
1011
1612.0
1021
-0.0
1031
-0.0
1021
1120.0
1031
0.0
1070
     3
  0
INSERT
  5
2508
  8
0
 66
     1
  2
TK-TITLE
 10
1612.0
 20
0.0
 30
0.0
 41
4.0
 42
4.0
 43
4.0
1001
GENIUS_GENOREF_13
1005
2512
  0
ATTRIB
  5
434F
  8
0
 10
852.63505340244524
 20
14.353370150442659
 30
0.0
 40
12.0
  1
2010/11/05
 72
     1
 11
891.13121933514446
 21
14.353370150442659
 31
0.0
  2
GEN-TITLE-DAT
 70
     0
 74
     1
  0
ATTRIB
  5
4350
  8
0
 10
883.30104154230366
 20
113.1999999999999
 30
0.0
 40
12.0
  1
1:4
 72
     2
 11
900.70104154230376
 21
113.1999999999999
 31
0.0
  2
GEN-TITLE-SCA
 70
     0
 74
     1
  0
ATTRIB
  5
4351
  8
0
 10
909.5490363495619
 20
63.199999999999761
 30
0.0
 40
12.0
  1

 72
     2
 11
909.5490363495619
 21
63.199999999999761
 31
0.0
  2
GEN-TITLE-QTY
 70
     0
 74
     1
  0
ATTRIB
  5
4352
  8
0
 10
1016.152529665883
 20
133.19999999999959
 30
0.0
 40
12.0
  1

  2
GEN-TITLE-MAT2
 70
     0
  0
ATTRIB
  5
4353
  8
0
 10
1016.152529665883
 20
173.19999999999959
 30
0.0
 40
12.0
  1

  2
GEN-TITLE-MAT1
 70
     0
  0
ATTRIB
  5
4354
  8
0
 10
1276.0
 20
7.9999999999998286
 30
0.0
 40
12.0
  1

  2
GEN-TITLE-NR1
 70
     0
  0
ATTRIB
  5
4355
  8
0
 10
1276.0
 20
36.599999999999802
 30
0.0
 40
10.0
  1
ACî^âAâïâ~âVââü[âV
  2
GEN-TITLE-DES2
 70
     0
  0
ATTRIB
  5
4356
  8
0
 10
1275.4299239365871
 20
51.311617302575087
 30
0.0
 40
14.0
  1
AC50-43
  2
GEN-TITLE-DES1
 70
     0
  0
ATTRIB
  5
4357
  8
0
 10
1579.9907632418169
 20
6.820757737580144
 30
0.0
 40
10.0
  1

  2
GEN-TITLE-NR2
 70
     0
  0
SEQEND
  5
434E
  8
0
  0
POINT
  5
2512
  8
0
 10
0.0
 20
0.0
 30
0.0
1001
GENIUS_GENOENT_13
1002
{
1000
MYREF
1005
2512
1002
}
1002
{
1000
GRP
1005
0
1002
}
1001
GENIUS_GENOBJ-N-TIT_13
1002
{
1000
OWNER
1000
GEN
1002
}
1001
GENIUS_GENODEF_13
1002
{
1000
HIER
1070
     1
1002
}
1002
{
1000
MANEDIT
1070
     0
1002
}
1002
{
1000
NOSEL
1070
     0
1002
}
1002
{
1000
BEHIND
1070
     0
1002
}
1002
{
1000
OTHER
1070
     0
1002
}
1002
{
1000
REACTOR
1002
}
1001
GENIUS_GENOLIS_13
1002
{
1000
ENT
1005
2508
1005
24AC
1005
434D
1002
}
1001
GENIUS_GENTITLE_13
1002
{
1000
BORDER
1000
TK-A3
1002
}
1002
{
1000
TITLE
1000
TK-TITLE
1002
}
1002
{
1000
SCALE
1000
1:4
1002
}
1002
{
1000
TITLESTD
1000
ISO
1002
}
1002
{
1000
HRA
1005
24AC
1002
}
1002
{
1000
HTIT
1005
2508
1002
}
1002
{
1000
GENIUSID
1005
2512
1002
}
1002
{
1000
INVTXTID
1005
0
1002
}
1002
{
1000
UNCHG
1002
{
1000
GEN-TITLE-SIZ
1000
GEN-TITLE-SCA
1002
}
1002
}
  0
INSERT
  5
39FE
  8
AM_12
  2
*S19
 10
0.0
 20
0.0
 30
0.0
  0
INSERT
  5
3A05
  8
AM_12
  2
*S20
 10
0.0
 20
0.0
 30
0.0
  0
INSERT
  5
3CC9
  8
AM_5
  2
*S21
 10
0.0
 20
0.0
 30
0.0
  0
INSERT
  5
3CCA
  8
AM_5
  2
*S22
 10
0.0
 20
0.0
 30
0.0
  0
INSERT
  5
3E01
  8
0
  2
*S23
 10
0.0
 20
0.0
 30
0.0
  0
CIRCLE
  5
3E9E
  8
╦_¢
 10
1548.0100581134529
 20
376.0312863744515
 30
0.0
 40
1.649999999999999
  0
CIRCLE
  5
3E9F
  8
╦_¢
 10
1548.0100581134529
 20
376.0312863744515
 30
0.0
 40
3.8500000000000001
  0
LINE
  5
3EA0
  8
╦_¢
 10
1544.1600581134519
 20
407.23128637445137
 30
0.0
 11
1551.8600581134531
 21
407.23128637445137
 31
0.0
  0
LINE
  5
3EA1
  8
╦_¢
 10
1544.1600581134519
 20
407.53128637445133
 30
0.0
 11
1544.1600581134519
 21
407.23128637445137
 31
0.0
  0
LINE
  5
3EA2
  8
╦_¢
 10
1551.8600581134531
 20
407.53128637445133
 30
0.0
 11
1551.8600581134531
 21
407.23128637445137
 31
0.0
  0
LINE
  5
3EA3
  8
╦_¢
 10
1544.1600581134519
 20
407.53128637445133
 30
0.0
 11
1551.8600581134531
 21
407.53128637445133
 31
0.0
  0
INSERT
  5
3F2A
  8
0
  2
A$C2B84214F
 10
1569.910058113453
 20
501.71110699428368
 30
0.0
  0
INSERT
  5
3F43
  8
0
  2
A$C68F65B5E
 10
1548.0100581134529
 20
501.7111069942838
 30
0.0
  0
INSERT
  5
3F5C
  8
0
  2
A$C1ABF00C0
 10
1548.0100581134529
 20
627.65810525103859
 30
0.0
  0
INSERT
  5
3F75
  8
0
  2
A$C6A810163
 10
1571.01005811345
 20
627.65810525103859
 30
0.0
  0
INSERT
  5
3F86
  8
0
  2
A$C09FA6B72
 10
1548.0100581134529
 20
256.46055317818451
 30
0.0
  0
INSERT
  5
3F9B
  8
0
  2
A$C6C857347
 10
1548.0100581134529
 20
274.63597965872742
 30
0.0
  0
INSERT
  5
3FB3
  8
0
  2
A$C11BD6C1B
 10
1565.760058113452
 20
256.46055317818423
 30
0.0
 41
-1.0
  0
LINE
  5
3FBC
  8
╦_¢
 10
1579.210058113453
 20
379.88128637445169
 30
0.0
 11
1579.210058113453
 21
372.18128637445147
 31
0.0
  0
LINE
  5
3FBD
  8
╦_¢
 10
1579.510058113452
 20
379.88128637445169
 30
0.0
 11
1579.210058113453
 21
379.88128637445169
 31
0.0
  0
LINE
  5
3FBE
  8
╦_¢
 10
1579.510058113452
 20
372.18128637445147
 30
0.0
 11
1579.210058113453
 21
372.18128637445147
 31
0.0
  0
LINE
  5
3FBF
  8
╦_¢
 10
1579.510058113452
 20
379.88128637445169
 30
0.0
 11
1579.510058113452
 21
372.18128637445147
 31
0.0
  0
INSERT
  5
3FCA
  8
0
  2
A$C2B84214F
 10
1548.0100581134529
 20
523.61110699428309
 30
0.0
 50
89.999999999999986
  0
INSERT
  5
3FCD
  8
0
  2
A$C6A810163
 10
1548.0100581134529
 20
650.65810525103575
 30
0.0
 50
89.999999999999986
  0
INSERT
  5
3FD2
  8
AM_12
  2
*S24
 10
0.0
 20
0.0
 30
0.0
  0
INSERT
  5
3FD5
  8
AM_5
  2
*S25
 10
0.0
 20
0.0
 30
0.0
  0
INSERT
  5
3FD8
  8
AM_12
  2
*S26
 10
0.0
 20
0.0
 30
0.0
  0
INSERT
  5
3FDB
  8
AM_5
  2
*S27
 10
0.0
 20
0.0
 30
0.0
  0
INSERT
  5
3FDD
  8
AM_12
  2
*S28
 10
0.0
 20
0.0
 30
0.0
  0
INSERT
  5
3FE0
  8
AM_5
  2
*S29
 10
0.0
 20
0.0
 30
0.0
  0
INSERT
  5
3FE3
  8
AM_12
  2
*S30
 10
0.0
 20
0.0
 30
0.0
  0
INSERT
  5
3FE6
  8
AM_5
  2
*S31
 10
0.0
 20
0.0
 30
0.0
  0
LINE
  5
40F0
  8
╝¼_╝
 10
1019.533950999239
 20
791.14283077003529
 30
0.0
 11
1007.533950999239
 21
791.14283077003529
 31
0.0
  0
LINE
  5
40F3
  8
╝¼_╝
 10
1019.533950999238
 20
424.14283077003512
 30
0.0
 11
1019.533950999239
 21
791.14283077003529
 31
0.0
  0
LINE
  5
40F4
  8
╝¼_╝
 10
1007.533950999239
 20
791.14283077003529
 30
0.0
 11
1007.533950999238
 21
424.14283077003512
 31
0.0
  0
LINE
  5
40F5
  8
╝¼_╝0
 10
1009.533950999239
 20
791.14283077003529
 30
0.0
 11
1009.533950999238
 21
424.14283077003512
 31
0.0
  0
ARC
  5
40F6
  8
╝¼_╝
 10
766.14755062076347
 20
272.6332286424244
 30
0.0
 40
2.0
 50
0.0
 51
90.0
  0
LINE
  5
40F7
  8
╝¼_╝
 10
768.14755062076335
 20
262.6332286424244
 30
0.0
 11
766.14755062076347
 21
262.6332286424244
 31
0.0
  0
LINE
  5
40F8
  8
╝¼_╝
 10
768.14755062076335
 20
272.6332286424244
 30
0.0
 11
768.14755062076335
 21
262.6332286424244
 31
0.0
  0
LINE
  5
40F9
  8
╝¼_╝
 10
766.14755062076347
 20
262.6332286424244
 30
0.0
 11
766.14755062076347
 21
272.6332286424244
 31
0.0
  0
LINE
  5
40FA
  8
╝¼_╝Äµòtæõ
 10
765.64755062076392
 20
272.6332286424244
 30
0.0
 11
765.64755062076392
 21
257.6332286424244
 31
0.0
  0
LINE
  5
40FB
  8
╝¼_╝
 10
287.14755062076352
 20
274.63322864242423
 30
0.0
 11
766.14755062076347
 21
274.6332286424244
 31
0.0
  0
LINE
  5
40FC
  8
╝¼_╝
 10
766.14755062076347
 20
272.6332286424244
 30
0.0
 11
287.14755062076352
 21
272.63322864242429
 31
0.0
  0
LINE
  5
40FD
  8
╝¼_╝Äµòtæõ
 10
287.64755062076352
 20
272.63322864242423
 30
0.0
 11
765.64755062076392
 21
272.6332286424244
 31
0.0
  0
LINE
  5
40FE
  8
╝¼_╝Äµòtæõ
 10
765.64755062076392
 20
257.6332286424244
 30
0.0
 11
287.64755062076352
 21
257.6332286424244
 31
0.0
  0
LINE
  5
40FF
  8
╝¼_╝Äµòtæõ
 10
287.64755062076352
 20
259.6332286424244
 30
0.0
 11
765.64755062076392
 21
259.6332286424244
 31
0.0
  0
LINE
  5
4100
  8
╝¼_╝Äµòtæõ0
 10
765.64755062076392
 20
270.6332286424244
 30
0.0
 11
287.64755062076352
 21
270.6332286424244
 31
0.0
  0
LINE
  5
4101
  8
╝¼_╝Äµòtæõ
 10
287.64755062076352
 20
272.6332286424244
 30
0.0
 11
287.64755062076352
 21
257.6332286424244
 31
0.0
  0
LINE
  5
4102
  8
╝¼_╝
 10
1019.533950999238
 20
424.14283077003512
 30
0.0
 11
1007.533950999238
 21
424.14283077003512
 31
0.0
  0
CIRCLE
  5
4103
  8
╝¼_╝Äµòtæõ
 10
758.64755062076347
 20
418.14283077003512
 30
0.0
 40
2.25
  0
LINE
  5
4104
  8
╝¼_╝Äµòtæõ
 10
765.64755062076335
 20
412.14283077003518
 30
0.0
 11
765.64755062076335
 21
436.14283077003512
 31
0.0
  0
CIRCLE
  5
4105
  8
╝¼_╝Äµòtæõ0
 10
703.64755062076347
 20
431.14283077003512
 30
0.0
 40
1.5
  0
LINE
  5
4106
  8
╝¼_╝Äµòtæõ
 10
287.64755062076352
 20
412.14283077003529
 30
0.0
 11
765.64755062076335
 21
412.14283077003518
 31
0.0
  0
LINE
  5
4107
  8
╝¼_╝Äµòtæõ
 10
287.64755062076352
 20
425.14283077003518
 30
0.0
 11
765.64755062076335
 21
425.14283077003518
 31
0.0
  0
LINE
  5
4108
  8
╝¼_╝Äµòtæõ
 10
765.64755062076335
 20
436.14283077003512
 30
0.0
 11
287.64755062076352
 21
436.14283077003512
 31
0.0
  0
LINE
  5
4109
  8
╝¼_╝Äµòtæõ0
 10
287.64755062076352
 20
427.14283077003512
 30
0.0
 11
765.64755062076335
 21
427.14283077003512
 31
0.0
  0
CIRCLE
  5
410A
  8
╝¼_╝Äµòtæõ0
 10
349.64755062076352
 20
431.14283077003512
 30
0.0
 40
1.5
  0
CIRCLE
  5
410B
  8
╝¼_╝Äµòtæõ
 10
294.64755062076352
 20
418.14283077003512
 30
0.0
 40
2.25
  0
LINE
  5
410C
  8
╝¼_╝Äµòtæõ
 10
287.64755062076352
 20
412.14283077003518
 30
0.0
 11
287.64755062076352
 21
436.14283077003512
 31
0.0
  0
LINE
  5
410D
  8
╝¼_╝
 10
351.89755062076352
 20
786.39283077003574
 30
0.0
 11
351.89755062076352
 21
782.89283077003574
 31
0.0
  0
LINE
  5
410E
  8
╝¼_╝
 10
347.39755062076352
 20
782.89283077003574
 30
0.0
 11
347.39755062076352
 21
786.39283077003574
 31
0.0
  0
ARC
  5
410F
  8
╝¼_╝
 10
349.64755062076352
 20
786.39283077003574
 30
0.0
 40
2.2499999999999858
 50
0.0
 51
180.0
  0
ARC
  5
4110
  8
╝¼_╝
 10
349.64755062076352
 20
782.89283077003574
 30
0.0
 40
2.2499999999999889
 50
180.0
 51
0.0
  0
LINE
  5
4111
  8
╝¼_╝
 10
351.89755062076352
 20
428.89283077003518
 30
0.0
 11
351.89755062076352
 21
432.3928307700354
 31
0.0
  0
LINE
  5
4112
  8
╝¼_╝
 10
347.39755062076352
 20
432.3928307700354
 30
0.0
 11
347.39755062076352
 21
428.89283077003518
 31
0.0
  0
ARC
  5
4113
  8
╝¼_╝
 10
349.64755062076352
 20
432.3928307700354
 30
0.0
 40
2.2499999999999889
 50
0.0
 51
180.0
  0
ARC
  5
4114
  8
╝¼_╝
 10
349.64755062076352
 20
428.89283077003518
 30
0.0
 40
2.2499999999999858
 50
180.0
 51
0.0
  0
ARC
  5
4115
  8
╝¼_╝
 10
287.14755062076352
 20
272.6332286424244
 30
0.0
 40
2.0
 50
90.0
 51
180.0
  0
LINE
  5
4116
  8
╝¼_╝
 10
285.14755062076352
 20
262.6332286424244
 30
0.0
 11
287.14755062076352
 21
262.6332286424244
 31
0.0
  0
LINE
  5
4117
  8
╝¼_╝
 10
287.14755062076352
 20
262.6332286424244
 30
0.0
 11
287.14755062076352
 21
272.6332286424244
 31
0.0
  0
LINE
  5
4118
  8
╝¼_╝
 10
285.14755062076352
 20
272.6332286424244
 30
0.0
 11
285.14755062076352
 21
262.6332286424244
 31
0.0
  0
LINE
  5
4119
  8
╝¼_╝0
 10
287.14755062076352
 20
424.14283077003557
 30
0.0
 11
287.14755062076352
 21
791.14283077003574
 31
0.0
  0
LINE
  5
411A
  8
╝¼_╝
 10
285.14755062076352
 20
791.14283077003574
 30
0.0
 11
285.14755062076352
 21
424.14283077003557
 31
0.0
  0
LINE
  5
411B
  8
╝¼_╝
 10
285.14755062076352
 20
791.14283077003529
 30
0.0
 11
768.14755062076335
 21
791.14283077003574
 31
0.0
  0
ARC
  5
411C
  8
╝¼_╝
 10
703.64755062076347
 20
782.89283077003574
 30
0.0
 40
2.2499999999999889
 50
180.0
 51
0.0
  0
ARC
  5
411D
  8
╝¼_╝
 10
703.64755062076347
 20
786.39283077003574
 30
0.0
 40
2.2499999999999858
 50
0.0
 51
180.0
  0
LINE
  5
411E
  8
╝¼_╝
 10
705.89755062076347
 20
782.89283077003574
 30
0.0
 11
705.89755062076347
 21
786.39283077003574
 31
0.0
  0
LINE
  5
411F
  8
╝¼_╝
 10
701.39755062076347
 20
786.39283077003574
 30
0.0
 11
701.39755062076347
 21
782.89283077003574
 31
0.0
  0
LINE
  5
4120
  8
╝¼_╝
 10
768.14755062076335
 20
791.14283077003574
 30
0.0
 11
768.14755062076335
 21
424.14283077003529
 31
0.0
  0
LINE
  5
4121
  8
╝¼_╝0
 10
766.14755062076347
 20
424.14283077003529
 30
0.0
 11
766.14755062076347
 21
791.14283077003574
 31
0.0
  0
LINE
  5
4122
  8
╝¼_╝
 10
701.39755062076347
 20
428.89283077003512
 30
0.0
 11
701.39755062076347
 21
432.39283077003512
 31
0.0
  0
LINE
  5
4123
  8
╝¼_╝
 10
705.89755062076347
 20
432.39283077003512
 30
0.0
 11
705.89755062076347
 21
428.89283077003512
 31
0.0
  0
ARC
  5
4124
  8
╝¼_╝
 10
703.64755062076347
 20
428.89283077003512
 30
0.0
 40
2.2499999999999858
 50
180.0
 51
0.0
  0
ARC
  5
4125
  8
╝¼_╝
 10
703.64755062076347
 20
432.39283077003512
 30
0.0
 40
2.2499999999999889
 50
0.0
 51
180.0
  0
LINE
  5
4126
  8
╝¼_╝
 10
285.14755062076352
 20
424.14283077003557
 30
0.0
 11
768.14755062076335
 21
424.14283077003529
 31
0.0
  0
LINE
  5
4127
  8
╝¼_╝Äµòtæõ
 10
287.64755062076352
 20
803.14283077003574
 30
0.0
 11
287.64755062076352
 21
779.14283077003574
 31
0.0
  0
CIRCLE
  5
4128
  8
╝¼_╝Äµòtæõ
 10
294.64755062076352
 20
797.14283077003574
 30
0.0
 40
2.25
  0
CIRCLE
  5
4129
  8
╝¼_╝Äµòtæõ0
 10
349.64755062076352
 20
784.14283077003574
 30
0.0
 40
1.5
  0
CIRCLE
  5
412A
  8
╝¼_╝Äµòtæõ0
 10
703.64755062076347
 20
784.14283077003574
 30
0.0
 40
1.5
  0
LINE
  5
4135
  8
╝¼_╝Äµòtæõ
 10
765.64755062076335
 20
803.14283077003574
 30
0.0
 11
765.64755062076335
 21
779.14283077003574
 31
0.0
  0
CIRCLE
  5
4136
  8
╝¼_╝Äµòtæõ
 10
758.64755062076347
 20
797.14283077003574
 30
0.0
 40
2.25
  0
LINE
  5
4137
  8
╝¼_╝Äµòtæõ
 10
765.64755062076335
 20
779.14283077003574
 30
0.0
 11
287.64755062076352
 21
779.14283077003574
 31
0.0
  0
LINE
  5
4138
  8
╝¼_╝Äµòtæõ0
 10
287.64755062076352
 20
788.14283077003574
 30
0.0
 11
765.64755062076335
 21
788.14283077003574
 31
0.0
  0
LINE
  5
4139
  8
╝¼_╝Äµòtæõ
 10
287.64755062076352
 20
790.14283077003574
 30
0.0
 11
765.64755062076335
 21
790.14283077003574
 31
0.0
  0
LINE
  5
413A
  8
╝¼_╝Äµòtæõ
 10
287.64755062076352
 20
803.14283077003574
 30
0.0
 11
765.64755062076335
 21
803.14283077003574
 31
0.0
  0
DIMENSION
  5
413B
  8
AM_5
  2
*D16
 10
768.1475506207637
 20
863.14283177003608
 30
0.0
 11
526.6475506207637
 21
876.14283177003597
 31
0.0
 70
     0
 13
285.14755062076358
 23
791.14283077003529
 33
0.0
 14
768.1475506207637
 24
791.14283077003574
 34
0.0
1001
ACAD
1000
DSTYLE
1002
{
1070
    40
1040
4.0
1070
   272
1070
     3
1070
   274
1070
     4
1070
   284
1070
     0
1070
     6
1000
OPEN30
1070
     7
1000
OPEN30
1002
}
  0
DIMENSION
  5
413C
  8
AM_5
  2
*D17
 10
225.14755062076279
 20
424.14283077003557
 30
0.0
 11
212.14755062076279
 21
607.64283077003574
 31
0.0
 70
     0
 13
285.14755062076358
 23
791.14283077003574
 33
0.0
 14
285.14755062076318
 24
424.14283077003557
 34
0.0
 50
90.0
1001
ACAD
1000
DSTYLE
1002
{
1070
    40
1040
4.0
1070
   272
1070
     3
1070
   274
1070
     4
1070
   284
1070
     0
1070
     6
1000
OPEN30
1070
     7
1000
OPEN30
1002
}
  0
DIMENSION
  5
413D
  8
AM_5
  2
*D18
 10
1024.5339509992391
 20
851.14283077003518
 30
0.0
 11
1016.033950999239
 21
851.14283077003518
 31
0.0
 70
   128
 13
1007.533950999239
 23
791.14283077003529
 33
0.0
 14
1024.5339509992391
 24
803.64283077003574
 34
0.0
1001
ACAD
1000
DSTYLE
1002
{
1070
    40
1040
4.0
1070
   272
1070
     3
1070
   274
1070
     4
1070
   284
1070
     0
1070
     6
1000
OPEN30
1070
     7
1000
OPEN30
1002
}
  0
POLYLINE
  5
41EE
  8
╝¼_╝Äµòtæõ
 66
     1
 10
0.0
 20
0.0
 30
0.0
 70
     1
  0
VERTEX
  5
468B
  8
╝¼_╝Äµòtæõ
 10
1009.533950999238
 20
779.14283077003574
 30
0.0
  0
VERTEX
  5
468C
  8
╝¼_╝Äµòtæõ
 10
1009.533950999238
 20
788.14283077003574
 30
0.0
 42
-0.4142135623730951
  0
VERTEX
  5
468D
  8
╝¼_╝Äµòtæõ
 10
1011.533950999238
 20
790.14283077003574
 30
0.0
  0
VERTEX
  5
468E
  8
╝¼_╝Äµòtæõ
 10
1022.533950999238
 20
790.14283077003552
 30
0.0
  0
VERTEX
  5
468F
  8
╝¼_╝Äµòtæõ
 10
1022.533950999239
 20
803.14283077003574
 30
0.0
  0
VERTEX
  5
4690
  8
╝¼_╝Äµòtæõ
 10
1024.5339509992391
 20
803.14283077003574
 30
0.0
  0
VERTEX
  5
4691
  8
╝¼_╝Äµòtæõ
 10
1024.5339509992391
 20
790.14283077003552
 30
0.0
 42
-0.4142135623730951
  0
VERTEX
  5
4692
  8
╝¼_╝Äµòtæõ
 10
1022.533950999238
 20
788.14283077003552
 30
0.0
  0
VERTEX
  5
4693
  8
╝¼_╝Äµòtæõ
 10
1011.533950999238
 20
788.14283077003574
 30
0.0
  0
VERTEX
  5
4694
  8
╝¼_╝Äµòtæõ
 10
1011.533950999238
 20
779.14283077003574
 30
0.0
  0
SEQEND
  5
4695
  8
╝¼_╝Äµòtæõ
  0
POLYLINE
  5
41EF
  8
╝¼_╝Äµòtæõ
 66
     1
 10
0.0
 20
0.0
 30
0.0
 70
     1
  0
VERTEX
  5
4696
  8
╝¼_╝Äµòtæõ
 10
1009.533950999238
 20
436.14283077003512
 30
0.0
  0
VERTEX
  5
4697
  8
╝¼_╝Äµòtæõ
 10
1009.533950999238
 20
427.14283077003512
 30
0.0
 42
0.4142135623730951
  0
VERTEX
  5
4698
  8
╝¼_╝Äµòtæõ
 10
1011.533950999238
 20
425.14283077003518
 30
0.0
  0
VERTEX
  5
4699
  8
╝¼_╝Äµòtæõ
 10
1022.533950999238
 20
425.14283077003529
 30
0.0
  0
VERTEX
  5
469A
  8
╝¼_╝Äµòtæõ
 10
1022.533950999238
 20
412.14283077003518
 30
0.0
  0
VERTEX
  5
469B
  8
╝¼_╝Äµòtæõ
 10
1024.5339509992391
 20
412.14283077003518
 30
0.0
  0
VERTEX
  5
469C
  8
╝¼_╝Äµòtæõ
 10
1024.533950999238
 20
425.14283077003529
 30
0.0
 42
0.4142135623730951
  0
VERTEX
  5
469D
  8
╝¼_╝Äµòtæõ
 10
1022.533950999238
 20
427.1428307700354
 30
0.0
  0
VERTEX
  5
469E
  8
╝¼_╝Äµòtæõ
 10
1011.533950999238
 20
427.14283077003512
 30
0.0
  0
VERTEX
  5
469F
  8
╝¼_╝Äµòtæõ
 10
1011.533950999238
 20
436.14283077003512
 30
0.0
  0
SEQEND
  5
46A0
  8
╝¼_╝Äµòtæõ
  0
INSERT
  5
4362
  8
0
  2
*U77
 10
0.0
 20
0.0
 30
0.0
  0
INSERT
  5
4363
  8
0
  2
*U78
 10
0.0
 20
0.0
 30
0.0
  0
INSERT
  5
4364
  8
0
  2
*U79
 10
0.0
 20
0.0
 30
0.0
  0
CIRCLE
  5
444A
  8
╝¼_╝Äµòtæõ
 10
703.64755062076347
 20
431.14283077003512
 30
0.0
 40
1.25
  0
CIRCLE
  5
4453
  8
╝¼_╝Äµòtæõ
 10
349.64755062076352
 20
431.14283077003512
 30
0.0
 40
1.25
  0
CIRCLE
  5
4465
  8
╝¼_╝Äµòtæõ
 10
349.64755062076352
 20
784.14283077003574
 30
0.0
 40
1.25
  0
CIRCLE
  5
446E
  8
╝¼_╝Äµòtæõ
 10
703.64755062076347
 20
784.14283077003574
 30
0.0
 40
1.25
  0
ENDSEC
  0
EOF
